  0
SECTION
  2
HEADER
  9
$ACADVER
  1
AC1014
  9
$ACADMAINTVER
 70
     0
  9
$DWGCODEPAGE
  3
ANSI_1252
  9
$INSBASE
 10
93.894301
 20
236.06014
 30
0.0
  9
$EXTMIN
 10
-8.588075
 20
-6.697791
 30
0.0
  9
$EXTMAX
 10
62.4919
 20
45.802697
 30
0.0
  9
$LIMMIN
 10
0.0
 20
0.0
  9
$LIMMAX
 10
210.0
 20
297.0
  9
$ORTHOMODE
 70
     1
  9
$REGENMODE
 70
     1
  9
$FILLMODE
 70
     1
  9
$QTEXTMODE
 70
     0
  9
$MIRRTEXT
 70
     0
  9
$DRAGMODE
 70
     1
  9
$LTSCALE
 40
7.0
  9
$OSMODE
 70
  4095
  9
$ATTMODE
 70
     1
  9
$TEXTSIZE
 40
2.5
  9
$TRACEWID
 40
0.05
  9
$TEXTSTYLE
  7
STANDARD
  9
$CLAYER
  8
COTATION1
  9
$CELTYPE
  6
BYLAYER
  9
$CECOLOR
 62
   256
  9
$CELTSCALE
 40
1.0
  9
$DELOBJ
 70
     1
  9
$DISPSILH
 70
     0
  9
$DIMSCALE
 40
1.0
  9
$DIMASZ
 40
3.0
  9
$DIMEXO
 40
0.0625
  9
$DIMDLI
 40
0.38
  9
$DIMRND
 40
0.01
  9
$DIMDLE
 40
0.0
  9
$DIMEXE
 40
0.18
  9
$DIMTP
 40
0.0
  9
$DIMTM
 40
0.0
  9
$DIMTXT
 40
2.5
  9
$DIMCEN
 40
0.09
  9
$DIMTSZ
 40
0.0
  9
$DIMTOL
 70
     0
  9
$DIMLIM
 70
     0
  9
$DIMTIH
 70
     0
  9
$DIMTOH
 70
     0
  9
$DIMSE1
 70
     0
  9
$DIMSE2
 70
     0
  9
$DIMTAD
 70
     1
  9
$DIMZIN
 70
    12
  9
$DIMBLK
  1

  9
$DIMASO
 70
     1
  9
$DIMSHO
 70
     0
  9
$DIMPOST
  1

  9
$DIMAPOST
  1

  9
$DIMALT
 70
     0
  9
$DIMALTD
 70
     2
  9
$DIMALTF
 40
25.4
  9
$DIMLFAC
 40
1.0
  9
$DIMTOFL
 70
     1
  9
$DIMTVP
 40
0.0
  9
$DIMTIX
 70
     0
  9
$DIMSOXD
 70
     0
  9
$DIMSAH
 70
     0
  9
$DIMBLK1
  1

  9
$DIMBLK2
  1

  9
$DIMSTYLE
  2
SC_STAND
  9
$DIMCLRD
 70
     0
  9
$DIMCLRE
 70
     0
  9
$DIMCLRT
 70
     0
  9
$DIMTFAC
 40
1.0
  9
$DIMGAP
 40
1.0
  9
$DIMJUST
 70
     0
  9
$DIMSD1
 70
     0
  9
$DIMSD2
 70
     0
  9
$DIMTOLJ
 70
     1
  9
$DIMTZIN
 70
    12
  9
$DIMALTZ
 70
    12
  9
$DIMALTTZ
 70
    12
  9
$DIMFIT
 70
     5
  9
$DIMUPT
 70
     0
  9
$DIMUNIT
 70
     2
  9
$DIMDEC
 70
     3
  9
$DIMTDEC
 70
     3
  9
$DIMALTU
 70
     2
  9
$DIMALTTD
 70
     2
  9
$DIMTXSTY
  7
STANDARD
  9
$DIMAUNIT
 70
     0
  9
$LUNITS
 70
     2
  9
$LUPREC
 70
     3
  9
$SKETCHINC
 40
0.1
  9
$FILLETRAD
 40
0.0625
  9
$AUNITS
 70
     0
  9
$AUPREC
 70
     0
  9
$MENU
  1
ACAD
  9
$ELEVATION
 40
0.0
  9
$PELEVATION
 40
0.0
  9
$THICKNESS
 40
0.0
  9
$LIMCHECK
 70
     0
  9
$BLIPMODE
 70
     1
  9
$CHAMFERA
 40
0.0
  9
$CHAMFERB
 40
0.0
  9
$CHAMFERC
 40
0.0
  9
$CHAMFERD
 40
0.0
  9
$SKPOLY
 70
     0
  9
$TDCREATE
 40
2450953.590960648
  9
$TDUPDATE
 40
2453790.366267176
  9
$TDINDWG
 40
0.0159323380
  9
$TDUSRTIMER
 40
0.0159323380
  9
$USRTIMER
 70
     1
  9
$ANGBASE
 50
0.0
  9
$ANGDIR
 70
     0
  9
$PDMODE
 70
     0
  9
$PDSIZE
 40
0.0
  9
$PLINEWID
 40
0.0
  9
$COORDS
 70
     0
  9
$SPLFRAME
 70
     0
  9
$SPLINETYPE
 70
     6
  9
$SPLINESEGS
 70
     8
  9
$ATTDIA
 70
     0
  9
$ATTREQ
 70
     1
  9
$HANDLING
 70
     1
  9
$HANDSEED
  5
1CEA
  9
$SURFTAB1
 70
     6
  9
$SURFTAB2
 70
     6
  9
$SURFTYPE
 70
     6
  9
$SURFU
 70
     6
  9
$SURFV
 70
     6
  9
$UCSNAME
  2

  9
$UCSORG
 10
0.0
 20
0.0
 30
0.0
  9
$UCSXDIR
 10
1.0
 20
0.0
 30
0.0
  9
$UCSYDIR
 10
0.0
 20
1.0
 30
0.0
  9
$PUCSNAME
  2

  9
$PUCSORG
 10
0.0
 20
0.0
 30
0.0
  9
$PUCSXDIR
 10
1.0
 20
0.0
 30
0.0
  9
$PUCSYDIR
 10
0.0
 20
1.0
 30
0.0
  9
$USERI1
 70
     0
  9
$USERI2
 70
     0
  9
$USERI3
 70
     0
  9
$USERI4
 70
     0
  9
$USERI5
 70
     0
  9
$USERR1
 40
0.0
  9
$USERR2
 40
0.0
  9
$USERR3
 40
0.0
  9
$USERR4
 40
0.0
  9
$USERR5
 40
0.0
  9
$WORLDVIEW
 70
     1
  9
$SHADEDGE
 70
     3
  9
$SHADEDIF
 70
    70
  9
$TILEMODE
 70
     1
  9
$MAXACTVP
 70
    32
  9
$PINSBASE
 10
0.0
 20
0.0
 30
0.0
  9
$PLIMCHECK
 70
     0
  9
$PEXTMIN
 10
-3.174999
 20
-3.175
 30
0.0
  9
$PEXTMAX
 10
203.812116
 20
370.276807
 30
0.0
  9
$PLIMMIN
 10
-3.175
 20
-3.175
  9
$PLIMMAX
 10
203.812115
 20
370.276807
  9
$UNITMODE
 70
     0
  9
$VISRETAIN
 70
     0
  9
$PLINEGEN
 70
     0
  9
$PSLTSCALE
 70
     1
  9
$TREEDEPTH
 70
  3020
  9
$PICKSTYLE
 70
     1
  9
$CMLSTYLE
  2
STANDARD
  9
$CMLJUST
 70
     0
  9
$CMLSCALE
 40
1.0
  9
$PROXYGRAPHICS
 70
     1
  9
$MEASUREMENT
 70
     0
  0
ENDSEC
  0
SECTION
  2
CLASSES
  0
CLASS
  1
DICTIONARYVAR
  2
AcDbDictionaryVar
  3
"AutoCAD"
 90
        0
280
     0
281
     0
  0
CLASS
  1
HATCH
  2
AcDbHatch
  3
"ACAD_SEDONA"
 90
        0
280
     0
281
     1
  0
CLASS
  1
LWPOLYLINE
  2
AcDbPolyline
  3
"AutoCAD"
 90
        0
280
     0
281
     1
  0
ENDSEC
  0
SECTION
  2
TABLES
  0
TABLE
  2
VPORT
  5
F4
100
AcDbSymbolTable
 70
     1
  0
VPORT
  5
1CE6
100
AcDbSymbolTableRecord
100
AcDbViewportTableRecord
  2
*ACTIVE
 70
     0
 10
0.0
 20
0.0
 11
1.0
 21
1.0
 12
26.95015
 22
19.551233
 13
0.0
 23
0.0
 14
1.0
 24
1.0
 15
10.0
 25
10.0
 16
0.0
 26
0.0
 36
1.0
 17
0.0
 27
0.0
 37
0.0
 40
52.917837
 41
1.643603
 42
50.0
 43
0.0
 44
0.0
 50
0.0
 51
0.0
 71
     0
 72
   100
 73
     1
 74
     1
 75
     0
 76
     1
 77
     0
 78
     0
  0
ENDTAB
  0
TABLE
  2
LTYPE
  5
F1
100
AcDbSymbolTable
 70
     1
  0
LTYPE
  5
FD
100
AcDbSymbolTableRecord
100
AcDbLinetypeTableRecord
  2
BYBLOCK
 70
     0
  3

 72
    65
 73
     0
 40
0.0
  0
LTYPE
  5
FE
100
AcDbSymbolTableRecord
100
AcDbLinetypeTableRecord
  2
BYLAYER
 70
     0
  3

 72
    65
 73
     0
 40
0.0
  0
LTYPE
  5
FF
100
AcDbSymbolTableRecord
100
AcDbLinetypeTableRecord
  2
CONTINUOUS
 70
     0
  3
Solid line
 72
    65
 73
     0
 40
0.0
  0
ENDTAB
  0
TABLE
  2
LAYER
  5
EE
100
AcDbSymbolTable
 70
     5
  0
LAYER
  5
FA
100
AcDbSymbolTableRecord
100
AcDbLayerTableRecord
  2
0
 70
     0
 62
     7
  6
CONTINUOUS
  0
LAYER
  5
12C
100
AcDbSymbolTableRecord
100
AcDbLayerTableRecord
  2
ALPHA
 70
     0
 62
   255
  6
CONTINUOUS
  0
LAYER
  5
12F
100
AcDbSymbolTableRecord
100
AcDbLayerTableRecord
  2
COTATION1
 70
     0
 62
     2
  6
CONTINUOUS
  0
LAYER
  5
13B
100
AcDbSymbolTableRecord
100
AcDbLayerTableRecord
  2
ASHADE
 70
     0
 62
     7
  6
CONTINUOUS
  0
LAYER
  5
13E
100
AcDbSymbolTableRecord
100
AcDbLayerTableRecord
  2
DEFPOINTS
 70
     0
 62
     7
  6
CONTINUOUS
  0
ENDTAB
  0
TABLE
  2
STYLE
  5
EF
100
AcDbSymbolTable
 70
     1
  0
STYLE
  5
FB
100
AcDbSymbolTableRecord
100
AcDbTextStyleTableRecord
  2
STANDARD
 70
     0
 40
0.0
 41
1.0
 50
0.0
 71
     0
 42
2.5
  3
txt
  4

  0
ENDTAB
  0
TABLE
  2
VIEW
  5
F2
100
AcDbSymbolTable
 70
     0
  0
ENDTAB
  0
TABLE
  2
UCS
  5
F3
100
AcDbSymbolTable
 70
     0
  0
ENDTAB
  0
TABLE
  2
APPID
  5
F5
100
AcDbSymbolTable
 70
     3
  0
APPID
  5
FC
100
AcDbSymbolTableRecord
100
AcDbRegAppTableRecord
  2
ACAD
 70
     0
  0
APPID
  5
127
100
AcDbSymbolTableRecord
100
AcDbRegAppTableRecord
  2
AVE_RENDER
 70
     0
  0
APPID
  5
128
100
AcDbSymbolTableRecord
100
AcDbRegAppTableRecord
  2
AVE_MATERIAL
 70
     0
  0
ENDTAB
  0
TABLE
  2
DIMSTYLE
  5
F6
100
AcDbSymbolTable
 70
     2
  0
DIMSTYLE
105
129
100
AcDbSymbolTableRecord
100
AcDbDimStyleTableRecord
  2
STANDARD
 70
     0
  3

  4

  5

  6

  7

 40
1.0
 41
0.18
 42
0.0625
 43
0.38
 44
0.18
 45
0.0
 46
0.0
 47
0.0
 48
0.0
140
0.18
141
0.09
142
0.0
143
25.4
144
1.0
145
0.0
146
1.0
147
0.09
 71
     0
 72
     0
 73
     1
 74
     1
 75
     0
 76
     0
 77
     0
 78
     0
170
     0
171
     2
172
     0
173
     0
174
     0
175
     0
176
     0
177
     0
178
     0
270
     2
271
     3
272
     3
273
     2
274
     2
340
FB
275
     0
280
     0
281
     0
282
     0
283
     1
284
    12
285
    12
286
    12
287
     5
288
     0
  0
DIMSTYLE
105
12A
102
{ACAD_REACTORS
330
1C03
330
1C31
330
1C6A
330
1CE4
102
}
100
AcDbSymbolTableRecord
100
AcDbDimStyleTableRecord
  2
SC_STAND
 70
     0
  3

  4

  5

  6

  7

 40
1.0
 41
3.0
 42
0.0625
 43
0.38
 44
0.18
 45
0.01
 46
0.0
 47
0.0
 48
0.0
140
2.5
141
0.09
142
0.0
143
25.4
144
1.0
145
0.0
146
1.0
147
1.0
 71
     0
 72
     0
 73
     0
 74
     0
 75
     0
 76
     0
 77
     1
 78
    12
170
     0
171
     2
172
     1
173
     0
174
     0
175
     0
176
     0
177
     0
178
     0
270
     2
271
     3
272
     3
273
     2
274
     2
340
FB
275
     0
280
     0
281
     0
282
     0
283
     1
284
    12
285
    12
286
    12
287
     5
288
     0
  0
ENDTAB
  0
TABLE
  2
BLOCK_RECORD
  5
ED
100
AcDbSymbolTable
 70
     7
  0
BLOCK_RECORD
  5
103
100
AcDbSymbolTableRecord
100
AcDbBlockTableRecord
  2
*MODEL_SPACE
  0
BLOCK_RECORD
  5
100
100
AcDbSymbolTableRecord
100
AcDbBlockTableRecord
  2
*PAPER_SPACE
  0
BLOCK_RECORD
  5
108
100
AcDbSymbolTableRecord
100
AcDbBlockTableRecord
  2
AVE_RENDER
  0
BLOCK_RECORD
  5
109
100
AcDbSymbolTableRecord
100
AcDbBlockTableRecord
  2
AVE_GLOBAL
  0
BLOCK_RECORD
  5
10A
100
AcDbSymbolTableRecord
100
AcDbBlockTableRecord
  2
SCH_IS
  0
BLOCK_RECORD
  5
1BF7
100
AcDbSymbolTableRecord
100
AcDbBlockTableRecord
  2
*D3
  0
BLOCK_RECORD
  5
1C25
100
AcDbSymbolTableRecord
100
AcDbBlockTableRecord
  2
*D4
  0
BLOCK_RECORD
  5
1C5E
100
AcDbSymbolTableRecord
100
AcDbBlockTableRecord
  2
*D5
  0
BLOCK_RECORD
  5
1CD8
100
AcDbSymbolTableRecord
100
AcDbBlockTableRecord
  2
*D6
  0
ENDTAB
  0
ENDSEC
  0
SECTION
  2
BLOCKS
  0
BLOCK
  5
141
100
AcDbEntity
  8
0
100
AcDbBlockBegin
  2
*MODEL_SPACE
 70
     0
 10
0.0
 20
0.0
 30
0.0
  3
*MODEL_SPACE
  1

  0
ENDBLK
  5
142
100
AcDbEntity
  8
0
100
AcDbBlockEnd
  0
BLOCK
  5
13F
100
AcDbEntity
 67
     1
  8
0
100
AcDbBlockBegin
  2
*PAPER_SPACE
 70
     0
 10
0.0
 20
0.0
 30
0.0
  3
*PAPER_SPACE
  1

  0
ENDBLK
  5
140
100
AcDbEntity
 67
     1
  8
0
100
AcDbBlockEnd
  0
BLOCK
  5
8D
100
AcDbEntity
  8
0
100
AcDbBlockBegin
  2
AVE_RENDER
 70
     0
 10
0.0
 20
0.0
 30
0.0
  3
AVE_RENDER
  1
AVE_RENDER
  0
ENDBLK
  5
8E
100
AcDbEntity
  8
0
100
AcDbBlockEnd
  0
BLOCK
  5
90
100
AcDbEntity
  8
0
100
AcDbBlockBegin
  2
AVE_GLOBAL
 70
     0
 10
0.0
 20
0.0
 30
0.0
  3
AVE_GLOBAL
  1
AVE_GLOBAL
  0
ENDBLK
  5
91
100
AcDbEntity
  8
0
100
AcDbBlockEnd
  0
BLOCK
  5
C9
100
AcDbEntity
  8
0
100
AcDbBlockBegin
  2
SCH_IS
 70
     0
 10
0.0
 20
0.0
 30
0.0
  3
SCH_IS
  1

  0
INSERT
  5
C0
100
AcDbEntity
  8
ASHADE
 62
     1
100
AcDbBlockReference
  2
AVE_RENDER
 10
0.0
 20
0.0
 30
0.0
1001
AVE_RENDER
1002
{
1070
     6
1000
Pref
1070
    50
1070
    20
1070
     1
1070
     0
1000

1070
    10
1070
     1
1070
    30
1040
25.4
1070
     1
1040
0.3
1040
0.7
1040
0.0
1040
10.0
1010
-1.0
1020
-1.0
1030
-1.0
1040
0.3
1070
    49
1070
     0
1070
     0
1010
1.0
1020
1.0
1030
1.0
1040
45.0
1070
     1
1070
     0
1000
WCS
1040
0.0
1002
}
  0
INSERT
  5
C1
100
AcDbEntity
  8
ASHADE
 62
     3
100
AcDbBlockReference
  2
AVE_RENDER
 10
0.0
 20
0.0
 30
0.0
1001
AVE_RENDER
1002
{
1070
     0
1000
Full Opt
1070
     0
1070
     1
1070
     1
1070
     1
1070
     0
1070
     0
1070
     0
1070
     1
1070
     1
1040
0.0001
1040
0.0001
1002
}
  0
INSERT
  5
C2
100
AcDbEntity
  8
ASHADE
 62
     4
100
AcDbBlockReference
  2
AVE_RENDER
 10
0.0
 20
0.0
 30
0.0
1001
AVE_RENDER
1002
{
1070
     0
1000
Quick Opt
1070
     0
1070
     1
1070
     1
1070
     1
1070
     0
1070
     0
1070
     1
1002
}
  0
INSERT
  5
C3
100
AcDbEntity
  8
ASHADE
 62
     5
100
AcDbBlockReference
  2
AVE_RENDER
 10
0.0
 20
0.0
 30
0.0
1001
AVE_RENDER
1002
{
1070
     1
1000
Scanl Opt
1070
     2
1070
     0
1070
     2
1040
2.0
1040
4.0
1070
     0
1070
     1
1070
     0
1040
0.03
1002
}
  0
INSERT
  5
C4
100
AcDbEntity
  8
ASHADE
 62
     6
100
AcDbBlockReference
  2
AVE_RENDER
 10
0.0
 20
0.0
 30
0.0
1001
AVE_RENDER
1002
{
1070
     2
1000
Raytr Opt
1070
     2
1070
     0
1070
     2
1040
2.0
1040
4.0
1070
     0
1070
     1
1070
     1
1040
0.03
1070
     3
1040
0.03
1002
}
  0
INSERT
  5
C5
100
AcDbEntity
  8
ASHADE
 62
     7
100
AcDbBlockReference
  2
AVE_RENDER
 10
0.0
 20
0.0
 30
0.0
1001
AVE_RENDER
1002
{
1070
     0
1000
RFile Opt
1070
     5
1070
   640
1070
   480
1070
 10000
1070
     3
1070
    32
1070
    24
1070
     0
1070
     0
1070
     0
1070
     1
1070
     0
1070
     0
1070
     0
1002
}
  0
INSERT
  5
C6
100
AcDbEntity
  8
ASHADE
 62
     8
100
AcDbBlockReference
  2
AVE_RENDER
 10
0.0
 20
0.0
 30
0.0
1001
AVE_RENDER
1002
{
1070
     0
1000
Fog Opt
1070
     0
1070
     0
1040
0.0
1040
1.0
1040
0.0
1040
1.0
1010
0.5
1020
0.5
1030
0.5
1002
}
  0
INSERT
  5
C7
100
AcDbEntity
  8
ASHADE
 62
     9
100
AcDbBlockReference
  2
AVE_RENDER
 10
0.0
 20
0.0
 30
0.0
1001
AVE_RENDER
1002
{
1070
     0
1000
BG Opt
1070
     0
1070
     1
1010
0.0
1020
0.0
1030
0.0
1010
1.0
1020
0.0
1030
0.0
1010
0.0
1020
1.0
1030
0.0
1010
0.0
1020
0.0
1030
1.0
1040
0.5
1040
0.33
1040
0.0
1000

1070
     1
1000

1070
     1
1070
     1
1040
1.0
1040
1.0
1040
0.0
1040
0.0
1070
     0
1002
}
  0
INSERT
  5
C8
100
AcDbEntity
  8
ASHADE
 62
     1
100
AcDbBlockReference
  2
AVE_GLOBAL
 10
0.0
 20
0.0
 30
0.0
1001
AVE_MATERIAL
1002
{
1000
*GLOBAL*
1000
1
1000
Finition globale.
1002
{
1002
}
1002
{
1070
    63
1002
{
1002
{
1010
-1.0
1020
-1.0
1030
-1.0
1002
}
1040
0.1
1000

1040
0.0
1002
{
1002
}
1040
0.0
1002
{
1002
}
1040
0.0
1002
}
1002
{
1002
{
1010
-1.0
1020
-1.0
1030
-1.0
1002
}
1040
0.7
1000

1040
0.0
1002
{
1002
}
1040
0.0
1002
{
1002
}
1040
0.0
1002
}
1002
{
1002
{
1010
-1.0
1020
-1.0
1030
-1.0
1002
}
1040
0.2
1000

1040
0.0
1002
{
1002
}
1040
0.0
1002
{
1002
}
1040
0.0
1002
}
1002
{
1070
     0
1002
{
1070
     1
1002
{
1040
1.0
1040
1.0
1000

1040
0.0
1002
{
1002
}
1040
0.0
1002
{
1002
}
1040
0.0
1002
}
1002
}
1040
1.0
1040
0.0
1040
0.0
1002
}
1002
{
1040
1.0
1040
1.0
1000

1040
0.0
1002
{
1002
}
1040
0.0
1002
{
1002
}
1040
0.0
1002
}
1002
{
1040
0.5
1040
1.0
1000

1040
0.0
1002
{
1002
}
1040
0.0
1002
{
1002
}
1040
0.0
1002
}
1002
{
1070
     0
1040
0.0
1002
{
1002
}
1040
1.0
1002
{
1002
}
1040
0.0
1002
}
1002
{
1040
0.0
1002
{
1002
{
1010
0.0
1020
0.0
1030
0.0
1002
}
1040
1.0
1000

1040
0.0
1002
{
1002
}
1040
0.0
1002
{
1002
}
1040
0.0
1002
}
1002
}
1002
{
1002
{
1070
     1
1002
{
1040
0.0
1040
1.0
1000

1040
0.0
1002
{
1002
}
1040
0.0
1002
{
1002
}
1040
0.0
1002
}
1002
}
1040
0.0
1002
{
1002
}
1010
1.0
1020
0.0
1030
0.0
1010
0.0
1020
1.0
1030
0.0
1010
0.0
1020
0.0
1030
1.0
1070
     0
1002
}
1002
{
1002
{
1040
1.0
1040
1.0
1002
{
1070
     1
1002
{
1040
1.0
1040
1.0
1000

1040
0.0
1002
{
1002
}
1040
0.0
1002
{
1002
}
1040
0.0
1002
}
1002
}
1002
}
1070
     0
1040
0.0
1002
{
1002
}
1002
}
1002
{
1002
}
1002
}
1002
{
1071
        3
1070
     3
1070
     0
1002
{
1070
     2
1070
     0
1070
     0
1040
0.0
1002
}
1070
     0
1070
     2
1002
{
1002
}
1002
}
1002
{
1040
8030.0
1040
190.300003
1040
0.305
1040
228.0
1040
545.0
1040
14.0
1040
17.4
1040
0.456
1002
}
1002
}
  0
ENDBLK
  5
CA
100
AcDbEntity
  8
0
100
AcDbBlockEnd
  0
BLOCK
  5
1CC8
100
AcDbEntity
  8
0
100
AcDbBlockBegin
  2
*D3
 70
     1
 10
0.0
 20
0.0
 30
0.0
  3
*D3
  1

  0
LINE
  5
1CC9
100
AcDbEntity
  8
0
  6
BYBLOCK
 62
     0
100
AcDbLine
 10
23.429005
 20
37.116146
 30
0.0
 11
54.037579
 21
37.116146
 31
0.0
  0
LINE
  5
1CCA
100
AcDbEntity
  8
0
  6
BYBLOCK
 62
     0
100
AcDbLine
 10
23.429005
 20
9.616146
 30
0.0
 11
54.037579
 21
9.616146
 31
0.0
  0
LINE
  5
1CCB
100
AcDbEntity
  8
0
  6
BYBLOCK
 62
     0
100
AcDbLine
 10
53.857579
 20
34.116146
 30
0.0
 11
53.857579
 21
12.616146
 31
0.0
  0
SOLID
  5
1CCC
100
AcDbEntity
  8
0
  6
BYBLOCK
 62
     0
100
AcDbTrace
 10
53.357579
 20
34.116146
 30
0.0
 11
54.357579
 21
34.116146
 31
0.0
 12
53.857579
 22
37.116146
 32
0.0
 13
53.857579
 23
37.116146
 33
0.0
  0
SOLID
  5
1CCD
100
AcDbEntity
  8
0
  6
BYBLOCK
 62
     0
100
AcDbTrace
 10
53.357579
 20
12.616146
 30
0.0
 11
54.357579
 21
12.616146
 31
0.0
 12
53.857579
 22
9.616146
 32
0.0
 13
53.857579
 23
9.616146
 33
0.0
  0
MTEXT
  5
1CCE
100
AcDbEntity
  8
0
  6
BYBLOCK
 62
     0
100
AcDbMText
 10
51.607579
 20
23.366146
 30
0.0
 40
2.5
 41
0.0
 71
     5
 72
     1
  1
\A1;\U+220527.5
 11
0.0
 21
1.0
 31
0.0
  0
POINT
  5
1CCF
100
AcDbEntity
  8
DEFPOINTS
  6
BYBLOCK
 62
     0
100
AcDbPoint
 10
23.366505
 20
37.116146
 30
0.0
  0
POINT
  5
1CD0
100
AcDbEntity
  8
DEFPOINTS
  6
BYBLOCK
 62
     0
100
AcDbPoint
 10
23.366505
 20
9.616146
 30
0.0
  0
POINT
  5
1CD1
100
AcDbEntity
  8
DEFPOINTS
  6
BYBLOCK
 62
     0
100
AcDbPoint
 10
53.857579
 20
9.616146
 30
0.0
  0
ENDBLK
  5
1CD2
100
AcDbEntity
  8
0
100
AcDbBlockEnd
  0
BLOCK
  5
1C53
100
AcDbEntity
  8
0
100
AcDbBlockBegin
  2
*D4
 70
     1
 10
0.0
 20
0.0
 30
0.0
  3
*D4
  1

  0
LINE
  5
1C54
100
AcDbEntity
  8
0
  6
BYBLOCK
 62
     0
100
AcDbLine
 10
23.366361
 20
45.802697
 30
0.0
 11
62.1719
 21
45.802697
 31
0.0
  0
LINE
  5
1C55
100
AcDbEntity
  8
0
  6
BYBLOCK
 62
     0
100
AcDbLine
 10
23.366361
 20
0.929639
 30
0.0
 11
62.1719
 21
0.929639
 31
0.0
  0
LINE
  5
1C56
100
AcDbEntity
  8
0
  6
BYBLOCK
 62
     0
100
AcDbLine
 10
61.9919
 20
42.802697
 30
0.0
 11
61.9919
 21
3.929639
 31
0.0
  0
SOLID
  5
1C57
100
AcDbEntity
  8
0
  6
BYBLOCK
 62
     0
100
AcDbTrace
 10
61.4919
 20
42.802697
 30
0.0
 11
62.4919
 21
42.802697
 31
0.0
 12
61.9919
 22
45.802697
 32
0.0
 13
61.9919
 23
45.802697
 33
0.0
  0
SOLID
  5
1C58
100
AcDbEntity
  8
0
  6
BYBLOCK
 62
     0
100
AcDbTrace
 10
61.4919
 20
3.929639
 30
0.0
 11
62.4919
 21
3.929639
 31
0.0
 12
61.9919
 22
0.929639
 32
0.0
 13
61.9919
 23
0.929639
 33
0.0
  0
MTEXT
  5
1C59
100
AcDbEntity
  8
0
  6
BYBLOCK
 62
     0
100
AcDbMText
 10
59.7419
 20
23.366168
 30
0.0
 40
2.5
 41
0.0
 71
     5
 72
     1
  1
\A1;\U+220545
 11
0.0
 21
1.0
 31
0.0
  0
POINT
  5
1C5A
100
AcDbEntity
  8
DEFPOINTS
  6
BYBLOCK
 62
     0
100
AcDbPoint
 10
23.303861
 20
45.802697
 30
0.0
  0
POINT
  5
1C5B
100
AcDbEntity
  8
DEFPOINTS
  6
BYBLOCK
 62
     0
100
AcDbPoint
 10
23.303861
 20
0.929639
 30
0.0
  0
POINT
  5
1C5C
100
AcDbEntity
  8
DEFPOINTS
  6
BYBLOCK
 62
     0
100
AcDbPoint
 10
61.9919
 20
0.929639
 30
0.0
  0
ENDBLK
  5
1C5D
100
AcDbEntity
  8
0
100
AcDbBlockEnd
  0
BLOCK
  5
1C91
100
AcDbEntity
  8
0
100
AcDbBlockBegin
  2
*D5
 70
     1
 10
0.0
 20
0.0
 30
0.0
  3
*D5
  1

  0
LINE
  5
1C92
100
AcDbEntity
  8
0
  6
BYBLOCK
 62
     0
100
AcDbLine
 10
10.616349
 20
18.155648
 30
0.0
 11
10.616349
 21
-6.377791
 31
0.0
  0
LINE
  5
1C93
100
AcDbEntity
  8
0
  6
BYBLOCK
 62
     0
100
AcDbLine
 10
36.116373
 20
18.156074
 30
0.0
 11
36.116373
 21
-6.377791
 31
0.0
  0
LINE
  5
1C94
100
AcDbEntity
  8
0
  6
BYBLOCK
 62
     0
100
AcDbLine
 10
13.616349
 20
-6.197791
 30
0.0
 11
33.116373
 21
-6.197791
 31
0.0
  0
SOLID
  5
1C95
100
AcDbEntity
  8
0
  6
BYBLOCK
 62
     0
100
AcDbTrace
 10
13.616349
 20
-5.697791
 30
0.0
 11
13.616349
 21
-6.697791
 31
0.0
 12
10.616349
 22
-6.197791
 32
0.0
 13
10.616349
 23
-6.197791
 33
0.0
  0
SOLID
  5
1C96
100
AcDbEntity
  8
0
  6
BYBLOCK
 62
     0
100
AcDbTrace
 10
33.116373
 20
-5.697791
 30
0.0
 11
33.116373
 21
-6.697791
 31
0.0
 12
36.116373
 22
-6.197791
 32
0.0
 13
36.116373
 23
-6.197791
 33
0.0
  0
MTEXT
  5
1C97
100
AcDbEntity
  8
0
  6
BYBLOCK
 62
     0
100
AcDbMText
 10
23.366361
 20
-3.947791
 30
0.0
 40
2.5
 41
0.0
 71
     5
 72
     1
  1
\A1;25.5
  0
POINT
  5
1C98
100
AcDbEntity
  8
DEFPOINTS
  6
BYBLOCK
 62
     0
100
AcDbPoint
 10
10.616349
 20
18.218148
 30
0.0
  0
POINT
  5
1C99
100
AcDbEntity
  8
DEFPOINTS
  6
BYBLOCK
 62
     0
100
AcDbPoint
 10
36.116373
 20
18.218574
 30
0.0
  0
POINT
  5
1C9A
100
AcDbEntity
  8
DEFPOINTS
  6
BYBLOCK
 62
     0
100
AcDbPoint
 10
36.116373
 20
-6.197791
 30
0.0
  0
ENDBLK
  5
1C9B
100
AcDbEntity
  8
0
100
AcDbBlockEnd
  0
BLOCK
  5
1CD9
100
AcDbEntity
  8
0
100
AcDbBlockBegin
  2
*D6
 70
     1
 10
0.0
 20
0.0
 30
0.0
  3
*D6
  1

  0
LINE
  5
1CDA
100
AcDbEntity
  8
0
  6
BYBLOCK
 62
     0
100
AcDbLine
 10
3.156627
 20
33.366246
 30
0.0
 11
-5.268075
 21
33.366246
 31
0.0
  0
LINE
  5
1CDB
100
AcDbEntity
  8
0
  6
BYBLOCK
 62
     0
100
AcDbLine
 10
3.156627
 20
13.366089
 30
0.0
 11
-5.268075
 21
13.366089
 31
0.0
  0
LINE
  5
1CDC
100
AcDbEntity
  8
0
  6
BYBLOCK
 62
     0
100
AcDbLine
 10
-5.088075
 20
30.366246
 30
0.0
 11
-5.088075
 21
16.366089
 31
0.0
  0
SOLID
  5
1CDD
100
AcDbEntity
  8
0
  6
BYBLOCK
 62
     0
100
AcDbTrace
 10
-5.588075
 20
30.366246
 30
0.0
 11
-4.588075
 21
30.366246
 31
0.0
 12
-5.088075
 22
33.366246
 32
0.0
 13
-5.088075
 23
33.366246
 33
0.0
  0
SOLID
  5
1CDE
100
AcDbEntity
  8
0
  6
BYBLOCK
 62
     0
100
AcDbTrace
 10
-5.588075
 20
16.366089
 30
0.0
 11
-4.588075
 21
16.366089
 31
0.0
 12
-5.088075
 22
13.366089
 32
0.0
 13
-5.088075
 23
13.366089
 33
0.0
  0
MTEXT
  5
1CDF
100
AcDbEntity
  8
0
  6
BYBLOCK
 62
     0
100
AcDbMText
 10
-7.338075
 20
23.366168
 30
0.0
 40
2.5
 41
0.0
 71
     5
 72
     1
  1
\A1;20
 11
0.0
 21
1.0
 31
0.0
  0
POINT
  5
1CE0
100
AcDbEntity
  8
DEFPOINTS
  6
BYBLOCK
 62
     0
100
AcDbPoint
 10
3.219127
 20
33.366246
 30
0.0
  0
POINT
  5
1CE1
100
AcDbEntity
  8
DEFPOINTS
  6
BYBLOCK
 62
     0
100
AcDbPoint
 10
3.219127
 20
13.366089
 30
0.0
  0
POINT
  5
1CE2
100
AcDbEntity
  8
DEFPOINTS
  6
BYBLOCK
 62
     0
100
AcDbPoint
 10
-5.088075
 20
13.366089
 30
0.0
  0
ENDBLK
  5
1CE3
100
AcDbEntity
  8
0
100
AcDbBlockEnd
  0
ENDSEC
  0
SECTION
  2
ENTITIES
  0
INSERT
  5
CC
100
AcDbEntity
  8
0
100
AcDbBlockReference
  2
SCH_IS
 10
-68.718396
 20
-140.042541
 30
0.0
  0
INSERT
  5
EC
100
AcDbEntity
  8
COTATION1
100
AcDbBlockReference
  2
SCH_IS
 10
0.0
 20
0.0
 30
0.0
  0
POLYLINE
  5
1A49
100
AcDbEntity
  8
ALPHA
100
AcDb2dPolyline
 66
     1
 10
0.0
 20
0.0
 30
0.0
  0
VERTEX
  5
1A4A
100
AcDbEntity
  8
ALPHA
100
AcDbVertex
100
AcDb2dVertex
 10
41.670354
 20
33.366246
 30
0.0
  0
VERTEX
  5
1A4B
100
AcDbEntity
  8
ALPHA
100
AcDbVertex
100
AcDb2dVertex
 10
43.388596
 20
33.366246
 30
0.0
  0
SEQEND
  5
1A4C
100
AcDbEntity
  8
ALPHA
  0
POLYLINE
  5
1A4D
100
AcDbEntity
  8
ALPHA
100
AcDb2dPolyline
 66
     1
 10
0.0
 20
0.0
 30
0.0
  0
VERTEX
  5
1A4E
100
AcDbEntity
  8
ALPHA
100
AcDbVertex
100
AcDb2dVertex
 10
3.219127
 20
33.366246
 30
0.0
  0
VERTEX
  5
1A4F
100
AcDbEntity
  8
ALPHA
100
AcDbVertex
100
AcDb2dVertex
 10
4.937368
 20
33.366246
 30
0.0
  0
SEQEND
  5
1A50
100
AcDbEntity
  8
ALPHA
  0
POLYLINE
  5
1A51
100
AcDbEntity
  8
ALPHA
100
AcDb2dPolyline
 66
     1
 10
0.0
 20
0.0
 30
0.0
  0
VERTEX
  5
1A52
100
AcDbEntity
  8
ALPHA
100
AcDbVertex
100
AcDb2dVertex
 10
41.670354
 20
13.366089
 30
0.0
  0
VERTEX
  5
1A53
100
AcDbEntity
  8
ALPHA
100
AcDbVertex
100
AcDb2dVertex
 10
43.388596
 20
13.366089
 30
0.0
  0
SEQEND
  5
1A54
100
AcDbEntity
  8
ALPHA
  0
POLYLINE
  5
1A55
100
AcDbEntity
  8
ALPHA
100
AcDb2dPolyline
 66
     1
 10
0.0
 20
0.0
 30
0.0
  0
VERTEX
  5
1A56
100
AcDbEntity
  8
ALPHA
100
AcDbVertex
100
AcDb2dVertex
 10
3.219127
 20
13.366089
 30
0.0
  0
VERTEX
  5
1A57
100
AcDbEntity
  8
ALPHA
100
AcDbVertex
100
AcDb2dVertex
 10
4.937368
 20
13.366089
 30
0.0
  0
SEQEND
  5
1A58
100
AcDbEntity
  8
ALPHA
  0
POLYLINE
  5
1A59
100
AcDbEntity
  8
ALPHA
100
AcDb2dPolyline
 66
     1
 10
0.0
 20
0.0
 30
0.0
  0
VERTEX
  5
1A5A
100
AcDbEntity
  8
ALPHA
100
AcDbVertex
100
AcDb2dVertex
 10
4.692594
 20
20.910504
 30
0.0
  0
VERTEX
  5
1A5B
100
AcDbEntity
  8
ALPHA
100
AcDbVertex
100
AcDb2dVertex
 10
5.008819
 20
20.930012
 30
0.0
  0
VERTEX
  5
1A5C
100
AcDbEntity
  8
ALPHA
100
AcDbVertex
100
AcDb2dVertex
 10
5.310026
 20
20.986788
 30
0.0
  0
VERTEX
  5
1A5D
100
AcDbEntity
  8
ALPHA
100
AcDbVertex
100
AcDb2dVertex
 10
5.594529
 20
21.078207
 30
0.0
  0
VERTEX
  5
1A5E
100
AcDbEntity
  8
ALPHA
100
AcDbVertex
100
AcDb2dVertex
 10
5.86064
 20
21.201644
 30
0.0
  0
VERTEX
  5
1A5F
100
AcDbEntity
  8
ALPHA
100
AcDbVertex
100
AcDb2dVertex
 10
6.106673
 20
21.354475
 30
0.0
  0
VERTEX
  5
1A60
100
AcDbEntity
  8
ALPHA
100
AcDbVertex
100
AcDb2dVertex
 10
6.330942
 20
21.534076
 30
0.0
  0
VERTEX
  5
1A61
100
AcDbEntity
  8
ALPHA
100
AcDbVertex
100
AcDb2dVertex
 10
6.531758
 20
21.737821
 30
0.0
  0
VERTEX
  5
1A62
100
AcDbEntity
  8
ALPHA
100
AcDbVertex
100
AcDb2dVertex
 10
6.707437
 20
21.963088
 30
0.0
  0
VERTEX
  5
1A63
100
AcDbEntity
  8
ALPHA
100
AcDbVertex
100
AcDb2dVertex
 10
6.856289
 20
22.207251
 30
0.0
  0
VERTEX
  5
1A64
100
AcDbEntity
  8
ALPHA
100
AcDbVertex
100
AcDb2dVertex
 10
6.97663
 20
22.467685
 30
0.0
  0
VERTEX
  5
1A65
100
AcDbEntity
  8
ALPHA
100
AcDbVertex
100
AcDb2dVertex
 10
7.066772
 20
22.741767
 30
0.0
  0
VERTEX
  5
1A66
100
AcDbEntity
  8
ALPHA
100
AcDbVertex
100
AcDb2dVertex
 10
7.125028
 20
23.026871
 30
0.0
  0
VERTEX
  5
1A67
100
AcDbEntity
  8
ALPHA
100
AcDbVertex
100
AcDb2dVertex
 10
7.149711
 20
23.320375
 30
0.0
  0
VERTEX
  5
1A68
100
AcDbEntity
  8
ALPHA
100
AcDbVertex
100
AcDb2dVertex
 10
7.139136
 20
23.619652
 30
0.0
  0
VERTEX
  5
1A69
100
AcDbEntity
  8
ALPHA
100
AcDbVertex
100
AcDb2dVertex
 10
7.091614
 20
23.922078
 30
0.0
  0
VERTEX
  5
1A6A
100
AcDbEntity
  8
ALPHA
100
AcDbVertex
100
AcDb2dVertex
 10
7.005459
 20
24.22503
 30
0.0
  0
VERTEX
  5
1A6B
100
AcDbEntity
  8
ALPHA
100
AcDbVertex
100
AcDb2dVertex
 10
6.863573
 20
24.564775
 30
0.0
  0
VERTEX
  5
1A6C
100
AcDbEntity
  8
ALPHA
100
AcDbVertex
100
AcDb2dVertex
 10
6.696265
 20
24.854295
 30
0.0
  0
VERTEX
  5
1A6D
100
AcDbEntity
  8
ALPHA
100
AcDbVertex
100
AcDb2dVertex
 10
6.505814
 20
25.097496
 30
0.0
  0
VERTEX
  5
1A6E
100
AcDbEntity
  8
ALPHA
100
AcDbVertex
100
AcDb2dVertex
 10
6.294496
 20
25.298282
 30
0.0
  0
VERTEX
  5
1A6F
100
AcDbEntity
  8
ALPHA
100
AcDbVertex
100
AcDb2dVertex
 10
6.06459
 20
25.460561
 30
0.0
  0
VERTEX
  5
1A70
100
AcDbEntity
  8
ALPHA
100
AcDbVertex
100
AcDb2dVertex
 10
5.818374
 20
25.588237
 30
0.0
  0
VERTEX
  5
1A71
100
AcDbEntity
  8
ALPHA
100
AcDbVertex
100
AcDb2dVertex
 10
5.558124
 20
25.685217
 30
0.0
  0
VERTEX
  5
1A72
100
AcDbEntity
  8
ALPHA
100
AcDbVertex
100
AcDb2dVertex
 10
5.28612
 20
25.755406
 30
0.0
  0
VERTEX
  5
1A73
100
AcDbEntity
  8
ALPHA
100
AcDbVertex
100
AcDb2dVertex
 10
4.715956
 20
25.831035
 30
0.0
  0
VERTEX
  5
1A74
100
AcDbEntity
  8
ALPHA
100
AcDbVertex
100
AcDb2dVertex
 10
4.126105
 20
25.84637
 30
0.0
  0
VERTEX
  5
1A75
100
AcDbEntity
  8
ALPHA
100
AcDbVertex
100
AcDb2dVertex
 10
2.960228
 20
25.821143
 30
0.0
  0
SEQEND
  5
1A76
100
AcDbEntity
  8
ALPHA
  0
POLYLINE
  5
1A77
100
AcDbEntity
  8
ALPHA
100
AcDb2dPolyline
 66
     1
 10
0.0
 20
0.0
 30
0.0
  0
VERTEX
  5
1A78
100
AcDbEntity
  8
ALPHA
100
AcDbVertex
100
AcDb2dVertex
 10
4.692594
 20
20.825754
 30
0.0
  0
VERTEX
  5
1A79
100
AcDbEntity
  8
ALPHA
100
AcDbVertex
100
AcDb2dVertex
 10
4.692594
 20
20.910504
 30
0.0
  0
SEQEND
  5
1A7A
100
AcDbEntity
  8
ALPHA
  0
POLYLINE
  5
1A7B
100
AcDbEntity
  8
ALPHA
100
AcDb2dPolyline
 66
     1
 10
0.0
 20
0.0
 30
0.0
  0
VERTEX
  5
1A7C
100
AcDbEntity
  8
ALPHA
100
AcDbVertex
100
AcDb2dVertex
 10
2.970735
 20
20.825754
 30
0.0
  0
VERTEX
  5
1A7D
100
AcDbEntity
  8
ALPHA
100
AcDbVertex
100
AcDb2dVertex
 10
4.692594
 20
20.825754
 30
0.0
  0
SEQEND
  5
1A7E
100
AcDbEntity
  8
ALPHA
  0
POLYLINE
  5
1A7F
100
AcDbEntity
  8
ALPHA
100
AcDb2dPolyline
 66
     1
 10
0.0
 20
0.0
 30
0.0
  0
VERTEX
  5
1A80
100
AcDbEntity
  8
ALPHA
100
AcDbVertex
100
AcDb2dVertex
 10
23.303861
 20
43.857423
 30
0.0
  0
VERTEX
  5
1A81
100
AcDbEntity
  8
ALPHA
100
AcDbVertex
100
AcDb2dVertex
 10
20.763448
 20
43.699293
 30
0.0
  0
SEQEND
  5
1A82
100
AcDbEntity
  8
ALPHA
  0
POLYLINE
  5
1A83
100
AcDbEntity
  8
ALPHA
100
AcDb2dPolyline
 66
     1
 10
0.0
 20
0.0
 30
0.0
  0
VERTEX
  5
1A84
100
AcDbEntity
  8
ALPHA
100
AcDbVertex
100
AcDb2dVertex
 10
41.670354
 20
33.366246
 30
0.0
  0
VERTEX
  5
1A85
100
AcDbEntity
  8
ALPHA
100
AcDbVertex
100
AcDb2dVertex
 10
40.143851
 20
35.766243
 30
0.0
  0
VERTEX
  5
1A86
100
AcDbEntity
  8
ALPHA
100
AcDbVertex
100
AcDb2dVertex
 10
38.332595
 20
37.908844
 30
0.0
  0
VERTEX
  5
1A87
100
AcDbEntity
  8
ALPHA
100
AcDbVertex
100
AcDb2dVertex
 10
36.269061
 20
39.774755
 30
0.0
  0
VERTEX
  5
1A88
100
AcDbEntity
  8
ALPHA
100
AcDbVertex
100
AcDb2dVertex
 10
33.985724
 20
41.344678
 30
0.0
  0
VERTEX
  5
1A89
100
AcDbEntity
  8
ALPHA
100
AcDbVertex
100
AcDb2dVertex
 10
31.515061
 20
42.599319
 30
0.0
  0
VERTEX
  5
1A8A
100
AcDbEntity
  8
ALPHA
100
AcDbVertex
100
AcDb2dVertex
 10
28.889545
 20
43.519381
 30
0.0
  0
VERTEX
  5
1A8B
100
AcDbEntity
  8
ALPHA
100
AcDbVertex
100
AcDb2dVertex
 10
26.141654
 20
44.085569
 30
0.0
  0
VERTEX
  5
1A8C
100
AcDbEntity
  8
ALPHA
100
AcDbVertex
100
AcDb2dVertex
 10
23.303861
 20
44.278586
 30
0.0
  0
SEQEND
  5
1A8D
100
AcDbEntity
  8
ALPHA
  0
POLYLINE
  5
1A8E
100
AcDbEntity
  8
ALPHA
100
AcDb2dPolyline
 66
     1
 10
0.0
 20
0.0
 30
0.0
  0
VERTEX
  5
1A8F
100
AcDbEntity
  8
ALPHA
100
AcDbVertex
100
AcDb2dVertex
 10
41.670527
 20
13.366261
 30
0.0
  0
VERTEX
  5
1A90
100
AcDbEntity
  8
ALPHA
100
AcDbVertex
100
AcDb2dVertex
 10
42.784282
 20
15.759865
 30
0.0
  0
VERTEX
  5
1A91
100
AcDbEntity
  8
ALPHA
100
AcDbVertex
100
AcDb2dVertex
 10
43.579833
 20
18.244611
 30
0.0
  0
VERTEX
  5
1A92
100
AcDbEntity
  8
ALPHA
100
AcDbVertex
100
AcDb2dVertex
 10
44.057175
 20
20.790121
 30
0.0
  0
VERTEX
  5
1A93
100
AcDbEntity
  8
ALPHA
100
AcDbVertex
100
AcDb2dVertex
 10
44.216301
 20
23.366017
 30
0.0
  0
VERTEX
  5
1A94
100
AcDbEntity
  8
ALPHA
100
AcDbVertex
100
AcDb2dVertex
 10
44.057206
 20
25.941921
 30
0.0
  0
VERTEX
  5
1A95
100
AcDbEntity
  8
ALPHA
100
AcDbVertex
100
AcDb2dVertex
 10
43.579882
 20
28.487456
 30
0.0
  0
VERTEX
  5
1A96
100
AcDbEntity
  8
ALPHA
100
AcDbVertex
100
AcDb2dVertex
 10
42.784324
 20
30.972242
 30
0.0
  0
VERTEX
  5
1A97
100
AcDbEntity
  8
ALPHA
100
AcDbVertex
100
AcDb2dVertex
 10
41.670527
 20
33.365902
 30
0.0
  0
SEQEND
  5
1A98
100
AcDbEntity
  8
ALPHA
  0
POLYLINE
  5
1A99
100
AcDbEntity
  8
ALPHA
100
AcDb2dPolyline
 66
     1
 10
0.0
 20
0.0
 30
0.0
  0
VERTEX
  5
1A9A
100
AcDbEntity
  8
ALPHA
100
AcDbVertex
100
AcDb2dVertex
 10
4.937368
 20
13.366089
 30
0.0
  0
VERTEX
  5
1A9B
100
AcDbEntity
  8
ALPHA
100
AcDbVertex
100
AcDb2dVertex
 10
6.463871
 20
10.966093
 30
0.0
  0
VERTEX
  5
1A9C
100
AcDbEntity
  8
ALPHA
100
AcDbVertex
100
AcDb2dVertex
 10
8.275127
 20
8.823491
 30
0.0
  0
VERTEX
  5
1A9D
100
AcDbEntity
  8
ALPHA
100
AcDbVertex
100
AcDb2dVertex
 10
10.338662
 20
6.957581
 30
0.0
  0
VERTEX
  5
1A9E
100
AcDbEntity
  8
ALPHA
100
AcDbVertex
100
AcDb2dVertex
 10
12.621998
 20
5.387657
 30
0.0
  0
VERTEX
  5
1A9F
100
AcDbEntity
  8
ALPHA
100
AcDbVertex
100
AcDb2dVertex
 10
15.092662
 20
4.133016
 30
0.0
  0
VERTEX
  5
1AA0
100
AcDbEntity
  8
ALPHA
100
AcDbVertex
100
AcDb2dVertex
 10
17.718177
 20
3.212954
 30
0.0
  0
VERTEX
  5
1AA1
100
AcDbEntity
  8
ALPHA
100
AcDbVertex
100
AcDb2dVertex
 10
20.466069
 20
2.646766
 30
0.0
  0
VERTEX
  5
1AA2
100
AcDbEntity
  8
ALPHA
100
AcDbVertex
100
AcDb2dVertex
 10
23.303861
 20
2.453749
 30
0.0
  0
VERTEX
  5
1AA3
100
AcDbEntity
  8
ALPHA
100
AcDbVertex
100
AcDb2dVertex
 10
26.141654
 20
2.646766
 30
0.0
  0
VERTEX
  5
1AA4
100
AcDbEntity
  8
ALPHA
100
AcDbVertex
100
AcDb2dVertex
 10
28.889545
 20
3.212954
 30
0.0
  0
VERTEX
  5
1AA5
100
AcDbEntity
  8
ALPHA
100
AcDbVertex
100
AcDb2dVertex
 10
31.515061
 20
4.133016
 30
0.0
  0
VERTEX
  5
1AA6
100
AcDbEntity
  8
ALPHA
100
AcDbVertex
100
AcDb2dVertex
 10
33.985724
 20
5.387657
 30
0.0
  0
VERTEX
  5
1AA7
100
AcDbEntity
  8
ALPHA
100
AcDbVertex
100
AcDb2dVertex
 10
36.269061
 20
6.957581
 30
0.0
  0
VERTEX
  5
1AA8
100
AcDbEntity
  8
ALPHA
100
AcDbVertex
100
AcDb2dVertex
 10
38.332595
 20
8.823491
 30
0.0
  0
VERTEX
  5
1AA9
100
AcDbEntity
  8
ALPHA
100
AcDbVertex
100
AcDb2dVertex
 10
40.143851
 20
10.966093
 30
0.0
  0
VERTEX
  5
1AAA
100
AcDbEntity
  8
ALPHA
100
AcDbVertex
100
AcDb2dVertex
 10
41.670354
 20
13.366089
 30
0.0
  0
SEQEND
  5
1AAB
100
AcDbEntity
  8
ALPHA
  0
POLYLINE
  5
1AAC
100
AcDbEntity
  8
ALPHA
100
AcDb2dPolyline
 66
     1
 10
0.0
 20
0.0
 30
0.0
  0
VERTEX
  5
1AAD
100
AcDbEntity
  8
ALPHA
100
AcDbVertex
100
AcDb2dVertex
 10
4.937368
 20
33.366074
 30
0.0
  0
VERTEX
  5
1AAE
100
AcDbEntity
  8
ALPHA
100
AcDbVertex
100
AcDb2dVertex
 10
3.823563
 20
30.972471
 30
0.0
  0
VERTEX
  5
1AAF
100
AcDbEntity
  8
ALPHA
100
AcDbVertex
100
AcDb2dVertex
 10
3.027986
 20
28.487725
 30
0.0
  0
VERTEX
  5
1AB0
100
AcDbEntity
  8
ALPHA
100
AcDbVertex
100
AcDb2dVertex
 10
2.550635
 20
25.942215
 30
0.0
  0
VERTEX
  5
1AB1
100
AcDbEntity
  8
ALPHA
100
AcDbVertex
100
AcDb2dVertex
 10
2.391507
 20
23.366318
 30
0.0
  0
VERTEX
  5
1AB2
100
AcDbEntity
  8
ALPHA
100
AcDbVertex
100
AcDb2dVertex
 10
2.550602
 20
20.790414
 30
0.0
  0
VERTEX
  5
1AB3
100
AcDbEntity
  8
ALPHA
100
AcDbVertex
100
AcDb2dVertex
 10
3.027916
 20
18.24488
 30
0.0
  0
VERTEX
  5
1AB4
100
AcDbEntity
  8
ALPHA
100
AcDbVertex
100
AcDb2dVertex
 10
3.823448
 20
15.760094
 30
0.0
  0
VERTEX
  5
1AB5
100
AcDbEntity
  8
ALPHA
100
AcDbVertex
100
AcDb2dVertex
 10
4.937196
 20
13.366434
 30
0.0
  0
SEQEND
  5
1AB6
100
AcDbEntity
  8
ALPHA
  0
POLYLINE
  5
1AB7
100
AcDbEntity
  8
ALPHA
100
AcDb2dPolyline
 66
     1
 10
0.0
 20
0.0
 30
0.0
  0
VERTEX
  5
1AB8
100
AcDbEntity
  8
ALPHA
100
AcDbVertex
100
AcDb2dVertex
 10
23.303861
 20
44.278586
 30
0.0
  0
VERTEX
  5
1AB9
100
AcDbEntity
  8
ALPHA
100
AcDbVertex
100
AcDb2dVertex
 10
20.466069
 20
44.085569
 30
0.0
  0
VERTEX
  5
1ABA
100
AcDbEntity
  8
ALPHA
100
AcDbVertex
100
AcDb2dVertex
 10
17.718177
 20
43.519379
 30
0.0
  0
VERTEX
  5
1ABB
100
AcDbEntity
  8
ALPHA
100
AcDbVertex
100
AcDb2dVertex
 10
15.092662
 20
42.59931
 30
0.0
  0
VERTEX
  5
1ABC
100
AcDbEntity
  8
ALPHA
100
AcDbVertex
100
AcDb2dVertex
 10
12.621998
 20
41.344657
 30
0.0
  0
VERTEX
  5
1ABD
100
AcDbEntity
  8
ALPHA
100
AcDbVertex
100
AcDb2dVertex
 10
10.338662
 20
39.774713
 30
0.0
  0
VERTEX
  5
1ABE
100
AcDbEntity
  8
ALPHA
100
AcDbVertex
100
AcDb2dVertex
 10
8.275127
 20
37.908772
 30
0.0
  0
VERTEX
  5
1ABF
100
AcDbEntity
  8
ALPHA
100
AcDbVertex
100
AcDb2dVertex
 10
6.463871
 20
35.766127
 30
0.0
  0
VERTEX
  5
1AC0
100
AcDbEntity
  8
ALPHA
100
AcDbVertex
100
AcDb2dVertex
 10
4.937368
 20
33.366074
 30
0.0
  0
SEQEND
  5
1AC1
100
AcDbEntity
  8
ALPHA
  0
POLYLINE
  5
1AC2
100
AcDbEntity
  8
ALPHA
100
AcDb2dPolyline
 66
     1
 10
0.0
 20
0.0
 30
0.0
  0
VERTEX
  5
1AC3
100
AcDbEntity
  8
ALPHA
100
AcDbVertex
100
AcDb2dVertex
 10
25.758836
 20
43.709801
 30
0.0
  0
VERTEX
  5
1AC4
100
AcDbEntity
  8
ALPHA
100
AcDbVertex
100
AcDb2dVertex
 10
23.303861
 20
43.857423
 30
0.0
  0
SEQEND
  5
1AC5
100
AcDbEntity
  8
ALPHA
  0
POLYLINE
  5
1AC6
100
AcDbEntity
  8
ALPHA
100
AcDb2dPolyline
 66
     1
 10
0.0
 20
0.0
 30
0.0
  0
VERTEX
  5
1AC7
100
AcDbEntity
  8
ALPHA
100
AcDbVertex
100
AcDb2dVertex
 10
43.647667
 20
20.911193
 30
0.0
  0
VERTEX
  5
1AC8
100
AcDbEntity
  8
ALPHA
100
AcDbVertex
100
AcDb2dVertex
 10
43.796861
 20
23.409145
 30
0.0
  0
VERTEX
  5
1AC9
100
AcDbEntity
  8
ALPHA
100
AcDbVertex
100
AcDb2dVertex
 10
43.637159
 20
25.906581
 30
0.0
  0
SEQEND
  5
1ACA
100
AcDbEntity
  8
ALPHA
  0
POLYLINE
  5
1ACB
100
AcDbEntity
  8
ALPHA
100
AcDb2dPolyline
 66
     1
 10
0.0
 20
0.0
 30
0.0
  0
VERTEX
  5
1ACC
100
AcDbEntity
  8
ALPHA
100
AcDbVertex
100
AcDb2dVertex
 10
2.960228
 20
25.821143
 30
0.0
  0
VERTEX
  5
1ACD
100
AcDbEntity
  8
ALPHA
100
AcDbVertex
100
AcDb2dVertex
 10
2.810905
 20
23.323126
 30
0.0
  0
VERTEX
  5
1ACE
100
AcDbEntity
  8
ALPHA
100
AcDbVertex
100
AcDb2dVertex
 10
2.970735
 20
20.825754
 30
0.0
  0
SEQEND
  5
1ACF
100
AcDbEntity
  8
ALPHA
  0
POLYLINE
  5
1AD0
100
AcDbEntity
  8
ALPHA
100
AcDb2dPolyline
 66
     1
 10
0.0
 20
0.0
 30
0.0
  0
VERTEX
  5
1AD1
100
AcDbEntity
  8
ALPHA
100
AcDbVertex
100
AcDb2dVertex
 10
21.611975
 20
6.564265
 30
0.0
  0
VERTEX
  5
1AD2
100
AcDbEntity
  8
ALPHA
100
AcDbVertex
100
AcDb2dVertex
 10
20.132695
 20
6.779128
 30
0.0
  0
VERTEX
  5
1AD3
100
AcDbEntity
  8
ALPHA
100
AcDbVertex
100
AcDb2dVertex
 10
18.698369
 20
7.117898
 30
0.0
  0
VERTEX
  5
1AD4
100
AcDbEntity
  8
ALPHA
100
AcDbVertex
100
AcDb2dVertex
 10
15.987162
 20
8.144538
 30
0.0
  0
VERTEX
  5
1AD5
100
AcDbEntity
  8
ALPHA
100
AcDbVertex
100
AcDb2dVertex
 10
13.523509
 20
9.598942
 30
0.0
  0
VERTEX
  5
1AD6
100
AcDbEntity
  8
ALPHA
100
AcDbVertex
100
AcDb2dVertex
 10
11.352567
 20
11.435867
 30
0.0
  0
VERTEX
  5
1AD7
100
AcDbEntity
  8
ALPHA
100
AcDbVertex
100
AcDb2dVertex
 10
9.519491
 20
13.610069
 30
0.0
  0
VERTEX
  5
1AD8
100
AcDbEntity
  8
ALPHA
100
AcDbVertex
100
AcDb2dVertex
 10
8.069439
 20
16.076305
 30
0.0
  0
VERTEX
  5
1AD9
100
AcDbEntity
  8
ALPHA
100
AcDbVertex
100
AcDb2dVertex
 10
7.047567
 20
18.789333
 30
0.0
  0
VERTEX
  5
1ADA
100
AcDbEntity
  8
ALPHA
100
AcDbVertex
100
AcDb2dVertex
 10
6.711309
 20
20.224255
 30
0.0
  0
VERTEX
  5
1ADB
100
AcDbEntity
  8
ALPHA
100
AcDbVertex
100
AcDb2dVertex
 10
6.49903
 20
21.703909
 30
0.0
  0
SEQEND
  5
1ADC
100
AcDbEntity
  8
ALPHA
  0
POLYLINE
  5
1ADD
100
AcDbEntity
  8
ALPHA
100
AcDb2dPolyline
 66
     1
 10
0.0
 20
0.0
 30
0.0
  0
VERTEX
  5
1ADE
100
AcDbEntity
  8
ALPHA
100
AcDbVertex
100
AcDb2dVertex
 10
40.105764
 20
21.674281
 30
0.0
  0
VERTEX
  5
1ADF
100
AcDbEntity
  8
ALPHA
100
AcDbVertex
100
AcDb2dVertex
 10
39.890901
 20
20.194999
 30
0.0
  0
VERTEX
  5
1AE0
100
AcDbEntity
  8
ALPHA
100
AcDbVertex
100
AcDb2dVertex
 10
39.552131
 20
18.760669
 30
0.0
  0
VERTEX
  5
1AE1
100
AcDbEntity
  8
ALPHA
100
AcDbVertex
100
AcDb2dVertex
 10
38.525491
 20
16.049444
 30
0.0
  0
VERTEX
  5
1AE2
100
AcDbEntity
  8
ALPHA
100
AcDbVertex
100
AcDb2dVertex
 10
37.071087
 20
13.58577
 30
0.0
  0
VERTEX
  5
1AE3
100
AcDbEntity
  8
ALPHA
100
AcDbVertex
100
AcDb2dVertex
 10
35.234162
 20
11.414808
 30
0.0
  0
VERTEX
  5
1AE4
100
AcDbEntity
  8
ALPHA
100
AcDbVertex
100
AcDb2dVertex
 10
33.05996
 20
9.581722
 30
0.0
  0
VERTEX
  5
1AE5
100
AcDbEntity
  8
ALPHA
100
AcDbVertex
100
AcDb2dVertex
 10
30.593724
 20
8.131673
 30
0.0
  0
VERTEX
  5
1AE6
100
AcDbEntity
  8
ALPHA
100
AcDbVertex
100
AcDb2dVertex
 10
27.880696
 20
7.109824
 30
0.0
  0
VERTEX
  5
1AE7
100
AcDbEntity
  8
ALPHA
100
AcDbVertex
100
AcDb2dVertex
 10
26.445774
 20
6.773587
 30
0.0
  0
VERTEX
  5
1AE8
100
AcDbEntity
  8
ALPHA
100
AcDbVertex
100
AcDb2dVertex
 10
24.96612
 20
6.561336
 30
0.0
  0
SEQEND
  5
1AE9
100
AcDbEntity
  8
ALPHA
  0
POLYLINE
  5
1AEA
100
AcDbEntity
  8
ALPHA
100
AcDb2dPolyline
 66
     1
 10
0.0
 20
0.0
 30
0.0
  0
VERTEX
  5
1AEB
100
AcDbEntity
  8
ALPHA
100
AcDbVertex
100
AcDb2dVertex
 10
24.995748
 20
40.167898
 30
0.0
  0
VERTEX
  5
1AEC
100
AcDbEntity
  8
ALPHA
100
AcDbVertex
100
AcDb2dVertex
 10
26.47503
 20
39.953035
 30
0.0
  0
VERTEX
  5
1AED
100
AcDbEntity
  8
ALPHA
100
AcDbVertex
100
AcDb2dVertex
 10
27.90936
 20
39.614265
 30
0.0
  0
VERTEX
  5
1AEE
100
AcDbEntity
  8
ALPHA
100
AcDbVertex
100
AcDb2dVertex
 10
30.620585
 20
38.587628
 30
0.0
  0
VERTEX
  5
1AEF
100
AcDbEntity
  8
ALPHA
100
AcDbVertex
100
AcDb2dVertex
 10
33.084259
 20
37.13323
 30
0.0
  0
VERTEX
  5
1AF0
100
AcDbEntity
  8
ALPHA
100
AcDbVertex
100
AcDb2dVertex
 10
35.25522
 20
35.296318
 30
0.0
  0
VERTEX
  5
1AF1
100
AcDbEntity
  8
ALPHA
100
AcDbVertex
100
AcDb2dVertex
 10
37.088307
 20
33.122136
 30
0.0
  0
VERTEX
  5
1AF2
100
AcDbEntity
  8
ALPHA
100
AcDbVertex
100
AcDb2dVertex
 10
38.538356
 20
30.655931
 30
0.0
  0
VERTEX
  5
1AF3
100
AcDbEntity
  8
ALPHA
100
AcDbVertex
100
AcDb2dVertex
 10
39.560205
 20
27.942945
 30
0.0
  0
VERTEX
  5
1AF4
100
AcDbEntity
  8
ALPHA
100
AcDbVertex
100
AcDb2dVertex
 10
39.896442
 20
26.50805
 30
0.0
  0
VERTEX
  5
1AF5
100
AcDbEntity
  8
ALPHA
100
AcDbVertex
100
AcDb2dVertex
 10
40.108693
 20
25.028426
 30
0.0
  0
SEQEND
  5
1AF6
100
AcDbEntity
  8
ALPHA
  0
POLYLINE
  5
1AF7
100
AcDbEntity
  8
ALPHA
100
AcDb2dPolyline
 66
     1
 10
0.0
 20
0.0
 30
0.0
  0
VERTEX
  5
1AF8
100
AcDbEntity
  8
ALPHA
100
AcDbVertex
100
AcDb2dVertex
 10
6.501958
 20
25.058054
 30
0.0
  0
VERTEX
  5
1AF9
100
AcDbEntity
  8
ALPHA
100
AcDbVertex
100
AcDb2dVertex
 10
6.71685
 20
26.537308
 30
0.0
  0
VERTEX
  5
1AFA
100
AcDbEntity
  8
ALPHA
100
AcDbVertex
100
AcDb2dVertex
 10
7.055641
 20
27.971617
 30
0.0
  0
VERTEX
  5
1AFB
100
AcDbEntity
  8
ALPHA
100
AcDbVertex
100
AcDb2dVertex
 10
8.082304
 20
30.682818
 30
0.0
  0
VERTEX
  5
1AFC
100
AcDbEntity
  8
ALPHA
100
AcDbVertex
100
AcDb2dVertex
 10
9.536711
 20
33.14649
 30
0.0
  0
VERTEX
  5
1AFD
100
AcDbEntity
  8
ALPHA
100
AcDbVertex
100
AcDb2dVertex
 10
11.373625
 20
35.317462
 30
0.0
  0
VERTEX
  5
1AFE
100
AcDbEntity
  8
ALPHA
100
AcDbVertex
100
AcDb2dVertex
 10
13.547808
 20
37.150568
 30
0.0
  0
VERTEX
  5
1AFF
100
AcDbEntity
  8
ALPHA
100
AcDbVertex
100
AcDb2dVertex
 10
16.014023
 20
38.600638
 30
0.0
  0
VERTEX
  5
1B00
100
AcDbEntity
  8
ALPHA
100
AcDbVertex
100
AcDb2dVertex
 10
18.727034
 20
39.622505
 30
0.0
  0
VERTEX
  5
1B01
100
AcDbEntity
  8
ALPHA
100
AcDbVertex
100
AcDb2dVertex
 10
20.161951
 20
39.958746
 30
0.0
  0
VERTEX
  5
1B02
100
AcDbEntity
  8
ALPHA
100
AcDbVertex
100
AcDb2dVertex
 10
21.641603
 20
40.170999
 30
0.0
  0
SEQEND
  5
1B03
100
AcDbEntity
  8
ALPHA
  0
POLYLINE
  5
1B04
100
AcDbEntity
  8
ALPHA
100
AcDb2dPolyline
 66
     1
 10
0.0
 20
0.0
 30
0.0
  0
VERTEX
  5
1B05
100
AcDbEntity
  8
ALPHA
100
AcDbVertex
100
AcDb2dVertex
 10
25.844275
 20
3.03287
 30
0.0
  0
VERTEX
  5
1B06
100
AcDbEntity
  8
ALPHA
100
AcDbVertex
100
AcDb2dVertex
 10
23.346903
 20
2.873168
 30
0.0
  0
VERTEX
  5
1B07
100
AcDbEntity
  8
ALPHA
100
AcDbVertex
100
AcDb2dVertex
 10
20.848886
 20
3.022362
 30
0.0
  0
SEQEND
  5
1B08
100
AcDbEntity
  8
ALPHA
  0
POLYLINE
  5
1B09
100
AcDbEntity
  8
ALPHA
100
AcDb2dPolyline
 66
     1
 10
0.0
 20
0.0
 30
0.0
  0
VERTEX
  5
1B0A
100
AcDbEntity
  8
ALPHA
100
AcDbVertex
100
AcDb2dVertex
 10
25.759525
 20
4.754901
 30
0.0
  0
VERTEX
  5
1B0B
100
AcDbEntity
  8
ALPHA
100
AcDbVertex
100
AcDb2dVertex
 10
25.740017
 20
5.071095
 30
0.0
  0
VERTEX
  5
1B0C
100
AcDbEntity
  8
ALPHA
100
AcDbVertex
100
AcDb2dVertex
 10
25.683241
 20
5.372276
 30
0.0
  0
VERTEX
  5
1B0D
100
AcDbEntity
  8
ALPHA
100
AcDbVertex
100
AcDb2dVertex
 10
25.591822
 20
5.656755
 30
0.0
  0
VERTEX
  5
1B0E
100
AcDbEntity
  8
ALPHA
100
AcDbVertex
100
AcDb2dVertex
 10
25.468385
 20
5.922847
 30
0.0
  0
VERTEX
  5
1B0F
100
AcDbEntity
  8
ALPHA
100
AcDbVertex
100
AcDb2dVertex
 10
25.315554
 20
6.168864
 30
0.0
  0
VERTEX
  5
1B10
100
AcDbEntity
  8
ALPHA
100
AcDbVertex
100
AcDb2dVertex
 10
25.135953
 20
6.393118
 30
0.0
  0
VERTEX
  5
1B11
100
AcDbEntity
  8
ALPHA
100
AcDbVertex
100
AcDb2dVertex
 10
24.932208
 20
6.593923
 30
0.0
  0
VERTEX
  5
1B12
100
AcDbEntity
  8
ALPHA
100
AcDbVertex
100
AcDb2dVertex
 10
24.706941
 20
6.769592
 30
0.0
  0
VERTEX
  5
1B13
100
AcDbEntity
  8
ALPHA
100
AcDbVertex
100
AcDb2dVertex
 10
24.462778
 20
6.918438
 30
0.0
  0
VERTEX
  5
1B14
100
AcDbEntity
  8
ALPHA
100
AcDbVertex
100
AcDb2dVertex
 10
24.202344
 20
7.038773
 30
0.0
  0
VERTEX
  5
1B15
100
AcDbEntity
  8
ALPHA
100
AcDbVertex
100
AcDb2dVertex
 10
23.928262
 20
7.128911
 30
0.0
  0
VERTEX
  5
1B16
100
AcDbEntity
  8
ALPHA
100
AcDbVertex
100
AcDb2dVertex
 10
23.643157
 20
7.187165
 30
0.0
  0
VERTEX
  5
1B17
100
AcDbEntity
  8
ALPHA
100
AcDbVertex
100
AcDb2dVertex
 10
23.349654
 20
7.211847
 30
0.0
  0
VERTEX
  5
1B18
100
AcDbEntity
  8
ALPHA
100
AcDbVertex
100
AcDb2dVertex
 10
23.050377
 20
7.20127
 30
0.0
  0
VERTEX
  5
1B19
100
AcDbEntity
  8
ALPHA
100
AcDbVertex
100
AcDb2dVertex
 10
22.747951
 20
7.153748
 30
0.0
  0
VERTEX
  5
1B1A
100
AcDbEntity
  8
ALPHA
100
AcDbVertex
100
AcDb2dVertex
 10
22.444999
 20
7.067593
 30
0.0
  0
VERTEX
  5
1B1B
100
AcDbEntity
  8
ALPHA
100
AcDbVertex
100
AcDb2dVertex
 10
22.105254
 20
6.925709
 30
0.0
  0
VERTEX
  5
1B1C
100
AcDbEntity
  8
ALPHA
100
AcDbVertex
100
AcDb2dVertex
 10
21.815734
 20
6.758407
 30
0.0
  0
VERTEX
  5
1B1D
100
AcDbEntity
  8
ALPHA
100
AcDbVertex
100
AcDb2dVertex
 10
21.572533
 20
6.567963
 30
0.0
  0
VERTEX
  5
1B1E
100
AcDbEntity
  8
ALPHA
100
AcDbVertex
100
AcDb2dVertex
 10
21.371747
 20
6.356655
 30
0.0
  0
VERTEX
  5
1B1F
100
AcDbEntity
  8
ALPHA
100
AcDbVertex
100
AcDb2dVertex
 10
21.209468
 20
6.126759
 30
0.0
  0
VERTEX
  5
1B20
100
AcDbEntity
  8
ALPHA
100
AcDbVertex
100
AcDb2dVertex
 10
21.081792
 20
5.880553
 30
0.0
  0
VERTEX
  5
1B21
100
AcDbEntity
  8
ALPHA
100
AcDbVertex
100
AcDb2dVertex
 10
20.984812
 20
5.620314
 30
0.0
  0
VERTEX
  5
1B22
100
AcDbEntity
  8
ALPHA
100
AcDbVertex
100
AcDb2dVertex
 10
20.914623
 20
5.348318
 30
0.0
  0
VERTEX
  5
1B23
100
AcDbEntity
  8
ALPHA
100
AcDbVertex
100
AcDb2dVertex
 10
20.838994
 20
4.778166
 30
0.0
  0
VERTEX
  5
1B24
100
AcDbEntity
  8
ALPHA
100
AcDbVertex
100
AcDb2dVertex
 10
20.823659
 20
4.188312
 30
0.0
  0
VERTEX
  5
1B25
100
AcDbEntity
  8
ALPHA
100
AcDbVertex
100
AcDb2dVertex
 10
20.848886
 20
3.022362
 30
0.0
  0
SEQEND
  5
1B26
100
AcDbEntity
  8
ALPHA
  0
POLYLINE
  5
1B27
100
AcDbEntity
  8
ALPHA
100
AcDb2dPolyline
 66
     1
 10
0.0
 20
0.0
 30
0.0
  0
VERTEX
  5
1B28
100
AcDbEntity
  8
ALPHA
100
AcDbVertex
100
AcDb2dVertex
 10
25.844275
 20
4.754901
 30
0.0
  0
VERTEX
  5
1B29
100
AcDbEntity
  8
ALPHA
100
AcDbVertex
100
AcDb2dVertex
 10
25.759525
 20
4.754901
 30
0.0
  0
SEQEND
  5
1B2A
100
AcDbEntity
  8
ALPHA
  0
POLYLINE
  5
1B2B
100
AcDbEntity
  8
ALPHA
100
AcDb2dPolyline
 66
     1
 10
0.0
 20
0.0
 30
0.0
  0
VERTEX
  5
1B2C
100
AcDbEntity
  8
ALPHA
100
AcDbVertex
100
AcDb2dVertex
 10
25.844275
 20
3.03287
 30
0.0
  0
VERTEX
  5
1B2D
100
AcDbEntity
  8
ALPHA
100
AcDbVertex
100
AcDb2dVertex
 10
25.844275
 20
4.754901
 30
0.0
  0
SEQEND
  5
1B2E
100
AcDbEntity
  8
ALPHA
  0
POLYLINE
  5
1B2F
100
AcDbEntity
  8
ALPHA
100
AcDb2dPolyline
 66
     1
 10
0.0
 20
0.0
 30
0.0
  0
VERTEX
  5
1B30
100
AcDbEntity
  8
ALPHA
100
AcDbVertex
100
AcDb2dVertex
 10
41.915128
 20
25.821832
 30
0.0
  0
VERTEX
  5
1B31
100
AcDbEntity
  8
ALPHA
100
AcDbVertex
100
AcDb2dVertex
 10
41.598933
 20
25.802323
 30
0.0
  0
VERTEX
  5
1B32
100
AcDbEntity
  8
ALPHA
100
AcDbVertex
100
AcDb2dVertex
 10
41.297751
 20
25.745546
 30
0.0
  0
VERTEX
  5
1B33
100
AcDbEntity
  8
ALPHA
100
AcDbVertex
100
AcDb2dVertex
 10
41.013269
 20
25.654126
 30
0.0
  0
VERTEX
  5
1B34
100
AcDbEntity
  8
ALPHA
100
AcDbVertex
100
AcDb2dVertex
 10
40.747174
 20
25.530686
 30
0.0
  0
VERTEX
  5
1B35
100
AcDbEntity
  8
ALPHA
100
AcDbVertex
100
AcDb2dVertex
 10
40.501154
 20
25.377851
 30
0.0
  0
VERTEX
  5
1B36
100
AcDbEntity
  8
ALPHA
100
AcDbVertex
100
AcDb2dVertex
 10
40.276897
 20
25.198246
 30
0.0
  0
VERTEX
  5
1B37
100
AcDbEntity
  8
ALPHA
100
AcDbVertex
100
AcDb2dVertex
 10
40.076088
 20
24.994493
 30
0.0
  0
VERTEX
  5
1B38
100
AcDbEntity
  8
ALPHA
100
AcDbVertex
100
AcDb2dVertex
 10
39.900416
 20
24.769219
 30
0.0
  0
VERTEX
  5
1B39
100
AcDbEntity
  8
ALPHA
100
AcDbVertex
100
AcDb2dVertex
 10
39.751569
 20
24.525046
 30
0.0
  0
VERTEX
  5
1B3A
100
AcDbEntity
  8
ALPHA
100
AcDbVertex
100
AcDb2dVertex
 10
39.631232
 20
24.2646
 30
0.0
  0
VERTEX
  5
1B3B
100
AcDbEntity
  8
ALPHA
100
AcDbVertex
100
AcDb2dVertex
 10
39.541094
 20
23.990504
 30
0.0
  0
VERTEX
  5
1B3C
100
AcDbEntity
  8
ALPHA
100
AcDbVertex
100
AcDb2dVertex
 10
39.482842
 20
23.705383
 30
0.0
  0
VERTEX
  5
1B3D
100
AcDbEntity
  8
ALPHA
100
AcDbVertex
100
AcDb2dVertex
 10
39.458162
 20
23.411861
 30
0.0
  0
VERTEX
  5
1B3E
100
AcDbEntity
  8
ALPHA
100
AcDbVertex
100
AcDb2dVertex
 10
39.468743
 20
23.112563
 30
0.0
  0
VERTEX
  5
1B3F
100
AcDbEntity
  8
ALPHA
100
AcDbVertex
100
AcDb2dVertex
 10
39.516272
 20
22.810112
 30
0.0
  0
VERTEX
  5
1B40
100
AcDbEntity
  8
ALPHA
100
AcDbVertex
100
AcDb2dVertex
 10
39.602436
 20
22.507133
 30
0.0
  0
VERTEX
  5
1B41
100
AcDbEntity
  8
ALPHA
100
AcDbVertex
100
AcDb2dVertex
 10
39.74432
 20
22.16739
 30
0.0
  0
VERTEX
  5
1B42
100
AcDbEntity
  8
ALPHA
100
AcDbVertex
100
AcDb2dVertex
 10
39.911622
 20
21.877875
 30
0.0
  0
VERTEX
  5
1B43
100
AcDbEntity
  8
ALPHA
100
AcDbVertex
100
AcDb2dVertex
 10
40.102066
 20
21.634683
 30
0.0
  0
VERTEX
  5
1B44
100
AcDbEntity
  8
ALPHA
100
AcDbVertex
100
AcDb2dVertex
 10
40.313374
 20
21.433908
 30
0.0
  0
VERTEX
  5
1B45
100
AcDbEntity
  8
ALPHA
100
AcDbVertex
100
AcDb2dVertex
 10
40.54327
 20
21.271642
 30
0.0
  0
VERTEX
  5
1B46
100
AcDbEntity
  8
ALPHA
100
AcDbVertex
100
AcDb2dVertex
 10
40.789476
 20
21.14398
 30
0.0
  0
VERTEX
  5
1B47
100
AcDbEntity
  8
ALPHA
100
AcDbVertex
100
AcDb2dVertex
 10
41.049715
 20
21.047016
 30
0.0
  0
VERTEX
  5
1B48
100
AcDbEntity
  8
ALPHA
100
AcDbVertex
100
AcDb2dVertex
 10
41.321711
 20
20.976843
 30
0.0
  0
VERTEX
  5
1B49
100
AcDbEntity
  8
ALPHA
100
AcDbVertex
100
AcDb2dVertex
 10
41.891863
 20
20.901246
 30
0.0
  0
VERTEX
  5
1B4A
100
AcDbEntity
  8
ALPHA
100
AcDbVertex
100
AcDb2dVertex
 10
42.481717
 20
20.885938
 30
0.0
  0
VERTEX
  5
1B4B
100
AcDbEntity
  8
ALPHA
100
AcDbVertex
100
AcDb2dVertex
 10
43.647667
 20
20.911193
 30
0.0
  0
SEQEND
  5
1B4C
100
AcDbEntity
  8
ALPHA
  0
POLYLINE
  5
1B4D
100
AcDbEntity
  8
ALPHA
100
AcDb2dPolyline
 66
     1
 10
0.0
 20
0.0
 30
0.0
  0
VERTEX
  5
1B4E
100
AcDbEntity
  8
ALPHA
100
AcDbVertex
100
AcDb2dVertex
 10
41.915128
 20
25.906581
 30
0.0
  0
VERTEX
  5
1B4F
100
AcDbEntity
  8
ALPHA
100
AcDbVertex
100
AcDb2dVertex
 10
41.915128
 20
25.821832
 30
0.0
  0
SEQEND
  5
1B50
100
AcDbEntity
  8
ALPHA
  0
POLYLINE
  5
1B51
100
AcDbEntity
  8
ALPHA
100
AcDb2dPolyline
 66
     1
 10
0.0
 20
0.0
 30
0.0
  0
VERTEX
  5
1B52
100
AcDbEntity
  8
ALPHA
100
AcDbVertex
100
AcDb2dVertex
 10
43.637159
 20
25.906581
 30
0.0
  0
VERTEX
  5
1B53
100
AcDbEntity
  8
ALPHA
100
AcDbVertex
100
AcDb2dVertex
 10
41.915128
 20
25.906581
 30
0.0
  0
SEQEND
  5
1B54
100
AcDbEntity
  8
ALPHA
  0
POLYLINE
  5
1B55
100
AcDbEntity
  8
ALPHA
100
AcDb2dPolyline
 66
     1
 10
0.0
 20
0.0
 30
0.0
  0
VERTEX
  5
1B56
100
AcDbEntity
  8
ALPHA
100
AcDbVertex
100
AcDb2dVertex
 10
20.848197
 20
41.977435
 30
0.0
  0
VERTEX
  5
1B57
100
AcDbEntity
  8
ALPHA
100
AcDbVertex
100
AcDb2dVertex
 10
20.867707
 20
41.661209
 30
0.0
  0
VERTEX
  5
1B58
100
AcDbEntity
  8
ALPHA
100
AcDbVertex
100
AcDb2dVertex
 10
20.924485
 20
41.360001
 30
0.0
  0
VERTEX
  5
1B59
100
AcDbEntity
  8
ALPHA
100
AcDbVertex
100
AcDb2dVertex
 10
21.015908
 20
41.075497
 30
0.0
  0
VERTEX
  5
1B5A
100
AcDbEntity
  8
ALPHA
100
AcDbVertex
100
AcDb2dVertex
 10
21.13935
 20
40.809384
 30
0.0
  0
VERTEX
  5
1B5B
100
AcDbEntity
  8
ALPHA
100
AcDbVertex
100
AcDb2dVertex
 10
21.292188
 20
40.563348
 30
0.0
  0
VERTEX
  5
1B5C
100
AcDbEntity
  8
ALPHA
100
AcDbVertex
100
AcDb2dVertex
 10
21.471797
 20
40.339078
 30
0.0
  0
VERTEX
  5
1B5D
100
AcDbEntity
  8
ALPHA
100
AcDbVertex
100
AcDb2dVertex
 10
21.675553
 20
40.138259
 30
0.0
  0
VERTEX
  5
1B5E
100
AcDbEntity
  8
ALPHA
100
AcDbVertex
100
AcDb2dVertex
 10
21.90083
 20
39.962579
 30
0.0
  0
VERTEX
  5
1B5F
100
AcDbEntity
  8
ALPHA
100
AcDbVertex
100
AcDb2dVertex
 10
22.145005
 20
39.813725
 30
0.0
  0
VERTEX
  5
1B60
100
AcDbEntity
  8
ALPHA
100
AcDbVertex
100
AcDb2dVertex
 10
22.405453
 20
39.693384
 30
0.0
  0
VERTEX
  5
1B61
100
AcDbEntity
  8
ALPHA
100
AcDbVertex
100
AcDb2dVertex
 10
22.679549
 20
39.603242
 30
0.0
  0
VERTEX
  5
1B62
100
AcDbEntity
  8
ALPHA
100
AcDbVertex
100
AcDb2dVertex
 10
22.964668
 20
39.544986
 30
0.0
  0
VERTEX
  5
1B63
100
AcDbEntity
  8
ALPHA
100
AcDbVertex
100
AcDb2dVertex
 10
23.258187
 20
39.520305
 30
0.0
  0
VERTEX
  5
1B64
100
AcDbEntity
  8
ALPHA
100
AcDbVertex
100
AcDb2dVertex
 10
23.557481
 20
39.530883
 30
0.0
  0
VERTEX
  5
1B65
100
AcDbEntity
  8
ALPHA
100
AcDbVertex
100
AcDb2dVertex
 10
23.859926
 20
39.578409
 30
0.0
  0
VERTEX
  5
1B66
100
AcDbEntity
  8
ALPHA
100
AcDbVertex
100
AcDb2dVertex
 10
24.162896
 20
39.66457
 30
0.0
  0
VERTEX
  5
1B67
100
AcDbEntity
  8
ALPHA
100
AcDbVertex
100
AcDb2dVertex
 10
24.502639
 20
39.806456
 30
0.0
  0
VERTEX
  5
1B68
100
AcDbEntity
  8
ALPHA
100
AcDbVertex
100
AcDb2dVertex
 10
24.792154
 20
39.973764
 30
0.0
  0
VERTEX
  5
1B69
100
AcDbEntity
  8
ALPHA
100
AcDbVertex
100
AcDb2dVertex
 10
25.035346
 20
40.164215
 30
0.0
  0
VERTEX
  5
1B6A
100
AcDbEntity
  8
ALPHA
100
AcDbVertex
100
AcDb2dVertex
 10
25.236121
 20
40.375533
 30
0.0
  0
VERTEX
  5
1B6B
100
AcDbEntity
  8
ALPHA
100
AcDbVertex
100
AcDb2dVertex
 10
25.398387
 20
40.605439
 30
0.0
  0
VERTEX
  5
1B6C
100
AcDbEntity
  8
ALPHA
100
AcDbVertex
100
AcDb2dVertex
 10
25.526048
 20
40.851655
 30
0.0
  0
VERTEX
  5
1B6D
100
AcDbEntity
  8
ALPHA
100
AcDbVertex
100
AcDb2dVertex
 10
25.623013
 20
41.111905
 30
0.0
  0
VERTEX
  5
1B6E
100
AcDbEntity
  8
ALPHA
100
AcDbVertex
100
AcDb2dVertex
 10
25.693186
 20
41.383909
 30
0.0
  0
VERTEX
  5
1B6F
100
AcDbEntity
  8
ALPHA
100
AcDbVertex
100
AcDb2dVertex
 10
25.768783
 20
41.954073
 30
0.0
  0
VERTEX
  5
1B70
100
AcDbEntity
  8
ALPHA
100
AcDbVertex
100
AcDb2dVertex
 10
25.78409
 20
42.543924
 30
0.0
  0
VERTEX
  5
1B71
100
AcDbEntity
  8
ALPHA
100
AcDbVertex
100
AcDb2dVertex
 10
25.758836
 20
43.709801
 30
0.0
  0
SEQEND
  5
1B72
100
AcDbEntity
  8
ALPHA
  0
POLYLINE
  5
1B73
100
AcDbEntity
  8
ALPHA
100
AcDb2dPolyline
 66
     1
 10
0.0
 20
0.0
 30
0.0
  0
VERTEX
  5
1B74
100
AcDbEntity
  8
ALPHA
100
AcDbVertex
100
AcDb2dVertex
 10
20.763448
 20
41.977435
 30
0.0
  0
VERTEX
  5
1B75
100
AcDbEntity
  8
ALPHA
100
AcDbVertex
100
AcDb2dVertex
 10
20.848197
 20
41.977435
 30
0.0
  0
SEQEND
  5
1B76
100
AcDbEntity
  8
ALPHA
  0
POLYLINE
  5
1B77
100
AcDbEntity
  8
ALPHA
100
AcDb2dPolyline
 66
     1
 10
0.0
 20
0.0
 30
0.0
  0
VERTEX
  5
1B78
100
AcDbEntity
  8
ALPHA
100
AcDbVertex
100
AcDb2dVertex
 10
20.763448
 20
43.699293
 30
0.0
  0
VERTEX
  5
1B79
100
AcDbEntity
  8
ALPHA
100
AcDbVertex
100
AcDb2dVertex
 10
20.763448
 20
41.977435
 30
0.0
  0
SEQEND
  5
1B7A
100
AcDbEntity
  8
ALPHA
  0
POLYLINE
  5
1B7B
100
AcDbEntity
  8
ALPHA
100
AcDb2dPolyline
 66
     1
 10
0.0
 20
0.0
 30
0.0
  0
VERTEX
  5
1B7C
100
AcDbEntity
  8
ALPHA
100
AcDbVertex
100
AcDb2dVertex
 10
3.219127
 20
33.366246
 30
0.0
  0
VERTEX
  5
1B7D
100
AcDbEntity
  8
ALPHA
100
AcDbVertex
100
AcDb2dVertex
 10
4.822237
 20
36.088309
 30
0.0
  0
VERTEX
  5
1B7E
100
AcDbEntity
  8
ALPHA
100
AcDbVertex
100
AcDb2dVertex
 10
6.760855
 20
38.523998
 30
0.0
  0
VERTEX
  5
1B7F
100
AcDbEntity
  8
ALPHA
100
AcDbVertex
100
AcDb2dVertex
 10
8.996866
 20
40.649713
 30
0.0
  0
VERTEX
  5
1B80
100
AcDbEntity
  8
ALPHA
100
AcDbVertex
100
AcDb2dVertex
 10
11.492158
 20
42.441855
 30
0.0
  0
VERTEX
  5
1B81
100
AcDbEntity
  8
ALPHA
100
AcDbVertex
100
AcDb2dVertex
 10
14.208616
 20
43.876824
 30
0.0
  0
VERTEX
  5
1B82
100
AcDbEntity
  8
ALPHA
100
AcDbVertex
100
AcDb2dVertex
 10
17.108129
 20
44.93102
 30
0.0
  0
VERTEX
  5
1B83
100
AcDbEntity
  8
ALPHA
100
AcDbVertex
100
AcDb2dVertex
 10
20.152582
 20
45.580844
 30
0.0
  0
VERTEX
  5
1B84
100
AcDbEntity
  8
ALPHA
100
AcDbVertex
100
AcDb2dVertex
 10
23.303861
 20
45.802697
 30
0.0
  0
SEQEND
  5
1B85
100
AcDbEntity
  8
ALPHA
  0
POLYLINE
  5
1B86
100
AcDbEntity
  8
ALPHA
100
AcDb2dPolyline
 66
     1
 10
0.0
 20
0.0
 30
0.0
  0
VERTEX
  5
1B87
100
AcDbEntity
  8
ALPHA
100
AcDbVertex
100
AcDb2dVertex
 10
3.218955
 20
13.366261
 30
0.0
  0
VERTEX
  5
1B88
100
AcDbEntity
  8
ALPHA
100
AcDbVertex
100
AcDb2dVertex
 10
2.190101
 20
15.775529
 30
0.0
  0
VERTEX
  5
1B89
100
AcDbEntity
  8
ALPHA
100
AcDbVertex
100
AcDb2dVertex
 10
1.455208
 20
18.262563
 30
0.0
  0
VERTEX
  5
1B8A
100
AcDbEntity
  8
ALPHA
100
AcDbVertex
100
AcDb2dVertex
 10
1.014277
 20
20.801439
 30
0.0
  0
VERTEX
  5
1B8B
100
AcDbEntity
  8
ALPHA
100
AcDbVertex
100
AcDb2dVertex
 10
0.867311
 20
23.366232
 30
0.0
  0
VERTEX
  5
1B8C
100
AcDbEntity
  8
ALPHA
100
AcDbVertex
100
AcDb2dVertex
 10
1.01431
 20
25.931017
 30
0.0
  0
VERTEX
  5
1B8D
100
AcDbEntity
  8
ALPHA
100
AcDbVertex
100
AcDb2dVertex
 10
1.455278
 20
28.469869
 30
0.0
  0
VERTEX
  5
1B8E
100
AcDbEntity
  8
ALPHA
100
AcDbVertex
100
AcDb2dVertex
 10
2.190216
 20
30.956863
 30
0.0
  0
VERTEX
  5
1B8F
100
AcDbEntity
  8
ALPHA
100
AcDbVertex
100
AcDb2dVertex
 10
3.219127
 20
33.366074
 30
0.0
  0
SEQEND
  5
1B90
100
AcDbEntity
  8
ALPHA
  0
POLYLINE
  5
1B91
100
AcDbEntity
  8
ALPHA
100
AcDb2dPolyline
 66
     1
 10
0.0
 20
0.0
 30
0.0
  0
VERTEX
  5
1B92
100
AcDbEntity
  8
ALPHA
100
AcDbVertex
100
AcDb2dVertex
 10
43.388596
 20
13.366089
 30
0.0
  0
VERTEX
  5
1B93
100
AcDbEntity
  8
ALPHA
100
AcDbVertex
100
AcDb2dVertex
 10
41.785485
 20
10.644026
 30
0.0
  0
VERTEX
  5
1B94
100
AcDbEntity
  8
ALPHA
100
AcDbVertex
100
AcDb2dVertex
 10
39.846868
 20
8.208337
 30
0.0
  0
VERTEX
  5
1B95
100
AcDbEntity
  8
ALPHA
100
AcDbVertex
100
AcDb2dVertex
 10
37.610857
 20
6.082622
 30
0.0
  0
VERTEX
  5
1B96
100
AcDbEntity
  8
ALPHA
100
AcDbVertex
100
AcDb2dVertex
 10
35.115565
 20
4.29048
 30
0.0
  0
VERTEX
  5
1B97
100
AcDbEntity
  8
ALPHA
100
AcDbVertex
100
AcDb2dVertex
 10
32.399106
 20
2.855511
 30
0.0
  0
VERTEX
  5
1B98
100
AcDbEntity
  8
ALPHA
100
AcDbVertex
100
AcDb2dVertex
 10
29.499594
 20
1.801315
 30
0.0
  0
VERTEX
  5
1B99
100
AcDbEntity
  8
ALPHA
100
AcDbVertex
100
AcDb2dVertex
 10
26.455141
 20
1.151491
 30
0.0
  0
VERTEX
  5
1B9A
100
AcDbEntity
  8
ALPHA
100
AcDbVertex
100
AcDb2dVertex
 10
23.303861
 20
0.929639
 30
0.0
  0
VERTEX
  5
1B9B
100
AcDbEntity
  8
ALPHA
100
AcDbVertex
100
AcDb2dVertex
 10
20.152582
 20
1.151491
 30
0.0
  0
VERTEX
  5
1B9C
100
AcDbEntity
  8
ALPHA
100
AcDbVertex
100
AcDb2dVertex
 10
17.108129
 20
1.801315
 30
0.0
  0
VERTEX
  5
1B9D
100
AcDbEntity
  8
ALPHA
100
AcDbVertex
100
AcDb2dVertex
 10
14.208616
 20
2.855511
 30
0.0
  0
VERTEX
  5
1B9E
100
AcDbEntity
  8
ALPHA
100
AcDbVertex
100
AcDb2dVertex
 10
11.492158
 20
4.29048
 30
0.0
  0
VERTEX
  5
1B9F
100
AcDbEntity
  8
ALPHA
100
AcDbVertex
100
AcDb2dVertex
 10
8.996866
 20
6.082622
 30
0.0
  0
VERTEX
  5
1BA0
100
AcDbEntity
  8
ALPHA
100
AcDbVertex
100
AcDb2dVertex
 10
6.760855
 20
8.208337
 30
0.0
  0
VERTEX
  5
1BA1
100
AcDbEntity
  8
ALPHA
100
AcDbVertex
100
AcDb2dVertex
 10
4.822237
 20
10.644026
 30
0.0
  0
VERTEX
  5
1BA2
100
AcDbEntity
  8
ALPHA
100
AcDbVertex
100
AcDb2dVertex
 10
3.219127
 20
13.366089
 30
0.0
  0
SEQEND
  5
1BA3
100
AcDbEntity
  8
ALPHA
  0
POLYLINE
  5
1BA4
100
AcDbEntity
  8
ALPHA
100
AcDb2dPolyline
 66
     1
 10
0.0
 20
0.0
 30
0.0
  0
VERTEX
  5
1BA5
100
AcDbEntity
  8
ALPHA
100
AcDbVertex
100
AcDb2dVertex
 10
43.388768
 20
33.365902
 30
0.0
  0
VERTEX
  5
1BA6
100
AcDbEntity
  8
ALPHA
100
AcDbVertex
100
AcDb2dVertex
 10
44.417621
 20
30.956691
 30
0.0
  0
VERTEX
  5
1BA7
100
AcDbEntity
  8
ALPHA
100
AcDbVertex
100
AcDb2dVertex
 10
45.152517
 20
28.469697
 30
0.0
  0
VERTEX
  5
1BA8
100
AcDbEntity
  8
ALPHA
100
AcDbVertex
100
AcDb2dVertex
 10
45.593454
 20
25.930845
 30
0.0
  0
VERTEX
  5
1BA9
100
AcDbEntity
  8
ALPHA
100
AcDbVertex
100
AcDb2dVertex
 10
45.740433
 20
23.36606
 30
0.0
  0
VERTEX
  5
1BAA
100
AcDbEntity
  8
ALPHA
100
AcDbVertex
100
AcDb2dVertex
 10
45.593454
 20
20.801267
 30
0.0
  0
VERTEX
  5
1BAB
100
AcDbEntity
  8
ALPHA
100
AcDbVertex
100
AcDb2dVertex
 10
45.152517
 20
18.262391
 30
0.0
  0
VERTEX
  5
1BAC
100
AcDbEntity
  8
ALPHA
100
AcDbVertex
100
AcDb2dVertex
 10
44.417621
 20
15.775356
 30
0.0
  0
VERTEX
  5
1BAD
100
AcDbEntity
  8
ALPHA
100
AcDbVertex
100
AcDb2dVertex
 10
43.388768
 20
13.366089
 30
0.0
  0
SEQEND
  5
1BAE
100
AcDbEntity
  8
ALPHA
  0
POLYLINE
  5
1BAF
100
AcDbEntity
  8
ALPHA
100
AcDb2dPolyline
 66
     1
 10
0.0
 20
0.0
 30
0.0
  0
VERTEX
  5
1BB0
100
AcDbEntity
  8
ALPHA
100
AcDbVertex
100
AcDb2dVertex
 10
23.303861
 20
45.802697
 30
0.0
  0
VERTEX
  5
1BB1
100
AcDbEntity
  8
ALPHA
100
AcDbVertex
100
AcDb2dVertex
 10
26.455141
 20
45.580844
 30
0.0
  0
VERTEX
  5
1BB2
100
AcDbEntity
  8
ALPHA
100
AcDbVertex
100
AcDb2dVertex
 10
29.499594
 20
44.93102
 30
0.0
  0
VERTEX
  5
1BB3
100
AcDbEntity
  8
ALPHA
100
AcDbVertex
100
AcDb2dVertex
 10
32.399106
 20
43.876824
 30
0.0
  0
VERTEX
  5
1BB4
100
AcDbEntity
  8
ALPHA
100
AcDbVertex
100
AcDb2dVertex
 10
35.115565
 20
42.441855
 30
0.0
  0
VERTEX
  5
1BB5
100
AcDbEntity
  8
ALPHA
100
AcDbVertex
100
AcDb2dVertex
 10
37.610857
 20
40.649713
 30
0.0
  0
VERTEX
  5
1BB6
100
AcDbEntity
  8
ALPHA
100
AcDbVertex
100
AcDb2dVertex
 10
39.846868
 20
38.523998
 30
0.0
  0
VERTEX
  5
1BB7
100
AcDbEntity
  8
ALPHA
100
AcDbVertex
100
AcDb2dVertex
 10
41.785485
 20
36.088309
 30
0.0
  0
VERTEX
  5
1BB8
100
AcDbEntity
  8
ALPHA
100
AcDbVertex
100
AcDb2dVertex
 10
43.388596
 20
33.366246
 30
0.0
  0
SEQEND
  5
1BB9
100
AcDbEntity
  8
ALPHA
  0
POLYLINE
  5
1BBA
100
AcDbEntity
  8
ALPHA
100
AcDb2dPolyline
 66
     1
 10
0.0
 20
0.0
 30
0.0
  0
VERTEX
  5
1BBB
100
AcDbEntity
  8
ALPHA
100
AcDbVertex
100
AcDb2dVertex
 10
37.696781
 20
23.366168
 30
0.0
 42
1.0
  0
VERTEX
  5
1BBC
100
AcDbEntity
  8
ALPHA
100
AcDbVertex
100
AcDb2dVertex
 10
8.910941
 20
23.366168
 30
0.0
 42
1.0
  0
VERTEX
  5
1BBD
100
AcDbEntity
  8
ALPHA
100
AcDbVertex
100
AcDb2dVertex
 10
37.696781
 20
23.366168
 30
0.0
  0
SEQEND
  5
1BBE
100
AcDbEntity
  8
ALPHA
  0
POLYLINE
  5
1BBF
100
AcDbEntity
  8
ALPHA
100
AcDb2dPolyline
 66
     1
 10
0.0
 20
0.0
 30
0.0
  0
VERTEX
  5
1BC0
100
AcDbEntity
  8
ALPHA
100
AcDbVertex
100
AcDb2dVertex
 10
38.204933
 20
23.366168
 30
0.0
 42
1.0
  0
VERTEX
  5
1BC1
100
AcDbEntity
  8
ALPHA
100
AcDbVertex
100
AcDb2dVertex
 10
8.40279
 20
23.366168
 30
0.0
 42
1.0
  0
VERTEX
  5
1BC2
100
AcDbEntity
  8
ALPHA
100
AcDbVertex
100
AcDb2dVertex
 10
38.204933
 20
23.366168
 30
0.0
  0
SEQEND
  5
1BC3
100
AcDbEntity
  8
ALPHA
  0
DIMENSION
  5
1C03
100
AcDbEntity
  8
COTATION1
100
AcDbDimension
  2
*D3
 10
53.857579
 20
9.616146
 30
0.0
 11
51.607579
 21
23.366146
 31
0.0
 70
    32
  1
%%c<>
  3
SC_STAND
100
AcDbAlignedDimension
 13
23.366505
 23
37.116146
 33
0.0
 14
23.366505
 24
9.616146
 34
0.0
 50
90.0
100
AcDbRotatedDimension
  0
DIMENSION
  5
1C31
100
AcDbEntity
  8
COTATION1
100
AcDbDimension
  2
*D4
 10
61.9919
 20
0.929639
 30
0.0
 11
59.7419
 21
23.366168
 31
0.0
 70
    32
  1
%%c45
  3
SC_STAND
100
AcDbAlignedDimension
 13
23.303861
 23
45.802697
 33
0.0
 14
23.303861
 24
0.929639
 34
0.0
 50
90.0
100
AcDbRotatedDimension
  0
DIMENSION
  5
1C6A
100
AcDbEntity
  8
COTATION1
100
AcDbDimension
  2
*D5
 10
36.116373
 20
-6.197791
 30
0.0
 11
23.366361
 21
-3.947791
 31
0.0
 70
    32
  3
SC_STAND
100
AcDbAlignedDimension
 13
10.616349
 23
18.218148
 33
0.0
 14
36.116373
 24
18.218574
 34
0.0
100
AcDbRotatedDimension
  0
ARC
  5
1C6B
100
AcDbEntity
  8
ALPHA
100
AcDbCircle
 10
23.366275
 20
23.366146
 30
0.0
 40
13.75
100
AcDbArc
 50
201.987226
 51
338.014692
  0
ARC
  5
1C83
100
AcDbEntity
  8
ALPHA
100
AcDbCircle
 10
23.366275
 20
23.366146
 30
0.0
 40
13.75
100
AcDbArc
 50
21.985308
 51
158.012774
  0
LINE
  5
1C84
100
AcDbEntity
  8
ALPHA
100
AcDbLine
 10
10.616349
 20
28.514144
 30
0.0
 11
10.616349
 21
18.218148
 31
0.0
  0
LINE
  5
1C85
100
AcDbEntity
  8
ALPHA
100
AcDbLine
 10
36.116373
 20
28.513717
 30
0.0
 11
36.116373
 21
18.218574
 31
0.0
  0
DIMENSION
  5
1CE4
100
AcDbEntity
  8
COTATION1
100
AcDbDimension
  2
*D6
 10
-5.088075
 20
13.366089
 30
0.0
 11
-7.338075
 21
23.366168
 31
0.0
 70
    32
  3
SC_STAND
100
AcDbAlignedDimension
 13
3.219127
 23
33.366246
 33
0.0
 14
3.219127
 24
13.366089
 34
0.0
 50
90.0
100
AcDbRotatedDimension
  0
ENDSEC
  0
SECTION
  2
OBJECTS
  0
DICTIONARY
  5
F8
100
AcDbDictionary
  3
ACAD_GROUP
350
F9
  3
ACAD_MLINESTYLE
350
106
  3
ACDBVARIABLEDICTIONARY
350
143
  0
DICTIONARY
  5
F9
102
{ACAD_REACTORS
330
F8
102
}
100
AcDbDictionary
  0
DICTIONARY
  5
106
102
{ACAD_REACTORS
330
F8
102
}
100
AcDbDictionary
  3
STANDARD
350
107
  0
DICTIONARY
  5
143
102
{ACAD_REACTORS
330
F8
102
}
100
AcDbDictionary
  3
DIMADEC
350
144
  0
MLINESTYLE
  5
107
102
{ACAD_REACTORS
330
106
102
}
100
AcDbMlineStyle
  2
STANDARD
 70
     0
  3

 62
   256
 51
90.0
 52
90.0
 71
     2
 49
0.5
 62
   256
  6
BYLAYER
 49
-0.5
 62
   256
  6
BYLAYER
  0
DICTIONARYVAR
  5
144
102
{ACAD_REACTORS
330
143
102
}
100
DictionaryVariables
280
     0
  1
0
  0
ENDSEC
  0
EOF
