  0
SECTION
  2
HEADER
  9
$ACADVER
  1
AC1009
  9
$INSBASE
 10
0.0
 20
0.0
 30
0.0
  9
$EXTMIN
 10
33.871222
 20
55.476485
 30
-0.001526
  9
$EXTMAX
 10
159.229734
 20
155.889802
 30
0.0
  9
$LIMMIN
 10
0.0
 20
0.0
  9
$LIMMAX
 10
150.0
 20
150.0
  9
$ORTHOMODE
 70
     0
  9
$REGENMODE
 70
     1
  9
$FILLMODE
 70
     1
  9
$QTEXTMODE
 70
     0
  9
$MIRRTEXT
 70
     1
  9
$DRAGMODE
 70
     2
  9
$LTSCALE
 40
9.777778
  9
$OSMODE
 70
   167
  9
$ATTMODE
 70
     1
  9
$TEXTSIZE
 40
0.2
  9
$TRACEWID
 40
0.05
  9
$TEXTSTYLE
  7
STANDARD
  9
$CLAYER
  8
0
  9
$CELTYPE
  6
BYLAYER
  9
$CECOLOR
 62
   256
  9
$DIMSCALE
 40
1.0
  9
$DIMASZ
 40
2.5
  9
$DIMEXO
 40
1.111111
  9
$DIMDLI
 40
2.0
  9
$DIMRND
 40
0.0
  9
$DIMDLE
 40
0.0
  9
$DIMEXE
 40
3.2
  9
$DIMTP
 40
0.0
  9
$DIMTM
 40
0.0
  9
$DIMTXT
 40
2.008929
  9
$DIMCEN
 40
1.6
  9
$DIMTSZ
 40
0.0
  9
$DIMTOL
 70
     0
  9
$DIMLIM
 70
     0
  9
$DIMTIH
 70
     0
  9
$DIMTOH
 70
     0
  9
$DIMSE1
 70
     0
  9
$DIMSE2
 70
     0
  9
$DIMTAD
 70
     1
  9
$DIMZIN
 70
     8
  9
$DIMBLK
  1

  9
$DIMASO
 70
     1
  9
$DIMSHO
 70
     1
  9
$DIMPOST
  1

  9
$DIMAPOST
  1

  9
$DIMALT
 70
     0
  9
$DIMALTD
 70
     2
  9
$DIMALTF
 40
25.4
  9
$DIMLFAC
 40
1.0
  9
$DIMTOFL
 70
     0
  9
$DIMTVP
 40
0.0
  9
$DIMTIX
 70
     0
  9
$DIMSOXD
 70
     0
  9
$DIMSAH
 70
     0
  9
$DIMBLK1
  1

  9
$DIMBLK2
  1

  9
$DIMSTYLE
  2
STANDARD
  9
$DIMCLRD
 70
     0
  9
$DIMCLRE
 70
     0
  9
$DIMCLRT
 70
     0
  9
$DIMTFAC
 40
1.0
  9
$DIMGAP
 40
1.0
  9
$LUNITS
 70
     2
  9
$LUPREC
 70
     4
  9
$SKETCHINC
 40
0.1
  9
$FILLETRAD
 40
0.0
  9
$AUNITS
 70
     0
  9
$AUPREC
 70
     0
  9
$MENU
  1
.
  9
$ELEVATION
 40
0.0
  9
$PELEVATION
 40
0.0
  9
$THICKNESS
 40
0.0
  9
$LIMCHECK
 70
     0
  9
$BLIPMODE
 70
     0
  9
$CHAMFERA
 40
0.0
  9
$CHAMFERB
 40
0.0
  9
$SKPOLY
 70
     0
  9
$TDCREATE
 40
2452282.428316
  9
$TDUPDATE
 40
2452292.3587
  9
$TDINDWG
 40
0.009844
  9
$TDUSRTIMER
 40
0.009844
  9
$USRTIMER
 70
     1
  9
$ANGBASE
 50
0.0
  9
$ANGDIR
 70
     0
  9
$PDMODE
 70
     0
  9
$PDSIZE
 40
0.0
  9
$PLINEWID
 40
0.0
  9
$COORDS
 70
     2
  9
$SPLFRAME
 70
     0
  9
$SPLINETYPE
 70
     6
  9
$SPLINESEGS
 70
     8
  9
$ATTDIA
 70
     0
  9
$ATTREQ
 70
     1
  9
$HANDLING
 70
     1
  9
$HANDSEED
  5
28F1
  9
$SURFTAB1
 70
     6
  9
$SURFTAB2
 70
     6
  9
$SURFTYPE
 70
     6
  9
$SURFU
 70
     6
  9
$SURFV
 70
     6
  9
$UCSNAME
  2

  9
$UCSORG
 10
0.0
 20
0.0
 30
0.0
  9
$UCSXDIR
 10
1.0
 20
0.0
 30
0.0
  9
$UCSYDIR
 10
0.0
 20
1.0
 30
0.0
  9
$PUCSNAME
  2

  9
$PUCSORG
 10
0.0
 20
0.0
 30
0.0
  9
$PUCSXDIR
 10
1.0
 20
0.0
 30
0.0
  9
$PUCSYDIR
 10
0.0
 20
1.0
 30
0.0
  9
$USERI1
 70
     0
  9
$USERI2
 70
     0
  9
$USERI3
 70
     0
  9
$USERI4
 70
     0
  9
$USERI5
 70
     0
  9
$USERR1
 40
0.0
  9
$USERR2
 40
0.0
  9
$USERR3
 40
0.0
  9
$USERR4
 40
0.0
  9
$USERR5
 40
0.0
  9
$WORLDVIEW
 70
     1
  9
$SHADEDGE
 70
     3
  9
$SHADEDIF
 70
    70
  9
$TILEMODE
 70
     1
  9
$MAXACTVP
 70
    48
  9
$PLIMCHECK
 70
     0
  9
$PEXTMIN
 10
1.000000E+020
 20
1.000000E+020
 30
1.000000E+020
  9
$PEXTMAX
 10
-1.000000E+020
 20
-1.000000E+020
 30
-1.000000E+020
  9
$PLIMMIN
 10
0.0
 20
0.0
  9
$PLIMMAX
 10
12.0
 20
9.0
  9
$UNITMODE
 70
     0
  9
$VISRETAIN
 70
     1
  9
$PLINEGEN
 70
     0
  9
$PSLTSCALE
 70
     1
  0
ENDSEC
  0
SECTION
  2
TABLES
  0
TABLE
  2
VPORT
 70
     2
  0
VPORT
  2
*ACTIVE
 70
     0
 10
0.0
 20
0.0
 11
1.0
 21
1.0
 12
96.550478
 22
105.683143
 13
0.0
 23
0.0
 14
1.0
 24
1.0
 15
0.0
 25
0.0
 16
0.0
 26
0.0
 36
1.0
 17
0.0
 27
0.0
 37
0.0
 40
101.518784
 41
1.700368
 42
50.0
 43
0.0
 44
0.0
 50
0.0
 51
0.0
 71
     0
 72
   100
 73
     1
 74
     1
 75
     0
 76
     0
 77
     0
 78
     0
  0
ENDTAB
  0
TABLE
  2
LTYPE
 70
     6
  0
LTYPE
  2
CONTINUOUS
 70
     0
  3
Solid line
 72
    65
 73
     0
 40
0.0
  0
LTYPE
  2
CENTER
 70
     0
  3
____ _ ____ _ ____ _ ____ _ ____ _ ____ _ ____
 72
    65
 73
     4
 40
0.6
 49
0.375
 49
-0.075
 49
0.075
 49
-0.075
  0
LTYPE
  2
HIDDEN
 70
     0
  3
- - - - - - - - - - - - - - - - - - - -
 72
    65
 73
     2
 40
0.2
 49
0.1
 49
-0.1
  0
LTYPE
  2
PHANTOM
 70
     0
  3
_____ _ _ _____ _ _ _____ _ _ _____
 72
    65
 73
     6
 40
0.8
 49
0.45
 49
-0.05
 49
0.1
 49
-0.05
 49
0.1
 49
-0.05
  0
ENDTAB
  0
TABLE
  2
LAYER
 70
     5
  0
LAYER
  2
0
 70
     0
 62
     7
  6
CONTINUOUS
  0
LAYER
  2
DEFPOINTS
 70
     0
 62
     7
  6
CONTINUOUS
  0
ENDTAB
  0
TABLE
  2
STYLE
 70
     1
  0
STYLE
  2
STANDARD
 70
     0
 40
0.0
 41
1.0
 50
0.0
 71
     0
 42
0.2
  3
txt
  4

  0
ENDTAB
  0
TABLE
  2
VIEW
 70
     0
  0
ENDTAB
  0
TABLE
  2
UCS
 70
     0
  0
ENDTAB
  0
TABLE
  2
APPID
 70
     1
  0
APPID
  2
ACAD
 70
     0
  0
ENDTAB
  0
TABLE
  2
DIMSTYLE
 70
     1
  0
DIMSTYLE
  2
STANDARD
 70
     0
  3

  4

  5

  6

  7

 40
1.0
 41
0.18
 42
0.0625
 43
0.02
 44
0.1
 45
0.0
 46
0.0
 47
0.0
 48
0.0
140
0.18
141
0.0
142
0.0
143
25.4
144
1.0
145
0.0
146
1.0
147
1.0
 71
     0
 72
     0
 73
     0
 74
     0
 75
     0
 76
     0
 77
     1
 78
     8
170
     0
171
     2
172
     0
173
     0
174
     0
175
     0
176
     0
177
     0
178
     0
  0
ENDTAB
  0
ENDSEC
  0
SECTION
  2
BLOCKS
  0
BLOCK
  8
0
  2
$MODEL_SPACE
 70
     0
 10
0.0
 20
0.0
 30
0.0
  3
$MODEL_SPACE
  1

  0
ENDBLK
  5
20
  8
0
  0
BLOCK
 67
     1
  8
0
  2
$PAPER_SPACE
 70
     0
 10
0.0
 20
0.0
 30
0.0
  3
$PAPER_SPACE
  1

  0
ENDBLK
  5
1C
 67
     1
  8
0
  0
BLOCK
  8
0
  2
*D0
 70
     1
 10
0.0
 20
0.0
 30
0.0
  3
*D0
  1

  0
LINE
  5
216C
  8
0
 62
     0
 10
50.818594
 20
141.976595
 30
0.0
 11
50.818594
 21
153.385044
 31
0.0
1001
ACAD
1000
RTLwPs
1070
   158
  0
LINE
  5
216D
  8
0
 62
     0
 10
158.990542
 20
126.9977
 30
0.0
 11
158.990542
 21
153.385044
 31
0.0
1001
ACAD
1000
RTLwPs
1070
   158
  0
LINE
  5
216E
  8
0
 62
     0
 10
53.318594
 20
152.385044
 30
0.0
 11
156.490542
 21
152.385044
 31
0.0
1001
ACAD
1000
RTLwPs
1070
   158
  0
SOLID
  5
216F
  8
0
 62
     0
 10
53.318594
 20
152.801711
 30
0.0
 11
53.318594
 21
151.968377
 31
0.0
 12
50.818594
 22
152.385044
 32
0.0
 13
50.818594
 23
152.385044
 33
0.0
  0
SOLID
  5
2170
  8
0
 62
     0
 10
156.490542
 20
152.801711
 30
0.0
 11
156.490542
 21
151.968377
 31
0.0
 12
158.990542
 22
152.385044
 32
0.0
 13
158.990542
 23
152.385044
 33
0.0
  0
TEXT
  8
0
  40
2.5
  5
28EF
  62
0
  72
0
  71
0
 10
99.9046
 20
150.210
 30
0.000000
  1
108.17
  0
POINT
  5
2172
  8
DEFPOINTS
 62
     0
 10
50.818594
 20
140.976595
 30
0.0
  0
POINT
  5
2173
  8
DEFPOINTS
 62
     0
 10
158.990542
 20
125.9977
 30
0.0
  0
POINT
  5
2174
  8
DEFPOINTS
 62
     0
 10
158.990542
 20
152.385044
 30
0.0
  0
ENDBLK
  5
20AE
  8
0
  0
BLOCK
  8
0
  2
*D1
 70
     1
 10
0.0
 20
0.0
 30
0.0
  3
*D1
  1

  0
LINE
  5
2163
  8
0
 62
     0
 10
48.818594
 20
139.976595
 30
0.0
 11
36.381812
 21
139.976595
 31
0.0
1001
ACAD
1000
RTLwPs
1070
   158
  0
LINE
  5
2164
  8
0
 62
     0
 10
48.818594
 20
56.176595
 30
0.0
 11
36.381812
 21
56.176595
 31
0.0
1001
ACAD
1000
RTLwPs
1070
   158
  0
LINE
  5
2165
  8
0
 62
     0
 10
37.381812
 20
137.476595
 30
0.0
 11
37.381812
 21
58.676595
 31
0.0
1001
ACAD
1000
RTLwPs
1070
   158
  0
SOLID
  5
2166
  8
0
 62
     0
 10
36.965146
 20
137.476595
 30
0.0
 11
37.798479
 21
137.476595
 31
0.0
 12
37.381812
 22
139.976595
 32
0.0
 13
37.381812
 23
139.976595
 33
0.0
  0
SOLID
  5
2167
  8
0
 62
     0
 10
36.965146
 20
58.676595
 30
0.0
 11
37.798479
 21
58.676595
 31
0.0
 12
37.381812
 22
56.176595
 32
0.0
 13
37.381812
 23
56.176595
 33
0.0
  0
TEXT
  8
0
  40
2.5
  5
28F0
  62
0
  72
0
  71
0
 10
30.1318
 20
93.6516
 30
0.000000
  1
83.8
  0
POINT
  5
2169
  8
DEFPOINTS
 62
     0
 10
49.818594
 20
139.976595
 30
0.0
  0
POINT
  5
216A
  8
DEFPOINTS
 62
     0
 10
49.818594
 20
56.176595
 30
0.0
  0
POINT
  5
216B
  8
DEFPOINTS
 62
     0
 10
37.381812
 20
56.176595
 30
0.0
  0
ENDBLK
  5
20BA
  8
0
  0
ENDSEC
  0
SECTION
  2
ENTITIES
  0
ARC
  5
1DF1
  8
0
 62
     0
 10
96.918594
 20
56.676595
 30
0.0
 40
0.5
 50
270.0
 51
0.0
  0
LINE
  5
1DF2
  8
0
 62
     0
 10
50.818594
 20
139.976595
 30
0.0
 11
99.518594
 21
139.976595
 31
0.0
  0
LINE
  5
1DF3
  8
0
 62
     0
 10
94.018594
 20
139.676595
 30
0.0
 11
97.762537
 21
139.676595
 31
0.0
  0
LINE
  5
1DF4
  8
0
 62
     0
 10
94.018594
 20
127.776595
 30
0.0
 11
100.018577
 21
127.776595
 31
0.0
  0
LINE
  5
1DF5
  8
0
 62
     0
 10
94.018594
 20
127.576595
 30
0.0
 11
100.018594
 21
127.576595
 31
0.0
  0
LINE
  5
1DF6
  8
0
 62
     0
 10
73.218594
 20
126.476595
 30
0.0
 11
137.418594
 21
126.476595
 31
0.0
  0
LINE
  5
1DF7
  8
0
 62
     0
 10
79.899819
 20
125.976595
 30
0.0
 11
137.918594
 21
125.976595
 31
0.0
  0
LINE
  5
1DF8
  8
0
 62
     0
 10
79.899819
 20
68.976595
 30
0.0
 11
125.318594
 21
68.976595
 31
0.0
  0
LINE
  5
1DF9
  8
0
 62
     0
 10
80.765844
 20
68.476595
 30
0.0
 11
124.818594
 21
68.476595
 31
0.0
  0
DIMENSION
  5
1DFA
  8
0
 62
     0
  2
*D0
 10
158.990542
 20
152.385044
 30
0.0
 11
104.904568
 21
154.635044
 31
0.0
 70
     0
 13
50.818594
 23
140.976595
 33
0.0
 14
158.990542
 24
125.9977
 34
0.0
1001
ACAD
1000
DSTYLE
1002
{
1070
    41
1040
2.5
1070
    42
1040
1.0
1070
    43
1040
6.755556
1070
    44
1040
1.0
1070
   140
1040
2.5
1070
   141
1040
1.6
1002
}
  0
ARC
  5
1DFB
  8
0
 62
     0
 10
271.218594
 20
97.476595
 30
0.0
 40
193.5
 50
171.636398
 51
188.363602
  0
ARC
  5
1DFC
  8
0
 62
     0
 10
270.818594
 20
97.376595
 30
0.0
 40
193.8
 50
171.460721
 51
188.395251
  0
ARC
  5
1DFD
  8
0
 62
     0
 10
270.818594
 20
97.376595
 30
0.0
 40
193.5
 50
171.460719
 51
188.395251
  0
LINE
  5
1DFE
  8
0
 62
     0
 10
55.318594
 20
114.476595
 30
0.0
 11
55.318594
 21
69.976595
 31
0.0
  0
LINE
  5
1DFF
  8
0
 62
     0
 10
55.018594
 20
70.013248
 30
0.0
 11
55.018594
 21
114.479213
 31
0.0
  0
LINE
  5
1E00
  8
0
 62
     0
 10
50.818594
 20
106.776595
 30
0.0
 11
50.818594
 21
126.473122
 31
0.0
  0
DIMENSION
  5
1E01
  8
0
 62
     0
  2
*D1
 10
37.381812
 20
56.176595
 30
0.0
 11
35.131812
 21
98.076595
 31
0.0
 70
     0
 13
49.818594
 23
139.976595
 33
0.0
 14
49.818594
 24
56.176595
 34
0.0
 50
270.0
1001
ACAD
1000
DSTYLE
1002
{
1070
    41
1040
2.5
1070
    42
1040
1.0
1070
    43
1040
6.755556
1070
    44
1040
1.0
1070
   140
1040
2.5
1070
   141
1040
1.6
1002
}
  0
POLYLINE
  5
1E02
  8
0
 62
     0
 66
     1
 10
0.0
 20
0.0
 30
0.0
  0
VERTEX
  5
21E7
  8
0
 62
     0
 10
96.875117
 20
63.176595
 30
0.0
  0
VERTEX
  5
21E8
  8
0
 62
     0
 10
96.869741
 20
62.440957
 30
0.0
  0
VERTEX
  5
21E9
  8
0
 62
     0
 10
96.853778
 20
61.737944
 30
0.0
  0
VERTEX
  5
21EA
  8
0
 62
     0
 10
96.827222
 20
61.086366
 30
0.0
  0
VERTEX
  5
21EB
  8
0
 62
     0
 10
96.78993
 20
60.505481
 30
0.0
  0
VERTEX
  5
21EC
  8
0
 62
     0
 10
96.741778
 20
60.013293
 30
0.0
  0
VERTEX
  5
21ED
  8
0
 62
     0
 10
96.682786
 20
59.626044
 30
0.0
  0
VERTEX
  5
21EE
  8
0
 62
     0
 10
96.614155
 20
59.360795
 30
0.0
  0
VERTEX
  5
21EF
  8
0
 62
     0
 10
96.551114
 20
59.250283
 30
0.0
  0
SEQEND
  5
21F0
  8
0
 62
     0
  0
POLYLINE
  5
1E03
  8
0
 62
     0
 66
     1
 10
0.0
 20
0.0
 30
0.0
  0
VERTEX
  5
21F1
  8
0
 62
     0
 10
97.072824
 20
63.176595
 30
0.0
  0
VERTEX
  5
21F2
  8
0
 62
     0
 10
97.067454
 20
62.40486
 30
0.0
  0
VERTEX
  5
21F3
  8
0
 62
     0
 10
97.051475
 20
61.666238
 30
0.0
  0
VERTEX
  5
21F4
  8
0
 62
     0
 10
97.024882
 20
60.981633
 30
0.0
  0
VERTEX
  5
21F5
  8
0
 62
     0
 10
96.987532
 20
60.371288
 30
0.0
  0
VERTEX
  5
21F6
  8
0
 62
     0
 10
96.939299
 20
59.854123
 30
0.0
  0
VERTEX
  5
21F7
  8
0
 62
     0
 10
96.880205
 20
59.447209
 30
0.0
  0
VERTEX
  5
21F8
  8
0
 62
     0
 10
96.811451
 20
59.168484
 30
0.0
  0
VERTEX
  5
21F9
  8
0
 62
     0
 10
96.734626
 20
59.027223
 30
0.0
  0
VERTEX
  5
21FA
  8
0
 62
     0
 10
96.65164
 20
59.027605
 30
0.0
  0
SEQEND
  5
21FB
  8
0
 62
     0
  0
LINE
  5
1E04
  8
0
 62
     0
 10
95.584478
 20
56.676595
 30
0.0
 11
95.584478
 21
68.476595
 31
0.0
  0
LINE
  5
1E05
  8
0
 62
     0
 10
94.633883
 20
56.476595
 30
0.0
 11
94.633883
 21
68.476595
 31
0.0
  0
POLYLINE
  5
1E06
  8
0
 62
     0
 66
     1
 10
0.0
 20
0.0
 30
0.0
  0
VERTEX
  5
21FC
  8
0
 62
     0
 10
97.380978
 20
60.36002
 30
0.0
  0
VERTEX
  5
21FD
  8
0
 62
     0
 10
97.368763
 20
60.973372
 30
0.0
  0
VERTEX
  5
21FE
  8
0
 62
     0
 10
97.359792
 20
61.581636
 30
0.0
  0
SEQEND
  5
21FF
  8
0
 62
     0
  0
POLYLINE
  5
1E07
  8
0
 62
     0
 66
     1
 10
0.0
 20
0.0
 30
0.0
  0
VERTEX
  5
2200
  8
0
 62
     0
 10
97.415823
 20
59.0911
 30
0.0
  0
VERTEX
  5
2201
  8
0
 62
     0
 10
97.408259
 20
59.331631
 30
0.0
  0
VERTEX
  5
2202
  8
0
 62
     0
 10
97.396957
 20
59.722015
 30
0.0
  0
VERTEX
  5
2203
  8
0
 62
     0
 10
97.383664
 20
60.246904
 30
0.0
  0
VERTEX
  5
2204
  8
0
 62
     0
 10
97.370436
 20
60.885668
 30
0.0
  0
VERTEX
  5
2205
  8
0
 62
     0
 10
97.359312
 20
61.613074
 30
0.0
  0
VERTEX
  5
2206
  8
0
 62
     0
 10
97.352002
 20
62.400655
 30
0.0
  0
VERTEX
  5
2207
  8
0
 62
     0
 10
97.349612
 20
63.176595
 30
0.0
  0
SEQEND
  5
2208
  8
0
 62
     0
  0
LINE
  5
1E08
  8
0
 62
     0
 10
91.418594
 20
68.476595
 30
0.0
 11
91.418594
 21
56.176595
 31
0.0
  0
POLYLINE
  5
1E09
  8
0
 62
     0
 66
     1
 10
0.0
 20
0.0
 30
0.0
  0
VERTEX
  5
2209
  8
0
 62
     0
 10
96.565225
 20
59.170304
 30
0.0
  0
VERTEX
  5
220A
  8
0
 62
     0
 10
96.479034
 20
59.45038
 30
0.0
  0
VERTEX
  5
220B
  8
0
 62
     0
 10
96.397029
 20
59.857264
 30
0.0
  0
VERTEX
  5
220C
  8
0
 62
     0
 10
96.323192
 20
60.375895
 30
0.0
  0
VERTEX
  5
220D
  8
0
 62
     0
 10
96.261196
 20
60.988319
 30
0.0
  0
VERTEX
  5
220E
  8
0
 62
     0
 10
96.214241
 20
61.674527
 30
0.0
  0
SEQEND
  5
220F
  8
0
 62
     0
  0
LINE
  5
1E0A
  8
0
 62
     0
 10
50.818594
 20
56.176595
 30
0.0
 11
50.818594
 21
69.976595
 31
0.0
  0
POLYLINE
  5
1E0B
  8
0
 62
     0
 66
     1
 10
0.0
 20
0.0
 30
0.0
  0
VERTEX
  5
2210
  8
0
 62
     0
 10
96.585021
 20
59.177619
 30
0.0
  0
VERTEX
  5
2211
  8
0
 62
     0
 10
96.587134
 20
59.175504
 30
0.0
  0
VERTEX
  5
2212
  8
0
 62
     0
 10
96.574891
 20
59.1957
 30
0.0
  0
VERTEX
  5
2213
  8
0
 62
     0
 10
96.541029
 20
59.273434
 30
0.0
  0
VERTEX
  5
2214
  8
0
 62
     0
 10
96.499481
 20
59.403507
 30
0.0
  0
VERTEX
  5
2215
  8
0
 62
     0
 10
96.454863
 20
59.583564
 30
0.0
  0
VERTEX
  5
2216
  8
0
 62
     0
 10
96.409304
 20
59.813104
 30
0.0
  0
VERTEX
  5
2217
  8
0
 62
     0
 10
96.364303
 20
60.091817
 30
0.0
  0
VERTEX
  5
2218
  8
0
 62
     0
 10
96.321199
 20
60.418963
 30
0.0
  0
VERTEX
  5
2219
  8
0
 62
     0
 10
96.281322
 20
60.793023
 30
0.0
  0
VERTEX
  5
221A
  8
0
 62
     0
 10
96.246049
 20
61.211061
 30
0.0
  0
VERTEX
  5
221B
  8
0
 62
     0
 10
96.216749
 20
61.668766
 30
0.0
  0
VERTEX
  5
221C
  8
0
 62
     0
 10
96.194717
 20
62.160567
 30
0.0
  0
VERTEX
  5
221D
  8
0
 62
     0
 10
96.181114
 20
62.679727
 30
0.0
  0
VERTEX
  5
221E
  8
0
 62
     0
 10
96.176888
 20
63.176595
 30
0.0
  0
SEQEND
  5
221F
  8
0
 62
     0
  0
LINE
  5
1E0C
  8
0
 62
     0
 10
50.818594
 20
56.476595
 30
0.0
 11
95.182553
 21
56.476595
 31
0.0
  0
LINE
  5
1E0D
  8
0
 62
     0
 10
50.818594
 20
56.176595
 30
0.0
 11
96.918594
 21
56.176595
 31
0.0
  0
POLYLINE
  5
1E0E
  8
0
 62
     0
 66
     1
 10
0.0
 20
0.0
 30
0.0
  0
VERTEX
  5
2220
  8
0
 62
     0
 10
55.337469
 20
55.826263
 30
0.0
  0
VERTEX
  5
2221
  8
0
 62
     0
 10
55.498883
 20
55.917365
 30
0.0
  0
VERTEX
  5
2222
  8
0
 62
     0
 10
55.63499
 20
56.080913
 30
0.0
  0
VERTEX
  5
2223
  8
0
 62
     0
 10
55.679678
 20
56.176595
 30
0.0
  0
SEQEND
  5
2224
  8
0
 62
     0
  0
LINE
  5
1E0F
  8
0
 62
     0
 10
56.318594
 20
55.476796
 30
0.0
 11
56.318594
 21
56.176595
 31
0.0
  0
LINE
  5
1E10
  8
0
 62
     0
 10
55.318594
 20
55.476728
 30
0.0
 11
55.318594
 21
56.176595
 31
0.0
  0
POLYLINE
  5
1E11
  8
0
 62
     0
 66
     1
 10
0.0
 20
0.0
 30
0.0
  0
VERTEX
  5
2225
  8
0
 62
     0
 10
55.318594
 20
55.821014
 30
0.0
  0
VERTEX
  5
2226
  8
0
 62
     0
 10
55.328037
 20
55.823507
 30
0.0
  0
VERTEX
  5
2227
  8
0
 62
     0
 10
55.337469
 20
55.826263
 30
0.0
  0
SEQEND
  5
2228
  8
0
 62
     0
  0
LINE
  5
1E12
  8
0
 62
     0
 10
56.318594
 20
55.826263
 30
0.0
 11
55.337469
 21
55.826263
 31
0.0
  0
LINE
  5
1E13
  8
0
 62
     0
 10
55.318594
 20
55.476595
 30
0.0
 11
56.318594
 21
55.476595
 31
0.0
  0
LINE
  5
1E14
  8
0
 62
     0
 10
97.418594
 20
59.020795
 30
0.0
 11
97.418594
 21
56.676595
 31
0.0
  0
LINE
  5
1E15
  8
0
 62
     0
 10
97.418594
 20
56.676595
 30
0.0
 11
95.584478
 21
56.676595
 31
0.0
  0
POLYLINE
  5
1E16
  8
0
 62
     0
 66
     1
 10
0.0
 20
0.0
 30
0.0
  0
VERTEX
  5
2229
  8
0
 62
     0
 10
95.007482
 20
56.176595
 30
0.0
  0
VERTEX
  5
222A
  8
0
 62
     0
 10
95.074477
 20
56.19943
 30
0.0
  0
VERTEX
  5
222B
  8
0
 62
     0
 10
95.131274
 20
56.264461
 30
0.0
  0
VERTEX
  5
222C
  8
0
 62
     0
 10
95.169226
 20
56.361788
 30
0.0
  0
VERTEX
  5
222D
  8
0
 62
     0
 10
95.182553
 20
56.476595
 30
0.0
  0
SEQEND
  5
222E
  8
0
 62
     0
  0
POLYLINE
  5
1E17
  8
0
 62
     0
 66
     1
 10
0.0
 20
0.0
 30
0.0
  0
VERTEX
  5
222F
  8
0
 62
     0
 10
95.584478
 20
56.676595
 30
0.0
  0
VERTEX
  5
2230
  8
0
 62
     0
 10
95.539828
 20
56.612201
 30
0.0
  0
VERTEX
  5
2231
  8
0
 62
     0
 10
95.469253
 20
56.555387
 30
0.0
  0
VERTEX
  5
2232
  8
0
 62
     0
 10
95.380559
 20
56.512072
 30
0.0
  0
VERTEX
  5
2233
  8
0
 62
     0
 10
95.282169
 20
56.48541
 30
0.0
  0
VERTEX
  5
2234
  8
0
 62
     0
 10
95.182553
 20
56.476595
 30
0.0
  0
SEQEND
  5
2235
  8
0
 62
     0
  0
POLYLINE
  5
1E18
  8
0
 62
     0
 66
     1
 10
0.0
 20
0.0
 30
0.0
  0
VERTEX
  5
2236
  8
0
 62
     0
 10
95.584478
 20
56.676595
 30
0.0
  0
VERTEX
  5
2237
  8
0
 62
     0
 10
95.537475
 20
56.515693
 30
0.0
  0
VERTEX
  5
2238
  8
0
 62
     0
 10
95.443376
 20
56.373703
 30
0.0
  0
VERTEX
  5
2239
  8
0
 62
     0
 10
95.314295
 20
56.265398
 30
0.0
  0
VERTEX
  5
223A
  8
0
 62
     0
 10
95.16424
 20
56.198717
 30
0.0
  0
VERTEX
  5
223B
  8
0
 62
     0
 10
95.007482
 20
56.176595
 30
0.0
  0
SEQEND
  5
223C
  8
0
 62
     0
  0
POLYLINE
  5
1E19
  8
0
 62
     0
 66
     1
 10
0.0
 20
0.0
 30
0.0
  0
VERTEX
  5
223D
  8
0
 62
     0
 10
94.623413
 20
56.176595
 30
0.0
  0
VERTEX
  5
223E
  8
0
 62
     0
 10
94.62742
 20
56.199431
 30
0.0
  0
VERTEX
  5
223F
  8
0
 62
     0
 10
94.630816
 20
56.264463
 30
0.0
  0
VERTEX
  5
2240
  8
0
 62
     0
 10
94.633086
 20
56.36179
 30
0.0
  0
VERTEX
  5
2241
  8
0
 62
     0
 10
94.633883
 20
56.476595
 30
0.0
  0
SEQEND
  5
2242
  8
0
 62
     0
  0
LINE
  5
1E1A
  8
0
 62
     0
 10
97.393592
 20
59.842957
 30
0.0
 11
97.380978
 21
60.36002
 31
0.0
  0
LINE
  5
1E1B
  8
0
 62
     0
 10
97.404925
 20
59.438922
 30
0.0
 11
97.393592
 21
59.842957
 31
0.0
  0
POLYLINE
  5
1E1C
  8
0
 62
     0
 66
     1
 10
0.0
 20
0.0
 30
0.0
  0
VERTEX
  5
2243
  8
0
 62
     0
 10
97.418594
 20
59.00322
 30
0.0
  0
VERTEX
  5
2244
  8
0
 62
     0
 10
97.413453
 20
59.161546
 30
0.0
  0
VERTEX
  5
2245
  8
0
 62
     0
 10
97.404925
 20
59.438922
 30
0.0
  0
SEQEND
  5
2246
  8
0
 62
     0
  0
LINE
  5
1E1D
  8
0
 62
     0
 10
96.65164
 20
59.027605
 30
0.0
 11
96.565225
 21
59.170304
 31
0.0
  0
LINE
  5
1E1E
  8
0
 62
     0
 10
50.818594
 20
69.976595
 30
0.0
 11
55.018594
 21
70.013248
 31
0.0
  0
LINE
  5
1E1F
  8
0
 62
     0
 10
55.318594
 20
69.976595
 30
0.0
 11
50.818594
 21
69.937324
 31
0.0
  0
LINE
  5
1E20
  8
0
 62
     0
 10
59.418594
 20
66.026595
 30
0.0
 11
59.418594
 21
70.526595
 31
0.0
  0
LINE
  5
1E21
  8
0
 62
     0
 10
59.405672
 20
66.189285
 30
0.0
 11
59.405672
 21
70.513674
 31
0.0
  0
LINE
  5
1E22
  8
0
 62
     0
 10
59.318594
 20
70.51368
 30
0.0
 11
59.318594
 21
66.035759
 31
0.0
  0
LINE
  5
1E23
  8
0
 62
     0
 10
58.118594
 20
70.276595
 30
0.0
 11
58.118594
 21
66.276595
 31
0.0
  0
LINE
  5
1E24
  8
0
 62
     0
 10
57.818594
 20
70.276595
 30
0.0
 11
57.818594
 21
66.276595
 31
0.0
  0
LINE
  5
1E25
  8
0
 62
     0
 10
57.631381
 20
66.204769
 30
0.0
 11
57.631381
 21
70.513809
 31
0.0
  0
LINE
  5
1E26
  8
0
 62
     0
 10
57.618594
 20
70.526595
 30
0.0
 11
57.618594
 21
66.026595
 31
0.0
  0
LINE
  5
1E27
  8
0
 62
     0
 10
57.618594
 20
66.026595
 30
0.0
 11
59.418594
 21
66.026595
 31
0.0
  0
LINE
  5
1E28
  8
0
 62
     0
 10
59.318594
 20
66.276595
 30
0.0
 11
57.818594
 21
66.276595
 31
0.0
  0
LINE
  5
1E29
  8
0
 62
     0
 10
57.618594
 20
66.026595
 30
0.0
 11
57.627757
 21
66.035759
 31
0.0
  0
LINE
  5
1E2A
  8
0
 62
     0
 10
57.627757
 20
66.2048
 30
0.0
 11
57.631381
 21
66.204769
 31
0.0
  0
LINE
  5
1E2B
  8
0
 62
     0
 10
59.409431
 20
66.189252
 30
0.0
 11
59.405672
 21
66.189285
 31
0.0
  0
LINE
  5
1E2C
  8
0
 62
     0
 10
59.418594
 20
66.026595
 30
0.0
 11
59.409431
 21
66.035759
 31
0.0
  0
LINE
  5
1E2D
  8
0
 62
     0
 10
59.405672
 20
70.513674
 30
0.0
 11
57.631381
 21
70.513809
 31
0.0
  0
LINE
  5
1E2E
  8
0
 62
     0
 10
59.418594
 20
70.526595
 30
0.0
 11
57.618594
 21
70.526595
 31
0.0
  0
LINE
  5
1E2F
  8
0
 62
     0
 10
59.318594
 20
69.101475
 30
0.0
 11
59.405672
 21
69.101774
 31
0.0
  0
LINE
  5
1E30
  8
0
 62
     0
 10
59.318594
 20
69.836195
 30
0.0
 11
59.405672
 21
69.836955
 31
0.0
  0
LINE
  5
1E31
  8
0
 62
     0
 10
59.318594
 20
70.276595
 30
0.0
 11
57.818594
 21
70.276595
 31
0.0
  0
LINE
  5
1E32
  8
0
 62
     0
 10
57.618594
 20
70.526595
 30
0.0
 11
57.631381
 21
70.513809
 31
0.0
  0
LINE
  5
1E33
  8
0
 62
     0
 10
59.418594
 20
70.526595
 30
0.0
 11
59.405672
 21
70.513674
 31
0.0
  0
LINE
  5
1E34
  8
0
 62
     0
 10
55.318594
 20
74.276595
 30
0.0
 11
55.018594
 21
74.276595
 31
0.0
  0
LINE
  5
1E35
  8
0
 62
     0
 10
55.018594
 20
79.276595
 30
0.0
 11
55.318594
 21
79.276595
 31
0.0
  0
LINE
  5
1E36
  8
0
 62
     0
 10
50.818594
 20
106.776595
 30
0.0
 11
55.018594
 21
106.739942
 31
0.0
  0
LINE
  5
1E37
  8
0
 62
     0
 10
86.128194
 20
75.886195
 30
0.0
 11
82.968594
 21
75.886195
 31
0.0
  0
LINE
  5
1E38
  8
0
 62
     0
 10
82.968594
 20
75.676595
 30
0.0
 11
85.918594
 21
75.676595
 31
0.0
  0
LINE
  5
1E39
  8
0
 62
     0
 10
84.359748
 20
75.668741
 30
0.0
 11
85.918594
 21
75.676595
 31
0.0
  0
LINE
  5
1E3A
  8
0
 62
     0
 10
84.359748
 20
72.88445
 30
0.0
 11
85.918594
 21
72.876595
 31
0.0
  0
LINE
  5
1E3B
  8
0
 62
     0
 10
82.968594
 20
72.876595
 30
0.0
 11
85.918594
 21
72.876595
 31
0.0
  0
LINE
  5
1E3C
  8
0
 62
     0
 10
82.968594
 20
72.666996
 30
0.0
 11
86.128194
 21
72.666996
 31
0.0
  0
LINE
  5
1E3D
  8
0
 62
     0
 10
91.418594
 20
68.277468
 30
0.0
 11
80.38045
 21
68.277468
 31
0.0
  0
LINE
  5
1E3E
  8
0
 62
     0
 10
91.418594
 20
68.271336
 30
0.0
 11
80.381354
 21
68.271336
 31
0.0
  0
LINE
  5
1E3F
  8
0
 62
     0
 10
91.418594
 20
67.971348
 30
0.0
 11
80.381354
 21
67.971348
 31
0.0
  0
LINE
  5
1E40
  8
0
 62
     0
 10
82.968594
 20
75.886195
 30
0.0
 11
82.968594
 21
72.666996
 31
0.0
  0
ARC
  5
1E41
  8
0
 62
     0
 10
80.765844
 20
69.476595
 30
0.0
 40
1.0
 50
188.363602
 51
270.0
  0
POLYLINE
  5
1E42
  8
0
 62
     0
 66
     1
 10
0.0
 20
0.0
 30
0.0
  0
VERTEX
  5
2247
  8
0
 62
     0
 10
79.839802
 20
68.436223
 30
0.0
  0
VERTEX
  5
2248
  8
0
 62
     0
 10
80.100153
 20
68.317556
 30
0.0
  0
VERTEX
  5
2249
  8
0
 62
     0
 10
80.38045
 20
68.277468
 30
0.0
  0
SEQEND
  5
224A
  8
0
 62
     0
  0
POLYLINE
  5
1E43
  8
0
 62
     0
 66
     1
 10
0.0
 20
0.0
 30
0.0
  0
VERTEX
  5
224B
  8
0
 62
     0
 10
80.381354
 20
67.971348
 30
0.0
  0
VERTEX
  5
224C
  8
0
 62
     0
 10
80.084552
 20
68.005685
 30
0.0
  0
VERTEX
  5
224D
  8
0
 62
     0
 10
79.790834
 20
68.113229
 30
0.0
  0
VERTEX
  5
224E
  8
0
 62
     0
 10
79.526824
 20
68.291694
 30
0.0
  0
VERTEX
  5
224F
  8
0
 62
     0
 10
79.314875
 20
68.528013
 30
0.0
  0
VERTEX
  5
2250
  8
0
 62
     0
 10
79.169508
 20
68.800814
 30
0.0
  0
VERTEX
  5
2251
  8
0
 62
     0
 10
79.09527
 20
69.081596
 30
0.0
  0
SEQEND
  5
2252
  8
0
 62
     0
  0
POLYLINE
  5
1E44
  8
0
 62
     0
 66
     1
 10
0.0
 20
0.0
 30
0.0
  0
VERTEX
  5
2253
  8
0
 62
     0
 10
80.381354
 20
68.271338
 30
0.0
  0
VERTEX
  5
2254
  8
0
 62
     0
 10
80.153355
 20
68.297678
 30
0.0
  0
VERTEX
  5
2255
  8
0
 62
     0
 10
79.927582
 20
68.380238
 30
0.0
  0
VERTEX
  5
2256
  8
0
 62
     0
 10
79.724458
 20
68.517384
 30
0.0
  0
VERTEX
  5
2257
  8
0
 62
     0
 10
79.561281
 20
68.699127
 30
0.0
  0
VERTEX
  5
2258
  8
0
 62
     0
 10
79.44933
 20
68.908973
 30
0.0
  0
VERTEX
  5
2259
  8
0
 62
     0
 10
79.392069
 20
69.125398
 30
0.0
  0
SEQEND
  5
225A
  8
0
 62
     0
  0
LINE
  5
1E45
  8
0
 62
     0
 10
79.391149
 20
69.131537
 30
0.0
 11
79.471726
 21
68.860075
 31
0.0
  0
LINE
  5
1E46
  8
0
 62
     0
 10
79.471726
 20
68.860075
 30
0.0
 11
79.627126
 21
68.619825
 31
0.0
  0
LINE
  5
1E47
  8
0
 62
     0
 10
79.09527
 20
69.081596
 30
0.0
 11
79.392055
 21
69.125396
 31
0.0
  0
LINE
  5
1E48
  8
0
 62
     0
 10
79.627126
 20
68.619825
 30
0.0
 11
79.839802
 21
68.436223
 31
0.0
  0
LINE
  5
1E49
  8
0
 62
     0
 10
79.269228
 20
69.970569
 30
0.0
 11
79.701023
 21
69.974338
 31
0.0
  0
LINE
  5
1E4A
  8
0
 62
     0
 10
80.381354
 20
67.971348
 30
0.0
 11
80.381354
 21
68.271336
 31
0.0
  0
LINE
  5
1E4B
  8
0
 62
     0
 10
80.38045
 20
68.277468
 30
0.0
 11
80.381354
 21
68.271336
 31
0.0
  0
LINE
  5
1E4C
  8
0
 62
     0
 10
82.976448
 20
75.668741
 30
0.0
 11
84.359748
 21
75.668741
 31
0.0
  0
LINE
  5
1E4D
  8
0
 62
     0
 10
82.976448
 20
72.88445
 30
0.0
 11
84.359748
 21
72.88445
 31
0.0
  0
LINE
  5
1E4E
  8
0
 62
     0
 10
82.976448
 20
72.88445
 30
0.0
 11
82.976448
 21
75.668741
 31
0.0
  0
LINE
  5
1E4F
  8
0
 62
     0
 10
84.359748
 20
72.88445
 30
0.0
 11
84.359748
 21
75.668741
 31
0.0
  0
LINE
  5
1E50
  8
0
 62
     0
 10
86.128194
 20
72.666996
 30
0.0
 11
86.128194
 21
75.886195
 31
0.0
  0
LINE
  5
1E51
  8
0
 62
     0
 10
86.128194
 20
72.666996
 30
0.0
 11
86.121212
 21
72.673977
 31
0.0
  0
POLYLINE
  5
1E52
  8
0
 62
     0
 66
     1
 10
0.0
 20
0.0
 30
0.0
  0
VERTEX
  5
225B
  8
0
 62
     0
 10
96.565264
 20
67.182981
 30
0.0
  0
VERTEX
  5
225C
  8
0
 62
     0
 10
96.651668
 20
67.32561
 30
0.0
  0
VERTEX
  5
225D
  8
0
 62
     0
 10
96.734644
 20
67.325953
 30
0.0
  0
VERTEX
  5
225E
  8
0
 62
     0
 10
96.811456
 20
67.184693
 30
0.0
  0
VERTEX
  5
225F
  8
0
 62
     0
 10
96.880206
 20
66.905974
 30
0.0
  0
VERTEX
  5
2260
  8
0
 62
     0
 10
96.939317
 20
66.498912
 30
0.0
  0
VERTEX
  5
2261
  8
0
 62
     0
 10
96.987574
 20
65.98134
 30
0.0
  0
VERTEX
  5
2262
  8
0
 62
     0
 10
97.024921
 20
65.370768
 30
0.0
  0
VERTEX
  5
2263
  8
0
 62
     0
 10
97.051496
 20
64.686224
 30
0.0
  0
VERTEX
  5
2264
  8
0
 62
     0
 10
97.067461
 20
63.947853
 30
0.0
  0
VERTEX
  5
2265
  8
0
 62
     0
 10
97.072824
 20
63.176595
 30
0.0
  0
SEQEND
  5
2266
  8
0
 62
     0
  0
LINE
  5
1E53
  8
0
 62
     0
 10
96.47908
 20
66.902999
 30
0.0
 11
96.565264
 21
67.182981
 31
0.0
  0
POLYLINE
  5
1E54
  8
0
 62
     0
 66
     1
 10
0.0
 20
0.0
 30
0.0
  0
VERTEX
  5
2267
  8
0
 62
     0
 10
97.393606
 20
66.510759
 30
0.0
  0
VERTEX
  5
2268
  8
0
 62
     0
 10
97.404937
 20
66.91469
 30
0.0
  0
VERTEX
  5
2269
  8
0
 62
     0
 10
97.413464
 20
67.191975
 30
0.0
  0
SEQEND
  5
226A
  8
0
 62
     0
  0
POLYLINE
  5
1E55
  8
0
 62
     0
 66
     1
 10
0.0
 20
0.0
 30
0.0
  0
VERTEX
  5
226B
  8
0
 62
     0
 10
96.176888
 20
63.176595
 30
0.0
  0
VERTEX
  5
226C
  8
0
 62
     0
 10
96.181115
 20
63.673472
 30
0.0
  0
VERTEX
  5
226D
  8
0
 62
     0
 10
96.194718
 20
64.192655
 30
0.0
  0
VERTEX
  5
226E
  8
0
 62
     0
 10
96.21675
 20
64.684443
 30
0.0
  0
VERTEX
  5
226F
  8
0
 62
     0
 10
96.246049
 20
65.142124
 30
0.0
  0
VERTEX
  5
2270
  8
0
 62
     0
 10
96.281321
 20
65.560155
 30
0.0
  0
VERTEX
  5
2271
  8
0
 62
     0
 10
96.321198
 20
65.934215
 30
0.0
  0
VERTEX
  5
2272
  8
0
 62
     0
 10
96.364301
 20
66.26136
 30
0.0
  0
VERTEX
  5
2273
  8
0
 62
     0
 10
96.409302
 20
66.540077
 30
0.0
  0
VERTEX
  5
2274
  8
0
 62
     0
 10
96.454861
 20
66.769616
 30
0.0
  0
VERTEX
  5
2275
  8
0
 62
     0
 10
96.499479
 20
66.949676
 30
0.0
  0
VERTEX
  5
2276
  8
0
 62
     0
 10
96.541027
 20
67.07975
 30
0.0
  0
VERTEX
  5
2277
  8
0
 62
     0
 10
96.574888
 20
67.157487
 30
0.0
  0
VERTEX
  5
2278
  8
0
 62
     0
 10
96.579416
 20
67.165584
 30
0.0
  0
SEQEND
  5
2279
  8
0
 62
     0
  0
POLYLINE
  5
1E56
  8
0
 62
     0
 66
     1
 10
0.0
 20
0.0
 30
0.0
  0
VERTEX
  5
227A
  8
0
 62
     0
 10
97.349612
 20
63.176595
 30
0.0
  0
VERTEX
  5
227B
  8
0
 62
     0
 10
97.351998
 20
63.952028
 30
0.0
  0
VERTEX
  5
227C
  8
0
 62
     0
 10
97.359302
 20
64.739353
 30
0.0
  0
VERTEX
  5
227D
  8
0
 62
     0
 10
97.370421
 20
65.466722
 30
0.0
  0
VERTEX
  5
227E
  8
0
 62
     0
 10
97.38365
 20
66.105638
 30
0.0
  0
VERTEX
  5
227F
  8
0
 62
     0
 10
97.396945
 20
66.630755
 30
0.0
  0
VERTEX
  5
2280
  8
0
 62
     0
 10
97.408253
 20
67.021356
 30
0.0
  0
VERTEX
  5
2281
  8
0
 62
     0
 10
97.415822
 20
67.262038
 30
0.0
  0
SEQEND
  5
2282
  8
0
 62
     0
  0
POLYLINE
  5
1E57
  8
0
 62
     0
 66
     1
 10
0.0
 20
0.0
 30
0.0
  0
VERTEX
  5
2283
  8
0
 62
     0
 10
96.55111
 20
67.102899
 30
0.0
  0
VERTEX
  5
2284
  8
0
 62
     0
 10
96.614119
 20
66.992493
 30
0.0
  0
VERTEX
  5
2285
  8
0
 62
     0
 10
96.682753
 20
66.727314
 30
0.0
  0
VERTEX
  5
2286
  8
0
 62
     0
 10
96.741768
 20
66.339976
 30
0.0
  0
VERTEX
  5
2287
  8
0
 62
     0
 10
96.789952
 20
65.847438
 30
0.0
  0
VERTEX
  5
2288
  8
0
 62
     0
 10
96.827246
 20
65.266364
 30
0.0
  0
VERTEX
  5
2289
  8
0
 62
     0
 10
96.85379
 20
64.614861
 30
0.0
  0
VERTEX
  5
228A
  8
0
 62
     0
 10
96.869744
 20
63.912095
 30
0.0
  0
VERTEX
  5
228B
  8
0
 62
     0
 10
96.875117
 20
63.176595
 30
0.0
  0
SEQEND
  5
228C
  8
0
 62
     0
  0
POLYLINE
  5
1E58
  8
0
 62
     0
 66
     1
 10
0.0
 20
0.0
 30
0.0
  0
VERTEX
  5
228D
  8
0
 62
     0
 10
96.184905
 20
63.940999
 30
0.0
  0
VERTEX
  5
228E
  8
0
 62
     0
 10
96.214263
 20
64.679083
 30
0.0
  0
VERTEX
  5
228F
  8
0
 62
     0
 10
96.261232
 20
65.365295
 30
0.0
  0
VERTEX
  5
2290
  8
0
 62
     0
 10
96.323236
 20
65.977664
 30
0.0
  0
VERTEX
  5
2291
  8
0
 62
     0
 10
96.397076
 20
66.49621
 30
0.0
  0
VERTEX
  5
2292
  8
0
 62
     0
 10
96.47908
 20
66.902999
 30
0.0
  0
SEQEND
  5
2293
  8
0
 62
     0
  0
POLYLINE
  5
1E59
  8
0
 62
     0
 66
     1
 10
0.0
 20
0.0
 30
0.0
  0
VERTEX
  5
2294
  8
0
 62
     0
 10
97.349503
 20
63.176595
 30
0.0
  0
VERTEX
  5
2295
  8
0
 62
     0
 10
97.351865
 20
63.948233
 30
0.0
  0
VERTEX
  5
2296
  8
0
 62
     0
 10
97.358604
 20
64.691099
 30
0.0
  0
SEQEND
  5
2297
  8
0
 62
     0
  0
LINE
  5
1E5A
  8
0
 62
     0
 10
96.17492
 20
63.176595
 30
0.0
 11
96.184905
 21
63.940999
 31
0.0
  0
LINE
  5
1E5B
  8
0
 62
     0
 10
96.184896
 20
62.412554
 30
0.0
 11
96.17492
 21
63.176595
 31
0.0
  0
POLYLINE
  5
1E5C
  8
0
 62
     0
 66
     1
 10
0.0
 20
0.0
 30
0.0
  0
VERTEX
  5
2298
  8
0
 62
     0
 10
97.359312
 20
61.613074
 30
0.0
  0
VERTEX
  5
2299
  8
0
 62
     0
 10
97.358597
 20
61.662728
 30
0.0
  0
VERTEX
  5
229A
  8
0
 62
     0
 10
97.351862
 20
62.405462
 30
0.0
  0
VERTEX
  5
229B
  8
0
 62
     0
 10
97.349503
 20
63.176595
 30
0.0
  0
SEQEND
  5
229C
  8
0
 62
     0
  0
LINE
  5
1E5D
  8
0
 62
     0
 10
96.214241
 20
61.674527
 30
0.0
 11
96.184896
 21
62.412554
 31
0.0
  0
LINE
  5
1E5E
  8
0
 62
     0
 10
97.380991
 20
65.993792
 30
0.0
 11
97.393606
 21
66.510759
 31
0.0
  0
LINE
  5
1E5F
  8
0
 62
     0
 10
97.368775
 20
65.380483
 30
0.0
 11
97.380991
 21
65.993792
 31
0.0
  0
LINE
  5
1E60
  8
0
 62
     0
 10
97.358604
 20
64.691099
 30
0.0
 11
97.368775
 21
65.380483
 31
0.0
  0
LINE
  5
1E61
  8
0
 62
     0
 10
97.413464
 20
67.191975
 30
0.0
 11
97.418594
 21
67.349973
 31
0.0
  0
LINE
  5
1E62
  8
0
 62
     0
 10
97.418594
 20
68.476595
 30
0.0
 11
97.418594
 21
67.332402
 31
0.0
  0
LINE
  5
1E63
  8
0
 62
     0
 10
85.918594
 20
72.876595
 30
0.0
 11
85.918594
 21
75.676595
 31
0.0
  0
LINE
  5
1E64
  8
0
 62
     0
 10
86.128194
 20
75.886195
 30
0.0
 11
86.121212
 21
75.879213
 31
0.0
  0
LINE
  5
1E65
  8
0
 62
     0
 10
77.801058
 20
92.908701
 30
0.0
 11
77.370183
 21
92.908701
 31
0.0
  0
LINE
  5
1E66
  8
0
 62
     0
 10
77.801058
 20
92.371026
 30
0.0
 11
77.383348
 21
92.371026
 31
0.0
  0
LINE
  5
1E67
  8
0
 62
     0
 10
77.801058
 20
97.374263
 30
0.0
 11
77.318594
 21
97.374263
 31
0.0
  0
LINE
  5
1E68
  8
0
 62
     0
 10
79.167004
 20
126.460887
 30
0.0
 11
70.325101
 21
126.460887
 31
0.0
  0
LINE
  5
1E69
  8
0
 62
     0
 10
50.818594
 20
126.453446
 30
0.0
 11
79.167004
 21
126.453446
 31
0.0
  0
LINE
  5
1E6A
  8
0
 62
     0
 10
50.818594
 20
126.153458
 30
0.0
 11
79.166973
 21
126.153458
 31
0.0
  0
LINE
  5
1E6B
  8
0
 62
     0
 10
50.818594
 20
139.976595
 30
0.0
 11
50.818594
 21
126.476595
 31
0.0
  0
LINE
  5
1E6C
  8
0
 62
     0
 10
50.818594
 20
126.476595
 30
0.0
 11
70.318594
 21
126.476595
 31
0.0
  0
LINE
  5
1E6D
  8
0
 62
     0
 10
50.818594
 20
114.515866
 30
0.0
 11
55.318594
 21
114.476595
 31
0.0
  0
LINE
  5
1E6E
  8
0
 62
     0
 10
50.818594
 20
114.276595
 30
0.0
 11
55.018594
 21
114.276595
 31
0.0
  0
LINE
  5
1E6F
  8
0
 62
     0
 10
59.405672
 20
119.013674
 30
0.0
 11
57.631381
 21
119.013809
 31
0.0
  0
LINE
  5
1E70
  8
0
 62
     0
 10
59.418594
 20
119.026595
 30
0.0
 11
57.618594
 21
119.026595
 31
0.0
  0
LINE
  5
1E71
  8
0
 62
     0
 10
57.631381
 20
114.539382
 30
0.0
 11
59.405672
 21
114.539517
 31
0.0
  0
LINE
  5
1E72
  8
0
 62
     0
 10
57.618594
 20
114.526595
 30
0.0
 11
59.418594
 21
114.526595
 31
0.0
  0
LINE
  5
1E73
  8
0
 62
     0
 10
59.405672
 20
118.366516
 30
0.0
 11
59.318594
 21
118.365757
 31
0.0
  0
LINE
  5
1E74
  8
0
 62
     0
 10
59.318594
 20
118.165764
 30
0.0
 11
59.405672
 21
118.166524
 31
0.0
  0
LINE
  5
1E75
  8
0
 62
     0
 10
59.318594
 20
117.965772
 30
0.0
 11
59.405672
 21
117.966532
 31
0.0
  0
LINE
  5
1E76
  8
0
 62
     0
 10
59.318594
 20
119.01368
 30
0.0
 11
59.318594
 21
114.53951
 31
0.0
  0
LINE
  5
1E77
  8
0
 62
     0
 10
58.118594
 20
118.776595
 30
0.0
 11
58.118594
 21
114.776595
 31
0.0
  0
LINE
  5
1E78
  8
0
 62
     0
 10
57.818594
 20
118.776595
 30
0.0
 11
57.818594
 21
114.776595
 31
0.0
  0
LINE
  5
1E79
  8
0
 62
     0
 10
57.631381
 20
119.013809
 30
0.0
 11
57.631381
 21
114.539382
 31
0.0
  0
LINE
  5
1E7A
  8
0
 62
     0
 10
57.618594
 20
119.026595
 30
0.0
 11
57.618594
 21
114.526595
 31
0.0
  0
LINE
  5
1E7B
  8
0
 62
     0
 10
59.318594
 20
114.776595
 30
0.0
 11
57.818594
 21
114.776595
 31
0.0
  0
LINE
  5
1E7C
  8
0
 62
     0
 10
57.618594
 20
114.526595
 30
0.0
 11
57.631381
 21
114.539382
 31
0.0
  0
LINE
  5
1E7D
  8
0
 62
     0
 10
59.318594
 20
118.776595
 30
0.0
 11
57.818594
 21
118.776595
 31
0.0
  0
LINE
  5
1E7E
  8
0
 62
     0
 10
57.618594
 20
119.026595
 30
0.0
 11
57.631381
 21
119.013809
 31
0.0
  0
LINE
  5
1E7F
  8
0
 62
     0
 10
59.418594
 20
114.526595
 30
0.0
 11
59.418594
 21
119.026595
 31
0.0
  0
LINE
  5
1E80
  8
0
 62
     0
 10
59.405672
 20
114.539517
 30
0.0
 11
59.405672
 21
119.013674
 31
0.0
  0
LINE
  5
1E81
  8
0
 62
     0
 10
59.418594
 20
114.526595
 30
0.0
 11
59.405672
 21
114.539517
 31
0.0
  0
LINE
  5
1E82
  8
0
 62
     0
 10
59.418594
 20
119.026595
 30
0.0
 11
59.405672
 21
119.013674
 31
0.0
  0
LINE
  5
1E83
  8
0
 62
     0
 10
70.318594
 20
126.476595
 30
0.0
 11
72.318746
 21
128.476532
 31
0.0
  0
LINE
  5
1E84
  8
0
 62
     0
 10
70.325101
 20
126.460887
 30
0.0
 11
72.334302
 21
128.470089
 31
0.0
  0
LINE
  5
1E85
  8
0
 62
     0
 10
73.218594
 20
130.276595
 30
0.0
 11
68.218594
 21
130.276595
 31
0.0
  0
LINE
  5
1E86
  8
0
 62
     0
 10
72.018594
 20
129.876595
 30
0.0
 11
69.418594
 21
129.876595
 31
0.0
  0
LINE
  5
1E87
  8
0
 62
     0
 10
68.818594
 20
128.976595
 30
0.0
 11
68.218594
 21
127.937365
 31
0.0
  0
LINE
  5
1E88
  8
0
 62
     0
 10
69.418594
 20
126.476595
 30
0.0
 11
69.418594
 21
130.276595
 31
0.0
  0
LINE
  5
1E89
  8
0
 62
     0
 10
68.218594
 20
126.476595
 30
0.0
 11
68.218594
 21
130.276595
 31
0.0
  0
LINE
  5
1E8A
  8
0
 62
     0
 10
68.818594
 20
128.976595
 30
0.0
 11
68.818594
 21
130.276595
 31
0.0
  0
LINE
  5
1E8B
  8
0
 62
     0
 10
73.218594
 20
126.476595
 30
0.0
 11
73.218594
 21
130.276595
 31
0.0
  0
LINE
  5
1E8C
  8
0
 62
     0
 10
72.018594
 20
128.176412
 30
0.0
 11
72.018594
 21
130.276595
 31
0.0
  0
LINE
  5
1E8D
  8
0
 62
     0
 10
72.334302
 20
128.470089
 30
0.0
 11
72.318746
 21
128.476532
 31
0.0
  0
LINE
  5
1E8E
  8
0
 62
     0
 10
72.318746
 20
128.476532
 30
0.0
 11
72.318884
 21
130.276595
 31
0.0
  0
LINE
  5
1E8F
  8
0
 62
     0
 10
72.334302
 20
128.470089
 30
0.0
 11
72.334302
 21
130.276595
 31
0.0
  0
LINE
  5
1E90
  8
0
 62
     0
 10
97.179701
 20
139.976595
 30
0.0
 11
97.179701
 21
127.776595
 31
0.0
  0
LINE
  5
1E91
  8
0
 62
     0
 10
94.479701
 20
127.576595
 30
0.0
 11
94.479701
 21
138.576595
 31
0.0
  0
LINE
  5
1E92
  8
0
 62
     0
 10
94.018594
 20
139.976595
 30
0.0
 11
94.018594
 21
127.576595
 31
0.0
  0
LINE
  5
1E93
  8
0
 62
     0
 10
91.318594
 20
138.576595
 30
0.0
 11
91.318594
 21
126.776595
 31
0.0
  0
LINE
  5
1E94
  8
0
 62
     0
 10
84.359748
 20
116.78445
 30
0.0
 11
85.918594
 21
116.776595
 31
0.0
  0
LINE
  5
1E95
  8
0
 62
     0
 10
86.128194
 20
119.786195
 30
0.0
 11
82.968594
 21
119.786195
 31
0.0
  0
LINE
  5
1E96
  8
0
 62
     0
 10
82.968594
 20
116.566996
 30
0.0
 11
86.128194
 21
116.566996
 31
0.0
  0
LINE
  5
1E97
  8
0
 62
     0
 10
84.359748
 20
119.568741
 30
0.0
 11
85.918594
 21
119.576595
 31
0.0
  0
LINE
  5
1E98
  8
0
 62
     0
 10
82.968594
 20
119.786195
 30
0.0
 11
82.968594
 21
116.566996
 31
0.0
  0
LINE
  5
1E99
  8
0
 62
     0
 10
82.976448
 20
119.568741
 30
0.0
 11
84.359748
 21
119.568741
 31
0.0
  0
LINE
  5
1E9A
  8
0
 62
     0
 10
82.976448
 20
116.78445
 30
0.0
 11
84.359748
 21
116.78445
 31
0.0
  0
LINE
  5
1E9B
  8
0
 62
     0
 10
82.976448
 20
116.78445
 30
0.0
 11
82.976448
 21
119.568741
 31
0.0
  0
LINE
  5
1E9C
  8
0
 62
     0
 10
84.359748
 20
116.78445
 30
0.0
 11
84.359748
 21
119.568741
 31
0.0
  0
ARC
  5
1E9D
  8
0
 62
     0
 10
80.765844
 20
125.476595
 30
0.0
 40
1.0
 50
90.0
 51
171.636398
  0
LINE
  5
1E9E
  8
0
 62
     0
 10
79.167793
 20
126.458705
 30
0.0
 11
80.578872
 21
126.458705
 31
0.0
  0
LINE
  5
1E9F
  8
0
 62
     0
 10
79.167003
 20
126.153458
 30
0.0
 11
79.463678
 21
126.108911
 31
0.0
  0
POLYLINE
  5
1EA0
  8
0
 62
     0
 66
     1
 10
0.0
 20
0.0
 30
0.0
  0
VERTEX
  5
229D
  8
0
 62
     0
 10
79.167793
 20
126.458705
 30
0.0
  0
VERTEX
  5
229E
  8
0
 62
     0
 10
79.292843
 20
126.431399
 30
0.0
  0
VERTEX
  5
229F
  8
0
 62
     0
 10
79.39513
 20
126.35445
 30
0.0
  0
VERTEX
  5
22A0
  8
0
 62
     0
 10
79.456032
 20
126.241866
 30
0.0
  0
VERTEX
  5
22A1
  8
0
 62
     0
 10
79.464463
 20
126.11414
 30
0.0
  0
SEQEND
  5
22A2
  8
0
 62
     0
  0
POLYLINE
  5
1EA1
  8
0
 62
     0
 66
     1
 10
0.0
 20
0.0
 30
0.0
  0
VERTEX
  5
22A3
  8
0
 62
     0
 10
79.167003
 20
126.453446
 30
0.0
  0
VERTEX
  5
22A4
  8
0
 62
     0
 10
79.289856
 20
126.427138
 30
0.0
  0
VERTEX
  5
22A5
  8
0
 62
     0
 10
79.393293
 20
126.350407
 30
0.0
  0
SEQEND
  5
22A6
  8
0
 62
     0
  0
LINE
  5
1EA2
  8
0
 62
     0
 10
79.167004
 20
126.453446
 30
0.0
 11
79.167793
 21
126.458705
 31
0.0
  0
LINE
  5
1EA3
  8
0
 62
     0
 10
79.167003
 20
126.453446
 30
0.0
 11
79.167003
 21
126.153458
 31
0.0
  0
POLYLINE
  5
1EA4
  8
0
 62
     0
 66
     1
 10
0.0
 20
0.0
 30
0.0
  0
VERTEX
  5
22A7
  8
0
 62
     0
 10
79.393293
 20
126.350407
 30
0.0
  0
VERTEX
  5
22A8
  8
0
 62
     0
 10
79.455039
 20
126.237327
 30
0.0
  0
VERTEX
  5
22A9
  8
0
 62
     0
 10
79.463678
 20
126.108911
 30
0.0
  0
SEQEND
  5
22AA
  8
0
 62
     0
  0
LINE
  5
1EA5
  8
0
 62
     0
 10
86.128194
 20
116.566996
 30
0.0
 11
86.128194
 21
119.786195
 31
0.0
  0
LINE
  5
1EA6
  8
0
 62
     0
 10
85.918594
 20
116.776595
 30
0.0
 11
85.918594
 21
119.779213
 31
0.0
  0
LINE
  5
1EA7
  8
0
 62
     0
 10
86.128194
 20
116.566996
 30
0.0
 11
86.121212
 21
116.573977
 31
0.0
  0
LINE
  5
1EA8
  8
0
 62
     0
 10
85.918594
 20
117.176595
 30
0.0
 11
86.121212
 21
117.174827
 31
0.0
  0
LINE
  5
1EA9
  8
0
 62
     0
 10
94.479701
 20
126.776595
 30
0.0
 11
91.318594
 21
126.776595
 31
0.0
  0
LINE
  5
1EAA
  8
0
 62
     0
 10
86.128194
 20
119.786195
 30
0.0
 11
86.121212
 21
119.779213
 31
0.0
  0
LINE
  5
1EAB
  8
0
 62
     0
 10
95.465041
 20
127.576595
 30
0.0
 11
95.465041
 21
127.776595
 31
0.0
  0
LINE
  5
1EAC
  8
0
 62
     0
 10
97.318594
 20
127.776595
 30
0.0
 11
97.318594
 21
127.576595
 31
0.0
  0
LINE
  5
1EAD
  8
0
 62
     0
 10
94.479701
 20
138.576595
 30
0.0
 11
91.318594
 21
138.576595
 31
0.0
  0
LINE
  5
1EAE
  8
0
 62
     0
 10
155.818592
 20
102.599101
 30
0.0
 11
155.818594
 21
113.976595
 31
0.0
  0
LINE
  5
1EAF
  8
0
 62
     0
 10
153.957457
 20
92.676595
 30
0.0
 11
153.957457
 21
126.476595
 31
0.0
  0
LINE
  5
1EB0
  8
0
 62
     0
 10
153.007216
 20
92.676595
 30
0.0
 11
153.007216
 21
126.476595
 31
0.0
  0
LINE
  5
1EB1
  8
0
 62
     0
 10
151.818594
 20
125.182036
 30
0.0
 11
151.818594
 21
92.176595
 31
0.0
  0
LINE
  5
1EB2
  8
0
 62
     0
 10
138.918594
 20
90.676595
 30
0.0
 11
138.918594
 21
126.976595
 31
0.0
  0
LINE
  5
1EB3
  8
0
 62
     0
 10
138.418594
 20
91.176595
 30
0.0
 11
138.418594
 21
126.476595
 31
0.0
  0
LINE
  5
1EB4
  8
0
 62
     0
 10
137.918594
 20
90.16176
 30
0.0
 11
137.918594
 21
125.976595
 31
0.0
  0
LINE
  5
1EB5
  8
0
 62
     0
 10
137.418594
 20
82.682209
 30
0.0
 11
137.418594
 21
126.476595
 31
0.0
  0
ARC
  5
1EB6
  8
0
 62
     0
 10
144.138594
 20
99.267429
 30
0.0
 40
8.090833
 50
270.0
 51
305.451676
  0
ARC
  5
1EB7
  8
0
 62
     0
 10
144.138594
 20
99.267429
 30
0.0
 40
8.590833
 50
270.0
 51
304.371412
  0
POLYLINE
  5
1EB8
  8
0
 62
     0
 66
     1
 10
0.0
 20
0.0
 30
0.0
  0
VERTEX
  5
22AB
  8
0
 62
     0
 10
146.238433
 20
82.759141
 30
0.0
  0
VERTEX
  5
22AC
  8
0
 62
     0
 10
143.678403
 20
85.709322
 30
0.0
  0
VERTEX
  5
22AD
  8
0
 62
     0
 10
141.114231
 20
88.663356
 30
0.0
  0
SEQEND
  5
22AE
  8
0
 62
     0
  0
LINE
  5
1EB9
  8
0
 62
     0
 10
145.423724
 20
83.081354
 30
0.0
 11
140.618594
 21
88.476595
 31
0.0
  0
LINE
  5
1EBA
  8
0
 62
     0
 10
137.918594
 20
90.676595
 30
0.0
 11
147.118594
 21
90.676595
 31
0.0
  0
LINE
  5
1EBB
  8
0
 62
     0
 10
142.118594
 20
81.672591
 30
0.0
 11
146.118578
 21
81.637684
 31
0.0
  0
LINE
  5
1EBC
  8
0
 62
     0
 10
125.318594
 20
82.076595
 30
0.0
 11
155.084938
 21
82.336362
 31
0.0
  0
POLYLINE
  5
1EBD
  8
0
 62
     0
 66
     1
 10
0.0
 20
0.0
 30
0.0
  0
VERTEX
  5
22AF
  8
0
 62
     0
 10
143.858562
 20
82.986713
 30
0.0
  0
VERTEX
  5
22B0
  8
0
 62
     0
 10
144.47625
 20
83.027892
 30
0.0
  0
VERTEX
  5
22B1
  8
0
 62
     0
 10
144.976652
 20
83.05753
 30
0.0
  0
VERTEX
  5
22B2
  8
0
 62
     0
 10
145.310325
 20
83.075538
 30
0.0
  0
VERTEX
  5
22B3
  8
0
 62
     0
 10
145.423731
 20
83.081348
 30
0.0
  0
SEQEND
  5
22B4
  8
0
 62
     0
  0
LINE
  5
1EBE
  8
0
 62
     0
 10
146.118594
 20
65.976595
 30
0.0
 11
142.127321
 21
65.976595
 31
0.0
  0
LINE
  5
1EBF
  8
0
 62
     0
 10
127.122163
 20
65.476595
 30
0.0
 11
145.618594
 21
65.476595
 31
0.0
  0
LINE
  5
1EC0
  8
0
 62
     0
 10
138.668594
 20
89.655195
 30
0.0
 11
138.668594
 21
82.693118
 31
0.0
  0
LINE
  5
1EC1
  8
0
 62
     0
 10
138.418594
 20
90.090406
 30
0.0
 11
138.418594
 21
82.257907
 31
0.0
  0
LINE
  5
1EC2
  8
0
 62
     0
 10
137.851607
 20
82.252959
 30
0.0
 11
137.851607
 21
90.095354
 31
0.0
  0
POLYLINE
  5
1EC3
  8
0
 62
     0
 66
     1
 10
0.0
 20
0.0
 30
0.0
  0
VERTEX
  5
22B5
  8
0
 62
     0
 10
143.858555
 20
82.986713
 30
0.0
  0
VERTEX
  5
22B6
  8
0
 62
     0
 10
142.772868
 20
84.829944
 30
0.0
  0
VERTEX
  5
22B7
  8
0
 62
     0
 10
141.692876
 20
86.659903
 30
0.0
  0
VERTEX
  5
22B8
  8
0
 62
     0
 10
140.618594
 20
88.476595
 30
0.0
  0
SEQEND
  5
22B9
  8
0
 62
     0
  0
POLYLINE
  5
1EC4
  8
0
 62
     0
 66
     1
 10
0.0
 20
0.0
 30
0.0
  0
VERTEX
  5
22BA
  8
0
 62
     0
 10
143.431507
 20
82.734683
 30
0.0
  0
VERTEX
  5
22BB
  8
0
 62
     0
 10
142.320422
 20
84.616389
 30
0.0
  0
VERTEX
  5
22BC
  8
0
 62
     0
 10
141.216114
 20
86.484725
 30
0.0
  0
VERTEX
  5
22BD
  8
0
 62
     0
 10
140.118594
 20
88.339703
 30
0.0
  0
SEQEND
  5
22BE
  8
0
 62
     0
  0
LINE
  5
1EC5
  8
0
 62
     0
 10
127.718594
 20
81.576595
 30
0.0
 11
142.118594
 21
81.576595
 31
0.0
  0
LINE
  5
1EC6
  8
0
 62
     0
 10
125.818594
 20
81.477023
 30
0.0
 11
142.118594
 21
81.576595
 31
0.0
  0
LINE
  5
1EC7
  8
0
 62
     0
 10
137.418594
 20
82.682209
 30
0.0
 11
124.818594
 21
82.572251
 31
0.0
  0
LINE
  5
1EC8
  8
0
 62
     0
 10
142.118594
 20
65.976595
 30
0.0
 11
127.122163
 21
65.976595
 31
0.0
  0
LINE
  5
1EC9
  8
0
 62
     0
 10
126.318594
 20
69.304028
 30
0.0
 11
126.318594
 21
81.480077
 31
0.0
  0
LINE
  5
1ECA
  8
0
 62
     0
 10
125.818594
 20
69.276595
 30
0.0
 11
125.818594
 21
81.477023
 31
0.0
  0
LINE
  5
1ECB
  8
0
 62
     0
 10
125.318594
 20
68.976595
 30
0.0
 11
125.318594
 21
82.076595
 31
0.0
  0
LINE
  5
1ECC
  8
0
 62
     0
 10
124.818594
 20
68.476595
 30
0.0
 11
124.818594
 21
82.572251
 31
0.0
  0
ARC
  5
1ECD
  8
0
 62
     0
 10
127.122163
 20
66.476595
 30
0.0
 40
0.5
 50
185.864612
 51
270.0
  0
ARC
  5
1ECE
  8
0
 62
     0
 10
127.122163
 20
66.476595
 30
0.0
 40
1.0
 50
185.864612
 51
270.0
  0
ARC
  5
1ECF
  8
0
 62
     0
 10
-271.77905
 20
25.503159
 30
0.0
 40
400.5
 50
5.864612
 51
6.278739
  0
ARC
  5
1ED0
  8
0
 62
     0
 10
-271.77905
 20
25.503159
 30
0.0
 40
400.0
 50
5.864612
 51
6.282666
  0
LINE
  5
1ED1
  8
0
 62
     0
 10
126.127397
 20
66.374417
 30
0.0
 11
126.62478
 21
66.425506
 31
0.0
  0
ARC
  5
1ED2
  8
0
 62
     0
 10
124.818594
 20
68.976595
 30
0.0
 40
0.5
 50
270.0
 51
0.0
  0
LINE
  5
1ED3
  8
0
 62
     0
 10
125.818594
 20
69.276595
 30
0.0
 11
126.318594
 21
69.304028
 31
0.0
  0
LINE
  5
1ED4
  8
0
 62
     0
 10
127.122163
 20
65.476595
 30
0.0
 11
127.122163
 21
65.976595
 31
0.0
  0
LINE
  5
1ED5
  8
0
 62
     0
 10
125.318594
 20
82.076595
 30
0.0
 11
124.818594
 21
82.572251
 31
0.0
  0
LINE
  5
1ED6
  8
0
 62
     0
 10
127.718594
 20
81.576595
 30
0.0
 11
127.382643
 21
81.486577
 31
0.0
  0
LINE
  5
1ED7
  8
0
 62
     0
 10
144.27226
 20
81.653796
 30
0.0
 11
144.27226
 21
65.976595
 31
0.0
  0
LINE
  5
1ED8
  8
0
 62
     0
 10
143.321762
 20
81.662091
 30
0.0
 11
143.321762
 21
65.976595
 31
0.0
  0
LINE
  5
1ED9
  8
0
 62
     0
 10
142.118594
 20
65.476595
 30
0.0
 11
142.118594
 21
81.672591
 31
0.0
  0
LINE
  5
1EDA
  8
0
 62
     0
 10
142.131684
 20
65.476595
 30
0.0
 11
142.118594
 21
66.976595
 31
0.0
  0
LINE
  5
1EDB
  8
0
 62
     0
 10
142.118594
 20
65.773977
 30
0.0
 11
142.129089
 21
65.773977
 31
0.0
  0
POLYLINE
  5
1EDC
  8
0
 62
     0
 66
     1
 10
0.0
 20
0.0
 30
0.0
  0
VERTEX
  5
22BF
  8
0
 62
     0
 10
143.304313
 20
65.476595
 30
0.0
  0
VERTEX
  5
22C0
  8
0
 62
     0
 10
143.31099
 20
65.514656
 30
0.0
  0
VERTEX
  5
22C1
  8
0
 62
     0
 10
143.316651
 20
65.623042
 30
0.0
  0
VERTEX
  5
22C2
  8
0
 62
     0
 10
143.320434
 20
65.785254
 30
0.0
  0
VERTEX
  5
22C3
  8
0
 62
     0
 10
143.321762
 20
65.976595
 30
0.0
  0
SEQEND
  5
22C4
  8
0
 62
     0
  0
POLYLINE
  5
1EDD
  8
0
 62
     0
 66
     1
 10
0.0
 20
0.0
 30
0.0
  0
VERTEX
  5
22C5
  8
0
 62
     0
 10
143.779562
 20
65.476595
 30
0.0
  0
VERTEX
  5
22C6
  8
0
 62
     0
 10
143.968109
 20
65.514656
 30
0.0
  0
VERTEX
  5
22C7
  8
0
 62
     0
 10
144.127952
 20
65.623042
 30
0.0
  0
VERTEX
  5
22C8
  8
0
 62
     0
 10
144.234756
 20
65.785254
 30
0.0
  0
VERTEX
  5
22C9
  8
0
 62
     0
 10
144.27226
 20
65.976595
 30
0.0
  0
SEQEND
  5
22CA
  8
0
 62
     0
  0
POLYLINE
  5
1EDE
  8
0
 62
     0
 66
     1
 10
0.0
 20
0.0
 30
0.0
  0
VERTEX
  5
22CB
  8
0
 62
     0
 10
138.668594
 20
82.693118
 30
0.0
  0
VERTEX
  5
22CC
  8
0
 62
     0
 10
138.585472
 20
82.573978
 30
0.0
  0
VERTEX
  5
22CD
  8
0
 62
     0
 10
138.507835
 20
82.456943
 30
0.0
  0
VERTEX
  5
22CE
  8
0
 62
     0
 10
138.446207
 20
82.348599
 30
0.0
  0
VERTEX
  5
22CF
  8
0
 62
     0
 10
138.418594
 20
82.257907
 30
0.0
  0
SEQEND
  5
22D0
  8
0
 62
     0
  0
LINE
  5
1EDF
  8
0
 62
     0
 10
137.851607
 20
82.252959
 30
0.0
 11
137.418594
 21
82.682209
 31
0.0
  0
LINE
  5
1EE0
  8
0
 62
     0
 10
138.418594
 20
82.257907
 30
0.0
 11
137.851607
 21
82.252959
 31
0.0
  0
LINE
  5
1EE1
  8
0
 62
     0
 10
143.431507
 20
82.734683
 30
0.0
 11
138.668594
 21
82.693118
 31
0.0
  0
POLYLINE
  5
1EE2
  8
0
 62
     0
 66
     1
 10
0.0
 20
0.0
 30
0.0
  0
VERTEX
  5
22D1
  8
0
 62
     0
 10
143.431508
 20
82.734683
 30
0.0
  0
VERTEX
  5
22D2
  8
0
 62
     0
 10
143.531231
 20
82.794287
 30
0.0
  0
VERTEX
  5
22D3
  8
0
 62
     0
 10
143.635812
 20
82.854828
 30
0.0
  0
VERTEX
  5
22D4
  8
0
 62
     0
 10
143.734097
 20
82.913354
 30
0.0
  0
VERTEX
  5
22D5
  8
0
 62
     0
 10
143.814263
 20
82.960574
 30
0.0
  0
VERTEX
  5
22D6
  8
0
 62
     0
 10
143.858554
 20
82.986713
 30
0.0
  0
SEQEND
  5
22D7
  8
0
 62
     0
  0
LINE
  5
1EE3
  8
0
 62
     0
 10
143.435871
 20
82.234702
 30
0.0
 11
143.431508
 21
82.734683
 31
0.0
  0
POLYLINE
  5
1EE4
  8
0
 62
     0
 66
     1
 10
0.0
 20
0.0
 30
0.0
  0
VERTEX
  5
22D8
  8
0
 62
     0
 10
143.858554
 20
82.986713
 30
0.0
  0
VERTEX
  5
22D9
  8
0
 62
     0
 10
143.918159
 20
82.823438
 30
0.0
  0
VERTEX
  5
22DA
  8
0
 62
     0
 10
143.918768
 20
82.649254
 30
0.0
  0
VERTEX
  5
22DB
  8
0
 62
     0
 10
143.86045
 20
82.485767
 30
0.0
  0
VERTEX
  5
22DC
  8
0
 62
     0
 10
143.749977
 20
82.352109
 30
0.0
  0
VERTEX
  5
22DD
  8
0
 62
     0
 10
143.601846
 20
82.265246
 30
0.0
  0
VERTEX
  5
22DE
  8
0
 62
     0
 10
143.435871
 20
82.234702
 30
0.0
  0
SEQEND
  5
22DF
  8
0
 62
     0
  0
ARC
  5
1EE5
  8
0
 62
     0
 10
138.918594
 20
91.176595
 30
0.0
 40
0.5
 50
180.0
 51
270.0
  0
POLYLINE
  5
1EE6
  8
0
 62
     0
 66
     1
 10
0.0
 20
0.0
 30
0.0
  0
VERTEX
  5
22E0
  8
0
 62
     0
 10
138.418594
 20
90.090406
 30
0.0
  0
VERTEX
  5
22E1
  8
0
 62
     0
 10
138.446207
 20
89.999715
 30
0.0
  0
VERTEX
  5
22E2
  8
0
 62
     0
 10
138.507835
 20
89.891371
 30
0.0
  0
VERTEX
  5
22E3
  8
0
 62
     0
 10
138.585472
 20
89.774335
 30
0.0
  0
VERTEX
  5
22E4
  8
0
 62
     0
 10
138.668594
 20
89.655195
 30
0.0
  0
SEQEND
  5
22E5
  8
0
 62
     0
  0
LINE
  5
1EE7
  8
0
 62
     0
 10
140.122957
 20
90.642503
 30
0.0
 11
137.918594
 21
90.661741
 31
0.0
  0
LINE
  5
1EE8
  8
0
 62
     0
 10
138.418594
 20
91.176595
 30
0.0
 11
144.138594
 21
91.176595
 31
0.0
  0
LINE
  5
1EE9
  8
0
 62
     0
 10
140.122957
 20
90.142522
 30
0.0
 11
137.918594
 21
90.16176
 31
0.0
  0
LINE
  5
1EEA
  8
0
 62
     0
 10
137.851616
 20
90.095354
 30
0.0
 11
137.918594
 21
90.16176
 31
0.0
  0
LINE
  5
1EEB
  8
0
 62
     0
 10
138.418594
 20
90.090406
 30
0.0
 11
137.851607
 21
90.095354
 31
0.0
  0
LINE
  5
1EEC
  8
0
 62
     0
 10
137.918594
 20
90.976595
 30
0.0
 11
138.460325
 21
90.976595
 31
0.0
  0
LINE
  5
1EED
  8
0
 62
     0
 10
137.918594
 20
91.66176
 30
0.0
 11
138.418594
 21
91.666123
 31
0.0
  0
LINE
  5
1EEE
  8
0
 62
     0
 10
137.918594
 20
93.891431
 30
0.0
 11
138.418594
 21
93.887068
 31
0.0
  0
POLYLINE
  5
1EEF
  8
0
 62
     0
 66
     1
 10
0.0
 20
0.0
 30
0.0
  0
VERTEX
  5
22E6
  8
0
 62
     0
 10
140.122957
 20
90.642503
 30
0.0
  0
VERTEX
  5
22E7
  8
0
 62
     0
 10
140.12162
 20
90.451178
 30
0.0
  0
VERTEX
  5
22E8
  8
0
 62
     0
 10
140.12115
 20
90.288977
 30
0.0
  0
VERTEX
  5
22E9
  8
0
 62
     0
 10
140.12162
 20
90.180592
 30
0.0
  0
VERTEX
  5
22EA
  8
0
 62
     0
 10
140.122957
 20
90.142522
 30
0.0
  0
SEQEND
  5
22EB
  8
0
 62
     0
  0
POLYLINE
  5
1EF0
  8
0
 62
     0
 66
     1
 10
0.0
 20
0.0
 30
0.0
  0
VERTEX
  5
22EC
  8
0
 62
     0
 10
140.256951
 20
90.632304
 30
0.0
  0
VERTEX
  5
22ED
  8
0
 62
     0
 10
140.40088
 20
90.600577
 30
0.0
  0
VERTEX
  5
22EE
  8
0
 62
     0
 10
140.547686
 20
90.543716
 30
0.0
  0
VERTEX
  5
22EF
  8
0
 62
     0
 10
140.689324
 20
90.46063
 30
0.0
  0
VERTEX
  5
22F0
  8
0
 62
     0
 10
140.817988
 20
90.352981
 30
0.0
  0
VERTEX
  5
22F1
  8
0
 62
     0
 10
140.927395
 20
90.224574
 30
0.0
  0
VERTEX
  5
22F2
  8
0
 62
     0
 10
141.012838
 20
90.081293
 30
0.0
  0
VERTEX
  5
22F3
  8
0
 62
     0
 10
141.071736
 20
89.930953
 30
0.0
  0
VERTEX
  5
22F4
  8
0
 62
     0
 10
141.104445
 20
89.782089
 30
0.0
  0
VERTEX
  5
22F5
  8
0
 62
     0
 10
141.114231
 20
89.642542
 30
0.0
  0
SEQEND
  5
22F6
  8
0
 62
     0
  0
LINE
  5
1EF1
  8
0
 62
     0
 10
140.118594
 20
89.642542
 30
0.0
 11
138.668594
 21
89.655195
 31
0.0
  0
ARC
  5
1EF2
  8
0
 62
     0
 10
140.118594
 20
89.642542
 30
0.0
 40
0.5
 50
0.0
 51
89.5
  0
POLYLINE
  5
1EF3
  8
0
 62
     0
 66
     1
 10
0.0
 20
0.0
 30
0.0
  0
VERTEX
  5
22F7
  8
0
 62
     0
 10
141.114231
 20
88.663356
 30
0.0
  0
VERTEX
  5
22F8
  8
0
 62
     0
 10
140.929959
 20
88.594407
 30
0.0
  0
VERTEX
  5
22F9
  8
0
 62
     0
 10
140.769652
 20
88.534187
 30
0.0
  0
VERTEX
  5
22FA
  8
0
 62
     0
 10
140.658777
 20
88.492246
 30
0.0
  0
VERTEX
  5
22FB
  8
0
 62
     0
 10
140.618594
 20
88.476595
 30
0.0
  0
SEQEND
  5
22FC
  8
0
 62
     0
  0
LINE
  5
1EF4
  8
0
 62
     0
 10
140.118594
 20
89.642542
 30
0.0
 11
140.122957
 21
90.142522
 31
0.0
  0
LINE
  5
1EF5
  8
0
 62
     0
 10
141.114231
 20
88.663356
 30
0.0
 11
141.114231
 21
89.642542
 31
0.0
  0
LINE
  5
1EF6
  8
0
 62
     0
 10
140.618594
 20
88.476595
 30
0.0
 11
140.618594
 21
89.642542
 31
0.0
  0
LINE
  5
1EF7
  8
0
 62
     0
 10
140.118594
 20
88.339703
 30
0.0
 11
140.118594
 21
89.642542
 31
0.0
  0
LINE
  5
1EF8
  8
0
 62
     0
 10
140.618539
 20
88.476688
 30
0.0
 11
140.618594
 21
88.476595
 31
0.0
  0
LINE
  5
1EF9
  8
0
 62
     0
 10
140.118594
 20
89.642542
 30
0.0
 11
141.114231
 21
89.642542
 31
0.0
  0
LINE
  5
1EFA
  8
0
 62
     0
 10
140.118594
 20
88.339703
 30
0.0
 11
140.618594
 21
88.476595
 31
0.0
  0
LINE
  5
1EFB
  8
0
 62
     0
 10
140.122957
 20
90.642503
 30
0.0
 11
140.256951
 21
90.632304
 31
0.0
  0
LINE
  5
1EFC
  8
0
 62
     0
 10
144.138594
 20
91.176595
 30
0.0
 11
144.138594
 21
90.676595
 31
0.0
  0
LINE
  5
1EFD
  8
0
 62
     0
 10
137.918594
 20
97.544049
 30
0.0
 11
138.418594
 21
97.548413
 31
0.0
  0
LINE
  5
1EFE
  8
0
 62
     0
 10
137.918594
 20
104.192817
 30
0.0
 11
138.418594
 21
104.197181
 31
0.0
  0
LINE
  5
1EFF
  8
0
 62
     0
 10
138.418594
 20
103.198413
 30
0.0
 11
137.918594
 21
103.194049
 31
0.0
  0
LINE
  5
1F00
  8
0
 62
     0
 10
137.918594
 20
105.623361
 30
0.0
 11
138.418594
 21
105.618998
 31
0.0
  0
LINE
  5
1F01
  8
0
 62
     0
 10
155.580456
 20
82.836315
 30
0.0
 11
155.580456
 21
87.059444
 31
0.0
  0
LINE
  5
1F02
  8
0
 62
     0
 10
154.589183
 20
82.832017
 30
0.0
 11
154.549341
 21
87.097174
 31
0.0
  0
POLYLINE
  5
1F03
  8
0
 62
     0
 66
     1
 10
0.0
 20
0.0
 30
0.0
  0
VERTEX
  5
22FD
  8
0
 62
     0
 10
144.762509
 20
74.477317
 30
0.0
  0
VERTEX
  5
22FE
  8
0
 62
     0
 10
144.863035
 20
74.624854
 30
0.0
  0
VERTEX
  5
22FF
  8
0
 62
     0
 10
144.961736
 20
74.624035
 30
0.0
  0
VERTEX
  5
2300
  8
0
 62
     0
 10
145.05408
 20
74.475414
 30
0.0
  0
VERTEX
  5
2301
  8
0
 62
     0
 10
145.136548
 20
74.186571
 30
0.0
  0
VERTEX
  5
2302
  8
0
 62
     0
 10
145.206563
 20
73.770954
 30
0.0
  0
VERTEX
  5
2303
  8
0
 62
     0
 10
145.262325
 20
73.24745
 30
0.0
  0
VERTEX
  5
2304
  8
0
 62
     0
 10
145.30272
 20
72.639374
 30
0.0
  0
VERTEX
  5
2305
  8
0
 62
     0
 10
145.327151
 20
71.973013
 30
0.0
  0
VERTEX
  5
2306
  8
0
 62
     0
 10
145.33533
 20
71.276595
 30
0.0
  0
SEQEND
  5
2307
  8
0
 62
     0
  0
POLYLINE
  5
1F04
  8
0
 62
     0
 66
     1
 10
0.0
 20
0.0
 30
0.0
  0
VERTEX
  5
2308
  8
0
 62
     0
 10
145.702107
 20
74.464361
 30
0.0
  0
VERTEX
  5
2309
  8
0
 62
     0
 10
145.756147
 20
74.611057
 30
0.0
  0
VERTEX
  5
230A
  8
0
 62
     0
 10
145.807412
 20
74.611826
 30
0.0
  0
VERTEX
  5
230B
  8
0
 62
     0
 10
145.853785
 20
74.467027
 30
0.0
  0
VERTEX
  5
230C
  8
0
 62
     0
 10
145.893898
 20
74.18126
 30
0.0
  0
VERTEX
  5
230D
  8
0
 62
     0
 10
145.926669
 20
73.767213
 30
0.0
  0
VERTEX
  5
230E
  8
0
 62
     0
 10
145.951664
 20
73.246658
 30
0.0
  0
VERTEX
  5
230F
  8
0
 62
     0
 10
145.96916
 20
72.642223
 30
0.0
  0
VERTEX
  5
2310
  8
0
 62
     0
 10
145.979537
 20
71.97678
 30
0.0
  0
VERTEX
  5
2311
  8
0
 62
     0
 10
145.98299
 20
71.276595
 30
0.0
  0
SEQEND
  5
2312
  8
0
 62
     0
  0
LINE
  5
1F05
  8
0
 62
     0
 10
155.378594
 20
67.637928
 30
0.0
 11
155.378594
 21
80.72157
 31
0.0
  0
LINE
  5
1F06
  8
0
 62
     0
 10
155.358165
 20
79.46542
 30
0.0
 11
155.358165
 21
67.637771
 31
0.0
  0
LINE
  5
1F07
  8
0
 62
     0
 10
155.160027
 20
77.812281
 30
0.0
 11
155.160027
 21
67.637771
 31
0.0
  0
LINE
  5
1F08
  8
0
 62
     0
 10
154.095821
 20
77.727302
 30
0.0
 11
154.095821
 21
67.628483
 31
0.0
  0
LINE
  5
1F09
  8
0
 62
     0
 10
153.894083
 20
77.714068
 30
0.0
 11
153.894083
 21
67.628483
 31
0.0
  0
LINE
  5
1F0A
  8
0
 62
     0
 10
153.89202
 20
74.178713
 30
0.0
 11
153.89202
 21
68.976595
 31
0.0
  0
LINE
  5
1F0B
  8
0
 62
     0
 10
153.503594
 20
69.770036
 30
0.0
 11
153.503594
 21
76.686631
 31
0.0
  0
LINE
  5
1F0C
  8
0
 62
     0
 10
145.520826
 20
72.64023
 30
0.0
 11
145.554466
 21
73.245674
 31
0.0
  0
POLYLINE
  5
1F0D
  8
0
 62
     0
 66
     1
 10
0.0
 20
0.0
 30
0.0
  0
VERTEX
  5
2313
  8
0
 62
     0
 10
144.409034
 20
71.974328
 30
0.0
  0
VERTEX
  5
2314
  8
0
 62
     0
 10
144.444833
 20
72.642222
 30
0.0
  0
VERTEX
  5
2315
  8
0
 62
     0
 10
144.501898
 20
73.250236
 30
0.0
  0
VERTEX
  5
2316
  8
0
 62
     0
 10
144.576813
 20
73.773199
 30
0.0
  0
VERTEX
  5
2317
  8
0
 62
     0
 10
144.665337
 20
74.188697
 30
0.0
  0
SEQEND
  5
2318
  8
0
 62
     0
  0
POLYLINE
  5
1F0E
  8
0
 62
     0
 66
     1
 10
0.0
 20
0.0
 30
0.0
  0
VERTEX
  5
2319
  8
0
 62
     0
 10
144.399576
 20
71.276595
 30
0.0
  0
VERTEX
  5
231A
  8
0
 62
     0
 10
144.405893
 20
71.77799
 30
0.0
  0
VERTEX
  5
231B
  8
0
 62
     0
 10
144.426604
 20
72.305412
 30
0.0
  0
VERTEX
  5
231C
  8
0
 62
     0
 10
144.459828
 20
72.792252
 30
0.0
  0
VERTEX
  5
231D
  8
0
 62
     0
 10
144.503173
 20
73.227611
 30
0.0
  0
VERTEX
  5
231E
  8
0
 62
     0
 10
144.553916
 20
73.603042
 30
0.0
  0
VERTEX
  5
231F
  8
0
 62
     0
 10
144.60922
 20
73.913574
 30
0.0
  0
VERTEX
  5
2320
  8
0
 62
     0
 10
144.666152
 20
74.156896
 30
0.0
  0
VERTEX
  5
2321
  8
0
 62
     0
 10
144.721109
 20
74.331816
 30
0.0
  0
VERTEX
  5
2322
  8
0
 62
     0
 10
144.767728
 20
74.436615
 30
0.0
  0
VERTEX
  5
2323
  8
0
 62
     0
 10
144.775711
 20
74.450106
 30
0.0
  0
SEQEND
  5
2324
  8
0
 62
     0
  0
POLYLINE
  5
1F0F
  8
0
 62
     0
 66
     1
 10
0.0
 20
0.0
 30
0.0
  0
VERTEX
  5
2325
  8
0
 62
     0
 10
146.042592
 20
71.276595
 30
0.0
  0
VERTEX
  5
2326
  8
0
 62
     0
 10
146.045163
 20
71.982733
 30
0.0
  0
VERTEX
  5
2327
  8
0
 62
     0
 10
146.052488
 20
72.656488
 30
0.0
  0
VERTEX
  5
2328
  8
0
 62
     0
 10
146.063468
 20
73.267299
 30
0.0
  0
VERTEX
  5
2329
  8
0
 62
     0
 10
146.076561
 20
73.790106
 30
0.0
  0
VERTEX
  5
232A
  8
0
 62
     0
 10
146.090013
 20
74.203522
 30
0.0
  0
VERTEX
  5
232B
  8
0
 62
     0
 10
146.102098
 20
74.489655
 30
0.0
  0
SEQEND
  5
232C
  8
0
 62
     0
  0
POLYLINE
  5
1F10
  8
0
 62
     0
 66
     1
 10
0.0
 20
0.0
 30
0.0
  0
VERTEX
  5
232D
  8
0
 62
     0
 10
145.493158
 20
71.276595
 30
0.0
  0
VERTEX
  5
232E
  8
0
 62
     0
 10
145.4939
 20
71.498928
 30
0.0
  0
VERTEX
  5
232F
  8
0
 62
     0
 10
145.496802
 20
71.768727
 30
0.0
  0
VERTEX
  5
2330
  8
0
 62
     0
 10
145.501779
 20
72.031432
 30
0.0
  0
VERTEX
  5
2331
  8
0
 62
     0
 10
145.50868
 20
72.285434
 30
0.0
  0
VERTEX
  5
2332
  8
0
 62
     0
 10
145.517338
 20
72.529428
 30
0.0
  0
VERTEX
  5
2333
  8
0
 62
     0
 10
145.527579
 20
72.762242
 30
0.0
  0
VERTEX
  5
2334
  8
0
 62
     0
 10
145.539221
 20
72.982867
 30
0.0
  0
VERTEX
  5
2335
  8
0
 62
     0
 10
145.552074
 20
73.190417
 30
0.0
  0
VERTEX
  5
2336
  8
0
 62
     0
 10
145.565941
 20
73.384077
 30
0.0
  0
VERTEX
  5
2337
  8
0
 62
     0
 10
145.58063
 20
73.563259
 30
0.0
  0
VERTEX
  5
2338
  8
0
 62
     0
 10
145.595954
 20
73.727578
 30
0.0
  0
VERTEX
  5
2339
  8
0
 62
     0
 10
145.611729
 20
73.876733
 30
0.0
  0
VERTEX
  5
233A
  8
0
 62
     0
 10
145.627781
 20
74.01058
 30
0.0
  0
VERTEX
  5
233B
  8
0
 62
     0
 10
145.643927
 20
74.129004
 30
0.0
  0
VERTEX
  5
233C
  8
0
 62
     0
 10
145.659969
 20
74.231893
 30
0.0
  0
VERTEX
  5
233D
  8
0
 62
     0
 10
145.675684
 20
74.319182
 30
0.0
  0
VERTEX
  5
233E
  8
0
 62
     0
 10
145.690765
 20
74.39067
 30
0.0
  0
VERTEX
  5
233F
  8
0
 62
     0
 10
145.704707
 20
74.445851
 30
0.0
  0
VERTEX
  5
2340
  8
0
 62
     0
 10
145.716447
 20
74.483436
 30
0.0
  0
VERTEX
  5
2341
  8
0
 62
     0
 10
145.71833
 20
74.488585
 30
0.0
  0
SEQEND
  5
2342
  8
0
 62
     0
  0
POLYLINE
  5
1F11
  8
0
 62
     0
 66
     1
 10
0.0
 20
0.0
 30
0.0
  0
VERTEX
  5
2343
  8
0
 62
     0
 10
146.096237
 20
71.364202
 30
0.0
  0
VERTEX
  5
2344
  8
0
 62
     0
 10
146.09636
 20
71.503494
 30
0.0
  0
VERTEX
  5
2345
  8
0
 62
     0
 10
146.096587
 20
71.641246
 30
0.0
  0
VERTEX
  5
2346
  8
0
 62
     0
 10
146.096914
 20
71.777221
 30
0.0
  0
VERTEX
  5
2347
  8
0
 62
     0
 10
146.097335
 20
71.911199
 30
0.0
  0
VERTEX
  5
2348
  8
0
 62
     0
 10
146.097846
 20
72.042976
 30
0.0
  0
VERTEX
  5
2349
  8
0
 62
     0
 10
146.098438
 20
72.172357
 30
0.0
  0
VERTEX
  5
234A
  8
0
 62
     0
 10
146.099105
 20
72.29916
 30
0.0
  0
VERTEX
  5
234B
  8
0
 62
     0
 10
146.099838
 20
72.423215
 30
0.0
  0
VERTEX
  5
234C
  8
0
 62
     0
 10
146.100629
 20
72.544366
 30
0.0
  0
VERTEX
  5
234D
  8
0
 62
     0
 10
146.101471
 20
72.662476
 30
0.0
  0
VERTEX
  5
234E
  8
0
 62
     0
 10
146.102356
 20
72.777423
 30
0.0
  0
VERTEX
  5
234F
  8
0
 62
     0
 10
146.103274
 20
72.889093
 30
0.0
  0
VERTEX
  5
2350
  8
0
 62
     0
 10
146.104218
 20
72.997384
 30
0.0
  0
VERTEX
  5
2351
  8
0
 62
     0
 10
146.105179
 20
73.102204
 30
0.0
  0
VERTEX
  5
2352
  8
0
 62
     0
 10
146.106148
 20
73.203476
 30
0.0
  0
VERTEX
  5
2353
  8
0
 62
     0
 10
146.107118
 20
73.301145
 30
0.0
  0
VERTEX
  5
2354
  8
0
 62
     0
 10
146.108083
 20
73.395166
 30
0.0
  0
VERTEX
  5
2355
  8
0
 62
     0
 10
146.109035
 20
73.485501
 30
0.0
  0
SEQEND
  5
2356
  8
0
 62
     0
  0
POLYLINE
  5
1F12
  8
0
 62
     0
 66
     1
 10
0.0
 20
0.0
 30
0.0
  0
VERTEX
  5
2357
  8
0
 62
     0
 10
146.042712
 20
71.276595
 30
0.0
  0
VERTEX
  5
2358
  8
0
 62
     0
 10
146.042743
 20
71.354978
 30
0.0
  0
VERTEX
  5
2359
  8
0
 62
     0
 10
146.042935
 20
71.485153
 30
0.0
  0
VERTEX
  5
235A
  8
0
 62
     0
 10
146.043297
 20
71.614014
 30
0.0
  0
VERTEX
  5
235B
  8
0
 62
     0
 10
146.043824
 20
71.741349
 30
0.0
  0
VERTEX
  5
235C
  8
0
 62
     0
 10
146.044509
 20
71.866953
 30
0.0
  0
VERTEX
  5
235D
  8
0
 62
     0
 10
146.045343
 20
71.990637
 30
0.0
  0
VERTEX
  5
235E
  8
0
 62
     0
 10
146.04632
 20
72.11224
 30
0.0
  0
VERTEX
  5
235F
  8
0
 62
     0
 10
146.047429
 20
72.231625
 30
0.0
  0
VERTEX
  5
2360
  8
0
 62
     0
 10
146.048663
 20
72.348664
 30
0.0
  0
VERTEX
  5
2361
  8
0
 62
     0
 10
146.050014
 20
72.463237
 30
0.0
  0
VERTEX
  5
2362
  8
0
 62
     0
 10
146.05147
 20
72.575229
 30
0.0
  0
VERTEX
  5
2363
  8
0
 62
     0
 10
146.053024
 20
72.684537
 30
0.0
  0
VERTEX
  5
2364
  8
0
 62
     0
 10
146.054666
 20
72.791068
 30
0.0
  0
VERTEX
  5
2365
  8
0
 62
     0
 10
146.056386
 20
72.894737
 30
0.0
  0
VERTEX
  5
2366
  8
0
 62
     0
 10
146.058175
 20
72.995467
 30
0.0
  0
VERTEX
  5
2367
  8
0
 62
     0
 10
146.060025
 20
73.09319
 30
0.0
  0
VERTEX
  5
2368
  8
0
 62
     0
 10
146.061924
 20
73.187844
 30
0.0
  0
VERTEX
  5
2369
  8
0
 62
     0
 10
146.063864
 20
73.27937
 30
0.0
  0
VERTEX
  5
236A
  8
0
 62
     0
 10
146.065835
 20
73.36772
 30
0.0
  0
VERTEX
  5
236B
  8
0
 62
     0
 10
146.067828
 20
73.452863
 30
0.0
  0
VERTEX
  5
236C
  8
0
 62
     0
 10
146.069838
 20
73.53478
 30
0.0
  0
VERTEX
  5
236D
  8
0
 62
     0
 10
146.071854
 20
73.613457
 30
0.0
  0
VERTEX
  5
236E
  8
0
 62
     0
 10
146.073871
 20
73.688886
 30
0.0
  0
VERTEX
  5
236F
  8
0
 62
     0
 10
146.075879
 20
73.761063
 30
0.0
  0
VERTEX
  5
2370
  8
0
 62
     0
 10
146.077873
 20
73.829991
 30
0.0
  0
VERTEX
  5
2371
  8
0
 62
     0
 10
146.079844
 20
73.895682
 30
0.0
  0
VERTEX
  5
2372
  8
0
 62
     0
 10
146.081789
 20
73.958163
 30
0.0
  0
VERTEX
  5
2373
  8
0
 62
     0
 10
146.083702
 20
74.017465
 30
0.0
  0
VERTEX
  5
2374
  8
0
 62
     0
 10
146.08558
 20
74.073622
 30
0.0
  0
VERTEX
  5
2375
  8
0
 62
     0
 10
146.087416
 20
74.126675
 30
0.0
  0
VERTEX
  5
2376
  8
0
 62
     0
 10
146.089207
 20
74.176666
 30
0.0
  0
VERTEX
  5
2377
  8
0
 62
     0
 10
146.090948
 20
74.223641
 30
0.0
  0
VERTEX
  5
2378
  8
0
 62
     0
 10
146.092636
 20
74.267648
 30
0.0
  0
VERTEX
  5
2379
  8
0
 62
     0
 10
146.094268
 20
74.308747
 30
0.0
  0
VERTEX
  5
237A
  8
0
 62
     0
 10
146.095843
 20
74.347004
 30
0.0
  0
VERTEX
  5
237B
  8
0
 62
     0
 10
146.097359
 20
74.382483
 30
0.0
  0
SEQEND
  5
237C
  8
0
 62
     0
  0
POLYLINE
  5
1F13
  8
0
 62
     0
 66
     1
 10
0.0
 20
0.0
 30
0.0
  0
VERTEX
  5
237D
  8
0
 62
     0
 10
145.661424
 20
74.239979
 30
0.0
  0
VERTEX
  5
237E
  8
0
 62
     0
 10
145.695947
 20
74.008535
 30
0.0
  0
VERTEX
  5
237F
  8
0
 62
     0
 10
145.728667
 20
73.619497
 30
0.0
  0
VERTEX
  5
2380
  8
0
 62
     0
 10
145.75363
 20
73.130311
 30
0.0
  0
VERTEX
  5
2381
  8
0
 62
     0
 10
145.771109
 20
72.562247
 30
0.0
  0
VERTEX
  5
2382
  8
0
 62
     0
 10
145.781485
 20
71.936785
 30
0.0
  0
VERTEX
  5
2383
  8
0
 62
     0
 10
145.78495
 20
71.276595
 30
0.0
  0
SEQEND
  5
2384
  8
0
 62
     0
  0
POLYLINE
  5
1F14
  8
0
 62
     0
 66
     1
 10
0.0
 20
0.0
 30
0.0
  0
VERTEX
  5
2385
  8
0
 62
     0
 10
144.765337
 20
74.425189
 30
0.0
  0
VERTEX
  5
2386
  8
0
 62
     0
 10
144.857521
 20
74.285433
 30
0.0
  0
VERTEX
  5
2387
  8
0
 62
     0
 10
144.939849
 20
74.013794
 30
0.0
  0
VERTEX
  5
2388
  8
0
 62
     0
 10
145.009749
 20
73.622902
 30
0.0
  0
VERTEX
  5
2389
  8
0
 62
     0
 10
145.065423
 20
73.130505
 30
0.0
  0
VERTEX
  5
238A
  8
0
 62
     0
 10
145.105755
 20
72.558532
 30
0.0
  0
VERTEX
  5
238B
  8
0
 62
     0
 10
145.130149
 20
71.93171
 30
0.0
  0
VERTEX
  5
238C
  8
0
 62
     0
 10
145.138314
 20
71.276595
 30
0.0
  0
SEQEND
  5
238D
  8
0
 62
     0
  0
LINE
  5
1F15
  8
0
 62
     0
 10
146.100793
 20
69.986631
 30
0.0
 11
152.878594
 21
69.986631
 31
0.0
  0
LINE
  5
1F16
  8
0
 62
     0
 10
146.100863
 20
69.976595
 30
0.0
 11
152.878434
 21
69.976595
 31
0.0
  0
LINE
  5
1F17
  8
0
 62
     0
 10
146.118594
 20
65.976595
 30
0.0
 11
146.118585
 21
68.066272
 31
0.0
  0
ARC
  5
1F18
  8
0
 62
     0
 10
145.618594
 20
65.976595
 30
0.0
 40
0.5
 50
270.0
 51
0.0
  0
POLYLINE
  5
1F19
  8
0
 62
     0
 66
     1
 10
0.0
 20
0.0
 30
0.0
  0
VERTEX
  5
238E
  8
0
 62
     0
 10
145.138314
 20
71.276595
 30
0.0
  0
VERTEX
  5
238F
  8
0
 62
     0
 10
145.130021
 20
70.61638
 30
0.0
  0
VERTEX
  5
2390
  8
0
 62
     0
 10
145.105368
 20
69.987462
 30
0.0
  0
VERTEX
  5
2391
  8
0
 62
     0
 10
145.064841
 20
69.416208
 30
0.0
  0
VERTEX
  5
2392
  8
0
 62
     0
 10
145.009108
 20
68.925758
 30
0.0
  0
VERTEX
  5
2393
  8
0
 62
     0
 10
144.939183
 20
68.53649
 30
0.0
  0
VERTEX
  5
2394
  8
0
 62
     0
 10
144.856803
 20
68.266065
 30
0.0
  0
VERTEX
  5
2395
  8
0
 62
     0
 10
144.764569
 20
68.127439
 30
0.0
  0
SEQEND
  5
2396
  8
0
 62
     0
  0
POLYLINE
  5
1F1A
  8
0
 62
     0
 66
     1
 10
0.0
 20
0.0
 30
0.0
  0
VERTEX
  5
2397
  8
0
 62
     0
 10
145.33533
 20
71.276595
 30
0.0
  0
VERTEX
  5
2398
  8
0
 62
     0
 10
145.327058
 20
70.576179
 30
0.0
  0
VERTEX
  5
2399
  8
0
 62
     0
 10
145.302389
 20
69.907259
 30
0.0
  0
VERTEX
  5
239A
  8
0
 62
     0
 10
145.261808
 20
69.299613
 30
0.0
  0
VERTEX
  5
239B
  8
0
 62
     0
 10
145.205983
 20
68.777881
 30
0.0
  0
VERTEX
  5
239C
  8
0
 62
     0
 10
145.13593
 20
68.363753
 30
0.0
  0
VERTEX
  5
239D
  8
0
 62
     0
 10
145.053389
 20
68.076041
 30
0.0
  0
VERTEX
  5
239E
  8
0
 62
     0
 10
144.960969
 20
67.928554
 30
0.0
  0
VERTEX
  5
239F
  8
0
 62
     0
 10
144.862287
 20
67.928889
 30
0.0
  0
SEQEND
  5
23A0
  8
0
 62
     0
  0
POLYLINE
  5
1F1B
  8
0
 62
     0
 66
     1
 10
0.0
 20
0.0
 30
0.0
  0
VERTEX
  5
23A1
  8
0
 62
     0
 10
145.78495
 20
71.276595
 30
0.0
  0
VERTEX
  5
23A2
  8
0
 62
     0
 10
145.781479
 20
70.615875
 30
0.0
  0
VERTEX
  5
23A3
  8
0
 62
     0
 10
145.771095
 20
69.990318
 30
0.0
  0
VERTEX
  5
23A4
  8
0
 62
     0
 10
145.753611
 20
69.422389
 30
0.0
  0
VERTEX
  5
23A5
  8
0
 62
     0
 10
145.728656
 20
68.933512
 30
0.0
  0
VERTEX
  5
23A6
  8
0
 62
     0
 10
145.695942
 20
68.544606
 30
0.0
  0
VERTEX
  5
23A7
  8
0
 62
     0
 10
145.661423
 20
68.313222
 30
0.0
  0
SEQEND
  5
23A8
  8
0
 62
     0
  0
POLYLINE
  5
1F1C
  8
0
 62
     0
 66
     1
 10
0.0
 20
0.0
 30
0.0
  0
VERTEX
  5
23A9
  8
0
 62
     0
 10
145.98299
 20
71.276595
 30
0.0
  0
VERTEX
  5
23AA
  8
0
 62
     0
 10
145.979528
 20
70.575423
 30
0.0
  0
VERTEX
  5
23AB
  8
0
 62
     0
 10
145.969137
 20
69.909883
 30
0.0
  0
VERTEX
  5
23AC
  8
0
 62
     0
 10
145.95163
 20
69.305614
 30
0.0
  0
VERTEX
  5
23AD
  8
0
 62
     0
 10
145.926635
 20
68.785427
 30
0.0
  0
VERTEX
  5
23AE
  8
0
 62
     0
 10
145.893863
 20
68.37159
 30
0.0
  0
VERTEX
  5
23AF
  8
0
 62
     0
 10
145.853732
 20
68.085901
 30
0.0
  0
VERTEX
  5
23B0
  8
0
 62
     0
 10
145.807341
 20
67.941259
 30
0.0
  0
VERTEX
  5
23B1
  8
0
 62
     0
 10
145.756066
 20
67.942246
 30
0.0
  0
VERTEX
  5
23B2
  8
0
 62
     0
 10
145.702025
 20
68.089158
 30
0.0
  0
SEQEND
  5
23B3
  8
0
 62
     0
  0
POLYLINE
  5
1F1D
  8
0
 62
     0
 66
     1
 10
0.0
 20
0.0
 30
0.0
  0
VERTEX
  5
23B4
  8
0
 62
     0
 10
146.111316
 20
68.857802
 30
0.0
  0
VERTEX
  5
23B5
  8
0
 62
     0
 10
146.109367
 20
69.036583
 30
0.0
  0
VERTEX
  5
23B6
  8
0
 62
     0
 10
146.108351
 20
69.132402
 30
0.0
  0
VERTEX
  5
23B7
  8
0
 62
     0
 10
146.107318
 20
69.232479
 30
0.0
  0
VERTEX
  5
23B8
  8
0
 62
     0
 10
146.106275
 20
69.336781
 30
0.0
  0
VERTEX
  5
23B9
  8
0
 62
     0
 10
146.105232
 20
69.445244
 30
0.0
  0
VERTEX
  5
23BA
  8
0
 62
     0
 10
146.104199
 20
69.557784
 30
0.0
  0
VERTEX
  5
23BB
  8
0
 62
     0
 10
146.103187
 20
69.674309
 30
0.0
  0
VERTEX
  5
23BC
  8
0
 62
     0
 10
146.102205
 20
69.794714
 30
0.0
  0
VERTEX
  5
23BD
  8
0
 62
     0
 10
146.101265
 20
69.918881
 30
0.0
  0
VERTEX
  5
23BE
  8
0
 62
     0
 10
146.100375
 20
70.04668
 30
0.0
  0
VERTEX
  5
23BF
  8
0
 62
     0
 10
146.099546
 20
70.17796
 30
0.0
  0
VERTEX
  5
23C0
  8
0
 62
     0
 10
146.098788
 20
70.312554
 30
0.0
  0
VERTEX
  5
23C1
  8
0
 62
     0
 10
146.09811
 20
70.450282
 30
0.0
  0
VERTEX
  5
23C2
  8
0
 62
     0
 10
146.097523
 20
70.59095
 30
0.0
  0
VERTEX
  5
23C3
  8
0
 62
     0
 10
146.097034
 20
70.734346
 30
0.0
  0
VERTEX
  5
23C4
  8
0
 62
     0
 10
146.096652
 20
70.88021
 30
0.0
  0
VERTEX
  5
23C5
  8
0
 62
     0
 10
146.096386
 20
71.028244
 30
0.0
  0
VERTEX
  5
23C6
  8
0
 62
     0
 10
146.096242
 20
71.178129
 30
0.0
  0
SEQEND
  5
23C7
  8
0
 62
     0
  0
POLYLINE
  5
1F1E
  8
0
 62
     0
 66
     1
 10
0.0
 20
0.0
 30
0.0
  0
VERTEX
  5
23C8
  8
0
 62
     0
 10
146.101954
 20
68.066426
 30
0.0
  0
VERTEX
  5
23C9
  8
0
 62
     0
 10
146.089839
 20
68.354393
 30
0.0
  0
VERTEX
  5
23CA
  8
0
 62
     0
 10
146.076364
 20
68.769961
 30
0.0
  0
VERTEX
  5
23CB
  8
0
 62
     0
 10
146.063277
 20
69.294796
 30
0.0
  0
VERTEX
  5
23CC
  8
0
 62
     0
 10
146.05236
 20
69.905589
 30
0.0
  0
VERTEX
  5
23CD
  8
0
 62
     0
 10
146.045125
 20
70.575767
 30
0.0
  0
SEQEND
  5
23CE
  8
0
 62
     0
  0
POLYLINE
  5
1F1F
  8
0
 62
     0
 66
     1
 10
0.0
 20
0.0
 30
0.0
  0
VERTEX
  5
23CF
  8
0
 62
     0
 10
146.09697
 20
68.179729
 30
0.0
  0
VERTEX
  5
23D0
  8
0
 62
     0
 10
146.095332
 20
68.218466
 30
0.0
  0
VERTEX
  5
23D1
  8
0
 62
     0
 10
146.093619
 20
68.260582
 30
0.0
  0
VERTEX
  5
23D2
  8
0
 62
     0
 10
146.091835
 20
68.306179
 30
0.0
  0
VERTEX
  5
23D3
  8
0
 62
     0
 10
146.089983
 20
68.355353
 30
0.0
  0
VERTEX
  5
23D4
  8
0
 62
     0
 10
146.088065
 20
68.408205
 30
0.0
  0
VERTEX
  5
23D5
  8
0
 62
     0
 10
146.086083
 20
68.464897
 30
0.0
  0
VERTEX
  5
23D6
  8
0
 62
     0
 10
146.084037
 20
68.525623
 30
0.0
  0
VERTEX
  5
23D7
  8
0
 62
     0
 10
146.08193
 20
68.590585
 30
0.0
  0
VERTEX
  5
23D8
  8
0
 62
     0
 10
146.079767
 20
68.659997
 30
0.0
  0
VERTEX
  5
23D9
  8
0
 62
     0
 10
146.077551
 20
68.734083
 30
0.0
  0
VERTEX
  5
23DA
  8
0
 62
     0
 10
146.075287
 20
68.813081
 30
0.0
  0
VERTEX
  5
23DB
  8
0
 62
     0
 10
146.072982
 20
68.897193
 30
0.0
  0
VERTEX
  5
23DC
  8
0
 62
     0
 10
146.070645
 20
68.986545
 30
0.0
  0
VERTEX
  5
23DD
  8
0
 62
     0
 10
146.068289
 20
69.081224
 30
0.0
  0
VERTEX
  5
23DE
  8
0
 62
     0
 10
146.065929
 20
69.181301
 30
0.0
  0
VERTEX
  5
23DF
  8
0
 62
     0
 10
146.063581
 20
69.28683
 30
0.0
  0
VERTEX
  5
23E0
  8
0
 62
     0
 10
146.06126
 20
69.39785
 30
0.0
  0
VERTEX
  5
23E1
  8
0
 62
     0
 10
146.058982
 20
69.51441
 30
0.0
  0
VERTEX
  5
23E2
  8
0
 62
     0
 10
146.056766
 20
69.63655
 30
0.0
  0
VERTEX
  5
23E3
  8
0
 62
     0
 10
146.054632
 20
69.764278
 30
0.0
  0
VERTEX
  5
23E4
  8
0
 62
     0
 10
146.0526
 20
69.897578
 30
0.0
  0
VERTEX
  5
23E5
  8
0
 62
     0
 10
146.050692
 20
70.036408
 30
0.0
  0
VERTEX
  5
23E6
  8
0
 62
     0
 10
146.048932
 20
70.180704
 30
0.0
  0
VERTEX
  5
23E7
  8
0
 62
     0
 10
146.047341
 20
70.330361
 30
0.0
  0
VERTEX
  5
23E8
  8
0
 62
     0
 10
146.045945
 20
70.485227
 30
0.0
  0
VERTEX
  5
23E9
  8
0
 62
     0
 10
146.044768
 20
70.645114
 30
0.0
  0
VERTEX
  5
23EA
  8
0
 62
     0
 10
146.043835
 20
70.809789
 30
0.0
  0
VERTEX
  5
23EB
  8
0
 62
     0
 10
146.043168
 20
70.978979
 30
0.0
  0
VERTEX
  5
23EC
  8
0
 62
     0
 10
146.042792
 20
71.152354
 30
0.0
  0
VERTEX
  5
23ED
  8
0
 62
     0
 10
146.042712
 20
71.276595
 30
0.0
  0
SEQEND
  5
23EE
  8
0
 62
     0
  0
LINE
  5
1F20
  8
0
 62
     0
 10
145.554414
 20
69.308277
 30
0.0
 11
145.520795
 21
69.913696
 31
0.0
  0
POLYLINE
  5
1F21
  8
0
 62
     0
 66
     1
 10
0.0
 20
0.0
 30
0.0
  0
VERTEX
  5
23EF
  8
0
 62
     0
 10
144.761802
 20
68.077437
 30
0.0
  0
VERTEX
  5
23F0
  8
0
 62
     0
 10
144.664678
 20
68.366991
 30
0.0
  0
VERTEX
  5
23F1
  8
0
 62
     0
 10
144.576229
 20
68.783346
 30
0.0
  0
VERTEX
  5
23F2
  8
0
 62
     0
 10
144.501472
 20
69.306603
 30
0.0
  0
VERTEX
  5
23F3
  8
0
 62
     0
 10
144.44461
 20
69.914043
 30
0.0
  0
SEQEND
  5
23F4
  8
0
 62
     0
  0
POLYLINE
  5
1F22
  8
0
 62
     0
 66
     1
 10
0.0
 20
0.0
 30
0.0
  0
VERTEX
  5
23F5
  8
0
 62
     0
 10
145.723603
 20
68.051983
 30
0.0
  0
VERTEX
  5
23F6
  8
0
 62
     0
 10
145.723369
 20
68.05246
 30
0.0
  0
VERTEX
  5
23F7
  8
0
 62
     0
 10
145.71645
 20
68.069748
 30
0.0
  0
VERTEX
  5
23F8
  8
0
 62
     0
 10
145.704708
 20
68.107335
 30
0.0
  0
VERTEX
  5
23F9
  8
0
 62
     0
 10
145.690768
 20
68.162508
 30
0.0
  0
VERTEX
  5
23FA
  8
0
 62
     0
 10
145.675687
 20
68.233994
 30
0.0
  0
VERTEX
  5
23FB
  8
0
 62
     0
 10
145.659971
 20
68.321285
 30
0.0
  0
VERTEX
  5
23FC
  8
0
 62
     0
 10
145.643929
 20
68.42417
 30
0.0
  0
VERTEX
  5
23FD
  8
0
 62
     0
 10
145.627784
 20
68.54259
 30
0.0
  0
VERTEX
  5
23FE
  8
0
 62
     0
 10
145.611731
 20
68.67644
 30
0.0
  0
VERTEX
  5
23FF
  8
0
 62
     0
 10
145.595955
 20
68.825596
 30
0.0
  0
VERTEX
  5
2400
  8
0
 62
     0
 10
145.580632
 20
68.989911
 30
0.0
  0
VERTEX
  5
2401
  8
0
 62
     0
 10
145.565943
 20
69.169097
 30
0.0
  0
VERTEX
  5
2402
  8
0
 62
     0
 10
145.552075
 20
69.362758
 30
0.0
  0
VERTEX
  5
2403
  8
0
 62
     0
 10
145.539222
 20
69.570311
 30
0.0
  0
VERTEX
  5
2404
  8
0
 62
     0
 10
145.527579
 20
69.790954
 30
0.0
  0
VERTEX
  5
2405
  8
0
 62
     0
 10
145.517336
 20
70.023788
 30
0.0
  0
VERTEX
  5
2406
  8
0
 62
     0
 10
145.508678
 20
70.267796
 30
0.0
  0
VERTEX
  5
2407
  8
0
 62
     0
 10
145.501779
 20
70.521798
 30
0.0
  0
VERTEX
  5
2408
  8
0
 62
     0
 10
145.496802
 20
70.784478
 30
0.0
  0
VERTEX
  5
2409
  8
0
 62
     0
 10
145.4939
 20
71.05426
 30
0.0
  0
VERTEX
  5
240A
  8
0
 62
     0
 10
145.493158
 20
71.276595
 30
0.0
  0
SEQEND
  5
240B
  8
0
 62
     0
  0
POLYLINE
  5
1F23
  8
0
 62
     0
 66
     1
 10
0.0
 20
0.0
 30
0.0
  0
VERTEX
  5
240C
  8
0
 62
     0
 10
144.785932
 20
68.087601
 30
0.0
  0
VERTEX
  5
240D
  8
0
 62
     0
 10
144.788306
 20
68.08553
 30
0.0
  0
VERTEX
  5
240E
  8
0
 62
     0
 10
144.767733
 20
68.116573
 30
0.0
  0
VERTEX
  5
240F
  8
0
 62
     0
 10
144.721114
 20
68.221356
 30
0.0
  0
VERTEX
  5
2410
  8
0
 62
     0
 10
144.666154
 20
68.396288
 30
0.0
  0
VERTEX
  5
2411
  8
0
 62
     0
 10
144.609224
 20
68.639599
 30
0.0
  0
VERTEX
  5
2412
  8
0
 62
     0
 10
144.553919
 20
68.950123
 30
0.0
  0
VERTEX
  5
2413
  8
0
 62
     0
 10
144.503175
 20
69.325562
 30
0.0
  0
VERTEX
  5
2414
  8
0
 62
     0
 10
144.459828
 20
69.760942
 30
0.0
  0
VERTEX
  5
2415
  8
0
 62
     0
 10
144.426601
 20
70.247827
 30
0.0
  0
VERTEX
  5
2416
  8
0
 62
     0
 10
144.405892
 20
70.775217
 30
0.0
  0
VERTEX
  5
2417
  8
0
 62
     0
 10
144.399576
 20
71.276595
 30
0.0
  0
SEQEND
  5
2418
  8
0
 62
     0
  0
LINE
  5
1F24
  8
0
 62
     0
 10
144.764569
 20
68.127439
 30
0.0
 11
144.763132
 21
68.126913
 31
0.0
  0
LINE
  5
1F25
  8
0
 62
     0
 10
145.597867
 20
68.788283
 30
0.0
 11
145.554414
 21
69.308277
 31
0.0
  0
LINE
  5
1F26
  8
0
 62
     0
 10
145.648185
 20
68.375604
 30
0.0
 11
145.597867
 21
68.788283
 31
0.0
  0
LINE
  5
1F27
  8
0
 62
     0
 10
145.702025
 20
68.089158
 30
0.0
 11
145.648185
 21
68.375604
 31
0.0
  0
LINE
  5
1F28
  8
0
 62
     0
 10
144.862287
 20
67.928889
 30
0.0
 11
144.761802
 21
68.077437
 31
0.0
  0
POLYLINE
  5
1F29
  8
0
 62
     0
 66
     1
 10
0.0
 20
0.0
 30
0.0
  0
VERTEX
  5
2419
  8
0
 62
     0
 10
146.118594
 20
68.048628
 30
0.0
  0
VERTEX
  5
241A
  8
0
 62
     0
 10
146.11691
 20
67.917583
 30
0.0
  0
VERTEX
  5
241B
  8
0
 62
     0
 10
146.111281
 20
67.91861
 30
0.0
  0
SEQEND
  5
241C
  8
0
 62
     0
  0
POLYLINE
  5
1F2A
  8
0
 62
     0
 66
     1
 10
0.0
 20
0.0
 30
0.0
  0
VERTEX
  5
241D
  8
0
 62
     0
 10
146.118585
 20
68.066272
 30
0.0
  0
VERTEX
  5
241E
  8
0
 62
     0
 10
146.118513
 20
68.098518
 30
0.0
  0
VERTEX
  5
241F
  8
0
 62
     0
 10
146.118372
 20
68.134075
 30
0.0
  0
VERTEX
  5
2420
  8
0
 62
     0
 10
146.118159
 20
68.173071
 30
0.0
  0
VERTEX
  5
2421
  8
0
 62
     0
 10
146.117876
 20
68.215629
 30
0.0
  0
VERTEX
  5
2422
  8
0
 62
     0
 10
146.117521
 20
68.261864
 30
0.0
  0
VERTEX
  5
2423
  8
0
 62
     0
 10
146.117094
 20
68.311886
 30
0.0
  0
VERTEX
  5
2424
  8
0
 62
     0
 10
146.116594
 20
68.365796
 30
0.0
  0
VERTEX
  5
2425
  8
0
 62
     0
 10
146.116023
 20
68.423675
 30
0.0
  0
VERTEX
  5
2426
  8
0
 62
     0
 10
146.115385
 20
68.485593
 30
0.0
  0
VERTEX
  5
2427
  8
0
 62
     0
 10
146.114684
 20
68.551615
 30
0.0
  0
VERTEX
  5
2428
  8
0
 62
     0
 10
146.113105
 20
68.696196
 30
0.0
  0
SEQEND
  5
2429
  8
0
 62
     0
  0
POLYLINE
  5
1F2B
  8
0
 62
     0
 66
     1
 10
0.0
 20
0.0
 30
0.0
  0
VERTEX
  5
242A
  8
0
 62
     0
 10
146.113105
 20
68.696196
 30
0.0
  0
VERTEX
  5
242B
  8
0
 62
     0
 10
146.112235
 20
68.774854
 30
0.0
  0
VERTEX
  5
242C
  8
0
 62
     0
 10
146.111316
 20
68.857802
 30
0.0
  0
SEQEND
  5
242D
  8
0
 62
     0
  0
LINE
  5
1F2C
  8
0
 62
     0
 10
146.111281
 20
67.91861
 30
0.0
 11
146.101954
 21
68.066426
 31
0.0
  0
POLYLINE
  5
1F2D
  8
0
 62
     0
 66
     1
 10
0.0
 20
0.0
 30
0.0
  0
VERTEX
  5
242E
  8
0
 62
     0
 10
146.110644
 20
67.935338
 30
0.0
  0
VERTEX
  5
242F
  8
0
 62
     0
 10
146.110623
 20
67.935513
 30
0.0
  0
VERTEX
  5
2430
  8
0
 62
     0
 10
146.110284
 20
67.938655
 30
0.0
  0
VERTEX
  5
2431
  8
0
 62
     0
 10
146.109716
 20
67.944723
 30
0.0
  0
VERTEX
  5
2432
  8
0
 62
     0
 10
146.108997
 20
67.953397
 30
0.0
  0
VERTEX
  5
2433
  8
0
 62
     0
 10
146.108164
 20
67.964515
 30
0.0
  0
VERTEX
  5
2434
  8
0
 62
     0
 10
146.107239
 20
67.977996
 30
0.0
  0
VERTEX
  5
2435
  8
0
 62
     0
 10
146.106231
 20
67.993849
 30
0.0
  0
VERTEX
  5
2436
  8
0
 62
     0
 10
146.105144
 20
68.012141
 30
0.0
  0
VERTEX
  5
2437
  8
0
 62
     0
 10
146.10398
 20
68.032971
 30
0.0
  0
VERTEX
  5
2438
  8
0
 62
     0
 10
146.102738
 20
68.05646
 30
0.0
  0
VERTEX
  5
2439
  8
0
 62
     0
 10
146.101417
 20
68.082746
 30
0.0
  0
VERTEX
  5
243A
  8
0
 62
     0
 10
146.100015
 20
68.111975
 30
0.0
  0
VERTEX
  5
243B
  8
0
 62
     0
 10
146.098532
 20
68.144268
 30
0.0
  0
VERTEX
  5
243C
  8
0
 62
     0
 10
146.09697
 20
68.179729
 30
0.0
  0
SEQEND
  5
243D
  8
0
 62
     0
  0
LINE
  5
1F2E
  8
0
 62
     0
 10
145.49948
 20
71.973895
 30
0.0
 11
145.520826
 21
72.64023
 31
0.0
  0
LINE
  5
1F2F
  8
0
 62
     0
 10
144.396851
 20
71.276595
 30
0.0
 11
144.409034
 21
71.974328
 31
0.0
  0
LINE
  5
1F30
  8
0
 62
     0
 10
145.492167
 20
71.276595
 30
0.0
 11
145.49948
 21
71.973895
 31
0.0
  0
LINE
  5
1F31
  8
0
 62
     0
 10
145.499467
 20
70.579872
 30
0.0
 11
145.492167
 21
71.276595
 31
0.0
  0
LINE
  5
1F32
  8
0
 62
     0
 10
145.520795
 20
69.913696
 30
0.0
 11
145.499467
 21
70.579872
 31
0.0
  0
POLYLINE
  5
1F33
  8
0
 62
     0
 66
     1
 10
0.0
 20
0.0
 30
0.0
  0
VERTEX
  5
243E
  8
0
 62
     0
 10
144.44461
 20
69.914043
 30
0.0
  0
VERTEX
  5
243F
  8
0
 62
     0
 10
144.408971
 20
70.580653
 30
0.0
  0
VERTEX
  5
2440
  8
0
 62
     0
 10
144.396851
 20
71.276595
 30
0.0
  0
SEQEND
  5
2441
  8
0
 62
     0
  0
LINE
  5
1F34
  8
0
 62
     0
 10
146.096216
 20
71.276595
 30
0.0
 11
146.096237
 21
71.364202
 31
0.0
  0
LINE
  5
1F35
  8
0
 62
     0
 10
146.096242
 20
71.178129
 30
0.0
 11
146.096216
 21
71.276595
 31
0.0
  0
LINE
  5
1F36
  8
0
 62
     0
 10
146.045125
 20
70.575767
 30
0.0
 11
146.042592
 21
71.276595
 31
0.0
  0
ARC
  5
1F37
  8
0
 62
     0
 10
152.878594
 20
68.976595
 30
0.0
 40
1.010036
 50
51.772181
 51
90.0
  0
ARC
  5
1F38
  8
0
 62
     0
 10
152.878594
 20
68.976595
 30
0.0
 40
1.0
 50
0.0
 51
90.009165
  0
LINE
  5
1F39
  8
0
 62
     0
 10
152.878594
 20
69.986631
 30
0.0
 11
152.878434
 21
69.976595
 31
0.0
  0
LINE
  5
1F3A
  8
0
 62
     0
 10
155.160027
 20
67.637771
 30
0.0
 11
154.095821
 21
67.628483
 31
0.0
  0
LINE
  5
1F3B
  8
0
 62
     0
 10
155.18034
 20
67.437956
 30
0.0
 11
154.080347
 21
67.428356
 31
0.0
  0
LINE
  5
1F3C
  8
0
 62
     0
 10
154.095821
 20
67.428491
 30
0.0
 11
154.09627
 21
67.438056
 31
0.0
  0
POLYLINE
  5
1F3D
  8
0
 62
     0
 66
     1
 10
0.0
 20
0.0
 30
0.0
  0
VERTEX
  5
2442
  8
0
 62
     0
 10
154.09627
 20
67.438056
 30
0.0
  0
VERTEX
  5
2443
  8
0
 62
     0
 10
154.096512
 20
67.466349
 30
0.0
  0
VERTEX
  5
2444
  8
0
 62
     0
 10
154.096514
 20
67.510583
 30
0.0
  0
VERTEX
  5
2445
  8
0
 62
     0
 10
154.096276
 20
67.566484
 30
0.0
  0
VERTEX
  5
2446
  8
0
 62
     0
 10
154.095821
 20
67.628483
 30
0.0
  0
SEQEND
  5
2447
  8
0
 62
     0
  0
LINE
  5
1F3E
  8
0
 62
     0
 10
153.878594
 20
67.628348
 30
0.0
 11
153.878594
 21
68.976595
 31
0.0
  0
POLYLINE
  5
1F3F
  8
0
 62
     0
 66
     1
 10
0.0
 20
0.0
 30
0.0
  0
VERTEX
  5
2448
  8
0
 62
     0
 10
153.503594
 20
69.770036
 30
0.0
  0
VERTEX
  5
2449
  8
0
 62
     0
 10
153.643249
 20
69.638365
 30
0.0
  0
VERTEX
  5
244A
  8
0
 62
     0
 10
153.754293
 20
69.484285
 30
0.0
  0
VERTEX
  5
244B
  8
0
 62
     0
 10
153.832723
 20
69.316626
 30
0.0
  0
VERTEX
  5
244C
  8
0
 62
     0
 10
153.878298
 20
69.142069
 30
0.0
  0
VERTEX
  5
244D
  8
0
 62
     0
 10
153.89202
 20
68.976595
 30
0.0
  0
SEQEND
  5
244E
  8
0
 62
     0
  0
POLYLINE
  5
1F40
  8
0
 62
     0
 66
     1
 10
0.0
 20
0.0
 30
0.0
  0
VERTEX
  5
244F
  8
0
 62
     0
 10
154.080332
 20
67.428356
 30
0.0
  0
VERTEX
  5
2450
  8
0
 62
     0
 10
154.003264
 20
67.443075
 30
0.0
  0
VERTEX
  5
2451
  8
0
 62
     0
 10
153.937789
 20
67.486311
 30
0.0
  0
VERTEX
  5
2452
  8
0
 62
     0
 10
153.893985
 20
67.551409
 30
0.0
  0
VERTEX
  5
2453
  8
0
 62
     0
 10
153.878594
 20
67.628348
 30
0.0
  0
SEQEND
  5
2454
  8
0
 62
     0
  0
POLYLINE
  5
1F41
  8
0
 62
     0
 66
     1
 10
0.0
 20
0.0
 30
0.0
  0
VERTEX
  5
2455
  8
0
 62
     0
 10
154.095821
 20
67.428491
 30
0.0
  0
VERTEX
  5
2456
  8
0
 62
     0
 10
154.033604
 20
67.437845
 30
0.0
  0
VERTEX
  5
2457
  8
0
 62
     0
 10
153.977372
 20
67.466067
 30
0.0
  0
VERTEX
  5
2458
  8
0
 62
     0
 10
153.93269
 20
67.510362
 30
0.0
  0
VERTEX
  5
2459
  8
0
 62
     0
 10
153.90398
 20
67.566348
 30
0.0
  0
VERTEX
  5
245A
  8
0
 62
     0
 10
153.894083
 20
67.628483
 30
0.0
  0
SEQEND
  5
245B
  8
0
 62
     0
  0
LINE
  5
1F42
  8
0
 62
     0
 10
153.89202
 20
68.976595
 30
0.0
 11
153.878594
 21
68.976595
 31
0.0
  0
LINE
  5
1F43
  8
0
 62
     0
 10
154.095821
 20
67.628483
 30
0.0
 11
153.894083
 21
67.628483
 31
0.0
  0
LINE
  5
1F44
  8
0
 62
     0
 10
153.894083
 20
67.628483
 30
0.0
 11
153.878594
 21
67.628348
 31
0.0
  0
ARC
  5
1F45
  8
0
 62
     0
 10
155.178594
 20
67.637948
 30
0.0
 40
0.2
 50
270.5
 51
0.0
  0
LINE
  5
1F46
  8
0
 62
     0
 10
155.160027
 20
67.437778
 30
0.0
 11
155.160477
 21
67.447364
 31
0.0
  0
POLYLINE
  5
1F47
  8
0
 62
     0
 66
     1
 10
0.0
 20
0.0
 30
0.0
  0
VERTEX
  5
245C
  8
0
 62
     0
 10
155.160477
 20
67.447364
 30
0.0
  0
VERTEX
  5
245D
  8
0
 62
     0
 10
155.160719
 20
67.475667
 30
0.0
  0
VERTEX
  5
245E
  8
0
 62
     0
 10
155.160721
 20
67.5199
 30
0.0
  0
VERTEX
  5
245F
  8
0
 62
     0
 10
155.160482
 20
67.575785
 30
0.0
  0
VERTEX
  5
2460
  8
0
 62
     0
 10
155.160027
 20
67.637771
 30
0.0
  0
SEQEND
  5
2461
  8
0
 62
     0
  0
LINE
  5
1F48
  8
0
 62
     0
 10
155.358165
 20
67.637771
 30
0.0
 11
155.160027
 21
67.637771
 31
0.0
  0
LINE
  5
1F49
  8
0
 62
     0
 10
155.378594
 20
67.637948
 30
0.0
 11
155.358165
 21
67.637771
 31
0.0
  0
POLYLINE
  5
1F4A
  8
0
 62
     0
 66
     1
 10
0.0
 20
0.0
 30
0.0
  0
VERTEX
  5
2462
  8
0
 62
     0
 10
155.160027
 20
67.437778
 30
0.0
  0
VERTEX
  5
2463
  8
0
 62
     0
 10
155.221376
 20
67.447995
 30
0.0
  0
VERTEX
  5
2464
  8
0
 62
     0
 10
155.276617
 20
67.476585
 30
0.0
  0
VERTEX
  5
2465
  8
0
 62
     0
 10
155.320401
 20
67.520779
 30
0.0
  0
VERTEX
  5
2466
  8
0
 62
     0
 10
155.348491
 20
67.576299
 30
0.0
  0
VERTEX
  5
2467
  8
0
 62
     0
 10
155.358165
 20
67.637771
 30
0.0
  0
SEQEND
  5
2468
  8
0
 62
     0
  0
LINE
  5
1F4B
  8
0
 62
     0
 10
153.118594
 20
81.576595
 30
0.0
 11
146.118579
 21
81.576606
 31
0.0
  0
LINE
  5
1F4C
  8
0
 62
     0
 10
146.118594
 20
81.276595
 30
0.0
 11
155.219263
 21
81.276595
 31
0.0
  0
LINE
  5
1F4D
  8
0
 62
     0
 10
146.118594
 20
76.689904
 30
0.0
 11
153.891903
 21
76.689904
 31
0.0
  0
LINE
  5
1F4E
  8
0
 62
     0
 10
146.118594
 20
76.686631
 30
0.0
 11
153.503594
 21
76.686631
 31
0.0
  0
LINE
  5
1F4F
  8
0
 62
     0
 10
154.589183
 20
82.832017
 30
0.0
 11
146.238433
 21
82.759141
 31
0.0
  0
POLYLINE
  5
1F50
  8
0
 62
     0
 66
     1
 10
0.0
 20
0.0
 30
0.0
  0
VERTEX
  5
2469
  8
0
 62
     0
 10
146.118594
 20
77.416604
 30
0.0
  0
VERTEX
  5
246A
  8
0
 62
     0
 10
148.300697
 20
77.49122
 30
0.0
  0
VERTEX
  5
246B
  8
0
 62
     0
 10
150.823833
 20
77.58027
 30
0.0
  0
VERTEX
  5
246C
  8
0
 62
     0
 10
153.122538
 20
77.664098
 30
0.0
  0
SEQEND
  5
246D
  8
0
 62
     0
  0
POLYLINE
  5
1F51
  8
0
 62
     0
 66
     1
 10
0.0
 20
0.0
 30
0.0
  0
VERTEX
  5
246E
  8
0
 62
     0
 10
153.118594
 20
77.734569
 30
0.0
  0
VERTEX
  5
246F
  8
0
 62
     0
 10
150.670309
 20
77.641695
 30
0.0
  0
VERTEX
  5
2470
  8
0
 62
     0
 10
148.190854
 20
77.550859
 30
0.0
  0
VERTEX
  5
2471
  8
0
 62
     0
 10
146.118594
 20
77.477367
 30
0.0
  0
SEQEND
  5
2472
  8
0
 62
     0
  0
LINE
  5
1F52
  8
0
 62
     0
 10
146.118594
 20
74.497164
 30
0.0
 11
146.118594
 21
81.638002
 31
0.0
  0
LINE
  5
1F53
  8
0
 62
     0
 10
144.665337
 20
74.188697
 30
0.0
 11
144.762509
 21
74.477317
 31
0.0
  0
POLYLINE
  5
1F54
  8
0
 62
     0
 66
     1
 10
0.0
 20
0.0
 30
0.0
  0
VERTEX
  5
2473
  8
0
 62
     0
 10
145.597934
 20
73.765571
 30
0.0
  0
VERTEX
  5
2474
  8
0
 62
     0
 10
145.648262
 20
74.178104
 30
0.0
  0
VERTEX
  5
2475
  8
0
 62
     0
 10
145.702107
 20
74.464361
 30
0.0
  0
SEQEND
  5
2476
  8
0
 62
     0
  0
LINE
  5
1F55
  8
0
 62
     0
 10
145.554466
 20
73.245674
 30
0.0
 11
145.597934
 21
73.765571
 31
0.0
  0
LINE
  5
1F56
  8
0
 62
     0
 10
144.763027
 20
74.426047
 30
0.0
 11
144.765337
 21
74.425189
 31
0.0
  0
POLYLINE
  5
1F57
  8
0
 62
     0
 66
     1
 10
0.0
 20
0.0
 30
0.0
  0
VERTEX
  5
2477
  8
0
 62
     0
 10
146.102098
 20
74.489655
 30
0.0
  0
VERTEX
  5
2478
  8
0
 62
     0
 10
146.111384
 20
74.635595
 30
0.0
  0
VERTEX
  5
2479
  8
0
 62
     0
 10
146.11696
 20
74.634594
 30
0.0
  0
VERTEX
  5
247A
  8
0
 62
     0
 10
146.118594
 20
74.501738
 30
0.0
  0
SEQEND
  5
247B
  8
0
 62
     0
  0
POLYLINE
  5
1F58
  8
0
 62
     0
 66
     1
 10
0.0
 20
0.0
 30
0.0
  0
VERTEX
  5
247C
  8
0
 62
     0
 10
146.097359
 20
74.382483
 30
0.0
  0
VERTEX
  5
247D
  8
0
 62
     0
 10
146.098815
 20
74.415252
 30
0.0
  0
VERTEX
  5
247E
  8
0
 62
     0
 10
146.100209
 20
74.445376
 30
0.0
  0
VERTEX
  5
247F
  8
0
 62
     0
 10
146.101539
 20
74.472922
 30
0.0
  0
VERTEX
  5
2480
  8
0
 62
     0
 10
146.102804
 20
74.497958
 30
0.0
  0
VERTEX
  5
2481
  8
0
 62
     0
 10
146.104
 20
74.520548
 30
0.0
  0
VERTEX
  5
2482
  8
0
 62
     0
 10
146.105129
 20
74.540762
 30
0.0
  0
VERTEX
  5
2483
  8
0
 62
     0
 10
146.10619
 20
74.558664
 30
0.0
  0
VERTEX
  5
2484
  8
0
 62
     0
 10
146.107179
 20
74.574302
 30
0.0
  0
VERTEX
  5
2485
  8
0
 62
     0
 10
146.108093
 20
74.587706
 30
0.0
  0
VERTEX
  5
2486
  8
0
 62
     0
 10
146.108922
 20
74.598871
 30
0.0
  0
VERTEX
  5
2487
  8
0
 62
     0
 10
146.10965
 20
74.607728
 30
0.0
  0
VERTEX
  5
2488
  8
0
 62
     0
 10
146.110236
 20
74.614053
 30
0.0
  0
VERTEX
  5
2489
  8
0
 62
     0
 10
146.110309
 20
74.614782
 30
0.0
  0
SEQEND
  5
248A
  8
0
 62
     0
  0
POLYLINE
  5
1F59
  8
0
 62
     0
 66
     1
 10
0.0
 20
0.0
 30
0.0
  0
VERTEX
  5
248B
  8
0
 62
     0
 10
146.110872
 20
73.65501
 30
0.0
  0
VERTEX
  5
248C
  8
0
 62
     0
 10
146.112578
 20
73.809567
 30
0.0
  0
VERTEX
  5
248D
  8
0
 62
     0
 10
146.114118
 20
73.949284
 30
0.0
  0
SEQEND
  5
248E
  8
0
 62
     0
  0
LINE
  5
1F5A
  8
0
 62
     0
 10
146.109035
 20
73.485501
 30
0.0
 11
146.110872
 21
73.65501
 31
0.0
  0
LINE
  5
1F5B
  8
0
 62
     0
 10
146.114118
 20
73.949284
 30
0.0
 11
146.115459
 21
74.074412
 31
0.0
  0
POLYLINE
  5
1F5C
  8
0
 62
     0
 66
     1
 10
0.0
 20
0.0
 30
0.0
  0
VERTEX
  5
248F
  8
0
 62
     0
 10
146.115459
 20
74.074412
 30
0.0
  0
VERTEX
  5
2490
  8
0
 62
     0
 10
146.116046
 20
74.131622
 30
0.0
  0
VERTEX
  5
2491
  8
0
 62
     0
 10
146.116573
 20
74.185339
 30
0.0
  0
VERTEX
  5
2492
  8
0
 62
     0
 10
146.11704
 20
74.235641
 30
0.0
  0
VERTEX
  5
2493
  8
0
 62
     0
 10
146.117447
 20
74.282608
 30
0.0
  0
VERTEX
  5
2494
  8
0
 62
     0
 10
146.117793
 20
74.326324
 30
0.0
  0
VERTEX
  5
2495
  8
0
 62
     0
 10
146.118078
 20
74.366874
 30
0.0
  0
VERTEX
  5
2496
  8
0
 62
     0
 10
146.1183
 20
74.404347
 30
0.0
  0
VERTEX
  5
2497
  8
0
 62
     0
 10
146.11846
 20
74.438838
 30
0.0
  0
VERTEX
  5
2498
  8
0
 62
     0
 10
146.118556
 20
74.470435
 30
0.0
  0
VERTEX
  5
2499
  8
0
 62
     0
 10
146.118594
 20
74.501738
 30
0.0
  0
SEQEND
  5
249A
  8
0
 62
     0
  0
POLYLINE
  5
1F5D
  8
0
 62
     0
 66
     1
 10
0.0
 20
0.0
 30
0.0
  0
VERTEX
  5
249B
  8
0
 62
     0
 10
146.238433
 20
82.759141
 30
0.0
  0
VERTEX
  5
249C
  8
0
 62
     0
 10
146.020142
 20
82.832843
 30
0.0
  0
VERTEX
  5
249D
  8
0
 62
     0
 10
145.825941
 20
82.898631
 30
0.0
  0
VERTEX
  5
249E
  8
0
 62
     0
 10
145.656022
 20
82.956158
 30
0.0
  0
SEQEND
  5
249F
  8
0
 62
     0
  0
ARC
  5
1F5E
  8
0
 62
     0
 10
145.050342
 20
82.748811
 30
0.0
 40
0.5
 50
270.5
 51
41.689014
  0
LINE
  5
1F5F
  8
0
 62
     0
 10
144.375215
 20
82.2429
 30
0.0
 11
144.365972
 21
81.652978
 31
0.0
  0
LINE
  5
1F60
  8
0
 62
     0
 10
144.897475
 20
82.247774
 30
0.0
 11
144.897471
 21
81.64834
 31
0.0
  0
LINE
  5
1F61
  8
0
 62
     0
 10
144.499256
 20
81.651815
 30
0.0
 11
144.499251
 21
82.243982
 31
0.0
  0
LINE
  5
1F62
  8
0
 62
     0
 10
144.983644
 20
81.647588
 30
0.0
 11
144.978058
 21
82.248186
 31
0.0
  0
POLYLINE
  5
1F63
  8
0
 62
     0
 66
     1
 10
0.0
 20
0.0
 30
0.0
  0
VERTEX
  5
24A0
  8
0
 62
     0
 10
145.656022
 20
82.956158
 30
0.0
  0
VERTEX
  5
24A1
  8
0
 62
     0
 10
145.512278
 20
83.004957
 30
0.0
  0
VERTEX
  5
24A2
  8
0
 62
     0
 10
145.457243
 20
83.02368
 30
0.0
  0
SEQEND
  5
24A3
  8
0
 62
     0
  0
POLYLINE
  5
1F64
  8
0
 62
     0
 66
     1
 10
0.0
 20
0.0
 30
0.0
  0
VERTEX
  5
24A4
  8
0
 62
     0
 10
146.238433
 20
82.25916
 30
0.0
  0
VERTEX
  5
24A5
  8
0
 62
     0
 10
146.239771
 20
82.29723
 30
0.0
  0
VERTEX
  5
24A6
  8
0
 62
     0
 10
146.24024
 20
82.405614
 30
0.0
  0
VERTEX
  5
24A7
  8
0
 62
     0
 10
146.239771
 20
82.567815
 30
0.0
  0
VERTEX
  5
24A8
  8
0
 62
     0
 10
146.238433
 20
82.759141
 30
0.0
  0
SEQEND
  5
24A9
  8
0
 62
     0
  0
LINE
  5
1F65
  8
0
 62
     0
 10
155.285011
 20
77.994024
 30
0.0
 11
155.285011
 21
79.893779
 31
0.0
  0
LINE
  5
1F66
  8
0
 62
     0
 10
155.284767
 20
77.993217
 30
0.0
 11
155.284767
 21
79.893779
 31
0.0
  0
LINE
  5
1F67
  8
0
 62
     0
 10
153.118594
 20
82.319202
 30
0.0
 11
153.118594
 21
77.734569
 31
0.0
  0
POLYLINE
  5
1F68
  8
0
 62
     0
 66
     1
 10
0.0
 20
0.0
 30
0.0
  0
VERTEX
  5
24AA
  8
0
 62
     0
 10
155.026861
 20
81.276595
 30
0.0
  0
VERTEX
  5
24AB
  8
0
 62
     0
 10
155.026909
 20
81.183431
 30
0.0
  0
VERTEX
  5
24AC
  8
0
 62
     0
 10
155.027078
 20
81.081528
 30
0.0
  0
VERTEX
  5
24AD
  8
0
 62
     0
 10
155.0274
 20
80.971536
 30
0.0
  0
VERTEX
  5
24AE
  8
0
 62
     0
 10
155.027894
 20
80.854005
 30
0.0
  0
VERTEX
  5
24AF
  8
0
 62
     0
 10
155.028596
 20
80.72776
 30
0.0
  0
VERTEX
  5
24B0
  8
0
 62
     0
 10
155.02957
 20
80.589446
 30
0.0
  0
VERTEX
  5
24B1
  8
0
 62
     0
 10
155.030909
 20
80.435622
 30
0.0
  0
VERTEX
  5
24B2
  8
0
 62
     0
 10
155.032731
 20
80.26337
 30
0.0
  0
VERTEX
  5
24B3
  8
0
 62
     0
 10
155.035159
 20
80.071531
 30
0.0
  0
VERTEX
  5
24B4
  8
0
 62
     0
 10
155.038326
 20
79.859601
 30
0.0
  0
VERTEX
  5
24B5
  8
0
 62
     0
 10
155.042376
 20
79.627253
 30
0.0
  0
VERTEX
  5
24B6
  8
0
 62
     0
 10
155.047463
 20
79.374561
 30
0.0
  0
VERTEX
  5
24B7
  8
0
 62
     0
 10
155.053774
 20
79.100719
 30
0.0
  0
VERTEX
  5
24B8
  8
0
 62
     0
 10
155.061634
 20
78.800326
 30
0.0
  0
VERTEX
  5
24B9
  8
0
 62
     0
 10
155.071128
 20
78.478354
 30
0.0
  0
VERTEX
  5
24BA
  8
0
 62
     0
 10
155.081504
 20
78.161839
 30
0.0
  0
VERTEX
  5
24BB
  8
0
 62
     0
 10
155.091985
 20
77.868818
 30
0.0
  0
SEQEND
  5
24BC
  8
0
 62
     0
  0
POLYLINE
  5
1F69
  8
0
 62
     0
 66
     1
 10
0.0
 20
0.0
 30
0.0
  0
VERTEX
  5
24BD
  8
0
 62
     0
 10
155.230795
 20
79.903087
 30
0.0
  0
VERTEX
  5
24BE
  8
0
 62
     0
 10
155.234869
 20
79.678395
 30
0.0
  0
VERTEX
  5
24BF
  8
0
 62
     0
 10
155.239987
 20
79.434373
 30
0.0
  0
VERTEX
  5
24C0
  8
0
 62
     0
 10
155.246335
 20
79.170397
 30
0.0
  0
VERTEX
  5
24C1
  8
0
 62
     0
 10
155.254242
 20
78.881493
 30
0.0
  0
VERTEX
  5
24C2
  8
0
 62
     0
 10
155.2638
 20
78.572626
 30
0.0
  0
VERTEX
  5
24C3
  8
0
 62
     0
 10
155.274222
 20
78.271003
 30
0.0
  0
VERTEX
  5
24C4
  8
0
 62
     0
 10
155.284767
 20
77.993554
 30
0.0
  0
SEQEND
  5
24C5
  8
0
 62
     0
  0
POLYLINE
  5
1F6A
  8
0
 62
     0
 66
     1
 10
0.0
 20
0.0
 30
0.0
  0
VERTEX
  5
24C6
  8
0
 62
     0
 10
153.122543
 20
77.664073
 30
0.0
  0
VERTEX
  5
24C7
  8
0
 62
     0
 10
153.78503
 20
77.706914
 30
0.0
  0
VERTEX
  5
24C8
  8
0
 62
     0
 10
154.477462
 20
77.752337
 30
0.0
  0
VERTEX
  5
24C9
  8
0
 62
     0
 10
155.098387
 20
77.793665
 30
0.0
  0
SEQEND
  5
24CA
  8
0
 62
     0
  0
POLYLINE
  5
1F6B
  8
0
 62
     0
 66
     1
 10
0.0
 20
0.0
 30
0.0
  0
VERTEX
  5
24CB
  8
0
 62
     0
 10
155.091985
 20
77.868809
 30
0.0
  0
VERTEX
  5
24CC
  8
0
 62
     0
 10
154.427891
 20
77.822921
 30
0.0
  0
VERTEX
  5
24CD
  8
0
 62
     0
 10
153.770093
 20
77.778151
 30
0.0
  0
VERTEX
  5
24CE
  8
0
 62
     0
 10
153.118601
 20
77.734444
 30
0.0
  0
SEQEND
  5
24CF
  8
0
 62
     0
  0
POLYLINE
  5
1F6C
  8
0
 62
     0
 66
     1
 10
0.0
 20
0.0
 30
0.0
  0
VERTEX
  5
24D0
  8
0
 62
     0
 10
153.122538
 20
77.664098
 30
0.0
  0
VERTEX
  5
24D1
  8
0
 62
     0
 10
153.121365
 20
77.678292
 30
0.0
  0
VERTEX
  5
24D2
  8
0
 62
     0
 10
153.118594
 20
77.734569
 30
0.0
  0
SEQEND
  5
24D3
  8
0
 62
     0
  0
LINE
  5
1F6D
  8
0
 62
     0
 10
153.885248
 20
76.689904
 30
0.0
 11
153.89202
 21
74.178713
 31
0.0
  0
LINE
  5
1F6E
  8
0
 62
     0
 10
153.891903
 20
77.713925
 30
0.0
 11
153.891903
 21
76.689904
 31
0.0
  0
LINE
  5
1F6F
  8
0
 62
     0
 10
153.891903
 20
76.689904
 30
0.0
 11
153.762398
 21
76.68889
 31
0.0
  0
LINE
  5
1F70
  8
0
 62
     0
 10
153.762398
 20
76.68889
 30
0.0
 11
153.503594
 21
76.686631
 31
0.0
  0
POLYLINE
  5
1F71
  8
0
 62
     0
 66
     1
 10
0.0
 20
0.0
 30
0.0
  0
VERTEX
  5
24D4
  8
0
 62
     0
 10
155.189158
 20
77.822473
 30
0.0
  0
VERTEX
  5
24D5
  8
0
 62
     0
 10
155.11003
 20
77.794788
 30
0.0
  0
VERTEX
  5
24D6
  8
0
 62
     0
 10
155.098389
 20
77.793665
 30
0.0
  0
SEQEND
  5
24D7
  8
0
 62
     0
  0
POLYLINE
  5
1F72
  8
0
 62
     0
 66
     1
 10
0.0
 20
0.0
 30
0.0
  0
VERTEX
  5
24D8
  8
0
 62
     0
 10
155.284767
 20
77.993217
 30
0.0
  0
VERTEX
  5
24D9
  8
0
 62
     0
 10
155.268114
 20
77.94762
 30
0.0
  0
VERTEX
  5
24DA
  8
0
 62
     0
 10
155.226103
 20
77.908331
 30
0.0
  0
VERTEX
  5
24DB
  8
0
 62
     0
 10
155.164551
 20
77.880788
 30
0.0
  0
VERTEX
  5
24DC
  8
0
 62
     0
 10
155.091985
 20
77.868809
 30
0.0
  0
SEQEND
  5
24DD
  8
0
 62
     0
  0
LINE
  5
1F73
  8
0
 62
     0
 10
155.284767
 20
77.993217
 30
0.0
 11
155.28501
 21
77.994389
 31
0.0
  0
POLYLINE
  5
1F74
  8
0
 62
     0
 66
     1
 10
0.0
 20
0.0
 30
0.0
  0
VERTEX
  5
24DE
  8
0
 62
     0
 10
155.285005
 20
77.994721
 30
0.0
  0
VERTEX
  5
24DF
  8
0
 62
     0
 10
155.27742
 20
77.938639
 30
0.0
  0
VERTEX
  5
24E0
  8
0
 62
     0
 10
155.243995
 20
77.871874
 30
0.0
  0
VERTEX
  5
24E1
  8
0
 62
     0
 10
155.189158
 20
77.822473
 30
0.0
  0
SEQEND
  5
24E2
  8
0
 62
     0
  0
POLYLINE
  5
1F75
  8
0
 62
     0
 66
     1
 10
0.0
 20
0.0
 30
0.0
  0
VERTEX
  5
24E3
  8
0
 62
     0
 10
155.098168
 20
77.79365
 30
0.0
  0
VERTEX
  5
24E4
  8
0
 62
     0
 10
155.098216
 20
77.794223
 30
0.0
  0
VERTEX
  5
24E5
  8
0
 62
     0
 10
155.096019
 20
77.816795
 30
0.0
  0
VERTEX
  5
24E6
  8
0
 62
     0
 10
155.091985
 20
77.868809
 30
0.0
  0
SEQEND
  5
24E7
  8
0
 62
     0
  0
LINE
  5
1F76
  8
0
 62
     0
 10
155.28501
 20
77.994389
 30
0.0
 11
155.285011
 21
77.994434
 31
0.0
  0
POLYLINE
  5
1F77
  8
0
 62
     0
 66
     1
 10
0.0
 20
0.0
 30
0.0
  0
VERTEX
  5
24E8
  8
0
 62
     0
 10
155.226549
 20
82.364818
 30
0.0
  0
VERTEX
  5
24E9
  8
0
 62
     0
 10
155.225839
 20
82.312839
 30
0.0
  0
VERTEX
  5
24EA
  8
0
 62
     0
 10
155.224158
 20
82.170593
 30
0.0
  0
VERTEX
  5
24EB
  8
0
 62
     0
 10
155.222848
 20
82.041433
 30
0.0
  0
VERTEX
  5
24EC
  8
0
 62
     0
 10
155.221809
 20
81.92074
 30
0.0
  0
VERTEX
  5
24ED
  8
0
 62
     0
 10
155.220971
 20
81.803965
 30
0.0
  0
VERTEX
  5
24EE
  8
0
 62
     0
 10
155.220294
 20
81.686396
 30
0.0
  0
VERTEX
  5
24EF
  8
0
 62
     0
 10
155.219764
 20
81.562922
 30
0.0
  0
VERTEX
  5
24F0
  8
0
 62
     0
 10
155.219402
 20
81.428153
 30
0.0
  0
SEQEND
  5
24F1
  8
0
 62
     0
  0
POLYLINE
  5
1F78
  8
0
 62
     0
 66
     1
 10
0.0
 20
0.0
 30
0.0
  0
VERTEX
  5
24F2
  8
0
 62
     0
 10
155.033299
 20
82.336949
 30
0.0
  0
VERTEX
  5
24F3
  8
0
 62
     0
 10
155.031726
 20
82.198477
 30
0.0
  0
VERTEX
  5
24F4
  8
0
 62
     0
 10
155.030427
 20
82.065171
 30
0.0
  0
VERTEX
  5
24F5
  8
0
 62
     0
 10
155.029396
 20
81.940692
 30
0.0
  0
VERTEX
  5
24F6
  8
0
 62
     0
 10
155.028563
 20
81.820313
 30
0.0
  0
VERTEX
  5
24F7
  8
0
 62
     0
 10
155.027886
 20
81.699131
 30
0.0
  0
VERTEX
  5
24F8
  8
0
 62
     0
 10
155.027355
 20
81.571809
 30
0.0
  0
VERTEX
  5
24F9
  8
0
 62
     0
 10
155.026996
 20
81.432799
 30
0.0
  0
VERTEX
  5
24FA
  8
0
 62
     0
 10
155.026861
 20
81.276595
 30
0.0
  0
SEQEND
  5
24FB
  8
0
 62
     0
  0
LINE
  5
1F79
  8
0
 62
     0
 10
155.327403
 20
82.411162
 30
0.0
 11
155.327403
 21
81.394129
 31
0.0
  0
ARC
  5
1F7A
  8
0
 62
     0
 10
155.127403
 20
81.394134
 30
0.0
 40
0.2
 50
341.213868
 51
0.0
  0
POLYLINE
  5
1F7B
  8
0
 62
     0
 66
     1
 10
0.0
 20
0.0
 30
0.0
  0
VERTEX
  5
24FC
  8
0
 62
     0
 10
155.376562
 20
80.718297
 30
0.0
  0
VERTEX
  5
24FD
  8
0
 62
     0
 10
155.378368
 20
80.720479
 30
0.0
  0
VERTEX
  5
24FE
  8
0
 62
     0
 10
155.378594
 20
80.721537
 30
0.0
  0
SEQEND
  5
24FF
  8
0
 62
     0
  0
POLYLINE
  5
1F7C
  8
0
 62
     0
 66
     1
 10
0.0
 20
0.0
 30
0.0
  0
VERTEX
  5
2500
  8
0
 62
     0
 10
155.313876
 20
80.294016
 30
0.0
  0
VERTEX
  5
2501
  8
0
 62
     0
 10
155.299628
 20
80.219865
 30
0.0
  0
VERTEX
  5
2502
  8
0
 62
     0
 10
155.29269
 20
80.209135
 30
0.0
  0
SEQEND
  5
2503
  8
0
 62
     0
  0
POLYLINE
  5
1F7D
  8
0
 62
     0
 66
     1
 10
0.0
 20
0.0
 30
0.0
  0
VERTEX
  5
2504
  8
0
 62
     0
 10
155.369914
 20
79.465318
 30
0.0
  0
VERTEX
  5
2505
  8
0
 62
     0
 10
155.372099
 20
79.479218
 30
0.0
  0
VERTEX
  5
2506
  8
0
 62
     0
 10
155.373833
 20
79.519485
 30
0.0
  0
VERTEX
  5
2507
  8
0
 62
     0
 10
155.375099
 20
79.582824
 30
0.0
  0
VERTEX
  5
2508
  8
0
 62
     0
 10
155.375937
 20
79.664953
 30
0.0
  0
VERTEX
  5
2509
  8
0
 62
     0
 10
155.376409
 20
79.760964
 30
0.0
  0
VERTEX
  5
250A
  8
0
 62
     0
 10
155.376562
 20
79.865276
 30
0.0
  0
SEQEND
  5
250B
  8
0
 62
     0
  0
POLYLINE
  5
1F7E
  8
0
 62
     0
 66
     1
 10
0.0
 20
0.0
 30
0.0
  0
VERTEX
  5
250C
  8
0
 62
     0
 10
155.289944
 20
80.157616
 30
0.0
  0
VERTEX
  5
250D
  8
0
 62
     0
 10
155.291758
 20
80.194649
 30
0.0
  0
VERTEX
  5
250E
  8
0
 62
     0
 10
155.293604
 20
80.22335
 30
0.0
  0
VERTEX
  5
250F
  8
0
 62
     0
 10
155.295216
 20
80.242515
 30
0.0
  0
VERTEX
  5
2510
  8
0
 62
     0
 10
155.295795
 20
80.247829
 30
0.0
  0
SEQEND
  5
2511
  8
0
 62
     0
  0
POLYLINE
  5
1F7F
  8
0
 62
     0
 66
     1
 10
0.0
 20
0.0
 30
0.0
  0
VERTEX
  5
2512
  8
0
 62
     0
 10
155.288452
 20
80.12819
 30
0.0
  0
VERTEX
  5
2513
  8
0
 62
     0
 10
155.29249
 20
80.216253
 30
0.0
  0
VERTEX
  5
2514
  8
0
 62
     0
 10
155.297316
 20
80.273714
 30
0.0
  0
VERTEX
  5
2515
  8
0
 62
     0
 10
155.302317
 20
80.293916
 30
0.0
  0
SEQEND
  5
2516
  8
0
 62
     0
  0
POLYLINE
  5
1F80
  8
0
 62
     0
 66
     1
 10
0.0
 20
0.0
 30
0.0
  0
VERTEX
  5
2517
  8
0
 62
     0
 10
155.317176
 20
81.271243
 30
0.0
  0
VERTEX
  5
2518
  8
0
 62
     0
 10
155.317876
 20
81.297224
 30
0.0
  0
VERTEX
  5
2519
  8
0
 62
     0
 10
155.318593
 20
81.319604
 30
0.0
  0
VERTEX
  5
251A
  8
0
 62
     0
 10
155.319283
 20
81.338313
 30
0.0
  0
VERTEX
  5
251B
  8
0
 62
     0
 10
155.319921
 20
81.352773
 30
0.0
  0
VERTEX
  5
251C
  8
0
 62
     0
 10
155.320468
 20
81.362646
 30
0.0
  0
VERTEX
  5
251D
  8
0
 62
     0
 10
155.320666
 20
81.365584
 30
0.0
  0
SEQEND
  5
251E
  8
0
 62
     0
  0
POLYLINE
  5
1F81
  8
0
 62
     0
 66
     1
 10
0.0
 20
0.0
 30
0.0
  0
VERTEX
  5
251F
  8
0
 62
     0
 10
155.316
 20
81.221225
 30
0.0
  0
VERTEX
  5
2520
  8
0
 62
     0
 10
155.318222
 20
81.313117
 30
0.0
  0
VERTEX
  5
2521
  8
0
 62
     0
 10
155.320705
 20
81.373046
 30
0.0
  0
VERTEX
  5
2522
  8
0
 62
     0
 10
155.323031
 20
81.394096
 30
0.0
  0
SEQEND
  5
2523
  8
0
 62
     0
  0
LINE
  5
1F82
  8
0
 62
     0
 10
155.314443
 20
81.10576
 30
0.0
 11
155.316
 21
81.221225
 31
0.0
  0
POLYLINE
  5
1F83
  8
0
 62
     0
 66
     1
 10
0.0
 20
0.0
 30
0.0
  0
VERTEX
  5
2524
  8
0
 62
     0
 10
155.284767
 20
79.893779
 30
0.0
  0
VERTEX
  5
2525
  8
0
 62
     0
 10
155.285737
 20
80.017561
 30
0.0
  0
VERTEX
  5
2526
  8
0
 62
     0
 10
155.288452
 20
80.12819
 30
0.0
  0
SEQEND
  5
2527
  8
0
 62
     0
  0
LINE
  5
1F84
  8
0
 62
     0
 10
155.378594
 20
80.721537
 30
0.0
 11
155.378594
 21
80.72157
 31
0.0
  0
LINE
  5
1F85
  8
0
 62
     0
 10
155.313876
 20
80.976595
 30
0.0
 11
155.314443
 21
81.10576
 31
0.0
  0
POLYLINE
  5
1F86
  8
0
 62
     0
 66
     1
 10
0.0
 20
0.0
 30
0.0
  0
VERTEX
  5
2528
  8
0
 62
     0
 10
155.285011
 20
79.893779
 30
0.0
  0
VERTEX
  5
2529
  8
0
 62
     0
 10
155.28515
 20
79.943242
 30
0.0
  0
VERTEX
  5
252A
  8
0
 62
     0
 10
155.285789
 20
80.004144
 30
0.0
  0
VERTEX
  5
252B
  8
0
 62
     0
 10
155.286847
 20
80.061165
 30
0.0
  0
VERTEX
  5
252C
  8
0
 62
     0
 10
155.288263
 20
80.112698
 30
0.0
  0
VERTEX
  5
252D
  8
0
 62
     0
 10
155.289944
 20
80.157616
 30
0.0
  0
SEQEND
  5
252E
  8
0
 62
     0
  0
LINE
  5
1F87
  8
0
 62
     0
 10
155.219402
 20
81.428153
 30
0.0
 11
155.219263
 21
81.276595
 31
0.0
  0
POLYLINE
  5
1F88
  8
0
 62
     0
 66
     1
 10
0.0
 20
0.0
 30
0.0
  0
VERTEX
  5
252F
  8
0
 62
     0
 10
155.313953
 20
80.294016
 30
0.0
  0
VERTEX
  5
2530
  8
0
 62
     0
 10
155.313966
 20
80.998259
 30
0.0
  0
VERTEX
  5
2531
  8
0
 62
     0
 10
155.314096
 20
81.045153
 30
0.0
  0
VERTEX
  5
2532
  8
0
 62
     0
 10
155.314384
 20
81.090027
 30
0.0
  0
VERTEX
  5
2533
  8
0
 62
     0
 10
155.31479
 20
81.132446
 30
0.0
  0
VERTEX
  5
2534
  8
0
 62
     0
 10
155.315279
 20
81.172017
 30
0.0
  0
VERTEX
  5
2535
  8
0
 62
     0
 10
155.31586
 20
81.208442
 30
0.0
  0
VERTEX
  5
2536
  8
0
 62
     0
 10
155.316505
 20
81.241596
 30
0.0
  0
VERTEX
  5
2537
  8
0
 62
     0
 10
155.317176
 20
81.271243
 30
0.0
  0
SEQEND
  5
2538
  8
0
 62
     0
  0
LINE
  5
1F89
  8
0
 62
     0
 10
155.376562
 20
79.865276
 30
0.0
 11
155.376562
 21
80.718297
 31
0.0
  0
LINE
  5
1F8A
  8
0
 62
     0
 10
155.313876
 20
80.294016
 30
0.0
 11
155.313876
 21
80.976595
 31
0.0
  0
POLYLINE
  5
1F8B
  8
0
 62
     0
 66
     1
 10
0.0
 20
0.0
 30
0.0
  0
VERTEX
  5
2539
  8
0
 62
     0
 10
155.219263
 20
81.276595
 30
0.0
  0
VERTEX
  5
253A
  8
0
 62
     0
 10
155.219313
 20
81.186211
 30
0.0
  0
VERTEX
  5
253B
  8
0
 62
     0
 10
155.219483
 20
81.087423
 30
0.0
  0
VERTEX
  5
253C
  8
0
 62
     0
 10
155.219804
 20
80.980769
 30
0.0
  0
VERTEX
  5
253D
  8
0
 62
     0
 10
155.2203
 20
80.866714
 30
0.0
  0
VERTEX
  5
253E
  8
0
 62
     0
 10
155.221007
 20
80.744163
 30
0.0
  0
VERTEX
  5
253F
  8
0
 62
     0
 10
155.221989
 20
80.609991
 30
0.0
  0
VERTEX
  5
2540
  8
0
 62
     0
 10
155.223338
 20
80.460849
 30
0.0
  0
VERTEX
  5
2541
  8
0
 62
     0
 10
155.225169
 20
80.293965
 30
0.0
  0
SEQEND
  5
2542
  8
0
 62
     0
  0
LINE
  5
1F8C
  8
0
 62
     0
 10
155.225169
 20
80.293965
 30
0.0
 11
155.22761
 21
80.108207
 31
0.0
  0
LINE
  5
1F8D
  8
0
 62
     0
 10
155.22761
 20
80.108207
 30
0.0
 11
155.230795
 21
79.903087
 31
0.0
  0
POLYLINE
  5
1F8E
  8
0
 62
     0
 66
     1
 10
0.0
 20
0.0
 30
0.0
  0
VERTEX
  5
2543
  8
0
 62
     0
 10
155.378594
 20
80.721537
 30
0.0
  0
VERTEX
  5
2544
  8
0
 62
     0
 10
155.373237
 20
80.767861
 30
0.0
  0
VERTEX
  5
2545
  8
0
 62
     0
 10
155.337208
 20
80.844407
 30
0.0
  0
VERTEX
  5
2546
  8
0
 62
     0
 10
155.313953
 20
80.86842
 30
0.0
  0
SEQEND
  5
2547
  8
0
 62
     0
  0
POLYLINE
  5
1F8F
  8
0
 62
     0
 66
     1
 10
0.0
 20
0.0
 30
0.0
  0
VERTEX
  5
2548
  8
0
 62
     0
 10
155.285011
 20
79.61797
 30
0.0
  0
VERTEX
  5
2549
  8
0
 62
     0
 10
155.320096
 20
79.582836
 30
0.0
  0
VERTEX
  5
254A
  8
0
 62
     0
 10
155.348402
 20
79.527162
 30
0.0
  0
VERTEX
  5
254B
  8
0
 62
     0
 10
155.358165
 20
79.46542
 30
0.0
  0
SEQEND
  5
254C
  8
0
 62
     0
  0
POLYLINE
  5
1F90
  8
0
 62
     0
 66
     1
 10
0.0
 20
0.0
 30
0.0
  0
VERTEX
  5
254D
  8
0
 62
     0
 10
155.313953
 20
80.860252
 30
0.0
  0
VERTEX
  5
254E
  8
0
 62
     0
 10
155.338361
 20
80.835844
 30
0.0
  0
VERTEX
  5
254F
  8
0
 62
     0
 10
155.366769
 20
80.780095
 30
0.0
  0
VERTEX
  5
2550
  8
0
 62
     0
 10
155.376562
 20
80.718297
 30
0.0
  0
SEQEND
  5
2551
  8
0
 62
     0
  0
POLYLINE
  5
1F91
  8
0
 62
     0
 66
     1
 10
0.0
 20
0.0
 30
0.0
  0
VERTEX
  5
2552
  8
0
 62
     0
 10
155.285011
 20
79.628225
 30
0.0
  0
VERTEX
  5
2553
  8
0
 62
     0
 10
155.288335
 20
79.626505
 30
0.0
  0
VERTEX
  5
2554
  8
0
 62
     0
 10
155.332135
 20
79.582311
 30
0.0
  0
VERTEX
  5
2555
  8
0
 62
     0
 10
155.360235
 20
79.526791
 30
0.0
  0
VERTEX
  5
2556
  8
0
 62
     0
 10
155.369914
 20
79.465318
 30
0.0
  0
SEQEND
  5
2557
  8
0
 62
     0
  0
LINE
  5
1F92
  8
0
 62
     0
 10
155.358165
 20
79.46542
 30
0.0
 11
155.369914
 21
79.465318
 31
0.0
  0
LINE
  5
1F93
  8
0
 62
     0
 10
155.313876
 20
80.976595
 30
0.0
 11
155.313953
 21
80.976595
 31
0.0
  0
LINE
  5
1F94
  8
0
 62
     0
 10
155.313953
 20
80.718297
 30
0.0
 11
155.376562
 21
80.718297
 31
0.0
  0
LINE
  5
1F95
  8
0
 62
     0
 10
155.313876
 20
80.294016
 30
0.0
 11
155.313953
 21
80.294016
 31
0.0
  0
LINE
  5
1F96
  8
0
 62
     0
 10
155.284767
 20
79.893779
 30
0.0
 11
155.285011
 21
79.893779
 31
0.0
  0
LINE
  5
1F97
  8
0
 62
     0
 10
155.285011
 20
79.865276
 30
0.0
 11
155.376562
 21
79.865276
 31
0.0
  0
LINE
  5
1F98
  8
0
 62
     0
 10
155.358165
 20
79.46542
 30
0.0
 11
155.285011
 21
79.46542
 31
0.0
  0
LINE
  5
1F99
  8
0
 62
     0
 10
155.323031
 20
81.394096
 30
0.0
 11
155.327403
 21
81.394134
 31
0.0
  0
LINE
  5
1F9A
  8
0
 62
     0
 10
155.302317
 20
80.293916
 30
0.0
 11
155.313876
 21
80.294016
 31
0.0
  0
LINE
  5
1F9B
  8
0
 62
     0
 10
155.580456
 20
82.836343
 30
0.0
 11
154.589183
 21
82.832017
 31
0.0
  0
POLYLINE
  5
1F9C
  8
0
 62
     0
 66
     1
 10
0.0
 20
0.0
 30
0.0
  0
VERTEX
  5
2558
  8
0
 62
     0
 10
154.589183
 20
82.332036
 30
0.0
  0
VERTEX
  5
2559
  8
0
 62
     0
 10
154.59052
 20
82.370106
 30
0.0
  0
VERTEX
  5
255A
  8
0
 62
     0
 10
154.59099
 20
82.47849
 30
0.0
  0
VERTEX
  5
255B
  8
0
 62
     0
 10
154.59052
 20
82.640691
 30
0.0
  0
VERTEX
  5
255C
  8
0
 62
     0
 10
154.589183
 20
82.832017
 30
0.0
  0
SEQEND
  5
255D
  8
0
 62
     0
  0
ARC
  5
1F9D
  8
0
 62
     0
 10
155.080457
 20
82.836342
 30
0.0
 40
0.5
 50
270.5
 51
0.000001
  0
POLYLINE
  5
1F9E
  8
0
 62
     0
 66
     1
 10
0.0
 20
0.0
 30
0.0
  0
VERTEX
  5
255E
  8
0
 62
     0
 10
155.929358
 20
97.226595
 30
0.0
  0
VERTEX
  5
255F
  8
0
 62
     0
 10
156.2392
 20
98.098544
 30
0.0
  0
VERTEX
  5
2560
  8
0
 62
     0
 10
156.397268
 20
99.014669
 30
0.0
  0
VERTEX
  5
2561
  8
0
 62
     0
 10
156.397268
 20
99.938521
 30
0.0
  0
VERTEX
  5
2562
  8
0
 62
     0
 10
156.2392
 20
100.854646
 30
0.0
  0
VERTEX
  5
2563
  8
0
 62
     0
 10
155.929358
 20
101.726595
 30
0.0
  0
SEQEND
  5
2564
  8
0
 62
     0
  0
POLYLINE
  5
1F9F
  8
0
 62
     0
 66
     1
 10
0.0
 20
0.0
 30
0.0
  0
VERTEX
  5
2565
  8
0
 62
     0
 10
155.046032
 20
99.376595
 30
0.0
  0
VERTEX
  5
2566
  8
0
 62
     0
 10
155.038526
 20
98.697485
 30
0.0
  0
VERTEX
  5
2567
  8
0
 62
     0
 10
155.016132
 20
98.04556
 30
0.0
  0
VERTEX
  5
2568
  8
0
 62
     0
 10
154.979217
 20
97.446213
 30
0.0
  0
VERTEX
  5
2569
  8
0
 62
     0
 10
154.928272
 20
96.920773
 30
0.0
  0
VERTEX
  5
256A
  8
0
 62
     0
 10
154.864021
 20
96.488248
 30
0.0
  0
VERTEX
  5
256B
  8
0
 62
     0
 10
154.787692
 20
96.165531
 30
0.0
  0
VERTEX
  5
256C
  8
0
 62
     0
 10
154.701206
 20
95.966083
 30
0.0
  0
VERTEX
  5
256D
  8
0
 62
     0
 10
154.607286
 20
95.898733
 30
0.0
  0
VERTEX
  5
256E
  8
0
 62
     0
 10
154.509426
 20
95.966788
 30
0.0
  0
SEQEND
  5
256F
  8
0
 62
     0
  0
POLYLINE
  5
1FA0
  8
0
 62
     0
 66
     1
 10
0.0
 20
0.0
 30
0.0
  0
VERTEX
  5
2570
  8
0
 62
     0
 10
155.736412
 20
99.376595
 30
0.0
  0
VERTEX
  5
2571
  8
0
 62
     0
 10
155.73394
 20
98.693627
 30
0.0
  0
VERTEX
  5
2572
  8
0
 62
     0
 10
155.726425
 20
98.038489
 30
0.0
  0
VERTEX
  5
2573
  8
0
 62
     0
 10
155.713603
 20
97.436892
 30
0.0
  0
VERTEX
  5
2574
  8
0
 62
     0
 10
155.69508
 20
96.910397
 30
0.0
  0
VERTEX
  5
2575
  8
0
 62
     0
 10
155.670477
 20
96.477917
 30
0.0
  0
VERTEX
  5
2576
  8
0
 62
     0
 10
155.639638
 20
96.155986
 30
0.0
  0
VERTEX
  5
2577
  8
0
 62
     0
 10
155.602818
 20
95.957439
 30
0.0
  0
VERTEX
  5
2578
  8
0
 62
     0
 10
155.560824
 20
95.89043
 30
0.0
  0
VERTEX
  5
2579
  8
0
 62
     0
 10
155.515066
 20
95.957846
 30
0.0
  0
VERTEX
  5
257A
  8
0
 62
     0
 10
155.467551
 20
96.157082
 30
0.0
  0
SEQEND
  5
257B
  8
0
 62
     0
  0
POLYLINE
  5
1FA1
  8
0
 62
     0
 66
     1
 10
0.0
 20
0.0
 30
0.0
  0
VERTEX
  5
257C
  8
0
 62
     0
 10
155.818531
 20
96.198181
 30
0.0
  0
VERTEX
  5
257D
  8
0
 62
     0
 10
155.818268
 20
96.2754
 30
0.0
  0
VERTEX
  5
257E
  8
0
 62
     0
 10
155.817809
 20
96.361951
 30
0.0
  0
VERTEX
  5
257F
  8
0
 62
     0
 10
155.817165
 20
96.458044
 30
0.0
  0
VERTEX
  5
2580
  8
0
 62
     0
 10
155.816343
 20
96.563828
 30
0.0
  0
VERTEX
  5
2581
  8
0
 62
     0
 10
155.815358
 20
96.679349
 30
0.0
  0
VERTEX
  5
2582
  8
0
 62
     0
 10
155.814235
 20
96.804598
 30
0.0
  0
VERTEX
  5
2583
  8
0
 62
     0
 10
155.81166
 20
97.083981
 30
0.0
  0
SEQEND
  5
2584
  8
0
 62
     0
  0
POLYLINE
  5
1FA2
  8
0
 62
     0
 66
     1
 10
0.0
 20
0.0
 30
0.0
  0
VERTEX
  5
2585
  8
0
 62
     0
 10
155.818594
 20
96.144649
 30
0.0
  0
VERTEX
  5
2586
  8
0
 62
     0
 10
155.81702
 20
96.476083
 30
0.0
  0
VERTEX
  5
2587
  8
0
 62
     0
 10
155.813253
 20
96.908915
 30
0.0
  0
VERTEX
  5
2588
  8
0
 62
     0
 10
155.808492
 20
97.435892
 30
0.0
  0
VERTEX
  5
2589
  8
0
 62
     0
 10
155.803967
 20
98.037996
 30
0.0
  0
VERTEX
  5
258A
  8
0
 62
     0
 10
155.80075
 20
98.693584
 30
0.0
  0
VERTEX
  5
258B
  8
0
 62
     0
 10
155.79959
 20
99.376595
 30
0.0
  0
SEQEND
  5
258C
  8
0
 62
     0
  0
POLYLINE
  5
1FA3
  8
0
 62
     0
 66
     1
 10
0.0
 20
0.0
 30
0.0
  0
VERTEX
  5
258D
  8
0
 62
     0
 10
155.467551
 20
96.157082
 30
0.0
  0
VERTEX
  5
258E
  8
0
 62
     0
 10
155.420759
 20
96.480026
 30
0.0
  0
VERTEX
  5
258F
  8
0
 62
     0
 10
155.377413
 20
96.913565
 30
0.0
  0
VERTEX
  5
2590
  8
0
 62
     0
 10
155.340212
 20
97.440665
 30
0.0
  0
SEQEND
  5
2591
  8
0
 62
     0
  0
POLYLINE
  5
1FA4
  8
0
 62
     0
 66
     1
 10
0.0
 20
0.0
 30
0.0
  0
VERTEX
  5
2592
  8
0
 62
     0
 10
154.411807
 20
96.167572
 30
0.0
  0
VERTEX
  5
2593
  8
0
 62
     0
 10
154.31901
 20
96.492347
 30
0.0
  0
VERTEX
  5
2594
  8
0
 62
     0
 10
154.235619
 20
96.927044
 30
0.0
  0
VERTEX
  5
2595
  8
0
 62
     0
 10
154.16582
 20
97.453715
 30
0.0
  0
VERTEX
  5
2596
  8
0
 62
     0
 10
154.113097
 20
98.052558
 30
0.0
  0
VERTEX
  5
2597
  8
0
 62
     0
 10
154.080208
 20
98.701992
 30
0.0
  0
VERTEX
  5
2598
  8
0
 62
     0
 10
154.069043
 20
99.376595
 30
0.0
  0
SEQEND
  5
2599
  8
0
 62
     0
  0
POLYLINE
  5
1FA5
  8
0
 62
     0
 66
     1
 10
0.0
 20
0.0
 30
0.0
  0
VERTEX
  5
259A
  8
0
 62
     0
 10
155.500215
 20
96.05335
 30
0.0
  0
VERTEX
  5
259B
  8
0
 62
     0
 10
155.50056
 20
96.052572
 30
0.0
  0
VERTEX
  5
259C
  8
0
 62
     0
 10
155.498166
 20
96.059247
 30
0.0
  0
VERTEX
  5
259D
  8
0
 62
     0
 10
155.491339
 20
96.082032
 30
0.0
  0
VERTEX
  5
259E
  8
0
 62
     0
 10
155.482188
 20
96.118612
 30
0.0
  0
VERTEX
  5
259F
  8
0
 62
     0
 10
155.47178
 20
96.167304
 30
0.0
  0
VERTEX
  5
25A0
  8
0
 62
     0
 10
155.460518
 20
96.227855
 30
0.0
  0
VERTEX
  5
25A1
  8
0
 62
     0
 10
155.448653
 20
96.300247
 30
0.0
  0
VERTEX
  5
25A2
  8
0
 62
     0
 10
155.436356
 20
96.384633
 30
0.0
  0
VERTEX
  5
25A3
  8
0
 62
     0
 10
155.423753
 20
96.481332
 30
0.0
  0
VERTEX
  5
25A4
  8
0
 62
     0
 10
155.410947
 20
96.590776
 30
0.0
  0
VERTEX
  5
25A5
  8
0
 62
     0
 10
155.398043
 20
96.713369
 30
0.0
  0
VERTEX
  5
25A6
  8
0
 62
     0
 10
155.385178
 20
96.849288
 30
0.0
  0
VERTEX
  5
25A7
  8
0
 62
     0
 10
155.37249
 20
96.998611
 30
0.0
  0
VERTEX
  5
25A8
  8
0
 62
     0
 10
155.360121
 20
97.161317
 30
0.0
  0
VERTEX
  5
25A9
  8
0
 62
     0
 10
155.348227
 20
97.337228
 30
0.0
  0
VERTEX
  5
25AA
  8
0
 62
     0
 10
155.336966
 20
97.526046
 30
0.0
  0
VERTEX
  5
25AB
  8
0
 62
     0
 10
155.326497
 20
97.727332
 30
0.0
  0
VERTEX
  5
25AC
  8
0
 62
     0
 10
155.316985
 20
97.940471
 30
0.0
  0
VERTEX
  5
25AD
  8
0
 62
     0
 10
155.308591
 20
98.164712
 30
0.0
  0
VERTEX
  5
25AE
  8
0
 62
     0
 10
155.301471
 20
98.399173
 30
0.0
  0
VERTEX
  5
25AF
  8
0
 62
     0
 10
155.295773
 20
98.642823
 30
0.0
  0
VERTEX
  5
25B0
  8
0
 62
     0
 10
155.291638
 20
98.8945
 30
0.0
  0
VERTEX
  5
25B1
  8
0
 62
     0
 10
155.289191
 20
99.152794
 30
0.0
  0
VERTEX
  5
25B2
  8
0
 62
     0
 10
155.288523
 20
99.376595
 30
0.0
  0
SEQEND
  5
25B3
  8
0
 62
     0
  0
POLYLINE
  5
1FA6
  8
0
 62
     0
 66
     1
 10
0.0
 20
0.0
 30
0.0
  0
VERTEX
  5
25B4
  8
0
 62
     0
 10
154.45574
 20
96.142475
 30
0.0
  0
VERTEX
  5
25B5
  8
0
 62
     0
 10
154.454603
 20
96.14406
 30
0.0
  0
VERTEX
  5
25B6
  8
0
 62
     0
 10
154.43129
 20
96.186499
 30
0.0
  0
VERTEX
  5
25B7
  8
0
 62
     0
 10
154.391771
 20
96.285145
 30
0.0
  0
VERTEX
  5
25B8
  8
0
 62
     0
 10
154.344943
 20
96.439266
 30
0.0
  0
VERTEX
  5
25B9
  8
0
 62
     0
 10
154.295382
 20
96.648115
 30
0.0
  0
VERTEX
  5
25BA
  8
0
 62
     0
 10
154.245965
 20
96.911218
 30
0.0
  0
VERTEX
  5
25BB
  8
0
 62
     0
 10
154.199063
 20
97.227107
 30
0.0
  0
VERTEX
  5
25BC
  8
0
 62
     0
 10
154.156859
 20
97.592745
 30
0.0
  0
VERTEX
  5
25BD
  8
0
 62
     0
 10
154.121458
 20
98.002731
 30
0.0
  0
VERTEX
  5
25BE
  8
0
 62
     0
 10
154.094746
 20
98.449624
 30
0.0
  0
VERTEX
  5
25BF
  8
0
 62
     0
 10
154.078294
 20
98.924301
 30
0.0
  0
VERTEX
  5
25C0
  8
0
 62
     0
 10
154.073235
 20
99.376595
 30
0.0
  0
SEQEND
  5
25C1
  8
0
 62
     0
  0
ARC
  5
1FA7
  8
0
 62
     0
 10
146.00265
 20
98.991612
 30
0.0
 40
8.315016
 50
270.0
 51
304.95488
  0
ARC
  5
1FA8
  8
0
 62
     0
 10
146.943087
 20
98.842576
 30
0.0
 40
8.16598
 50
270.0
 51
305.282793
  0
ARC
  5
1FA9
  8
0
 62
     0
 10
147.118594
 20
98.789929
 30
0.0
 40
8.113333
 50
270.0
 51
305.400856
  0
POLYLINE
  5
1FAA
  8
0
 62
     0
 66
     1
 10
0.0
 20
0.0
 30
0.0
  0
VERTEX
  5
25C2
  8
0
 62
     0
 10
149.140278
 20
91.300423
 30
0.0
  0
VERTEX
  5
25C3
  8
0
 62
     0
 10
149.855979
 20
91.5332
 30
0.0
  0
VERTEX
  5
25C4
  8
0
 62
     0
 10
150.761591
 20
91.962991
 30
0.0
  0
VERTEX
  5
25C5
  8
0
 62
     0
 10
151.096795
 20
92.176595
 30
0.0
  0
SEQEND
  5
25C6
  8
0
 62
     0
  0
LINE
  5
1FAB
  8
0
 62
     0
 10
148.831408
 20
92.676595
 30
0.0
 11
151.818594
 21
92.676595
 31
0.0
  0
LINE
  5
1FAC
  8
0
 62
     0
 10
148.988594
 20
92.176595
 30
0.0
 11
155.318594
 21
92.176595
 31
0.0
  0
POLYLINE
  5
1FAD
  8
0
 62
     0
 66
     1
 10
0.0
 20
0.0
 30
0.0
  0
VERTEX
  5
25C7
  8
0
 62
     0
 10
146.425024
 20
90.999468
 30
0.0
  0
VERTEX
  5
25C8
  8
0
 62
     0
 10
146.966535
 20
91.032148
 30
0.0
  0
VERTEX
  5
25C9
  8
0
 62
     0
 10
147.963471
 20
91.217529
 30
0.0
  0
VERTEX
  5
25CA
  8
0
 62
     0
 10
148.943171
 20
91.532867
 30
0.0
  0
VERTEX
  5
25CB
  8
0
 62
     0
 10
149.858796
 20
91.962571
 30
0.0
  0
VERTEX
  5
25CC
  8
0
 62
     0
 10
150.198774
 20
92.176595
 30
0.0
  0
SEQEND
  5
25CD
  8
0
 62
     0
  0
LINE
  5
1FAE
  8
0
 62
     0
 10
147.118594
 20
90.687062
 30
0.0
 11
147.118594
 21
90.676595
 31
0.0
  0
LINE
  5
1FAF
  8
0
 62
     0
 10
146.943087
 20
90.732171
 30
0.0
 11
146.943087
 21
90.676595
 31
0.0
  0
LINE
  5
1FB0
  8
0
 62
     0
 10
146.00265
 20
90.889896
 30
0.0
 11
146.00265
 21
90.676595
 31
0.0
  0
POLYLINE
  5
1FB1
  8
0
 62
     0
 66
     1
 10
0.0
 20
0.0
 30
0.0
  0
VERTEX
  5
25CE
  8
0
 62
     0
 10
148.831408
 20
92.676595
 30
0.0
  0
VERTEX
  5
25CF
  8
0
 62
     0
 10
148.879265
 20
92.52611
 30
0.0
  0
VERTEX
  5
25D0
  8
0
 62
     0
 10
148.922775
 20
92.387965
 30
0.0
  0
VERTEX
  5
25D1
  8
0
 62
     0
 10
148.957771
 20
92.275941
 30
0.0
  0
VERTEX
  5
25D2
  8
0
 62
     0
 10
148.980601
 20
92.202417
 30
0.0
  0
VERTEX
  5
25D3
  8
0
 62
     0
 10
148.988594
 20
92.176595
 30
0.0
  0
SEQEND
  5
25D4
  8
0
 62
     0
  0
LINE
  5
1FB2
  8
0
 62
     0
 10
155.104263
 20
87.076774
 30
0.0
 11
155.104263
 21
92.176595
 31
0.0
  0
LINE
  5
1FB3
  8
0
 62
     0
 10
154.549341
 20
87.097174
 30
0.0
 11
154.525413
 21
92.176595
 31
0.0
  0
POLYLINE
  5
1FB4
  8
0
 62
     0
 66
     1
 10
0.0
 20
0.0
 30
0.0
  0
VERTEX
  5
25D5
  8
0
 62
     0
 10
154.589183
 20
87.095782
 30
0.0
  0
VERTEX
  5
25D6
  8
0
 62
     0
 10
154.906731
 20
87.084591
 30
0.0
  0
VERTEX
  5
25D7
  8
0
 62
     0
 10
155.193892
 20
87.074268
 30
0.0
  0
SEQEND
  5
25D8
  8
0
 62
     0
  0
POLYLINE
  5
1FB5
  8
0
 62
     0
 66
     1
 10
0.0
 20
0.0
 30
0.0
  0
VERTEX
  5
25D9
  8
0
 62
     0
 10
155.193892
 20
87.074268
 30
0.0
  0
VERTEX
  5
25DA
  8
0
 62
     0
 10
155.411318
 20
87.06622
 30
0.0
  0
VERTEX
  5
25DB
  8
0
 62
     0
 10
155.546299
 20
87.060905
 30
0.0
  0
VERTEX
  5
25DC
  8
0
 62
     0
 10
155.580456
 20
87.059174
 30
0.0
  0
SEQEND
  5
25DD
  8
0
 62
     0
  0
LINE
  5
1FB6
  8
0
 62
     0
 10
155.818594
 20
92.676595
 30
0.0
 11
151.832946
 21
92.676595
 31
0.0
  0
LINE
  5
1FB7
  8
0
 62
     0
 10
151.837309
 20
92.176595
 30
0.0
 11
151.818594
 21
94.321155
 31
0.0
  0
POLYLINE
  5
1FB8
  8
0
 62
     0
 66
     1
 10
0.0
 20
0.0
 30
0.0
  0
VERTEX
  5
25DE
  8
0
 62
     0
 10
152.989766
 20
92.176595
 30
0.0
  0
VERTEX
  5
25DF
  8
0
 62
     0
 10
152.995158
 20
92.201067
 30
0.0
  0
VERTEX
  5
25E0
  8
0
 62
     0
 10
153.000023
 20
92.272087
 30
0.0
  0
VERTEX
  5
25E1
  8
0
 62
     0
 10
153.003883
 20
92.382703
 30
0.0
  0
VERTEX
  5
25E2
  8
0
 62
     0
 10
153.006362
 20
92.522087
 30
0.0
  0
VERTEX
  5
25E3
  8
0
 62
     0
 10
153.007216
 20
92.676595
 30
0.0
  0
SEQEND
  5
25E4
  8
0
 62
     0
  0
LINE
  5
1FB9
  8
0
 62
     0
 10
151.830257
 20
92.984699
 30
0.0
 11
151.818594
 21
92.984699
 31
0.0
  0
LINE
  5
1FBA
  8
0
 62
     0
 10
151.818594
 20
92.473977
 30
0.0
 11
151.834714
 21
92.473977
 31
0.0
  0
LINE
  5
1FBB
  8
0
 62
     0
 10
155.818594
 20
96.146725
 30
0.0
 11
155.818594
 21
92.676595
 31
0.0
  0
POLYLINE
  5
1FBC
  8
0
 62
     0
 66
     1
 10
0.0
 20
0.0
 30
0.0
  0
VERTEX
  5
25E5
  8
0
 62
     0
 10
153.464886
 20
92.176595
 30
0.0
  0
VERTEX
  5
25E6
  8
0
 62
     0
 10
153.617095
 20
92.201066
 30
0.0
  0
VERTEX
  5
25E7
  8
0
 62
     0
 10
153.754407
 20
92.272083
 30
0.0
  0
VERTEX
  5
25E8
  8
0
 62
     0
 10
153.86338
 20
92.382698
 30
0.0
  0
VERTEX
  5
25E9
  8
0
 62
     0
 10
153.933347
 20
92.522083
 30
0.0
  0
VERTEX
  5
25EA
  8
0
 62
     0
 10
153.957457
 20
92.676595
 30
0.0
  0
SEQEND
  5
25EB
  8
0
 62
     0
  0
ARC
  5
1FBD
  8
0
 62
     0
 10
155.318594
 20
92.676595
 30
0.0
 40
0.5
 50
270.0
 51
0.0
  0
LINE
  5
1FBE
  8
0
 62
     0
 10
154.509426
 20
95.966788
 30
0.0
 11
154.411807
 21
96.167572
 31
0.0
  0
LINE
  5
1FBF
  8
0
 62
     0
 10
155.818594
 20
96.144544
 30
0.0
 11
155.818531
 21
96.198181
 31
0.0
  0
POLYLINE
  5
1FC0
  8
0
 62
     0
 66
     1
 10
0.0
 20
0.0
 30
0.0
  0
VERTEX
  5
25EC
  8
0
 62
     0
 10
154.411917
 20
102.585923
 30
0.0
  0
VERTEX
  5
25ED
  8
0
 62
     0
 10
154.50954
 20
102.78656
 30
0.0
  0
VERTEX
  5
25EE
  8
0
 62
     0
 10
154.607398
 20
102.854458
 30
0.0
  0
VERTEX
  5
25EF
  8
0
 62
     0
 10
154.701311
 20
102.786952
 30
0.0
  0
VERTEX
  5
25F0
  8
0
 62
     0
 10
154.787786
 20
102.587358
 30
0.0
  0
VERTEX
  5
25F1
  8
0
 62
     0
 10
154.864102
 20
102.264505
 30
0.0
  0
VERTEX
  5
25F2
  8
0
 62
     0
 10
154.928337
 20
101.831868
 30
0.0
  0
VERTEX
  5
25F3
  8
0
 62
     0
 10
154.979264
 20
101.306372
 30
0.0
  0
VERTEX
  5
25F4
  8
0
 62
     0
 10
155.016158
 20
100.707057
 30
0.0
  0
VERTEX
  5
25F5
  8
0
 62
     0
 10
155.038537
 20
100.055241
 30
0.0
  0
VERTEX
  5
25F6
  8
0
 62
     0
 10
155.046032
 20
99.376595
 30
0.0
  0
SEQEND
  5
25F7
  8
0
 62
     0
  0
POLYLINE
  5
1FC1
  8
0
 62
     0
 66
     1
 10
0.0
 20
0.0
 30
0.0
  0
VERTEX
  5
25F8
  8
0
 62
     0
 10
155.467607
 20
102.596414
 30
0.0
  0
VERTEX
  5
25F9
  8
0
 62
     0
 10
155.515121
 20
102.795502
 30
0.0
  0
VERTEX
  5
25FA
  8
0
 62
     0
 10
155.560875
 20
102.862761
 30
0.0
  0
VERTEX
  5
25FB
  8
0
 62
     0
 10
155.602864
 20
102.795595
 30
0.0
  0
VERTEX
  5
25FC
  8
0
 62
     0
 10
155.639677
 20
102.596899
 30
0.0
  0
VERTEX
  5
25FD
  8
0
 62
     0
 10
155.670509
 20
102.274831
 30
0.0
  0
VERTEX
  5
25FE
  8
0
 62
     0
 10
155.695105
 20
101.842236
 30
0.0
  0
VERTEX
  5
25FF
  8
0
 62
     0
 10
155.71362
 20
101.315681
 30
0.0
  0
VERTEX
  5
2600
  8
0
 62
     0
 10
155.726434
 20
100.714115
 30
0.0
  0
VERTEX
  5
2601
  8
0
 62
     0
 10
155.733943
 20
100.059085
 30
0.0
  0
VERTEX
  5
2602
  8
0
 62
     0
 10
155.736412
 20
99.376595
 30
0.0
  0
SEQEND
  5
2603
  8
0
 62
     0
  0
POLYLINE
  5
1FC2
  8
0
 62
     0
 66
     1
 10
0.0
 20
0.0
 30
0.0
  0
VERTEX
  5
2604
  8
0
 62
     0
 10
155.311581
 20
100.711741
 30
0.0
  0
VERTEX
  5
2605
  8
0
 62
     0
 10
155.340247
 20
101.313135
 30
0.0
  0
VERTEX
  5
2606
  8
0
 62
     0
 10
155.37746
 20
101.84018
 30
0.0
  0
VERTEX
  5
2607
  8
0
 62
     0
 10
155.420812
 20
102.273607
 30
0.0
  0
VERTEX
  5
2608
  8
0
 62
     0
 10
155.467607
 20
102.596414
 30
0.0
  0
SEQEND
  5
2609
  8
0
 62
     0
  0
POLYLINE
  5
1FC3
  8
0
 62
     0
 66
     1
 10
0.0
 20
0.0
 30
0.0
  0
VERTEX
  5
260A
  8
0
 62
     0
 10
154.069043
 20
99.376595
 30
0.0
  0
VERTEX
  5
260B
  8
0
 62
     0
 10
154.080222
 20
100.051627
 30
0.0
  0
VERTEX
  5
260C
  8
0
 62
     0
 10
154.113134
 20
100.701173
 30
0.0
  0
VERTEX
  5
260D
  8
0
 62
     0
 10
154.165884
 20
101.300062
 30
0.0
  0
VERTEX
  5
260E
  8
0
 62
     0
 10
154.235705
 20
101.826688
 30
0.0
  0
VERTEX
  5
260F
  8
0
 62
     0
 10
154.319111
 20
102.26128
 30
0.0
  0
VERTEX
  5
2610
  8
0
 62
     0
 10
154.411917
 20
102.585923
 30
0.0
  0
SEQEND
  5
2611
  8
0
 62
     0
  0
POLYLINE
  5
1FC4
  8
0
 62
     0
 66
     1
 10
0.0
 20
0.0
 30
0.0
  0
VERTEX
  5
2612
  8
0
 62
     0
 10
154.073234
 20
99.376595
 30
0.0
  0
VERTEX
  5
2613
  8
0
 62
     0
 10
154.078294
 20
99.828901
 30
0.0
  0
VERTEX
  5
2614
  8
0
 62
     0
 10
154.094747
 20
100.303602
 30
0.0
  0
VERTEX
  5
2615
  8
0
 62
     0
 10
154.121459
 20
100.750479
 30
0.0
  0
VERTEX
  5
2616
  8
0
 62
     0
 10
154.156859
 20
101.160445
 30
0.0
  0
VERTEX
  5
2617
  8
0
 62
     0
 10
154.199063
 20
101.526083
 30
0.0
  0
VERTEX
  5
2618
  8
0
 62
     0
 10
154.245966
 20
101.841977
 30
0.0
  0
VERTEX
  5
2619
  8
0
 62
     0
 10
154.295382
 20
102.105078
 30
0.0
  0
VERTEX
  5
261A
  8
0
 62
     0
 10
154.344944
 20
102.313929
 30
0.0
  0
VERTEX
  5
261B
  8
0
 62
     0
 10
154.391773
 20
102.468051
 30
0.0
  0
VERTEX
  5
261C
  8
0
 62
     0
 10
154.43129
 20
102.566692
 30
0.0
  0
VERTEX
  5
261D
  8
0
 62
     0
 10
154.439567
 20
102.583389
 30
0.0
  0
SEQEND
  5
261E
  8
0
 62
     0
  0
POLYLINE
  5
1FC5
  8
0
 62
     0
 66
     1
 10
0.0
 20
0.0
 30
0.0
  0
VERTEX
  5
261F
  8
0
 62
     0
 10
155.288523
 20
99.376595
 30
0.0
  0
VERTEX
  5
2620
  8
0
 62
     0
 10
155.289192
 20
99.6004
 30
0.0
  0
VERTEX
  5
2621
  8
0
 62
     0
 10
155.291638
 20
99.858708
 30
0.0
  0
VERTEX
  5
2622
  8
0
 62
     0
 10
155.295774
 20
100.110406
 30
0.0
  0
VERTEX
  5
2623
  8
0
 62
     0
 10
155.301472
 20
100.354063
 30
0.0
  0
VERTEX
  5
2624
  8
0
 62
     0
 10
155.308592
 20
100.588518
 30
0.0
  0
VERTEX
  5
2625
  8
0
 62
     0
 10
155.316986
 20
100.812749
 30
0.0
  0
VERTEX
  5
2626
  8
0
 62
     0
 10
155.326498
 20
101.025877
 30
0.0
  0
VERTEX
  5
2627
  8
0
 62
     0
 10
155.336967
 20
101.227158
 30
0.0
  0
VERTEX
  5
2628
  8
0
 62
     0
 10
155.348228
 20
101.415977
 30
0.0
  0
VERTEX
  5
2629
  8
0
 62
     0
 10
155.360122
 20
101.591887
 30
0.0
  0
VERTEX
  5
262A
  8
0
 62
     0
 10
155.372491
 20
101.754593
 30
0.0
  0
VERTEX
  5
262B
  8
0
 62
     0
 10
155.385179
 20
101.903919
 30
0.0
  0
VERTEX
  5
262C
  8
0
 62
     0
 10
155.398044
 20
102.039835
 30
0.0
  0
VERTEX
  5
262D
  8
0
 62
     0
 10
155.410948
 20
102.162426
 30
0.0
  0
VERTEX
  5
262E
  8
0
 62
     0
 10
155.423755
 20
102.271873
 30
0.0
  0
VERTEX
  5
262F
  8
0
 62
     0
 10
155.436358
 20
102.368571
 30
0.0
  0
VERTEX
  5
2630
  8
0
 62
     0
 10
155.448654
 20
102.452954
 30
0.0
  0
VERTEX
  5
2631
  8
0
 62
     0
 10
155.460519
 20
102.525344
 30
0.0
  0
VERTEX
  5
2632
  8
0
 62
     0
 10
155.471782
 20
102.585898
 30
0.0
  0
VERTEX
  5
2633
  8
0
 62
     0
 10
155.48219
 20
102.634586
 30
0.0
  0
VERTEX
  5
2634
  8
0
 62
     0
 10
155.49134
 20
102.671162
 30
0.0
  0
VERTEX
  5
2635
  8
0
 62
     0
 10
155.498168
 20
102.693949
 30
0.0
  0
VERTEX
  5
2636
  8
0
 62
     0
 10
155.499111
 20
102.696697
 30
0.0
  0
SEQEND
  5
2637
  8
0
 62
     0
  0
POLYLINE
  5
1FC6
  8
0
 62
     0
 66
     1
 10
0.0
 20
0.0
 30
0.0
  0
VERTEX
  5
2638
  8
0
 62
     0
 10
155.79959
 20
99.376595
 30
0.0
  0
VERTEX
  5
2639
  8
0
 62
     0
 10
155.800752
 20
100.060085
 30
0.0
  0
VERTEX
  5
263A
  8
0
 62
     0
 10
155.803971
 20
100.715782
 30
0.0
  0
VERTEX
  5
263B
  8
0
 62
     0
 10
155.808497
 20
101.317917
 30
0.0
  0
VERTEX
  5
263C
  8
0
 62
     0
 10
155.813258
 20
101.844835
 30
0.0
  0
VERTEX
  5
263D
  8
0
 62
     0
 10
155.817024
 20
102.277551
 30
0.0
  0
VERTEX
  5
263E
  8
0
 62
     0
 10
155.818592
 20
102.599101
 30
0.0
  0
SEQEND
  5
263F
  8
0
 62
     0
  0
POLYLINE
  5
1FC7
  8
0
 62
     0
 66
     1
 10
0.0
 20
0.0
 30
0.0
  0
VERTEX
  5
2640
  8
0
 62
     0
 10
155.799634
 20
99.376595
 30
0.0
  0
VERTEX
  5
2641
  8
0
 62
     0
 10
155.799735
 20
99.579223
 30
0.0
  0
VERTEX
  5
2642
  8
0
 62
     0
 10
155.800117
 20
99.817364
 30
0.0
  0
VERTEX
  5
2643
  8
0
 62
     0
 10
155.800763
 20
100.050017
 30
0.0
  0
VERTEX
  5
2644
  8
0
 62
     0
 10
155.801638
 20
100.276091
 30
0.0
  0
VERTEX
  5
2645
  8
0
 62
     0
 10
155.802711
 20
100.494725
 30
0.0
  0
VERTEX
  5
2646
  8
0
 62
     0
 10
155.803944
 20
100.705164
 30
0.0
  0
VERTEX
  5
2647
  8
0
 62
     0
 10
155.805298
 20
100.906748
 30
0.0
  0
VERTEX
  5
2648
  8
0
 62
     0
 10
155.806738
 20
101.098913
 30
0.0
  0
VERTEX
  5
2649
  8
0
 62
     0
 10
155.808221
 20
101.281185
 30
0.0
  0
VERTEX
  5
264A
  8
0
 62
     0
 10
155.809705
 20
101.453181
 30
0.0
  0
VERTEX
  5
264B
  8
0
 62
     0
 10
155.811159
 20
101.614628
 30
0.0
  0
VERTEX
  5
264C
  8
0
 62
     0
 10
155.812548
 20
101.765359
 30
0.0
  0
VERTEX
  5
264D
  8
0
 62
     0
 10
155.81384
 20
101.905282
 30
0.0
  0
VERTEX
  5
264E
  8
0
 62
     0
 10
155.815009
 20
102.034403
 30
0.0
  0
VERTEX
  5
264F
  8
0
 62
     0
 10
155.816039
 20
102.152834
 30
0.0
  0
VERTEX
  5
2650
  8
0
 62
     0
 10
155.816909
 20
102.260749
 30
0.0
  0
VERTEX
  5
2651
  8
0
 62
     0
 10
155.817603
 20
102.358392
 30
0.0
  0
VERTEX
  5
2652
  8
0
 62
     0
 10
155.818116
 20
102.446099
 30
0.0
  0
VERTEX
  5
2653
  8
0
 62
     0
 10
155.818446
 20
102.524272
 30
0.0
  0
VERTEX
  5
2654
  8
0
 62
     0
 10
155.818592
 20
102.598963
 30
0.0
  0
SEQEND
  5
2655
  8
0
 62
     0
  0
POLYLINE
  5
1FC8
  8
0
 62
     0
 66
     1
 10
0.0
 20
0.0
 30
0.0
  0
VERTEX
  5
2656
  8
0
 62
     0
 10
154.40655
 20
102.492931
 30
0.0
  0
VERTEX
  5
2657
  8
0
 62
     0
 10
154.492801
 20
102.310745
 30
0.0
  0
VERTEX
  5
2658
  8
0
 62
     0
 10
154.568927
 20
102.015956
 30
0.0
  0
VERTEX
  5
2659
  8
0
 62
     0
 10
154.633009
 20
101.620858
 30
0.0
  0
VERTEX
  5
265A
  8
0
 62
     0
 10
154.683822
 20
101.1409
 30
0.0
  0
VERTEX
  5
265B
  8
0
 62
     0
 10
154.720644
 20
100.593468
 30
0.0
  0
VERTEX
  5
265C
  8
0
 62
     0
 10
154.742993
 20
99.998022
 30
0.0
  0
VERTEX
  5
265D
  8
0
 62
     0
 10
154.7505
 20
99.376595
 30
0.0
  0
SEQEND
  5
265E
  8
0
 62
     0
  0
POLYLINE
  5
1FC9
  8
0
 62
     0
 66
     1
 10
0.0
 20
0.0
 30
0.0
  0
VERTEX
  5
265F
  8
0
 62
     0
 10
154.7505
 20
99.376595
 30
0.0
  0
VERTEX
  5
2660
  8
0
 62
     0
 10
154.74299
 20
98.755058
 30
0.0
  0
VERTEX
  5
2661
  8
0
 62
     0
 10
154.720633
 20
98.159509
 30
0.0
  0
VERTEX
  5
2662
  8
0
 62
     0
 10
154.683799
 20
97.612028
 30
0.0
  0
VERTEX
  5
2663
  8
0
 62
     0
 10
154.632977
 20
97.13209
 30
0.0
  0
VERTEX
  5
2664
  8
0
 62
     0
 10
154.568889
 20
96.737049
 30
0.0
  0
VERTEX
  5
2665
  8
0
 62
     0
 10
154.49276
 20
96.442325
 30
0.0
  0
VERTEX
  5
2666
  8
0
 62
     0
 10
154.406506
 20
96.2602
 30
0.0
  0
VERTEX
  5
2667
  8
0
 62
     0
 10
154.402755
 20
96.257726
 30
0.0
  0
SEQEND
  5
2668
  8
0
 62
     0
  0
POLYLINE
  5
1FCA
  8
0
 62
     0
 66
     1
 10
0.0
 20
0.0
 30
0.0
  0
VERTEX
  5
2669
  8
0
 62
     0
 10
155.439227
 20
99.376595
 30
0.0
  0
VERTEX
  5
266A
  8
0
 62
     0
 10
155.436753
 20
98.751425
 30
0.0
  0
VERTEX
  5
266B
  8
0
 62
     0
 10
155.429251
 20
98.152839
 30
0.0
  0
VERTEX
  5
266C
  8
0
 62
     0
 10
155.416456
 20
97.603203
 30
0.0
  0
VERTEX
  5
266D
  8
0
 62
     0
 10
155.397977
 20
97.122201
 30
0.0
  0
VERTEX
  5
266E
  8
0
 62
     0
 10
155.382779
 20
96.877523
 30
0.0
  0
SEQEND
  5
266F
  8
0
 62
     0
  0
POLYLINE
  5
1FCB
  8
0
 62
     0
 66
     1
 10
0.0
 20
0.0
 30
0.0
  0
VERTEX
  5
2670
  8
0
 62
     0
 10
155.81166
 20
97.083981
 30
0.0
  0
VERTEX
  5
2671
  8
0
 62
     0
 10
155.81026
 20
97.23777
 30
0.0
  0
VERTEX
  5
2672
  8
0
 62
     0
 10
155.808828
 20
97.4006
 30
0.0
  0
VERTEX
  5
2673
  8
0
 62
     0
 10
155.807394
 20
97.572131
 30
0.0
  0
VERTEX
  5
2674
  8
0
 62
     0
 10
155.805989
 20
97.751948
 30
0.0
  0
VERTEX
  5
2675
  8
0
 62
     0
 10
155.804652
 20
97.939548
 30
0.0
  0
VERTEX
  5
2676
  8
0
 62
     0
 10
155.803415
 20
98.134376
 30
0.0
  0
VERTEX
  5
2677
  8
0
 62
     0
 10
155.802306
 20
98.33582
 30
0.0
  0
VERTEX
  5
2678
  8
0
 62
     0
 10
155.801357
 20
98.543207
 30
0.0
  0
VERTEX
  5
2679
  8
0
 62
     0
 10
155.800594
 20
98.755814
 30
0.0
  0
VERTEX
  5
267A
  8
0
 62
     0
 10
155.800039
 20
98.972853
 30
0.0
  0
VERTEX
  5
267B
  8
0
 62
     0
 10
155.799716
 20
99.193374
 30
0.0
  0
VERTEX
  5
267C
  8
0
 62
     0
 10
155.799634
 20
99.376595
 30
0.0
  0
SEQEND
  5
267D
  8
0
 62
     0
  0
LINE
  5
1FCC
  8
0
 62
     0
 10
155.293445
 20
98.695961
 30
0.0
 11
155.28725
 21
99.376595
 31
0.0
  0
LINE
  5
1FCD
  8
0
 62
     0
 10
155.31156
 20
98.042022
 30
0.0
 11
155.293445
 21
98.695961
 31
0.0
  0
LINE
  5
1FCE
  8
0
 62
     0
 10
155.340212
 20
97.440665
 30
0.0
 11
155.31156
 21
98.042022
 31
0.0
  0
LINE
  5
1FCF
  8
0
 62
     0
 10
155.810361
 20
97.226595
 30
0.0
 11
155.929358
 21
97.226595
 31
0.0
  0
LINE
  5
1FD0
  8
0
 62
     0
 10
155.293454
 20
100.057692
 30
0.0
 11
155.311581
 21
100.711741
 31
0.0
  0
LINE
  5
1FD1
  8
0
 62
     0
 10
155.28725
 20
99.376595
 30
0.0
 11
155.293454
 21
100.057692
 31
0.0
  0
POLYLINE
  5
1FD2
  8
0
 62
     0
 66
     1
 10
0.0
 20
0.0
 30
0.0
  0
VERTEX
  5
267E
  8
0
 62
     0
 10
155.382779
 20
101.875671
 30
0.0
  0
VERTEX
  5
267F
  8
0
 62
     0
 10
155.397989
 20
101.630741
 30
0.0
  0
VERTEX
  5
2680
  8
0
 62
     0
 10
155.416464
 20
101.149716
 30
0.0
  0
VERTEX
  5
2681
  8
0
 62
     0
 10
155.429254
 20
100.600128
 30
0.0
  0
VERTEX
  5
2682
  8
0
 62
     0
 10
155.436754
 20
100.001645
 30
0.0
  0
VERTEX
  5
2683
  8
0
 62
     0
 10
155.439227
 20
99.376595
 30
0.0
  0
SEQEND
  5
2684
  8
0
 62
     0
  0
LINE
  5
1FD3
  8
0
 62
     0
 10
155.929358
 20
101.726595
 30
0.0
 11
155.812191
 21
101.726595
 31
0.0
  0
LINE
  5
1FD4
  8
0
 62
     0
 10
154.402746
 20
102.495442
 30
0.0
 11
154.40655
 21
102.492931
 31
0.0
  0
LINE
  5
1FD5
  8
0
 62
     0
 10
137.718594
 20
126.976595
 30
0.0
 11
151.818594
 21
126.976595
 31
0.0
  0
LINE
  5
1FD6
  8
0
 62
     0
 10
138.418594
 20
126.476595
 30
0.0
 11
151.818594
 21
126.476595
 31
0.0
  0
POLYLINE
  5
1FD7
  8
0
 62
     0
 66
     1
 10
0.0
 20
0.0
 30
0.0
  0
VERTEX
  5
2685
  8
0
 62
     0
 10
99.468139
 20
132.976595
 30
0.0
  0
VERTEX
  5
2686
  8
0
 62
     0
 10
99.462808
 20
132.253277
 30
0.0
  0
VERTEX
  5
2687
  8
0
 62
     0
 10
99.446989
 20
131.562294
 30
0.0
  0
VERTEX
  5
2688
  8
0
 62
     0
 10
99.420691
 20
130.921834
 30
0.0
  0
VERTEX
  5
2689
  8
0
 62
     0
 10
99.383785
 20
130.350707
 30
0.0
  0
VERTEX
  5
268A
  8
0
 62
     0
 10
99.336164
 20
129.866673
 30
0.0
  0
VERTEX
  5
268B
  8
0
 62
     0
 10
99.277891
 20
129.485912
 30
0.0
  0
VERTEX
  5
268C
  8
0
 62
     0
 10
99.210181
 20
129.225175
 30
0.0
  0
VERTEX
  5
268D
  8
0
 62
     0
 10
99.150251
 20
129.120417
 30
0.0
  0
SEQEND
  5
268E
  8
0
 62
     0
  0
POLYLINE
  5
1FD8
  8
0
 62
     0
 66
     1
 10
0.0
 20
0.0
 30
0.0
  0
VERTEX
  5
268F
  8
0
 62
     0
 10
99.667584
 20
132.976595
 30
0.0
  0
VERTEX
  5
2690
  8
0
 62
     0
 10
99.662258
 20
132.21713
 30
0.0
  0
VERTEX
  5
2691
  8
0
 62
     0
 10
99.646422
 20
131.49052
 30
0.0
  0
VERTEX
  5
2692
  8
0
 62
     0
 10
99.620088
 20
130.817021
 30
0.0
  0
VERTEX
  5
2693
  8
0
 62
     0
 10
99.583124
 20
130.216422
 30
0.0
  0
VERTEX
  5
2694
  8
0
 62
     0
 10
99.535424
 20
129.707404
 30
0.0
  0
VERTEX
  5
2695
  8
0
 62
     0
 10
99.477051
 20
129.306988
 30
0.0
  0
VERTEX
  5
2696
  8
0
 62
     0
 10
99.40922
 20
129.032801
 30
0.0
  0
VERTEX
  5
2697
  8
0
 62
     0
 10
99.333515
 20
128.893915
 30
0.0
  0
VERTEX
  5
2698
  8
0
 62
     0
 10
99.251825
 20
128.894401
 30
0.0
  0
SEQEND
  5
2699
  8
0
 62
     0
  0
POLYLINE
  5
1FD9
  8
0
 62
     0
 66
     1
 10
0.0
 20
0.0
 30
0.0
  0
VERTEX
  5
269A
  8
0
 62
     0
 10
99.982276
 20
130.209618
 30
0.0
  0
VERTEX
  5
269B
  8
0
 62
     0
 10
99.970484
 20
130.812199
 30
0.0
  0
VERTEX
  5
269C
  8
0
 62
     0
 10
99.961792
 20
131.411982
 30
0.0
  0
SEQEND
  5
269D
  8
0
 62
     0
  0
POLYLINE
  5
1FDA
  8
0
 62
     0
 66
     1
 10
0.0
 20
0.0
 30
0.0
  0
VERTEX
  5
269E
  8
0
 62
     0
 10
100.015918
 20
128.962935
 30
0.0
  0
VERTEX
  5
269F
  8
0
 62
     0
 10
100.008613
 20
129.199315
 30
0.0
  0
VERTEX
  5
26A0
  8
0
 62
     0
 10
99.997699
 20
129.582942
 30
0.0
  0
VERTEX
  5
26A1
  8
0
 62
     0
 10
99.984864
 20
130.098725
 30
0.0
  0
VERTEX
  5
26A2
  8
0
 62
     0
 10
99.972092
 20
130.72638
 30
0.0
  0
VERTEX
  5
26A3
  8
0
 62
     0
 10
99.961354
 20
131.441102
 30
0.0
  0
VERTEX
  5
26A4
  8
0
 62
     0
 10
99.9543
 20
132.214911
 30
0.0
  0
VERTEX
  5
26A5
  8
0
 62
     0
 10
99.951997
 20
132.976595
 30
0.0
  0
SEQEND
  5
26A6
  8
0
 62
     0
  0
POLYLINE
  5
1FDB
  8
0
 62
     0
 66
     1
 10
0.0
 20
0.0
 30
0.0
  0
VERTEX
  5
26A7
  8
0
 62
     0
 10
99.166841
 20
129.034903
 30
0.0
  0
VERTEX
  5
26A8
  8
0
 62
     0
 10
99.082145
 20
129.310554
 30
0.0
  0
VERTEX
  5
26A9
  8
0
 62
     0
 10
99.001618
 20
129.710948
 30
0.0
  0
VERTEX
  5
26AA
  8
0
 62
     0
 10
98.929155
 20
130.22125
 30
0.0
  0
VERTEX
  5
26AB
  8
0
 62
     0
 10
98.868343
 20
130.823785
 30
0.0
  0
VERTEX
  5
26AC
  8
0
 62
     0
 10
98.822299
 20
131.498881
 30
0.0
  0
SEQEND
  5
26AD
  8
0
 62
     0
  0
LINE
  5
1FDC
  8
0
 62
     0
 10
98.165041
 20
139.476595
 30
0.0
 11
98.165041
 21
127.776595
 31
0.0
  0
POLYLINE
  5
1FDD
  8
0
 62
     0
 66
     1
 10
0.0
 20
0.0
 30
0.0
  0
VERTEX
  5
26AE
  8
0
 62
     0
 10
99.185163
 20
129.044467
 30
0.0
  0
VERTEX
  5
26AF
  8
0
 62
     0
 10
99.187459
 20
129.042187
 30
0.0
  0
VERTEX
  5
26B0
  8
0
 62
     0
 10
99.176326
 20
129.060706
 30
0.0
  0
VERTEX
  5
26B1
  8
0
 62
     0
 10
99.143304
 20
129.136326
 30
0.0
  0
VERTEX
  5
26B2
  8
0
 62
     0
 10
99.102552
 20
129.263751
 30
0.0
  0
VERTEX
  5
26B3
  8
0
 62
     0
 10
99.058733
 20
129.440536
 30
0.0
  0
VERTEX
  5
26B4
  8
0
 62
     0
 10
99.013976
 20
129.666139
 30
0.0
  0
VERTEX
  5
26B5
  8
0
 62
     0
 10
98.969768
 20
129.94023
 30
0.0
  0
VERTEX
  5
26B6
  8
0
 62
     0
 10
98.927426
 20
130.262076
 30
0.0
  0
VERTEX
  5
26B7
  8
0
 62
     0
 10
98.888257
 20
130.630182
 30
0.0
  0
VERTEX
  5
26B8
  8
0
 62
     0
 10
98.853613
 20
131.041663
 30
0.0
  0
VERTEX
  5
26B9
  8
0
 62
     0
 10
98.824838
 20
131.492272
 30
0.0
  0
VERTEX
  5
26BA
  8
0
 62
     0
 10
98.803203
 20
131.976522
 30
0.0
  0
VERTEX
  5
26BB
  8
0
 62
     0
 10
98.789848
 20
132.487774
 30
0.0
  0
VERTEX
  5
26BC
  8
0
 62
     0
 10
98.785705
 20
132.976595
 30
0.0
  0
SEQEND
  5
26BD
  8
0
 62
     0
  0
LINE
  5
1FDE
  8
0
 62
     0
 10
100.018594
 20
127.776595
 30
0.0
 11
100.018594
 21
128.893832
 31
0.0
  0
LINE
  5
1FDF
  8
0
 62
     0
 10
98.018594
 20
126.476595
 30
0.0
 11
98.018594
 21
127.576595
 31
0.0
  0
LINE
  5
1FE0
  8
0
 62
     0
 10
100.018594
 20
126.476595
 30
0.0
 11
100.018594
 21
127.576595
 31
0.0
  0
LINE
  5
1FE1
  8
0
 62
     0
 10
99.994455
 20
129.701612
 30
0.0
 11
99.982276
 21
130.209618
 31
0.0
  0
LINE
  5
1FE2
  8
0
 62
     0
 10
100.005396
 20
129.304635
 30
0.0
 11
99.994455
 21
129.701612
 31
0.0
  0
POLYLINE
  5
1FE3
  8
0
 62
     0
 66
     1
 10
0.0
 20
0.0
 30
0.0
  0
VERTEX
  5
26BE
  8
0
 62
     0
 10
100.018594
 20
128.876566
 30
0.0
  0
VERTEX
  5
26BF
  8
0
 62
     0
 10
100.013632
 20
129.0321
 30
0.0
  0
VERTEX
  5
26C0
  8
0
 62
     0
 10
100.005396
 20
129.304635
 30
0.0
  0
SEQEND
  5
26C1
  8
0
 62
     0
  0
LINE
  5
1FE4
  8
0
 62
     0
 10
99.251825
 20
128.894401
 30
0.0
 11
99.166841
 21
129.034903
 31
0.0
  0
LINE
  5
1FE5
  8
0
 62
     0
 10
100.018594
 20
137.059353
 30
0.0
 11
100.018594
 21
139.476595
 31
0.0
  0
POLYLINE
  5
1FE6
  8
0
 62
     0
 66
     1
 10
0.0
 20
0.0
 30
0.0
  0
VERTEX
  5
26C2
  8
0
 62
     0
 10
99.166899
 20
136.918428
 30
0.0
  0
VERTEX
  5
26C3
  8
0
 62
     0
 10
99.251875
 20
137.058832
 30
0.0
  0
VERTEX
  5
26C4
  8
0
 62
     0
 10
99.333555
 20
137.05924
 30
0.0
  0
VERTEX
  5
26C5
  8
0
 62
     0
 10
99.409247
 20
136.92031
 30
0.0
  0
VERTEX
  5
26C6
  8
0
 62
     0
 10
99.477073
 20
136.646081
 30
0.0
  0
VERTEX
  5
26C7
  8
0
 62
     0
 10
99.53546
 20
136.245477
 30
0.0
  0
VERTEX
  5
26C8
  8
0
 62
     0
 10
99.583181
 20
135.736022
 30
0.0
  0
VERTEX
  5
26C9
  8
0
 62
     0
 10
99.620138
 20
135.135162
 30
0.0
  0
VERTEX
  5
26CA
  8
0
 62
     0
 10
99.646453
 20
134.461655
 30
0.0
  0
VERTEX
  5
26CB
  8
0
 62
     0
 10
99.662269
 20
133.735243
 30
0.0
  0
VERTEX
  5
26CC
  8
0
 62
     0
 10
99.667584
 20
132.976595
 30
0.0
  0
SEQEND
  5
26CD
  8
0
 62
     0
  0
POLYLINE
  5
1FE7
  8
0
 62
     0
 66
     1
 10
0.0
 20
0.0
 30
0.0
  0
VERTEX
  5
26CE
  8
0
 62
     0
 10
98.79354
 20
133.728621
 30
0.0
  0
VERTEX
  5
26CF
  8
0
 62
     0
 10
98.822324
 20
134.45477
 30
0.0
  0
VERTEX
  5
26D0
  8
0
 62
     0
 10
98.868383
 20
135.129887
 30
0.0
  0
VERTEX
  5
26D1
  8
0
 62
     0
 10
98.929207
 20
135.732377
 30
0.0
  0
VERTEX
  5
26D2
  8
0
 62
     0
 10
99.001677
 20
136.242596
 30
0.0
  0
VERTEX
  5
26D3
  8
0
 62
     0
 10
99.082206
 20
136.642889
 30
0.0
  0
SEQEND
  5
26D4
  8
0
 62
     0
  0
POLYLINE
  5
1FE8
  8
0
 62
     0
 66
     1
 10
0.0
 20
0.0
 30
0.0
  0
VERTEX
  5
26D5
  8
0
 62
     0
 10
99.951997
 20
132.976595
 30
0.0
  0
VERTEX
  5
26D6
  8
0
 62
     0
 10
99.954297
 20
133.737778
 30
0.0
  0
VERTEX
  5
26D7
  8
0
 62
     0
 10
99.961345
 20
134.511334
 30
0.0
  0
VERTEX
  5
26D8
  8
0
 62
     0
 10
99.972078
 20
135.22602
 30
0.0
  0
VERTEX
  5
26D9
  8
0
 62
     0
 10
99.98485
 20
135.853825
 30
0.0
  0
VERTEX
  5
26DA
  8
0
 62
     0
 10
99.997688
 20
136.369832
 30
0.0
  0
VERTEX
  5
26DB
  8
0
 62
     0
 10
100.008607
 20
136.753674
 30
0.0
  0
VERTEX
  5
26DC
  8
0
 62
     0
 10
100.015917
 20
136.990203
 30
0.0
  0
SEQEND
  5
26DD
  8
0
 62
     0
  0
POLYLINE
  5
1FE9
  8
0
 62
     0
 66
     1
 10
0.0
 20
0.0
 30
0.0
  0
VERTEX
  5
26DE
  8
0
 62
     0
 10
99.951892
 20
132.976595
 30
0.0
  0
VERTEX
  5
26DF
  8
0
 62
     0
 10
99.954172
 20
133.734572
 30
0.0
  0
VERTEX
  5
26E0
  8
0
 62
     0
 10
99.960676
 20
134.464327
 30
0.0
  0
SEQEND
  5
26E1
  8
0
 62
     0
  0
POLYLINE
  5
1FEA
  8
0
 62
     0
 66
     1
 10
0.0
 20
0.0
 30
0.0
  0
VERTEX
  5
26E2
  8
0
 62
     0
 10
99.150251
 20
136.832773
 30
0.0
  0
VERTEX
  5
26E3
  8
0
 62
     0
 10
99.210169
 20
136.728049
 30
0.0
  0
VERTEX
  5
26E4
  8
0
 62
     0
 10
99.27788
 20
136.467336
 30
0.0
  0
VERTEX
  5
26E5
  8
0
 62
     0
 10
99.336172
 20
136.086447
 30
0.0
  0
VERTEX
  5
26E6
  8
0
 62
     0
 10
99.38382
 20
135.602034
 30
0.0
  0
VERTEX
  5
26E7
  8
0
 62
     0
 10
99.420726
 20
135.030686
 30
0.0
  0
VERTEX
  5
26E8
  8
0
 62
     0
 10
99.447009
 20
134.390235
 30
0.0
  0
VERTEX
  5
26E9
  8
0
 62
     0
 10
99.462815
 20
133.699448
 30
0.0
  0
VERTEX
  5
26EA
  8
0
 62
     0
 10
99.468139
 20
132.976595
 30
0.0
  0
SEQEND
  5
26EB
  8
0
 62
     0
  0
POLYLINE
  5
1FEB
  8
0
 62
     0
 66
     1
 10
0.0
 20
0.0
 30
0.0
  0
VERTEX
  5
26EC
  8
0
 62
     0
 10
98.785705
 20
132.976595
 30
0.0
  0
VERTEX
  5
26ED
  8
0
 62
     0
 10
98.789849
 20
133.465424
 30
0.0
  0
VERTEX
  5
26EE
  8
0
 62
     0
 10
98.803204
 20
133.9767
 30
0.0
  0
VERTEX
  5
26EF
  8
0
 62
     0
 10
98.824839
 20
134.460938
 30
0.0
  0
VERTEX
  5
26F0
  8
0
 62
     0
 10
98.853612
 20
134.911523
 30
0.0
  0
VERTEX
  5
26F1
  8
0
 62
     0
 10
98.888255
 20
135.322996
 30
0.0
  0
VERTEX
  5
26F2
  8
0
 62
     0
 10
98.927424
 20
135.691103
 30
0.0
  0
VERTEX
  5
26F3
  8
0
 62
     0
 10
98.969766
 20
136.012948
 30
0.0
  0
VERTEX
  5
26F4
  8
0
 62
     0
 10
99.013974
 20
136.287043
 30
0.0
  0
VERTEX
  5
26F5
  8
0
 62
     0
 10
99.058731
 20
136.512644
 30
0.0
  0
VERTEX
  5
26F6
  8
0
 62
     0
 10
99.10255
 20
136.689433
 30
0.0
  0
VERTEX
  5
26F7
  8
0
 62
     0
 10
99.143302
 20
136.816858
 30
0.0
  0
VERTEX
  5
26F8
  8
0
 62
     0
 10
99.176324
 20
136.892481
 30
0.0
  0
VERTEX
  5
26F9
  8
0
 62
     0
 10
99.180672
 20
136.900225
 30
0.0
  0
SEQEND
  5
26FA
  8
0
 62
     0
  0
LINE
  5
1FEC
  8
0
 62
     0
 10
98.783751
 20
132.976595
 30
0.0
 11
98.79354
 21
133.728621
 31
0.0
  0
LINE
  5
1FED
  8
0
 62
     0
 10
98.79353
 20
132.224951
 30
0.0
 11
98.783751
 21
132.976595
 31
0.0
  0
LINE
  5
1FEE
  8
0
 62
     0
 10
98.822299
 20
131.498881
 30
0.0
 11
98.79353
 21
132.224951
 31
0.0
  0
POLYLINE
  5
1FEF
  8
0
 62
     0
 66
     1
 10
0.0
 20
0.0
 30
0.0
  0
VERTEX
  5
26FB
  8
0
 62
     0
 10
99.961354
 20
131.441102
 30
0.0
  0
VERTEX
  5
26FC
  8
0
 62
     0
 10
99.96067
 20
131.489423
 30
0.0
  0
VERTEX
  5
26FD
  8
0
 62
     0
 10
99.954169
 20
132.21907
 30
0.0
  0
VERTEX
  5
26FE
  8
0
 62
     0
 10
99.951892
 20
132.976595
 30
0.0
  0
SEQEND
  5
26FF
  8
0
 62
     0
  0
LINE
  5
1FF0
  8
0
 62
     0
 10
99.082206
 20
136.642889
 30
0.0
 11
99.166899
 21
136.918428
 31
0.0
  0
LINE
  5
1FF1
  8
0
 62
     0
 10
100.01364
 20
136.921351
 30
0.0
 11
100.018594
 21
137.076622
 31
0.0
  0
POLYLINE
  5
1FF2
  8
0
 62
     0
 66
     1
 10
0.0
 20
0.0
 30
0.0
  0
VERTEX
  5
2700
  8
0
 62
     0
 10
99.994465
 20
136.25197
 30
0.0
  0
VERTEX
  5
2701
  8
0
 62
     0
 10
100.005405
 20
136.648862
 30
0.0
  0
VERTEX
  5
2702
  8
0
 62
     0
 10
100.01364
 20
136.921351
 30
0.0
  0
SEQEND
  5
2703
  8
0
 62
     0
  0
LINE
  5
1FF3
  8
0
 62
     0
 10
99.982287
 20
135.744068
 30
0.0
 11
99.994465
 21
136.25197
 31
0.0
  0
LINE
  5
1FF4
  8
0
 62
     0
 10
99.970493
 20
135.141555
 30
0.0
 11
99.982287
 21
135.744068
 31
0.0
  0
LINE
  5
1FF5
  8
0
 62
     0
 10
99.960676
 20
134.464327
 30
0.0
 11
99.970493
 21
135.141555
 31
0.0
  0
LINE
  5
1FF6
  8
0
 62
     0
 10
98.165041
 20
139.476595
 30
0.0
 11
100.018594
 21
139.476595
 31
0.0
  0
POLYLINE
  5
1FF7
  8
0
 62
     0
 66
     1
 10
0.0
 20
0.0
 30
0.0
  0
VERTEX
  5
2704
  8
0
 62
     0
 10
97.587686
 20
139.976595
 30
0.0
  0
VERTEX
  5
2705
  8
0
 62
     0
 10
97.744689
 20
139.954414
 30
0.0
  0
VERTEX
  5
2706
  8
0
 62
     0
 10
97.894603
 20
139.887785
 30
0.0
  0
VERTEX
  5
2707
  8
0
 62
     0
 10
98.023808
 20
139.779417
 30
0.0
  0
VERTEX
  5
2708
  8
0
 62
     0
 10
98.117955
 20
139.637453
 30
0.0
  0
VERTEX
  5
2709
  8
0
 62
     0
 10
98.165041
 20
139.476595
 30
0.0
  0
SEQEND
  5
270A
  8
0
 62
     0
  0
POLYLINE
  5
1FF8
  8
0
 62
     0
 66
     1
 10
0.0
 20
0.0
 30
0.0
  0
VERTEX
  5
270B
  8
0
 62
     0
 10
97.762537
 20
139.676595
 30
0.0
  0
VERTEX
  5
270C
  8
0
 62
     0
 10
97.862345
 20
139.66776
 30
0.0
  0
VERTEX
  5
270D
  8
0
 62
     0
 10
97.960715
 20
139.641118
 30
0.0
  0
VERTEX
  5
270E
  8
0
 62
     0
 10
98.049567
 20
139.597778
 30
0.0
  0
VERTEX
  5
270F
  8
0
 62
     0
 10
98.120255
 20
139.540973
 30
0.0
  0
VERTEX
  5
2710
  8
0
 62
     0
 10
98.165041
 20
139.476595
 30
0.0
  0
SEQEND
  5
2711
  8
0
 62
     0
  0
POLYLINE
  5
1FF9
  8
0
 62
     0
 66
     1
 10
0.0
 20
0.0
 30
0.0
  0
VERTEX
  5
2712
  8
0
 62
     0
 10
97.587686
 20
139.976595
 30
0.0
  0
VERTEX
  5
2713
  8
0
 62
     0
 10
97.654593
 20
139.95376
 30
0.0
  0
VERTEX
  5
2714
  8
0
 62
     0
 10
97.711318
 20
139.88873
 30
0.0
  0
VERTEX
  5
2715
  8
0
 62
     0
 10
97.749223
 20
139.791402
 30
0.0
  0
VERTEX
  5
2716
  8
0
 62
     0
 10
97.762537
 20
139.676595
 30
0.0
  0
SEQEND
  5
2717
  8
0
 62
     0
  0
ARC
  5
1FFA
  8
0
 62
     0
 10
99.518594
 20
139.476595
 30
0.0
 40
0.5
 50
0.0
 51
90.0
  0
LINE
  5
1FFB
  8
0
 62
     0
 10
138.318537
 20
114.876595
 30
0.0
 11
138.318537
 21
111.076595
 31
0.0
  0
LINE
  5
1FFC
  8
0
 62
     0
 10
137.918594
 20
109.442326
 30
0.0
 11
138.418594
 21
109.443766
 31
0.0
  0
LINE
  5
1FFD
  8
0
 62
     0
 10
138.003115
 20
111.161116
 30
0.0
 11
137.918594
 21
111.076595
 31
0.0
  0
LINE
  5
1FFE
  8
0
 62
     0
 10
138.318594
 20
111.076595
 30
0.0
 11
138.318594
 21
111.019871
 31
0.0
  0
LINE
  5
1FFF
  8
0
 62
     0
 10
137.96084
 20
111.118841
 30
0.0
 11
138.318537
 21
111.019871
 31
0.0
  0
LINE
  5
2000
  8
0
 62
     0
 10
137.918594
 20
111.183764
 30
0.0
 11
138.318537
 21
111.076595
 31
0.0
  0
LINE
  5
2001
  8
0
 62
     0
 10
138.318537
 20
111.019871
 30
0.0
 11
138.418594
 21
111.018998
 31
0.0
  0
LINE
  5
2002
  8
0
 62
     0
 10
138.318594
 20
111.076595
 30
0.0
 11
138.418594
 21
111.076595
 31
0.0
  0
LINE
  5
2003
  8
0
 62
     0
 10
138.318537
 20
114.876595
 30
0.0
 11
138.418594
 21
114.876595
 31
0.0
  0
LINE
  5
2004
  8
0
 62
     0
 10
138.318594
 20
114.889686
 30
0.0
 11
138.418594
 21
114.890558
 31
0.0
  0
LINE
  5
2005
  8
0
 62
     0
 10
137.918594
 20
114.769416
 30
0.0
 11
138.318594
 21
114.876595
 31
0.0
  0
LINE
  5
2006
  8
0
 62
     0
 10
137.918594
 20
114.779015
 30
0.0
 11
138.318594
 21
114.889686
 31
0.0
  0
LINE
  5
2007
  8
0
 62
     0
 10
137.918594
 20
119.495655
 30
0.0
 11
138.418594
 21
119.20698
 31
0.0
  0
LINE
  5
2008
  8
0
 62
     0
 10
138.418594
 20
117.386595
 30
0.0
 11
137.918594
 21
117.386595
 31
0.0
  0
LINE
  5
2009
  8
0
 62
     0
 10
137.918594
 20
119.486332
 30
0.0
 11
137.932617
 21
119.487559
 31
0.0
  0
ARC
  5
200A
  8
0
 62
     0
 10
138.918594
 20
126.476595
 30
0.0
 40
0.5
 50
90.0
 51
180.0
  0
LINE
  5
200B
  8
0
 62
     0
 10
138.218594
 20
125.606524
 30
0.0
 11
138.218594
 21
123.676595
 31
0.0
  0
ARC
  5
200C
  8
0
 62
     0
 10
138.578594
 20
122.136595
 30
0.0
 40
1.5
 50
96.126196
 51
116.268987
  0
LINE
  5
200D
  8
0
 62
     0
 10
137.918594
 20
122.857535
 30
0.0
 11
138.418594
 21
123.146211
 31
0.0
  0
LINE
  5
200E
  8
0
 62
     0
 10
138.418594
 20
123.676595
 30
0.0
 11
138.218594
 21
123.676595
 31
0.0
  0
ARC
  5
200F
  8
0
 62
     0
 10
137.718594
 20
125.976595
 30
0.0
 40
1.0
 50
90.0
 51
150.0
  0
ARC
  5
2010
  8
0
 62
     0
 10
137.418594
 20
125.976595
 30
0.0
 40
0.5
 50
0.0
 51
90.0
  0
ARC
  5
2011
  8
0
 62
     0
 10
137.718594
 20
125.976595
 30
0.0
 40
0.699997
 50
90.0
 51
133.994538
  0
LINE
  5
2012
  8
0
 62
     0
 10
137.718594
 20
126.676595
 30
0.0
 11
137.718594
 21
126.976595
 31
0.0
  0
LINE
  5
2013
  8
0
 62
     0
 10
138.418594
 20
125.604778
 30
0.0
 11
137.918594
 21
125.609142
 31
0.0
  0
LINE
  5
2014
  8
0
 62
     0
 10
138.460325
 20
126.676595
 30
0.0
 11
137.718594
 21
126.676595
 31
0.0
  0
POLYLINE
  5
2015
  8
0
 62
     0
 66
     1
 10
0.0
 20
0.0
 30
0.0
  0
VERTEX
  5
2718
  8
0
 62
     0
 10
156.264032
 20
115.976595
 30
0.0
  0
VERTEX
  5
2719
  8
0
 62
     0
 10
156.208304
 20
116.933349
 30
0.0
  0
VERTEX
  5
271A
  8
0
 62
     0
 10
156.034411
 20
117.886728
 30
0.0
  0
VERTEX
  5
271B
  8
0
 62
     0
 10
155.746548
 20
118.812136
 30
0.0
  0
SEQEND
  5
271C
  8
0
 62
     0
  0
POLYLINE
  5
2016
  8
0
 62
     0
 66
     1
 10
0.0
 20
0.0
 30
0.0
  0
VERTEX
  5
271D
  8
0
 62
     0
 10
156.472161
 20
115.976595
 30
0.0
  0
VERTEX
  5
271E
  8
0
 62
     0
 10
156.412487
 20
116.964582
 30
0.0
  0
VERTEX
  5
271F
  8
0
 62
     0
 10
156.233988
 20
117.939609
 30
0.0
  0
VERTEX
  5
2720
  8
0
 62
     0
 10
155.93977
 20
118.884682
 30
0.0
  0
SEQEND
  5
2721
  8
0
 62
     0
  0
POLYLINE
  5
2017
  8
0
 62
     0
 66
     1
 10
0.0
 20
0.0
 30
0.0
  0
VERTEX
  5
2722
  8
0
 62
     0
 10
156.270423
 20
115.976595
 30
0.0
  0
VERTEX
  5
2723
  8
0
 62
     0
 10
156.21219
 20
116.940617
 30
0.0
  0
VERTEX
  5
2724
  8
0
 62
     0
 10
156.038074
 20
117.891697
 30
0.0
  0
VERTEX
  5
2725
  8
0
 62
     0
 10
155.751005
 20
118.813825
 30
0.0
  0
SEQEND
  5
2726
  8
0
 62
     0
  0
LINE
  5
2018
  8
0
 62
     0
 10
155.880347
 20
125.224835
 30
0.0
 11
159.02165
 21
125.197421
 31
0.0
  0
LINE
  5
2019
  8
0
 62
     0
 10
155.888403
 20
125.024772
 30
0.0
 11
158.990542
 21
124.9977
 31
0.0
  0
LINE
  5
201A
  8
0
 62
     0
 10
156.262395
 20
115.973323
 30
0.0
 11
155.887396
 21
115.976595
 31
0.0
  0
LINE
  5
201B
  8
0
 62
     0
 10
154.914354
 20
115.973323
 30
0.0
 11
156.265668
 21
115.973323
 31
0.0
  0
LINE
  5
201C
  8
0
 62
     0
 10
156.265668
 20
113.979868
 30
0.0
 11
154.860882
 21
113.979868
 31
0.0
  0
LINE
  5
201D
  8
0
 62
     0
 10
156.262396
 20
113.976595
 30
0.0
 11
154.860868
 21
113.976595
 31
0.0
  0
POLYLINE
  5
201E
  8
0
 62
     0
 66
     1
 10
0.0
 20
0.0
 30
0.0
  0
VERTEX
  5
2727
  8
0
 62
     0
 10
155.03748
 20
120.527345
 30
0.0
  0
VERTEX
  5
2728
  8
0
 62
     0
 10
155.01746
 20
119.914239
 30
0.0
  0
VERTEX
  5
2729
  8
0
 62
     0
 10
154.984614
 20
119.345496
 30
0.0
  0
VERTEX
  5
272A
  8
0
 62
     0
 10
154.939337
 20
118.838992
 30
0.0
  0
VERTEX
  5
272B
  8
0
 62
     0
 10
154.88218
 20
118.410758
 30
0.0
  0
VERTEX
  5
272C
  8
0
 62
     0
 10
154.814043
 20
118.07528
 30
0.0
  0
VERTEX
  5
272D
  8
0
 62
     0
 10
154.736326
 20
117.844678
 30
0.0
  0
VERTEX
  5
272E
  8
0
 62
     0
 10
154.651035
 20
117.727761
 30
0.0
  0
VERTEX
  5
272F
  8
0
 62
     0
 10
154.560793
 20
117.72928
 30
0.0
  0
VERTEX
  5
2730
  8
0
 62
     0
 10
154.468797
 20
117.849485
 30
0.0
  0
SEQEND
  5
2731
  8
0
 62
     0
  0
POLYLINE
  5
201F
  8
0
 62
     0
 66
     1
 10
0.0
 20
0.0
 30
0.0
  0
VERTEX
  5
2732
  8
0
 62
     0
 10
154.748842
 20
121.176595
 30
0.0
  0
VERTEX
  5
2733
  8
0
 62
     0
 10
154.741356
 20
120.557967
 30
0.0
  0
VERTEX
  5
2734
  8
0
 62
     0
 10
154.719073
 20
119.965202
 30
0.0
  0
VERTEX
  5
2735
  8
0
 62
     0
 10
154.682362
 20
119.420279
 30
0.0
  0
VERTEX
  5
2736
  8
0
 62
     0
 10
154.631717
 20
118.942579
 30
0.0
  0
VERTEX
  5
2737
  8
0
 62
     0
 10
154.567863
 20
118.549379
 30
0.0
  0
VERTEX
  5
2738
  8
0
 62
     0
 10
154.492024
 20
118.256027
 30
0.0
  0
VERTEX
  5
2739
  8
0
 62
     0
 10
154.406114
 20
118.074749
 30
0.0
  0
VERTEX
  5
273A
  8
0
 62
     0
 10
154.403074
 20
118.072745
 30
0.0
  0
SEQEND
  5
273B
  8
0
 62
     0
  0
LINE
  5
2020
  8
0
 62
     0
 10
155.888403
 20
119.165263
 30
0.0
 11
155.888403
 21
125.024772
 31
0.0
  0
LINE
  5
2021
  8
0
 62
     0
 10
155.686666
 20
119.165263
 30
0.0
 11
155.686666
 21
125.024772
 31
0.0
  0
LINE
  5
2022
  8
0
 62
     0
 10
155.681896
 20
123.676595
 30
0.0
 11
155.681896
 21
119.165263
 31
0.0
  0
LINE
  5
2023
  8
0
 62
     0
 10
155.303594
 20
122.895971
 30
0.0
 11
155.303594
 21
119.165263
 31
0.0
  0
LINE
  5
2024
  8
0
 62
     0
 10
155.038728
 20
120.527375
 30
0.0
 11
155.038728
 21
117.452563
 31
0.0
  0
LINE
  5
2025
  8
0
 62
     0
 10
155.03748
 20
120.527375
 30
0.0
 11
155.03748
 21
117.452563
 31
0.0
  0
POLYLINE
  5
2026
  8
0
 62
     0
 66
     1
 10
0.0
 20
0.0
 30
0.0
  0
VERTEX
  5
273C
  8
0
 62
     0
 10
154.468797
 20
117.849485
 30
0.0
  0
VERTEX
  5
273D
  8
0
 62
     0
 10
154.378686
 20
118.083885
 30
0.0
  0
VERTEX
  5
273E
  8
0
 62
     0
 10
154.294289
 20
118.423447
 30
0.0
  0
VERTEX
  5
273F
  8
0
 62
     0
 10
154.21932
 20
118.855335
 30
0.0
  0
VERTEX
  5
2740
  8
0
 62
     0
 10
154.157102
 20
119.364146
 30
0.0
  0
VERTEX
  5
2741
  8
0
 62
     0
 10
154.110392
 20
119.93324
 30
0.0
  0
VERTEX
  5
2742
  8
0
 62
     0
 10
154.08138
 20
120.544437
 30
0.0
  0
VERTEX
  5
2743
  8
0
 62
     0
 10
154.071551
 20
121.176595
 30
0.0
  0
SEQEND
  5
2744
  8
0
 62
     0
  0
POLYLINE
  5
2027
  8
0
 62
     0
 66
     1
 10
0.0
 20
0.0
 30
0.0
  0
VERTEX
  5
2745
  8
0
 62
     0
 10
154.456158
 20
117.957027
 30
0.0
  0
VERTEX
  5
2746
  8
0
 62
     0
 10
154.455072
 20
117.958541
 30
0.0
  0
VERTEX
  5
2747
  8
0
 62
     0
 10
154.432
 20
118.000543
 30
0.0
  0
VERTEX
  5
2748
  8
0
 62
     0
 10
154.392717
 20
118.098599
 30
0.0
  0
VERTEX
  5
2749
  8
0
 62
     0
 10
154.346127
 20
118.251958
 30
0.0
  0
VERTEX
  5
274A
  8
0
 62
     0
 10
154.296806
 20
118.459853
 30
0.0
  0
VERTEX
  5
274B
  8
0
 62
     0
 10
154.247625
 20
118.721803
 30
0.0
  0
VERTEX
  5
274C
  8
0
 62
     0
 10
154.200946
 20
119.036338
 30
0.0
  0
VERTEX
  5
274D
  8
0
 62
     0
 10
154.158945
 20
119.400428
 30
0.0
  0
VERTEX
  5
274E
  8
0
 62
     0
 10
154.123715
 20
119.808689
 30
0.0
  0
VERTEX
  5
274F
  8
0
 62
     0
 10
154.097135
 20
120.253704
 30
0.0
  0
VERTEX
  5
2750
  8
0
 62
     0
 10
154.080767
 20
120.726383
 30
0.0
  0
VERTEX
  5
2751
  8
0
 62
     0
 10
154.075736
 20
121.176595
 30
0.0
  0
SEQEND
  5
2752
  8
0
 62
     0
  0
POLYLINE
  5
2028
  8
0
 62
     0
 66
     1
 10
0.0
 20
0.0
 30
0.0
  0
VERTEX
  5
2753
  8
0
 62
     0
 10
155.300267
 20
113.876595
 30
0.0
  0
VERTEX
  5
2754
  8
0
 62
     0
 10
155.298953
 20
113.449683
 30
0.0
  0
VERTEX
  5
2755
  8
0
 62
     0
 10
155.295609
 20
113.066742
 30
0.0
  0
VERTEX
  5
2756
  8
0
 62
     0
 10
155.290695
 20
112.723674
 30
0.0
  0
VERTEX
  5
2757
  8
0
 62
     0
 10
155.284601
 20
112.416752
 30
0.0
  0
VERTEX
  5
2758
  8
0
 62
     0
 10
155.27768
 20
112.142982
 30
0.0
  0
VERTEX
  5
2759
  8
0
 62
     0
 10
155.270184
 20
111.89865
 30
0.0
  0
VERTEX
  5
275A
  8
0
 62
     0
 10
155.262294
 20
111.680791
 30
0.0
  0
VERTEX
  5
275B
  8
0
 62
     0
 10
155.254337
 20
111.490996
 30
0.0
  0
VERTEX
  5
275C
  8
0
 62
     0
 10
155.246623
 20
111.328848
 30
0.0
  0
VERTEX
  5
275D
  8
0
 62
     0
 10
155.239088
 20
111.187174
 30
0.0
  0
VERTEX
  5
275E
  8
0
 62
     0
 10
155.231495
 20
111.058348
 30
0.0
  0
VERTEX
  5
275F
  8
0
 62
     0
 10
155.223518
 20
110.935785
 30
0.0
  0
VERTEX
  5
2760
  8
0
 62
     0
 10
155.214833
 20
110.815274
 30
0.0
  0
VERTEX
  5
2761
  8
0
 62
     0
 10
155.205068
 20
110.693629
 30
0.0
  0
VERTEX
  5
2762
  8
0
 62
     0
 10
155.193774
 20
110.568715
 30
0.0
  0
VERTEX
  5
2763
  8
0
 62
     0
 10
155.180482
 20
110.440473
 30
0.0
  0
VERTEX
  5
2764
  8
0
 62
     0
 10
155.164709
 20
110.31079
 30
0.0
  0
VERTEX
  5
2765
  8
0
 62
     0
 10
155.145861
 20
110.183237
 30
0.0
  0
VERTEX
  5
2766
  8
0
 62
     0
 10
155.123225
 20
110.063559
 30
0.0
  0
VERTEX
  5
2767
  8
0
 62
     0
 10
155.097991
 20
109.967365
 30
0.0
  0
SEQEND
  5
2768
  8
0
 62
     0
  0
POLYLINE
  5
2029
  8
0
 62
     0
 66
     1
 10
0.0
 20
0.0
 30
0.0
  0
VERTEX
  5
2769
  8
0
 62
     0
 10
155.492767
 20
113.876595
 30
0.0
  0
VERTEX
  5
276A
  8
0
 62
     0
 10
155.491475
 20
113.43387
 30
0.0
  0
VERTEX
  5
276B
  8
0
 62
     0
 10
155.4881
 20
113.036473
 30
0.0
  0
VERTEX
  5
276C
  8
0
 62
     0
 10
155.483162
 20
112.679972
 30
0.0
  0
VERTEX
  5
276D
  8
0
 62
     0
 10
155.477071
 20
112.360733
 30
0.0
  0
VERTEX
  5
276E
  8
0
 62
     0
 10
155.470151
 20
112.075562
 30
0.0
  0
VERTEX
  5
276F
  8
0
 62
     0
 10
155.462643
 20
111.820736
 30
0.0
  0
VERTEX
  5
2770
  8
0
 62
     0
 10
155.454734
 20
111.593077
 30
0.0
  0
VERTEX
  5
2771
  8
0
 62
     0
 10
155.446762
 20
111.39433
 30
0.0
  0
VERTEX
  5
2772
  8
0
 62
     0
 10
155.439036
 20
111.224283
 30
0.0
  0
VERTEX
  5
2773
  8
0
 62
     0
 10
155.431489
 20
111.075413
 30
0.0
  0
VERTEX
  5
2774
  8
0
 62
     0
 10
155.423883
 20
110.939803
 30
0.0
  0
VERTEX
  5
2775
  8
0
 62
     0
 10
155.415893
 20
110.810572
 30
0.0
  0
VERTEX
  5
2776
  8
0
 62
     0
 10
155.407193
 20
110.683202
 30
0.0
  0
VERTEX
  5
2777
  8
0
 62
     0
 10
155.397412
 20
110.554387
 30
0.0
  0
VERTEX
  5
2778
  8
0
 62
     0
 10
155.386099
 20
110.421785
 30
0.0
  0
VERTEX
  5
2779
  8
0
 62
     0
 10
155.37278
 20
110.285217
 30
0.0
  0
VERTEX
  5
277A
  8
0
 62
     0
 10
155.356975
 20
110.146702
 30
0.0
  0
VERTEX
  5
277B
  8
0
 62
     0
 10
155.338097
 20
110.009901
 30
0.0
  0
VERTEX
  5
277C
  8
0
 62
     0
 10
155.315441
 20
109.881013
 30
0.0
  0
VERTEX
  5
277D
  8
0
 62
     0
 10
155.288256
 20
109.769236
 30
0.0
  0
VERTEX
  5
277E
  8
0
 62
     0
 10
155.255673
 20
109.688256
 30
0.0
  0
VERTEX
  5
277F
  8
0
 62
     0
 10
155.216805
 20
109.656947
 30
0.0
  0
SEQEND
  5
2780
  8
0
 62
     0
  0
POLYLINE
  5
202A
  8
0
 62
     0
 66
     1
 10
0.0
 20
0.0
 30
0.0
  0
VERTEX
  5
2781
  8
0
 62
     0
 10
154.950863
 20
111.179645
 30
0.0
  0
VERTEX
  5
2782
  8
0
 62
     0
 10
154.916057
 20
111.717321
 30
0.0
  0
VERTEX
  5
2783
  8
0
 62
     0
 10
154.886449
 20
112.375424
 30
0.0
  0
VERTEX
  5
2784
  8
0
 62
     0
 10
154.867042
 20
113.112233
 30
0.0
  0
VERTEX
  5
2785
  8
0
 62
     0
 10
154.860432
 20
113.876764
 30
0.0
  0
SEQEND
  5
2786
  8
0
 62
     0
  0
POLYLINE
  5
202B
  8
0
 62
     0
 66
     1
 10
0.0
 20
0.0
 30
0.0
  0
VERTEX
  5
2787
  8
0
 62
     0
 10
154.950045
 20
111.164584
 30
0.0
  0
VERTEX
  5
2788
  8
0
 62
     0
 10
154.932997
 20
111.406284
 30
0.0
  0
VERTEX
  5
2789
  8
0
 62
     0
 10
154.916394
 20
111.679755
 30
0.0
  0
VERTEX
  5
278A
  8
0
 62
     0
 10
154.900482
 20
111.991806
 30
0.0
  0
VERTEX
  5
278B
  8
0
 62
     0
 10
154.885811
 20
112.348253
 30
0.0
  0
VERTEX
  5
278C
  8
0
 62
     0
 10
154.873611
 20
112.739077
 30
0.0
  0
VERTEX
  5
278D
  8
0
 62
     0
 10
154.864981
 20
113.142687
 30
0.0
  0
VERTEX
  5
278E
  8
0
 62
     0
 10
154.860271
 20
113.531886
 30
0.0
  0
VERTEX
  5
278F
  8
0
 62
     0
 10
154.858899
 20
113.876472
 30
0.0
  0
SEQEND
  5
2790
  8
0
 62
     0
  0
POLYLINE
  5
202C
  8
0
 62
     0
 66
     1
 10
0.0
 20
0.0
 30
0.0
  0
VERTEX
  5
2791
  8
0
 62
     0
 10
155.11996
 20
109.845927
 30
0.0
  0
VERTEX
  5
2792
  8
0
 62
     0
 10
155.099468
 20
109.93241
 30
0.0
  0
VERTEX
  5
2793
  8
0
 62
     0
 10
155.077286
 20
110.044931
 30
0.0
  0
VERTEX
  5
2794
  8
0
 62
     0
 10
155.053692
 20
110.187215
 30
0.0
  0
VERTEX
  5
2795
  8
0
 62
     0
 10
155.028854
 20
110.364164
 30
0.0
  0
VERTEX
  5
2796
  8
0
 62
     0
 10
155.002959
 20
110.582259
 30
0.0
  0
VERTEX
  5
2797
  8
0
 62
     0
 10
154.976479
 20
110.847102
 30
0.0
  0
VERTEX
  5
2798
  8
0
 62
     0
 10
154.950045
 20
111.164584
 30
0.0
  0
SEQEND
  5
2799
  8
0
 62
     0
  0
POLYLINE
  5
202D
  8
0
 62
     0
 66
     1
 10
0.0
 20
0.0
 30
0.0
  0
VERTEX
  5
279A
  8
0
 62
     0
 10
155.147141
 20
109.797364
 30
0.0
  0
VERTEX
  5
279B
  8
0
 62
     0
 10
155.148192
 20
109.795803
 30
0.0
  0
VERTEX
  5
279C
  8
0
 62
     0
 10
155.145106
 20
109.80221
 30
0.0
  0
VERTEX
  5
279D
  8
0
 62
     0
 10
155.134222
 20
109.830224
 30
0.0
  0
VERTEX
  5
279E
  8
0
 62
     0
 10
155.119661
 20
109.877622
 30
0.0
  0
VERTEX
  5
279F
  8
0
 62
     0
 10
155.103363
 20
109.942171
 30
0.0
  0
VERTEX
  5
27A0
  8
0
 62
     0
 10
155.086166
 20
110.022817
 30
0.0
  0
VERTEX
  5
27A1
  8
0
 62
     0
 10
155.068502
 20
110.119059
 30
0.0
  0
VERTEX
  5
27A2
  8
0
 62
     0
 10
155.050623
 20
110.230606
 30
0.0
  0
VERTEX
  5
27A3
  8
0
 62
     0
 10
155.032736
 20
110.357198
 30
0.0
  0
VERTEX
  5
27A4
  8
0
 62
     0
 10
155.01501
 20
110.49882
 30
0.0
  0
VERTEX
  5
27A5
  8
0
 62
     0
 10
154.99758
 20
110.655322
 30
0.0
  0
VERTEX
  5
27A6
  8
0
 62
     0
 10
154.98059
 20
110.826459
 30
0.0
  0
VERTEX
  5
27A7
  8
0
 62
     0
 10
154.964173
 20
111.012049
 30
0.0
  0
SEQEND
  5
27A8
  8
0
 62
     0
  0
POLYLINE
  5
202E
  8
0
 62
     0
 66
     1
 10
0.0
 20
0.0
 30
0.0
  0
VERTEX
  5
27A9
  8
0
 62
     0
 10
155.216805
 20
109.656947
 30
0.0
  0
VERTEX
  5
27AA
  8
0
 62
     0
 10
155.202335
 20
109.731876
 30
0.0
  0
VERTEX
  5
27AB
  8
0
 62
     0
 10
155.160979
 20
109.79589
 30
0.0
  0
VERTEX
  5
27AC
  8
0
 62
     0
 10
155.142514
 20
109.808882
 30
0.0
  0
SEQEND
  5
27AD
  8
0
 62
     0
  0
POLYLINE
  5
202F
  8
0
 62
     0
 66
     1
 10
0.0
 20
0.0
 30
0.0
  0
VERTEX
  5
27AE
  8
0
 62
     0
 10
155.216805
 20
109.656947
 30
0.0
  0
VERTEX
  5
27AF
  8
0
 62
     0
 10
155.206949
 20
109.659371
 30
0.0
  0
VERTEX
  5
27B0
  8
0
 62
     0
 10
155.19609
 20
109.66667
 30
0.0
  0
VERTEX
  5
27B1
  8
0
 62
     0
 10
155.184018
 20
109.68025
 30
0.0
  0
VERTEX
  5
27B2
  8
0
 62
     0
 10
155.170527
 20
109.702056
 30
0.0
  0
VERTEX
  5
27B3
  8
0
 62
     0
 10
155.155437
 20
109.73467
 30
0.0
  0
VERTEX
  5
27B4
  8
0
 62
     0
 10
155.138611
 20
109.781383
 30
0.0
  0
VERTEX
  5
27B5
  8
0
 62
     0
 10
155.11996
 20
109.845927
 30
0.0
  0
SEQEND
  5
27B6
  8
0
 62
     0
  0
LINE
  5
2030
  8
0
 62
     0
 10
154.950043
 20
111.164584
 30
0.0
 11
154.950863
 21
111.179642
 31
0.0
  0
LINE
  5
2031
  8
0
 62
     0
 10
154.964173
 20
111.012049
 30
0.0
 11
154.950866
 21
111.179642
 31
0.0
  0
ARC
  5
2032
  8
0
 62
     0
 10
148.262396
 20
115.976595
 30
0.0
 40
7.625
 50
0.0
 51
20.750331
  0
POLYLINE
  5
2033
  8
0
 62
     0
 66
     1
 10
0.0
 20
0.0
 30
0.0
  0
VERTEX
  5
27B7
  8
0
 62
     0
 10
154.875768
 20
115.035161
 30
0.0
  0
VERTEX
  5
27B8
  8
0
 62
     0
 10
154.902078
 20
115.759003
 30
0.0
  0
VERTEX
  5
27B9
  8
0
 62
     0
 10
154.940397
 20
116.427973
 30
0.0
  0
VERTEX
  5
27BA
  8
0
 62
     0
 10
154.98688
 20
116.991294
 30
0.0
  0
VERTEX
  5
27BB
  8
0
 62
     0
 10
155.036885
 20
117.425472
 30
0.0
  0
SEQEND
  5
27BC
  8
0
 62
     0
  0
POLYLINE
  5
2034
  8
0
 62
     0
 66
     1
 10
0.0
 20
0.0
 30
0.0
  0
VERTEX
  5
27BD
  8
0
 62
     0
 10
154.874331
 20
115.040513
 30
0.0
  0
VERTEX
  5
27BE
  8
0
 62
     0
 10
154.884993
 20
115.381633
 30
0.0
  0
VERTEX
  5
27BF
  8
0
 62
     0
 10
154.896871
 20
115.680682
 30
0.0
  0
VERTEX
  5
27C0
  8
0
 62
     0
 10
154.909523
 20
115.945276
 30
0.0
  0
VERTEX
  5
27C1
  8
0
 62
     0
 10
154.923097
 20
116.188362
 30
0.0
  0
VERTEX
  5
27C2
  8
0
 62
     0
 10
154.938285
 20
116.42463
 30
0.0
  0
VERTEX
  5
27C3
  8
0
 62
     0
 10
154.956359
 20
116.669094
 30
0.0
  0
VERTEX
  5
27C4
  8
0
 62
     0
 10
154.976742
 20
116.907899
 30
0.0
  0
VERTEX
  5
27C5
  8
0
 62
     0
 10
154.997763
 20
117.12138
 30
0.0
  0
VERTEX
  5
27C6
  8
0
 62
     0
 10
155.01824
 20
117.302732
 30
0.0
  0
SEQEND
  5
27C7
  8
0
 62
     0
  0
POLYLINE
  5
2035
  8
0
 62
     0
 66
     1
 10
0.0
 20
0.0
 30
0.0
  0
VERTEX
  5
27C8
  8
0
 62
     0
 10
154.860432
 20
113.876766
 30
0.0
  0
VERTEX
  5
27C9
  8
0
 62
     0
 10
154.862113
 20
114.261763
 30
0.0
  0
VERTEX
  5
27CA
  8
0
 62
     0
 10
154.867634
 20
114.673995
 30
0.0
  0
VERTEX
  5
27CB
  8
0
 62
     0
 10
154.875769
 20
115.035161
 30
0.0
  0
SEQEND
  5
27CC
  8
0
 62
     0
  0
POLYLINE
  5
2036
  8
0
 62
     0
 66
     1
 10
0.0
 20
0.0
 30
0.0
  0
VERTEX
  5
27CD
  8
0
 62
     0
 10
154.858899
 20
113.876472
 30
0.0
  0
VERTEX
  5
27CE
  8
0
 62
     0
 10
154.860255
 20
114.222466
 30
0.0
  0
VERTEX
  5
27CF
  8
0
 62
     0
 10
154.865045
 20
114.61462
 30
0.0
  0
VERTEX
  5
27D0
  8
0
 62
     0
 10
154.874331
 20
115.040513
 30
0.0
  0
SEQEND
  5
27D1
  8
0
 62
     0
  0
LINE
  5
2037
  8
0
 62
     0
 10
155.492616
 20
113.976595
 30
0.0
 11
155.492767
 21
113.876595
 31
0.0
  0
LINE
  5
2038
  8
0
 62
     0
 10
155.300106
 20
113.976595
 30
0.0
 11
155.300267
 21
113.876595
 31
0.0
  0
LINE
  5
2039
  8
0
 62
     0
 10
154.874332
 20
115.04054
 30
0.0
 11
154.875768
 21
115.035161
 31
0.0
  0
LINE
  5
203A
  8
0
 62
     0
 10
154.8589
 20
113.876791
 30
0.0
 11
154.860432
 21
113.876766
 31
0.0
  0
LINE
  5
203B
  8
0
 62
     0
 10
154.914542
 20
115.976595
 30
0.0
 11
155.887396
 21
115.976595
 31
0.0
  0
LINE
  5
203C
  8
0
 62
     0
 10
155.492769
 20
113.876595
 30
0.0
 11
154.860432
 21
113.876595
 31
0.0
  0
ARC
  5
203D
  8
0
 62
     0
 10
156.678594
 20
119.165263
 30
0.0
 40
1.375
 50
180.0
 51
200.750331
  0
ARC
  5
203E
  8
0
 62
     0
 10
156.678594
 20
119.165263
 30
0.0
 40
0.996699
 50
180.0
 51
200.750331
  0
POLYLINE
  5
203F
  8
0
 62
     0
 66
     1
 10
0.0
 20
0.0
 30
0.0
  0
VERTEX
  5
27D2
  8
0
 62
     0
 10
155.751005
 20
118.813825
 30
0.0
  0
VERTEX
  5
27D3
  8
0
 62
     0
 10
155.765939
 20
118.81923
 30
0.0
  0
VERTEX
  5
27D4
  8
0
 62
     0
 10
155.807053
 20
118.834593
 30
0.0
  0
VERTEX
  5
27D5
  8
0
 62
     0
 10
155.868092
 20
118.857575
 30
0.0
  0
VERTEX
  5
27D6
  8
0
 62
     0
 10
155.93977
 20
118.884682
 30
0.0
  0
SEQEND
  5
27D7
  8
0
 62
     0
  0
LINE
  5
2040
  8
0
 62
     0
 10
155.392786
 20
118.678106
 30
0.0
 11
155.751005
 21
118.813825
 31
0.0
  0
LINE
  5
2041
  8
0
 62
     0
 10
155.037094
 20
117.427053
 30
0.0
 11
155.037023
 21
117.42652
 31
0.0
  0
LINE
  5
2042
  8
0
 62
     0
 10
155.01824
 20
117.302732
 30
0.0
 11
155.03748
 21
117.452542
 31
0.0
  0
LINE
  5
2043
  8
0
 62
     0
 10
155.038728
 20
117.452563
 30
0.0
 11
155.037094
 21
117.427053
 31
0.0
  0
LINE
  5
2044
  8
0
 62
     0
 10
155.03748
 20
117.452563
 30
0.0
 11
155.037094
 21
117.427053
 31
0.0
  0
POLYLINE
  5
2045
  8
0
 62
     0
 66
     1
 10
0.0
 20
0.0
 30
0.0
  0
VERTEX
  5
27D8
  8
0
 62
     0
 10
155.93977
 20
118.884682
 30
0.0
  0
VERTEX
  5
27D9
  8
0
 62
     0
 10
155.927774
 20
118.918662
 30
0.0
  0
VERTEX
  5
27DA
  8
0
 62
     0
 10
155.917377
 20
118.953003
 30
0.0
  0
VERTEX
  5
27DB
  8
0
 62
     0
 10
155.90857
 20
118.987675
 30
0.0
  0
VERTEX
  5
27DC
  8
0
 62
     0
 10
155.901348
 20
119.022656
 30
0.0
  0
VERTEX
  5
27DD
  8
0
 62
     0
 10
155.895711
 20
119.057925
 30
0.0
  0
VERTEX
  5
27DE
  8
0
 62
     0
 10
155.891665
 20
119.093463
 30
0.0
  0
VERTEX
  5
27DF
  8
0
 62
     0
 10
155.889223
 20
119.129249
 30
0.0
  0
VERTEX
  5
27E0
  8
0
 62
     0
 10
155.888403
 20
119.165263
 30
0.0
  0
SEQEND
  5
27E1
  8
0
 62
     0
  0
POLYLINE
  5
2046
  8
0
 62
     0
 66
     1
 10
0.0
 20
0.0
 30
0.0
  0
VERTEX
  5
27E2
  8
0
 62
     0
 10
155.751005
 20
118.813825
 30
0.0
  0
VERTEX
  5
27E3
  8
0
 62
     0
 10
155.735979
 20
118.856388
 30
0.0
  0
VERTEX
  5
27E4
  8
0
 62
     0
 10
155.722957
 20
118.899401
 30
0.0
  0
VERTEX
  5
27E5
  8
0
 62
     0
 10
155.711926
 20
118.942829
 30
0.0
  0
VERTEX
  5
27E6
  8
0
 62
     0
 10
155.70288
 20
118.986643
 30
0.0
  0
VERTEX
  5
27E7
  8
0
 62
     0
 10
155.695819
 20
119.030819
 30
0.0
  0
VERTEX
  5
27E8
  8
0
 62
     0
 10
155.690751
 20
119.075331
 30
0.0
  0
VERTEX
  5
27E9
  8
0
 62
     0
 10
155.687692
 20
119.120155
 30
0.0
  0
VERTEX
  5
27EA
  8
0
 62
     0
 10
155.686666
 20
119.165263
 30
0.0
  0
SEQEND
  5
27EB
  8
0
 62
     0
  0
LINE
  5
2047
  8
0
 62
     0
 10
155.303594
 20
119.165263
 30
0.0
 11
155.888403
 21
119.165263
 31
0.0
  0
LINE
  5
2048
  8
0
 62
     0
 10
155.038728
 20
117.452563
 30
0.0
 11
155.03748
 21
117.452563
 31
0.0
  0
LINE
  5
2049
  8
0
 62
     0
 10
155.818594
 20
126.476595
 30
0.0
 11
155.818594
 21
125.213041
 31
0.0
  0
LINE
  5
204A
  8
0
 62
     0
 10
151.818594
 20
125.182036
 30
0.0
 11
151.834255
 21
126.976595
 31
0.0
  0
POLYLINE
  5
204B
  8
0
 62
     0
 66
     1
 10
0.0
 20
0.0
 30
0.0
  0
VERTEX
  5
27EC
  8
0
 62
     0
 10
154.37877
 20
124.269578
 30
0.0
  0
VERTEX
  5
27ED
  8
0
 62
     0
 10
154.468881
 20
124.503867
 30
0.0
  0
VERTEX
  5
27EE
  8
0
 62
     0
 10
154.560873
 20
124.623964
 30
0.0
  0
VERTEX
  5
27EF
  8
0
 62
     0
 10
154.651108
 20
124.625382
 30
0.0
  0
VERTEX
  5
27F0
  8
0
 62
     0
 10
154.736389
 20
124.508379
 30
0.0
  0
VERTEX
  5
27F1
  8
0
 62
     0
 10
154.814096
 20
124.277707
 30
0.0
  0
VERTEX
  5
27F2
  8
0
 62
     0
 10
154.882223
 20
123.942175
 30
0.0
  0
VERTEX
  5
27F3
  8
0
 62
     0
 10
154.939369
 20
123.513913
 30
0.0
  0
VERTEX
  5
27F4
  8
0
 62
     0
 10
154.984633
 20
123.007436
 30
0.0
  0
VERTEX
  5
27F5
  8
0
 62
     0
 10
155.017467
 20
122.438791
 30
0.0
  0
VERTEX
  5
27F6
  8
0
 62
     0
 10
155.03748
 20
121.82585
 30
0.0
  0
SEQEND
  5
27F7
  8
0
 62
     0
  0
POLYLINE
  5
204C
  8
0
 62
     0
 66
     1
 10
0.0
 20
0.0
 30
0.0
  0
VERTEX
  5
27F8
  8
0
 62
     0
 10
154.071551
 20
121.176595
 30
0.0
  0
VERTEX
  5
27F9
  8
0
 62
     0
 10
154.081392
 20
121.809135
 30
0.0
  0
VERTEX
  5
27FA
  8
0
 62
     0
 10
154.110422
 20
122.420427
 30
0.0
  0
VERTEX
  5
27FB
  8
0
 62
     0
 10
154.157154
 20
122.989553
 30
0.0
  0
VERTEX
  5
27FC
  8
0
 62
     0
 10
154.219389
 20
123.498325
 30
0.0
  0
VERTEX
  5
27FD
  8
0
 62
     0
 10
154.294368
 20
123.930124
 30
0.0
  0
VERTEX
  5
27FE
  8
0
 62
     0
 10
154.37877
 20
124.269578
 30
0.0
  0
SEQEND
  5
27FF
  8
0
 62
     0
  0
POLYLINE
  5
204D
  8
0
 62
     0
 66
     1
 10
0.0
 20
0.0
 30
0.0
  0
VERTEX
  5
2800
  8
0
 62
     0
 10
154.075736
 20
121.176595
 30
0.0
  0
VERTEX
  5
2801
  8
0
 62
     0
 10
154.080767
 20
121.626818
 30
0.0
  0
VERTEX
  5
2802
  8
0
 62
     0
 10
154.097137
 20
122.099522
 30
0.0
  0
VERTEX
  5
2803
  8
0
 62
     0
 10
154.123717
 20
122.544521
 30
0.0
  0
VERTEX
  5
2804
  8
0
 62
     0
 10
154.158945
 20
122.952762
 30
0.0
  0
VERTEX
  5
2805
  8
0
 62
     0
 10
154.200946
 20
123.316853
 30
0.0
  0
VERTEX
  5
2806
  8
0
 62
     0
 10
154.247625
 20
123.631392
 30
0.0
  0
VERTEX
  5
2807
  8
0
 62
     0
 10
154.296806
 20
123.893339
 30
0.0
  0
VERTEX
  5
2808
  8
0
 62
     0
 10
154.346128
 20
124.101237
 30
0.0
  0
VERTEX
  5
2809
  8
0
 62
     0
 10
154.392719
 20
124.254596
 30
0.0
  0
VERTEX
  5
280A
  8
0
 62
     0
 10
154.432
 20
124.352648
 30
0.0
  0
VERTEX
  5
280B
  8
0
 62
     0
 10
154.440214
 20
124.369214
 30
0.0
  0
SEQEND
  5
280C
  8
0
 62
     0
  0
LINE
  5
204E
  8
0
 62
     0
 10
155.038728
 20
123.155171
 30
0.0
 11
155.038728
 21
121.82582
 31
0.0
  0
LINE
  5
204F
  8
0
 62
     0
 10
155.03748
 20
123.177302
 30
0.0
 11
155.03748
 21
121.82582
 31
0.0
  0
POLYLINE
  5
2050
  8
0
 62
     0
 66
     1
 10
0.0
 20
0.0
 30
0.0
  0
VERTEX
  5
280D
  8
0
 62
     0
 10
154.406158
 20
124.278382
 30
0.0
  0
VERTEX
  5
280E
  8
0
 62
     0
 10
154.492065
 20
124.097043
 30
0.0
  0
VERTEX
  5
280F
  8
0
 62
     0
 10
154.5679
 20
123.803627
 30
0.0
  0
VERTEX
  5
2810
  8
0
 62
     0
 10
154.631749
 20
123.41037
 30
0.0
  0
VERTEX
  5
2811
  8
0
 62
     0
 10
154.682385
 20
122.93265
 30
0.0
  0
VERTEX
  5
2812
  8
0
 62
     0
 10
154.719083
 20
122.387775
 30
0.0
  0
VERTEX
  5
2813
  8
0
 62
     0
 10
154.741359
 20
121.795114
 30
0.0
  0
VERTEX
  5
2814
  8
0
 62
     0
 10
154.748842
 20
121.176595
 30
0.0
  0
SEQEND
  5
2815
  8
0
 62
     0
  0
POLYLINE
  5
2051
  8
0
 62
     0
 66
     1
 10
0.0
 20
0.0
 30
0.0
  0
VERTEX
  5
2816
  8
0
 62
     0
 10
155.037479
 20
121.82582
 30
0.0
  0
VERTEX
  5
2817
  8
0
 62
     0
 10
155.022262
 20
121.670071
 30
0.0
  0
VERTEX
  5
2818
  8
0
 62
     0
 10
154.993604
 20
121.50522
 30
0.0
  0
VERTEX
  5
2819
  8
0
 62
     0
 10
154.964951
 20
121.33674
 30
0.0
  0
VERTEX
  5
281A
  8
0
 62
     0
 10
154.95342
 20
121.176595
 30
0.0
  0
SEQEND
  5
281B
  8
0
 62
     0
  0
POLYLINE
  5
2052
  8
0
 62
     0
 66
     1
 10
0.0
 20
0.0
 30
0.0
  0
VERTEX
  5
281C
  8
0
 62
     0
 10
155.015319
 20
121.176597
 30
0.0
  0
VERTEX
  5
281D
  8
0
 62
     0
 10
155.021933
 20
121.406339
 30
0.0
  0
VERTEX
  5
281E
  8
0
 62
     0
 10
155.03446
 20
121.648618
 30
0.0
  0
VERTEX
  5
281F
  8
0
 62
     0
 10
155.038726
 20
121.82582
 30
0.0
  0
SEQEND
  5
2820
  8
0
 62
     0
  0
POLYLINE
  5
2053
  8
0
 62
     0
 66
     1
 10
0.0
 20
0.0
 30
0.0
  0
VERTEX
  5
2821
  8
0
 62
     0
 10
155.038725
 20
120.527375
 30
0.0
  0
VERTEX
  5
2822
  8
0
 62
     0
 10
155.034436
 20
120.705202
 30
0.0
  0
VERTEX
  5
2823
  8
0
 62
     0
 10
155.021909
 20
120.947164
 30
0.0
  0
VERTEX
  5
2824
  8
0
 62
     0
 10
155.015299
 20
121.176597
 30
0.0
  0
SEQEND
  5
2825
  8
0
 62
     0
  0
POLYLINE
  5
2054
  8
0
 62
     0
 66
     1
 10
0.0
 20
0.0
 30
0.0
  0
VERTEX
  5
2826
  8
0
 62
     0
 10
154.953398
 20
121.176595
 30
0.0
  0
VERTEX
  5
2827
  8
0
 62
     0
 10
154.964363
 20
121.020784
 30
0.0
  0
VERTEX
  5
2828
  8
0
 62
     0
 10
154.992231
 20
120.855291
 30
0.0
  0
VERTEX
  5
2829
  8
0
 62
     0
 10
155.021221
 20
120.690201
 30
0.0
  0
VERTEX
  5
282A
  8
0
 62
     0
 10
155.037478
 20
120.527375
 30
0.0
  0
SEQEND
  5
282B
  8
0
 62
     0
  0
LINE
  5
2055
  8
0
 62
     0
 10
155.038728
 20
121.82582
 30
0.0
 11
155.03748
 21
121.82582
 31
0.0
  0
LINE
  5
2056
  8
0
 62
     0
 10
155.038728
 20
120.527375
 30
0.0
 11
155.03748
 21
120.527375
 31
0.0
  0
LINE
  5
2057
  8
0
 62
     0
 10
154.403065
 20
124.280422
 30
0.0
 11
154.406158
 21
124.278382
 31
0.0
  0
ARC
  5
2058
  8
0
 62
     0
 10
154.678594
 20
123.676595
 30
0.0
 40
1.0
 50
291.237032
 51
0.0
  0
POLYLINE
  5
2059
  8
0
 62
     0
 66
     1
 10
0.0
 20
0.0
 30
0.0
  0
VERTEX
  5
282C
  8
0
 62
     0
 10
155.530701
 20
124.383314
 30
0.0
  0
VERTEX
  5
282D
  8
0
 62
     0
 10
155.573376
 20
124.581457
 30
0.0
  0
VERTEX
  5
282E
  8
0
 62
     0
 10
155.614131
 20
124.648389
 30
0.0
  0
VERTEX
  5
282F
  8
0
 62
     0
 10
155.651162
 20
124.581521
 30
0.0
  0
VERTEX
  5
2830
  8
0
 62
     0
 10
155.678594
 20
124.412405
 30
0.0
  0
SEQEND
  5
2831
  8
0
 62
     0
  0
POLYLINE
  5
205A
  8
0
 62
     0
 66
     1
 10
0.0
 20
0.0
 30
0.0
  0
VERTEX
  5
2832
  8
0
 62
     0
 10
155.681896
 20
123.676595
 30
0.0
  0
VERTEX
  5
2833
  8
0
 62
     0
 10
155.668648
 20
123.514809
 30
0.0
  0
VERTEX
  5
2834
  8
0
 62
     0
 10
155.62454
 20
123.343734
 30
0.0
  0
VERTEX
  5
2835
  8
0
 62
     0
 10
155.548346
 20
123.178792
 30
0.0
  0
VERTEX
  5
2836
  8
0
 62
     0
 10
155.440096
 20
123.026597
 30
0.0
  0
VERTEX
  5
2837
  8
0
 62
     0
 10
155.303594
 20
122.895971
 30
0.0
  0
SEQEND
  5
2838
  8
0
 62
     0
  0
POLYLINE
  5
205B
  8
0
 62
     0
 66
     1
 10
0.0
 20
0.0
 30
0.0
  0
VERTEX
  5
2839
  8
0
 62
     0
 10
155.411147
 20
123.003888
 30
0.0
  0
VERTEX
  5
283A
  8
0
 62
     0
 10
155.420962
 20
123.187267
 30
0.0
  0
VERTEX
  5
283B
  8
0
 62
     0
 10
155.432975
 20
123.382563
 30
0.0
  0
VERTEX
  5
283C
  8
0
 62
     0
 10
155.44552
 20
123.561858
 30
0.0
  0
VERTEX
  5
283D
  8
0
 62
     0
 10
155.458408
 20
123.724957
 30
0.0
  0
VERTEX
  5
283E
  8
0
 62
     0
 10
155.47147
 20
123.871867
 30
0.0
  0
VERTEX
  5
283F
  8
0
 62
     0
 10
155.484538
 20
124.00272
 30
0.0
  0
VERTEX
  5
2840
  8
0
 62
     0
 10
155.49745
 20
124.117725
 30
0.0
  0
VERTEX
  5
2841
  8
0
 62
     0
 10
155.510054
 20
124.217243
 30
0.0
  0
VERTEX
  5
2842
  8
0
 62
     0
 10
155.522188
 20
124.301658
 30
0.0
  0
VERTEX
  5
2843
  8
0
 62
     0
 10
155.533646
 20
124.371258
 30
0.0
  0
VERTEX
  5
2844
  8
0
 62
     0
 10
155.544143
 20
124.426182
 30
0.0
  0
VERTEX
  5
2845
  8
0
 62
     0
 10
155.553189
 20
124.466199
 30
0.0
  0
VERTEX
  5
2846
  8
0
 62
     0
 10
155.559797
 20
124.490341
 30
0.0
  0
VERTEX
  5
2847
  8
0
 62
     0
 10
155.560749
 20
124.493345
 30
0.0
  0
SEQEND
  5
2848
  8
0
 62
     0
  0
POLYLINE
  5
205C
  8
0
 62
     0
 66
     1
 10
0.0
 20
0.0
 30
0.0
  0
VERTEX
  5
2849
  8
0
 62
     0
 10
155.410504
 20
123.003243
 30
0.0
  0
VERTEX
  5
284A
  8
0
 62
     0
 10
155.414995
 20
123.105695
 30
0.0
  0
VERTEX
  5
284B
  8
0
 62
     0
 10
155.448972
 20
123.630507
 30
0.0
  0
VERTEX
  5
284C
  8
0
 62
     0
 10
155.488387
 20
124.062003
 30
0.0
  0
VERTEX
  5
284D
  8
0
 62
     0
 10
155.530701
 20
124.383314
 30
0.0
  0
SEQEND
  5
284E
  8
0
 62
     0
  0
LINE
  5
205D
  8
0
 62
     0
 10
155.678594
 20
123.676595
 30
0.0
 11
155.678594
 21
125.024842
 31
0.0
  0
LINE
  5
205E
  8
0
 62
     0
 10
155.364408
 20
122.95699
 30
0.0
 11
155.364408
 21
123.180151
 31
0.0
  0
LINE
  5
205F
  8
0
 62
     0
 10
155.166878
 20
122.809763
 30
0.0
 11
155.166878
 21
122.980898
 31
0.0
  0
POLYLINE
  5
2060
  8
0
 62
     0
 66
     1
 10
0.0
 20
0.0
 30
0.0
  0
VERTEX
  5
284F
  8
0
 62
     0
 10
155.888853
 20
125.215199
 30
0.0
  0
VERTEX
  5
2850
  8
0
 62
     0
 10
155.889095
 20
125.186906
 30
0.0
  0
VERTEX
  5
2851
  8
0
 62
     0
 10
155.889097
 20
125.142672
 30
0.0
  0
VERTEX
  5
2852
  8
0
 62
     0
 10
155.888859
 20
125.086771
 30
0.0
  0
VERTEX
  5
2853
  8
0
 62
     0
 10
155.888403
 20
125.024772
 30
0.0
  0
SEQEND
  5
2854
  8
0
 62
     0
  0
LINE
  5
2061
  8
0
 62
     0
 10
155.434115
 20
123.398851
 30
0.0
 11
155.445714
 21
123.038572
 31
0.0
  0
LINE
  5
2062
  8
0
 62
     0
 10
155.888403
 20
125.224764
 30
0.0
 11
155.888853
 21
125.215199
 31
0.0
  0
LINE
  5
2063
  8
0
 62
     0
 10
155.038727
 20
123.155179
 30
0.0
 11
155.03748
 21
123.177302
 31
0.0
  0
LINE
  5
2064
  8
0
 62
     0
 10
155.678594
 20
125.024842
 30
0.0
 11
155.686666
 21
125.024772
 31
0.0
  0
LINE
  5
2065
  8
0
 62
     0
 10
155.686666
 20
125.024772
 30
0.0
 11
155.888403
 21
125.024772
 31
0.0
  0
LINE
  5
2066
  8
0
 62
     0
 10
155.364408
 20
123.180151
 30
0.0
 11
155.03748
 21
123.177302
 31
0.0
  0
LINE
  5
2067
  8
0
 62
     0
 10
155.149625
 20
122.980008
 30
0.0
 11
155.038728
 21
122.97904
 31
0.0
  0
POLYLINE
  5
2068
  8
0
 62
     0
 66
     1
 10
0.0
 20
0.0
 30
0.0
  0
VERTEX
  5
2855
  8
0
 62
     0
 10
155.166878
 20
122.980898
 30
0.0
  0
VERTEX
  5
2856
  8
0
 62
     0
 10
155.161137
 20
122.980437
 30
0.0
  0
VERTEX
  5
2857
  8
0
 62
     0
 10
155.155384
 20
122.98014
 30
0.0
  0
VERTEX
  5
2858
  8
0
 62
     0
 10
155.149625
 20
122.980008
 30
0.0
  0
SEQEND
  5
2859
  8
0
 62
     0
  0
POLYLINE
  5
2069
  8
0
 62
     0
 66
     1
 10
0.0
 20
0.0
 30
0.0
  0
VERTEX
  5
285A
  8
0
 62
     0
 10
155.888403
 20
125.224764
 30
0.0
  0
VERTEX
  5
285B
  8
0
 62
     0
 10
155.826187
 20
125.21541
 30
0.0
  0
VERTEX
  5
285C
  8
0
 62
     0
 10
155.769954
 20
125.187189
 30
0.0
  0
VERTEX
  5
285D
  8
0
 62
     0
 10
155.725272
 20
125.142893
 30
0.0
  0
VERTEX
  5
285E
  8
0
 62
     0
 10
155.696562
 20
125.086907
 30
0.0
  0
VERTEX
  5
285F
  8
0
 62
     0
 10
155.686666
 20
125.024772
 30
0.0
  0
SEQEND
  5
2860
  8
0
 62
     0
  0
POLYLINE
  5
206A
  8
0
 62
     0
 66
     1
 10
0.0
 20
0.0
 30
0.0
  0
VERTEX
  5
2861
  8
0
 62
     0
 10
155.880347
 20
125.224835
 30
0.0
  0
VERTEX
  5
2862
  8
0
 62
     0
 10
155.803275
 20
125.210116
 30
0.0
  0
VERTEX
  5
2863
  8
0
 62
     0
 10
155.737795
 20
125.166881
 30
0.0
  0
VERTEX
  5
2864
  8
0
 62
     0
 10
155.693987
 20
125.101783
 30
0.0
  0
VERTEX
  5
2865
  8
0
 62
     0
 10
155.678594
 20
125.024842
 30
0.0
  0
SEQEND
  5
2866
  8
0
 62
     0
  0
POLYLINE
  5
206B
  8
0
 62
     0
 66
     1
 10
0.0
 20
0.0
 30
0.0
  0
VERTEX
  5
2867
  8
0
 62
     0
 10
155.166878
 20
122.980898
 30
0.0
  0
VERTEX
  5
2868
  8
0
 62
     0
 10
155.237099
 20
123.000275
 30
0.0
  0
VERTEX
  5
2869
  8
0
 62
     0
 10
155.291067
 20
123.036029
 30
0.0
  0
VERTEX
  5
286A
  8
0
 62
     0
 10
155.329626
 20
123.08079
 30
0.0
  0
VERTEX
  5
286B
  8
0
 62
     0
 10
155.353803
 20
123.130085
 30
0.0
  0
VERTEX
  5
286C
  8
0
 62
     0
 10
155.364408
 20
123.180151
 30
0.0
  0
SEQEND
  5
286D
  8
0
 62
     0
  0
LINE
  5
206C
  8
0
 62
     0
 10
151.834255
 20
126.976595
 30
0.0
 11
155.318586
 21
126.976595
 31
0.0
  0
LINE
  5
206D
  8
0
 62
     0
 10
151.829892
 20
126.476595
 30
0.0
 11
155.818594
 21
126.476595
 31
0.0
  0
POLYLINE
  5
206E
  8
0
 62
     0
 66
     1
 10
0.0
 20
0.0
 30
0.0
  0
VERTEX
  5
286E
  8
0
 62
     0
 10
152.989766
 20
126.976595
 30
0.0
  0
VERTEX
  5
286F
  8
0
 62
     0
 10
152.995158
 20
126.952124
 30
0.0
  0
VERTEX
  5
2870
  8
0
 62
     0
 10
153.000022
 20
126.881106
 30
0.0
  0
VERTEX
  5
2871
  8
0
 62
     0
 10
153.003883
 20
126.77049
 30
0.0
  0
VERTEX
  5
2872
  8
0
 62
     0
 10
153.006362
 20
126.631105
 30
0.0
  0
VERTEX
  5
2873
  8
0
 62
     0
 10
153.007216
 20
126.476595
 30
0.0
  0
SEQEND
  5
2874
  8
0
 62
     0
  0
LINE
  5
206F
  8
0
 62
     0
 10
151.818594
 20
126.976595
 30
0.0
 11
151.818594
 21
126.476595
 31
0.0
  0
LINE
  5
2070
  8
0
 62
     0
 10
151.83422
 20
126.97257
 30
0.0
 11
151.818594
 21
126.97257
 31
0.0
  0
POLYLINE
  5
2071
  8
0
 62
     0
 66
     1
 10
0.0
 20
0.0
 30
0.0
  0
VERTEX
  5
2875
  8
0
 62
     0
 10
153.464886
 20
126.976595
 30
0.0
  0
VERTEX
  5
2876
  8
0
 62
     0
 10
153.617099
 20
126.952124
 30
0.0
  0
VERTEX
  5
2877
  8
0
 62
     0
 10
153.754412
 20
126.881104
 30
0.0
  0
VERTEX
  5
2878
  8
0
 62
     0
 10
153.863384
 20
126.770488
 30
0.0
  0
VERTEX
  5
2879
  8
0
 62
     0
 10
153.933349
 20
126.631104
 30
0.0
  0
VERTEX
  5
287A
  8
0
 62
     0
 10
153.957457
 20
126.476595
 30
0.0
  0
SEQEND
  5
287B
  8
0
 62
     0
  0
ARC
  5
2072
  8
0
 62
     0
 10
155.318594
 20
126.476595
 30
0.0
 40
0.5
 50
0.0
 51
90.0
  0
LINE
  5
2073
  8
0
 62
     0
 10
159.219904
 20
112.926595
 30
0.0
 11
159.219904
 21
124.997439
 31
0.0
  0
LINE
  5
2074
  8
0
 62
     0
 10
159.188617
 20
113.705491
 30
0.0
 11
159.188617
 21
124.9977
 31
0.0
  0
LINE
  5
2075
  8
0
 62
     0
 10
158.990542
 20
113.705491
 30
0.0
 11
158.990542
 21
124.9977
 31
0.0
  0
LINE
  5
2076
  8
0
 62
     0
 10
156.472161
 20
113.683513
 30
0.0
 11
156.472161
 21
115.976595
 31
0.0
  0
LINE
  5
2077
  8
0
 62
     0
 10
156.270423
 20
113.683513
 30
0.0
 11
156.270423
 21
115.976595
 31
0.0
  0
LINE
  5
2078
  8
0
 62
     0
 10
156.262396
 20
112.926595
 30
0.0
 11
156.262396
 21
113.976595
 31
0.0
  0
POLYLINE
  5
2079
  8
0
 62
     0
 66
     1
 10
0.0
 20
0.0
 30
0.0
  0
VERTEX
  5
287C
  8
0
 62
     0
 10
159.009291
 20
113.467421
 30
0.0
  0
VERTEX
  5
287D
  8
0
 62
     0
 10
159.011116
 20
113.423269
 30
0.0
  0
VERTEX
  5
287E
  8
0
 62
     0
 10
159.011933
 20
113.367561
 30
0.0
  0
VERTEX
  5
287F
  8
0
 62
     0
 10
159.011821
 20
113.305676
 30
0.0
  0
SEQEND
  5
2880
  8
0
 62
     0
  0
LINE
  5
207A
  8
0
 62
     0
 10
158.990542
 20
113.705491
 30
0.0
 11
159.188617
 21
113.705491
 31
0.0
  0
LINE
  5
207B
  8
0
 62
     0
 10
156.262396
 20
112.926595
 30
0.0
 11
159.219904
 21
112.926595
 31
0.0
  0
LINE
  5
207C
  8
0
 62
     0
 10
156.46393
 20
112.726595
 30
0.0
 11
159.019904
 21
112.726595
 31
0.0
  0
LINE
  5
207D
  8
0
 62
     0
 10
159.011821
 20
113.305676
 30
0.0
 11
156.46393
 21
113.283441
 31
0.0
  0
POLYLINE
  5
207E
  8
0
 62
     0
 66
     1
 10
0.0
 20
0.0
 30
0.0
  0
VERTEX
  5
2881
  8
0
 62
     0
 10
159.002643
 20
113.505604
 30
0.0
  0
VERTEX
  5
2882
  8
0
 62
     0
 10
159.063994
 20
113.515821
 30
0.0
  0
VERTEX
  5
2883
  8
0
 62
     0
 10
159.119236
 20
113.54441
 30
0.0
  0
VERTEX
  5
2884
  8
0
 62
     0
 10
159.163022
 20
113.588604
 30
0.0
  0
VERTEX
  5
2885
  8
0
 62
     0
 10
159.191113
 20
113.644125
 30
0.0
  0
VERTEX
  5
2886
  8
0
 62
     0
 10
159.200788
 20
113.705596
 30
0.0
  0
SEQEND
  5
2887
  8
0
 62
     0
  0
POLYLINE
  5
207F
  8
0
 62
     0
 66
     1
 10
0.0
 20
0.0
 30
0.0
  0
VERTEX
  5
2888
  8
0
 62
     0
 10
158.990542
 20
113.505498
 30
0.0
  0
VERTEX
  5
2889
  8
0
 62
     0
 10
159.051871
 20
113.515715
 30
0.0
  0
VERTEX
  5
288A
  8
0
 62
     0
 10
159.107095
 20
113.544304
 30
0.0
  0
VERTEX
  5
288B
  8
0
 62
     0
 10
159.150865
 20
113.588499
 30
0.0
  0
VERTEX
  5
288C
  8
0
 62
     0
 10
159.178946
 20
113.644019
 30
0.0
  0
VERTEX
  5
288D
  8
0
 62
     0
 10
159.188617
 20
113.705491
 30
0.0
  0
SEQEND
  5
288E
  8
0
 62
     0
  0
LINE
  5
2080
  8
0
 62
     0
 10
158.990542
 20
113.705491
 30
0.0
 11
156.472161
 21
113.683513
 31
0.0
  0
LINE
  5
2081
  8
0
 62
     0
 10
159.002643
 20
113.505604
 30
0.0
 11
156.472161
 21
113.483521
 31
0.0
  0
POLYLINE
  5
2082
  8
0
 62
     0
 66
     1
 10
0.0
 20
0.0
 30
0.0
  0
VERTEX
  5
288F
  8
0
 62
     0
 10
156.469167
 20
113.483495
 30
0.0
  0
VERTEX
  5
2890
  8
0
 62
     0
 10
156.468001
 20
113.473664
 30
0.0
  0
VERTEX
  5
2891
  8
0
 62
     0
 10
156.466779
 20
113.445201
 30
0.0
  0
VERTEX
  5
2892
  8
0
 62
     0
 10
156.465622
 20
113.400982
 30
0.0
  0
VERTEX
  5
2893
  8
0
 62
     0
 10
156.464641
 20
113.345286
 30
0.0
  0
VERTEX
  5
2894
  8
0
 62
     0
 10
156.46393
 20
113.283441
 30
0.0
  0
SEQEND
  5
2895
  8
0
 62
     0
  0
POLYLINE
  5
2083
  8
0
 62
     0
 66
     1
 10
0.0
 20
0.0
 30
0.0
  0
VERTEX
  5
2896
  8
0
 62
     0
 10
156.267429
 20
113.683487
 30
0.0
  0
VERTEX
  5
2897
  8
0
 62
     0
 10
156.266738
 20
113.675558
 30
0.0
  0
VERTEX
  5
2898
  8
0
 62
     0
 10
156.26599
 20
113.647927
 30
0.0
  0
VERTEX
  5
2899
  8
0
 62
     0
 10
156.265273
 20
113.5981
 30
0.0
  0
VERTEX
  5
289A
  8
0
 62
     0
 10
156.264671
 20
113.528706
 30
0.0
  0
VERTEX
  5
289B
  8
0
 62
     0
 10
156.264241
 20
113.446564
 30
0.0
  0
VERTEX
  5
289C
  8
0
 62
     0
 10
156.264005
 20
113.36152
 30
0.0
  0
VERTEX
  5
289D
  8
0
 62
     0
 10
156.263938
 20
113.283441
 30
0.0
  0
SEQEND
  5
289E
  8
0
 62
     0
  0
POLYLINE
  5
2084
  8
0
 62
     0
 66
     1
 10
0.0
 20
0.0
 30
0.0
  0
VERTEX
  5
289F
  8
0
 62
     0
 10
156.472161
 20
113.483521
 30
0.0
  0
VERTEX
  5
28A0
  8
0
 62
     0
 10
156.47261
 20
113.493086
 30
0.0
  0
VERTEX
  5
28A1
  8
0
 62
     0
 10
156.472852
 20
113.521379
 30
0.0
  0
VERTEX
  5
28A2
  8
0
 62
     0
 10
156.472854
 20
113.565613
 30
0.0
  0
VERTEX
  5
28A3
  8
0
 62
     0
 10
156.472616
 20
113.621514
 30
0.0
  0
VERTEX
  5
28A4
  8
0
 62
     0
 10
156.472161
 20
113.683513
 30
0.0
  0
SEQEND
  5
28A5
  8
0
 62
     0
  0
LINE
  5
2085
  8
0
 62
     0
 10
156.46393
 20
112.726595
 30
0.0
 11
156.46393
 21
113.283441
 31
0.0
  0
LINE
  5
2086
  8
0
 62
     0
 10
156.263938
 20
112.926595
 30
0.0
 11
156.263938
 21
113.283441
 31
0.0
  0
POLYLINE
  5
2087
  8
0
 62
     0
 66
     1
 10
0.0
 20
0.0
 30
0.0
  0
VERTEX
  5
28A6
  8
0
 62
     0
 10
156.263938
 20
112.926595
 30
0.0
  0
VERTEX
  5
28A7
  8
0
 62
     0
 10
156.273726
 20
112.864792
 30
0.0
  0
VERTEX
  5
28A8
  8
0
 62
     0
 10
156.302133
 20
112.809038
 30
0.0
  0
VERTEX
  5
28A9
  8
0
 62
     0
 10
156.346378
 20
112.764792
 30
0.0
  0
VERTEX
  5
28AA
  8
0
 62
     0
 10
156.402129
 20
112.736384
 30
0.0
  0
VERTEX
  5
28AB
  8
0
 62
     0
 10
156.46393
 20
112.726595
 30
0.0
  0
SEQEND
  5
28AC
  8
0
 62
     0
  0
POLYLINE
  5
2088
  8
0
 62
     0
 66
     1
 10
0.0
 20
0.0
 30
0.0
  0
VERTEX
  5
28AD
  8
0
 62
     0
 10
156.262396
 20
112.926595
 30
0.0
  0
VERTEX
  5
28AE
  8
0
 62
     0
 10
156.277621
 20
112.850057
 30
0.0
  0
VERTEX
  5
28AF
  8
0
 62
     0
 10
156.320978
 20
112.785172
 30
0.0
  0
VERTEX
  5
28B0
  8
0
 62
     0
 10
156.385865
 20
112.741819
 30
0.0
  0
VERTEX
  5
28B1
  8
0
 62
     0
 10
156.462403
 20
112.726595
 30
0.0
  0
SEQEND
  5
28B2
  8
0
 62
     0
  0
POLYLINE
  5
2089
  8
0
 62
     0
 66
     1
 10
0.0
 20
0.0
 30
0.0
  0
VERTEX
  5
28B3
  8
0
 62
     0
 10
156.472161
 20
113.483521
 30
0.0
  0
VERTEX
  5
28B4
  8
0
 62
     0
 10
156.409944
 20
113.492875
 30
0.0
  0
VERTEX
  5
28B5
  8
0
 62
     0
 10
156.353712
 20
113.521096
 30
0.0
  0
VERTEX
  5
28B6
  8
0
 62
     0
 10
156.309029
 20
113.565392
 30
0.0
  0
VERTEX
  5
28B7
  8
0
 62
     0
 10
156.280319
 20
113.621378
 30
0.0
  0
VERTEX
  5
28B8
  8
0
 62
     0
 10
156.270423
 20
113.683513
 30
0.0
  0
SEQEND
  5
28B9
  8
0
 62
     0
  0
POLYLINE
  5
208A
  8
0
 62
     0
 66
     1
 10
0.0
 20
0.0
 30
0.0
  0
VERTEX
  5
28BA
  8
0
 62
     0
 10
156.469167
 20
113.483495
 30
0.0
  0
VERTEX
  5
28BB
  8
0
 62
     0
 10
156.40695
 20
113.492849
 30
0.0
  0
VERTEX
  5
28BC
  8
0
 62
     0
 10
156.350718
 20
113.52107
 30
0.0
  0
VERTEX
  5
28BD
  8
0
 62
     0
 10
156.306036
 20
113.565366
 30
0.0
  0
VERTEX
  5
28BE
  8
0
 62
     0
 10
156.277325
 20
113.621352
 30
0.0
  0
VERTEX
  5
28BF
  8
0
 62
     0
 10
156.267429
 20
113.683487
 30
0.0
  0
SEQEND
  5
28C0
  8
0
 62
     0
  0
LINE
  5
208B
  8
0
 62
     0
 10
156.270423
 20
113.683513
 30
0.0
 11
156.472161
 21
113.683513
 31
0.0
  0
LINE
  5
208C
  8
0
 62
     0
 10
156.263938
 20
113.283441
 30
0.0
 11
156.46393
 21
113.283441
 31
0.0
  0
LINE
  5
208D
  8
0
 62
     0
 10
156.270423
 20
113.683513
 30
0.0
 11
156.267429
 21
113.683487
 31
0.0
  0
LINE
  5
208E
  8
0
 62
     0
 10
158.990542
 20
113.505498
 30
0.0
 11
158.990992
 21
113.515087
 31
0.0
  0
POLYLINE
  5
208F
  8
0
 62
     0
 66
     1
 10
0.0
 20
0.0
 30
0.0
  0
VERTEX
  5
28C1
  8
0
 62
     0
 10
158.990992
 20
113.515087
 30
0.0
  0
VERTEX
  5
28C2
  8
0
 62
     0
 10
158.991233
 20
113.543391
 30
0.0
  0
VERTEX
  5
28C3
  8
0
 62
     0
 10
158.991235
 20
113.587624
 30
0.0
  0
VERTEX
  5
28C4
  8
0
 62
     0
 10
158.990996
 20
113.643507
 30
0.0
  0
VERTEX
  5
28C5
  8
0
 62
     0
 10
158.990542
 20
113.705491
 30
0.0
  0
SEQEND
  5
28C6
  8
0
 62
     0
  0
LINE
  5
2090
  8
0
 62
     0
 10
159.00643
 20
113.495813
 30
0.0
 11
159.009291
 21
113.467421
 31
0.0
  0
LINE
  5
2091
  8
0
 62
     0
 10
159.002643
 20
113.505604
 30
0.0
 11
159.00643
 21
113.495813
 31
0.0
  0
ARC
  5
2092
  8
0
 62
     0
 10
159.019904
 20
112.926595
 30
0.0
 40
0.2
 50
270.0
 51
0.0
  0
POLYLINE
  5
2093
  8
0
 62
     0
 66
     1
 10
0.0
 20
0.0
 30
0.0
  0
VERTEX
  5
28C7
  8
0
 62
     0
 10
159.211775
 20
112.926595
 30
0.0
  0
VERTEX
  5
28C8
  8
0
 62
     0
 10
159.202202
 20
112.865454
 30
0.0
  0
VERTEX
  5
28C9
  8
0
 62
     0
 10
159.17391
 20
112.809483
 30
0.0
  0
VERTEX
  5
28CA
  8
0
 62
     0
 10
159.129684
 20
112.765034
 30
0.0
  0
VERTEX
  5
28CB
  8
0
 62
     0
 10
159.073803
 20
112.736447
 30
0.0
  0
SEQEND
  5
28CC
  8
0
 62
     0
  0
LINE
  5
2094
  8
0
 62
     0
 10
159.211775
 20
113.305676
 30
0.0
 11
159.211775
 21
112.926595
 31
0.0
  0
LINE
  5
2095
  8
0
 62
     0
 10
159.011821
 20
112.726595
 30
0.0
 11
159.011821
 21
113.305676
 31
0.0
  0
POLYLINE
  5
2096
  8
0
 62
     0
 66
     1
 10
0.0
 20
0.0
 30
0.0
  0
VERTEX
  5
28CD
  8
0
 62
     0
 10
159.211775
 20
113.305676
 30
0.0
  0
VERTEX
  5
28CE
  8
0
 62
     0
 10
159.211621
 20
113.380635
 30
0.0
  0
VERTEX
  5
28CF
  8
0
 62
     0
 10
159.211066
 20
113.462445
 30
0.0
  0
VERTEX
  5
28D0
  8
0
 62
     0
 10
159.209993
 20
113.543115
 30
0.0
  0
VERTEX
  5
28D1
  8
0
 62
     0
 10
159.208328
 20
113.613797
 30
0.0
  0
VERTEX
  5
28D2
  8
0
 62
     0
 10
159.206088
 20
113.66663
 30
0.0
  0
VERTEX
  5
28D3
  8
0
 62
     0
 10
159.203464
 20
113.696806
 30
0.0
  0
VERTEX
  5
28D4
  8
0
 62
     0
 10
159.200788
 20
113.705596
 30
0.0
  0
SEQEND
  5
28D5
  8
0
 62
     0
  0
LINE
  5
2097
  8
0
 62
     0
 10
159.211775
 20
113.305676
 30
0.0
 11
159.011821
 21
113.305676
 31
0.0
  0
LINE
  5
2098
  8
0
 62
     0
 10
159.200788
 20
113.705596
 30
0.0
 11
159.188617
 21
113.705491
 31
0.0
  0
LINE
  5
2099
  8
0
 62
     0
 10
159.073803
 20
112.736447
 30
0.0
 11
159.011821
 21
112.726595
 31
0.0
  0
POLYLINE
  5
209A
  8
0
 62
     0
 66
     1
 10
0.0
 20
0.0
 30
0.0
  0
VERTEX
  5
28D6
  8
0
 62
     0
 10
156.264032
 20
115.973323
 30
0.0
  0
VERTEX
  5
28D7
  8
0
 62
     0
 10
156.265668
 20
115.974959
 30
0.0
  0
VERTEX
  5
28D8
  8
0
 62
     0
 10
156.264854
 20
115.976595
 30
0.0
  0
SEQEND
  5
28D9
  8
0
 62
     0
  0
LINE
  5
209B
  8
0
 62
     0
 10
156.265668
 20
113.979868
 30
0.0
 11
156.265668
 21
115.973323
 31
0.0
  0
POLYLINE
  5
209C
  8
0
 62
     0
 66
     1
 10
0.0
 20
0.0
 30
0.0
  0
VERTEX
  5
28DA
  8
0
 62
     0
 10
156.264854
 20
115.976595
 30
0.0
  0
VERTEX
  5
28DB
  8
0
 62
     0
 10
156.262396
 20
115.976691
 30
0.0
  0
VERTEX
  5
28DC
  8
0
 62
     0
 10
156.262396
 20
115.975639
 30
0.0
  0
VERTEX
  5
28DD
  8
0
 62
     0
 10
156.262395
 20
115.974247
 30
0.0
  0
VERTEX
  5
28DE
  8
0
 62
     0
 10
156.264032
 20
115.973323
 30
0.0
  0
SEQEND
  5
28DF
  8
0
 62
     0
  0
LINE
  5
209D
  8
0
 62
     0
 10
156.265675
 20
115.976595
 30
0.0
 11
156.472161
 21
115.976595
 31
0.0
  0
POLYLINE
  5
209E
  8
0
 62
     0
 66
     1
 10
0.0
 20
0.0
 30
0.0
  0
VERTEX
  5
28E0
  8
0
 62
     0
 10
158.990542
 20
125.197692
 30
0.0
  0
VERTEX
  5
28E1
  8
0
 62
     0
 10
159.052156
 20
125.18738
 30
0.0
  0
VERTEX
  5
28E2
  8
0
 62
     0
 10
159.107528
 20
125.158568
 30
0.0
  0
VERTEX
  5
28E3
  8
0
 62
     0
 10
159.151467
 20
125.11385
 30
0.0
  0
VERTEX
  5
28E4
  8
0
 62
     0
 10
159.179244
 20
125.058244
 30
0.0
  0
VERTEX
  5
28E5
  8
0
 62
     0
 10
159.188617
 20
124.9977
 30
0.0
  0
SEQEND
  5
28E6
  8
0
 62
     0
  0
LINE
  5
209F
  8
0
 62
     0
 10
158.990542
 20
124.9977
 30
0.0
 11
159.188617
 21
124.9977
 31
0.0
  0
POLYLINE
  5
20A0
  8
0
 62
     0
 66
     1
 10
0.0
 20
0.0
 30
0.0
  0
VERTEX
  5
28E7
  8
0
 62
     0
 10
158.990542
 20
125.197692
 30
0.0
  0
VERTEX
  5
28E8
  8
0
 62
     0
 10
158.990996
 20
125.187842
 30
0.0
  0
VERTEX
  5
28E9
  8
0
 62
     0
 10
158.991235
 20
125.159268
 30
0.0
  0
VERTEX
  5
28EA
  8
0
 62
     0
 10
158.991233
 20
125.114834
 30
0.0
  0
VERTEX
  5
28EB
  8
0
 62
     0
 10
158.990992
 20
125.058883
 30
0.0
  0
VERTEX
  5
28EC
  8
0
 62
     0
 10
158.990542
 20
124.9977
 30
0.0
  0
SEQEND
  5
28ED
  8
0
 62
     0
  0
ARC
  5
20A1
  8
0
 62
     0
 10
159.019904
 20
124.997429
 30
0.0
 40
0.2
 50
0.0
 51
89.5
  0
LINE
  5
20A2
  8
0
 62
     0
 10
159.188617
 20
124.9977
 30
0.0
 11
159.219904
 21
124.997429
 31
0.0
  0
ENDSEC
  0
EOF
