  0
SECTION
  2
HEADER
  9
$ACADVER
  1
AC1014
  9
$ACADMAINTVER
 70
     0
  9
$DWGCODEPAGE
  3
ANSI_1252
  9
$INSBASE
 10
-567.73544
 20
15.715284
 30
0.0
  9
$EXTMIN
 10
-14.6391
 20
21.60925
 30
0.0
  9
$EXTMAX
 10
288.181685
 20
367.353705
 30
0.0
  9
$LIMMIN
 10
0.0
 20
0.0
  9
$LIMMAX
 10
210.0
 20
297.0
  9
$ORTHOMODE
 70
     0
  9
$REGENMODE
 70
     1
  9
$FILLMODE
 70
     1
  9
$QTEXTMODE
 70
     0
  9
$MIRRTEXT
 70
     0
  9
$DRAGMODE
 70
     1
  9
$LTSCALE
 40
20.0
  9
$OSMODE
 70
     0
  9
$ATTMODE
 70
     1
  9
$TEXTSIZE
 40
2.5
  9
$TRACEWID
 40
0.05
  9
$TEXTSTYLE
  7
ROMANS
  9
$CLAYER
  8
COTATION1
  9
$CELTYPE
  6
BYLAYER
  9
$CECOLOR
 62
   256
  9
$CELTSCALE
 40
1.0
  9
$DELOBJ
 70
     1
  9
$DISPSILH
 70
     0
  9
$DIMSCALE
 40
1.0
  9
$DIMASZ
 40
3.0
  9
$DIMEXO
 40
0.0625
  9
$DIMDLI
 40
0.38
  9
$DIMRND
 40
0.01
  9
$DIMDLE
 40
0.0
  9
$DIMEXE
 40
0.18
  9
$DIMTP
 40
0.0
  9
$DIMTM
 40
0.0
  9
$DIMTXT
 40
2.5
  9
$DIMCEN
 40
0.09
  9
$DIMTSZ
 40
0.0
  9
$DIMTOL
 70
     0
  9
$DIMLIM
 70
     0
  9
$DIMTIH
 70
     0
  9
$DIMTOH
 70
     0
  9
$DIMSE1
 70
     0
  9
$DIMSE2
 70
     0
  9
$DIMTAD
 70
     1
  9
$DIMZIN
 70
    12
  9
$DIMBLK
  1

  9
$DIMASO
 70
     1
  9
$DIMSHO
 70
     1
  9
$DIMPOST
  1

  9
$DIMAPOST
  1

  9
$DIMALT
 70
     0
  9
$DIMALTD
 70
     2
  9
$DIMALTF
 40
25.4
  9
$DIMLFAC
 40
1.0
  9
$DIMTOFL
 70
     1
  9
$DIMTVP
 40
0.0
  9
$DIMTIX
 70
     0
  9
$DIMSOXD
 70
     0
  9
$DIMSAH
 70
     0
  9
$DIMBLK1
  1

  9
$DIMBLK2
  1

  9
$DIMSTYLE
  2
SC_STAND
  9
$DIMCLRD
 70
     0
  9
$DIMCLRE
 70
     0
  9
$DIMCLRT
 70
     0
  9
$DIMTFAC
 40
1.0
  9
$DIMGAP
 40
1.0
  9
$DIMJUST
 70
     0
  9
$DIMSD1
 70
     0
  9
$DIMSD2
 70
     0
  9
$DIMTOLJ
 70
     1
  9
$DIMTZIN
 70
    12
  9
$DIMALTZ
 70
    12
  9
$DIMALTTZ
 70
    12
  9
$DIMFIT
 70
     5
  9
$DIMUPT
 70
     0
  9
$DIMUNIT
 70
     2
  9
$DIMDEC
 70
     3
  9
$DIMTDEC
 70
     3
  9
$DIMALTU
 70
     2
  9
$DIMALTTD
 70
     2
  9
$DIMTXSTY
  7
ROMANS
  9
$DIMAUNIT
 70
     0
  9
$LUNITS
 70
     2
  9
$LUPREC
 70
     3
  9
$SKETCHINC
 40
0.1
  9
$FILLETRAD
 40
0.0625
  9
$AUNITS
 70
     0
  9
$AUPREC
 70
     0
  9
$MENU
  1
ACAD
  9
$ELEVATION
 40
0.0
  9
$PELEVATION
 40
0.0
  9
$THICKNESS
 40
0.0
  9
$LIMCHECK
 70
     0
  9
$BLIPMODE
 70
     1
  9
$CHAMFERA
 40
0.0
  9
$CHAMFERB
 40
0.0
  9
$CHAMFERC
 40
0.0
  9
$CHAMFERD
 40
0.0
  9
$SKPOLY
 70
     0
  9
$TDCREATE
 40
2450599.366342998
  9
$TDUPDATE
 40
2451387.883791597
  9
$TDINDWG
 40
0.0019484954
  9
$TDUSRTIMER
 40
0.0019484954
  9
$USRTIMER
 70
     1
  9
$ANGBASE
 50
0.0
  9
$ANGDIR
 70
     0
  9
$PDMODE
 70
     0
  9
$PDSIZE
 40
0.0
  9
$PLINEWID
 40
0.0
  9
$COORDS
 70
     2
  9
$SPLFRAME
 70
     0
  9
$SPLINETYPE
 70
     6
  9
$SPLINESEGS
 70
     8
  9
$ATTDIA
 70
     0
  9
$ATTREQ
 70
     1
  9
$HANDLING
 70
     1
  9
$HANDSEED
  5
285
  9
$SURFTAB1
 70
     6
  9
$SURFTAB2
 70
     6
  9
$SURFTYPE
 70
     6
  9
$SURFU
 70
     6
  9
$SURFV
 70
     6
  9
$UCSNAME
  2

  9
$UCSORG
 10
0.0
 20
0.0
 30
0.0
  9
$UCSXDIR
 10
1.0
 20
0.0
 30
0.0
  9
$UCSYDIR
 10
0.0
 20
1.0
 30
0.0
  9
$PUCSNAME
  2

  9
$PUCSORG
 10
0.0
 20
0.0
 30
0.0
  9
$PUCSXDIR
 10
1.0
 20
0.0
 30
0.0
  9
$PUCSYDIR
 10
0.0
 20
1.0
 30
0.0
  9
$USERI1
 70
     0
  9
$USERI2
 70
     0
  9
$USERI3
 70
     0
  9
$USERI4
 70
     0
  9
$USERI5
 70
     0
  9
$USERR1
 40
0.0
  9
$USERR2
 40
0.0
  9
$USERR3
 40
0.0
  9
$USERR4
 40
0.0
  9
$USERR5
 40
0.0
  9
$WORLDVIEW
 70
     1
  9
$SHADEDGE
 70
     3
  9
$SHADEDIF
 70
    70
  9
$TILEMODE
 70
     1
  9
$MAXACTVP
 70
    16
  9
$PINSBASE
 10
0.0
 20
0.0
 30
0.0
  9
$PLIMCHECK
 70
     0
  9
$PEXTMIN
 10
1.000000E+20
 20
1.000000E+20
 30
1.000000E+20
  9
$PEXTMAX
 10
-1.000000E+20
 20
-1.000000E+20
 30
-1.000000E+20
  9
$PLIMMIN
 10
0.0
 20
0.0
  9
$PLIMMAX
 10
12.0
 20
9.0
  9
$UNITMODE
 70
     0
  9
$VISRETAIN
 70
     0
  9
$PLINEGEN
 70
     0
  9
$PSLTSCALE
 70
     1
  9
$TREEDEPTH
 70
  3020
  9
$PICKSTYLE
 70
     1
  9
$CMLSTYLE
  2
STANDARD
  9
$CMLJUST
 70
     0
  9
$CMLSCALE
 40
1.0
  9
$PROXYGRAPHICS
 70
     1
  9
$MEASUREMENT
 70
     0
  0
ENDSEC
  0
SECTION
  2
CLASSES
  0
CLASS
  1
DICTIONARYVAR
  2
AcDbDictionaryVar
  3
"AutoCAD"
 90
        0
280
     0
281
     0
  0
ENDSEC
  0
SECTION
  2
TABLES
  0
TABLE
  2
VPORT
  5
226
100
AcDbSymbolTable
 70
     1
  0
VPORT
  5
280
100
AcDbSymbolTableRecord
100
AcDbViewportTableRecord
  2
*ACTIVE
 70
     0
 10
0.0
 20
0.0
 11
1.0
 21
1.0
 12
336.73637
 22
209.652245
 13
0.0
 23
0.0
 14
1.0
 24
1.0
 15
10.0
 25
10.0
 16
0.0
 26
0.0
 36
1.0
 17
0.0
 27
0.0
 37
0.0
 40
419.30449
 41
1.671053
 42
50.0
 43
0.0
 44
0.0
 50
0.0
 51
0.0
 71
     0
 72
   100
 73
     1
 74
     1
 75
     0
 76
     1
 77
     0
 78
     0
  0
ENDTAB
  0
TABLE
  2
LTYPE
  5
223
100
AcDbSymbolTable
 70
    24
  0
LTYPE
  5
22F
100
AcDbSymbolTableRecord
100
AcDbLinetypeTableRecord
  2
BYBLOCK
 70
     0
  3

 72
    65
 73
     0
 40
0.0
  0
LTYPE
  5
230
100
AcDbSymbolTableRecord
100
AcDbLinetypeTableRecord
  2
BYLAYER
 70
     0
  3

 72
    65
 73
     0
 40
0.0
  0
LTYPE
  5
231
100
AcDbSymbolTableRecord
100
AcDbLinetypeTableRecord
  2
CONTINUOUS
 70
     0
  3
Solid line
 72
    65
 73
     0
 40
0.0
  0
LTYPE
  5
246
100
AcDbSymbolTableRecord
100
AcDbLinetypeTableRecord
  2
CADRA_SOLID
 70
     0
  3
Cadra_solid
 72
    65
 73
     0
 40
0.0
  0
LTYPE
  5
247
100
AcDbSymbolTableRecord
100
AcDbLinetypeTableRecord
  2
AXES2
 70
     0
  3
___ _ ___ _ ___ _ ___ _ ___ _ ___ _ ___ _ ___ _
 72
    65
 73
     4
 40
1.125
 49
0.75
 74
     0
 49
-0.125
 74
     0
 49
0.125
 74
     0
 49
-0.125
 74
     0
  0
LTYPE
  5
248
100
AcDbSymbolTableRecord
100
AcDbLinetypeTableRecord
  2
AXES
 70
     0
  3
____ _ ____ _ ____ _ ____ _ ____ _ ____ _ ____ 
 72
    65
 73
     4
 40
2.0
 49
1.25
 74
     0
 49
-0.25
 74
     0
 49
0.25
 74
     0
 49
-0.25
 74
     0
  0
LTYPE
  5
249
100
AcDbSymbolTableRecord
100
AcDbLinetypeTableRecord
  2
AXESX2
 70
     0
  3
________  __  ________  __  ________  __  _____
 72
    65
 73
     4
 40
4.0
 49
2.5
 74
     0
 49
-0.5
 74
     0
 49
0.5
 74
     0
 49
-0.5
 74
     0
  0
LTYPE
  5
24A
100
AcDbSymbolTableRecord
100
AcDbLinetypeTableRecord
  2
TIRETPT
 70
     0
  3
__ . __ . __ . __ . __ . __ . __ . __ . __ . __
 72
    65
 73
     4
 40
1.0
 49
0.5
 74
     0
 49
-0.25
 74
     0
 49
0.0
 74
     0
 49
-0.25
 74
     0
  0
LTYPE
  5
24B
100
AcDbSymbolTableRecord
100
AcDbLinetypeTableRecord
  2
TIRETPT2
 70
     0
  3
_._._._._._._._._._._._._._._._._._._._._._._._
 72
    65
 73
     4
 40
0.5
 49
0.25
 74
     0
 49
-0.125
 74
     0
 49
0.0
 74
     0
 49
-0.125
 74
     0
  0
LTYPE
  5
24C
100
AcDbSymbolTableRecord
100
AcDbLinetypeTableRecord
  2
TIRETPTX2
 70
     0
  3
____  .  ____  .  ____  .  ____  .  ____  .  __
 72
    65
 73
     4
 40
2.0
 49
1.0
 74
     0
 49
-0.5
 74
     0
 49
0.0
 74
     0
 49
-0.5
 74
     0
  0
LTYPE
  5
24D
100
AcDbSymbolTableRecord
100
AcDbLinetypeTableRecord
  2
DISCONTINU
 70
     0
  3
__ __ __ __ __ __ __ __ __ __ __ __ __ __ __ __
 72
    65
 73
     2
 40
0.75
 49
0.5
 74
     0
 49
-0.25
 74
     0
  0
LTYPE
  5
24E
100
AcDbSymbolTableRecord
100
AcDbLinetypeTableRecord
  2
DISCONTINU2
 70
     0
  3
_ _ _ _ _ _ _ _ _ _ _ _ _ _ _ _ _ _ _ _ _ _ _ _
 72
    65
 73
     2
 40
0.375
 49
0.25
 74
     0
 49
-0.125
 74
     0
  0
LTYPE
  5
24F
100
AcDbSymbolTableRecord
100
AcDbLinetypeTableRecord
  2
DISCONTINUX2
 70
     0
  3
____  ____  ____  ____  ____  ____  ____  ____ 
 72
    65
 73
     2
 40
1.5
 49
1.0
 74
     0
 49
-0.5
 74
     0
  0
LTYPE
  5
250
100
AcDbSymbolTableRecord
100
AcDbLinetypeTableRecord
  2
DIVISE
 70
     0
  3
____ . . ____ . . ____ . . ____ . . ____ . . __
 72
    65
 73
     6
 40
1.25
 49
0.5
 74
     0
 49
-0.25
 74
     0
 49
0.0
 74
     0
 49
-0.25
 74
     0
 49
0.0
 74
     0
 49
-0.25
 74
     0
  0
LTYPE
  5
251
100
AcDbSymbolTableRecord
100
AcDbLinetypeTableRecord
  2
DIVISE2
 70
     0
  3
__..__..__..__..__..__..__..__..__..__..__..__.
 72
    65
 73
     6
 40
0.625
 49
0.25
 74
     0
 49
-0.125
 74
     0
 49
0.0
 74
     0
 49
-0.125
 74
     0
 49
0.0
 74
     0
 49
-0.125
 74
     0
  0
LTYPE
  5
252
100
AcDbSymbolTableRecord
100
AcDbLinetypeTableRecord
  2
DIVISEX2
 70
     0
  3
________  .  .  ________  .  .  ________  .  . 
 72
    65
 73
     6
 40
2.5
 49
1.0
 74
     0
 49
-0.5
 74
     0
 49
0.0
 74
     0
 49
-0.5
 74
     0
 49
0.0
 74
     0
 49
-0.5
 74
     0
  0
LTYPE
  5
253
100
AcDbSymbolTableRecord
100
AcDbLinetypeTableRecord
  2
POINTILLE
 70
     0
  3
. . . . . . . . . . . . . . . . . . . . . . . .
 72
    65
 73
     2
 40
0.25
 49
0.0
 74
     0
 49
-0.25
 74
     0
  0
LTYPE
  5
254
100
AcDbSymbolTableRecord
100
AcDbLinetypeTableRecord
  2
POINTILLE2
 70
     0
  3
...............................................
 72
    65
 73
     2
 40
0.125
 49
0.0
 74
     0
 49
-0.125
 74
     0
  0
LTYPE
  5
255
100
AcDbSymbolTableRecord
100
AcDbLinetypeTableRecord
  2
POINTILLEX2
 70
     0
  3
.  .  .  .  .  .  .  .  .  .  .  .  .  .  .  . 
 72
    65
 73
     2
 40
0.5
 49
0.0
 74
     0
 49
-0.5
 74
     0
  0
LTYPE
  5
256
100
AcDbSymbolTableRecord
100
AcDbLinetypeTableRecord
  2
CACHE
 70
     0
  3
__ __ __ __ __ __ __ __ __ __ __ __ __ __ __ __
 72
    65
 73
     2
 40
0.375
 49
0.25
 74
     0
 49
-0.125
 74
     0
  0
LTYPE
  5
257
100
AcDbSymbolTableRecord
100
AcDbLinetypeTableRecord
  2
CACHE2
 70
     0
  3
_ _ _ _ _ _ _ _ _ _ _ _ _ _ _ _ _ _ _ _ _ _ _ _
 72
    65
 73
     2
 40
0.1875
 49
0.125
 74
     0
 49
-0.0625
 74
     0
  0
LTYPE
  5
258
100
AcDbSymbolTableRecord
100
AcDbLinetypeTableRecord
  2
CACHEX2
 70
     0
  3
____ ____ ____ ____ ____ ____ ____ ____ ____ __
 72
    65
 73
     2
 40
0.75
 49
0.5
 74
     0
 49
-0.25
 74
     0
  0
LTYPE
  5
259
100
AcDbSymbolTableRecord
100
AcDbLinetypeTableRecord
  2
FANTOME
 70
     0
  3
______  __  __  ______  __  __  ______  __  __ 
 72
    65
 73
     6
 40
2.5
 49
1.25
 74
     0
 49
-0.25
 74
     0
 49
0.25
 74
     0
 49
-0.25
 74
     0
 49
0.25
 74
     0
 49
-0.25
 74
     0
  0
LTYPE
  5
25A
100
AcDbSymbolTableRecord
100
AcDbLinetypeTableRecord
  2
FANTOME2
 70
     0
  3
___ _ _ ___ _ _ ___ _ _ ___ _ _ ___ _ _ ___ _ _
 72
    65
 73
     6
 40
1.25
 49
0.625
 74
     0
 49
-0.125
 74
     0
 49
0.125
 74
     0
 49
-0.125
 74
     0
 49
0.125
 74
     0
 49
-0.125
 74
     0
  0
LTYPE
  5
25B
100
AcDbSymbolTableRecord
100
AcDbLinetypeTableRecord
  2
FANTOMEX2
 70
     0
  3
____________    ____    ____    ____________   
 72
    65
 73
     6
 40
5.0
 49
2.5
 74
     0
 49
-0.5
 74
     0
 49
0.5
 74
     0
 49
-0.5
 74
     0
 49
0.5
 74
     0
 49
-0.5
 74
     0
  0
LTYPE
  5
25C
100
AcDbSymbolTableRecord
100
AcDbLinetypeTableRecord
  2
0
 70
     0
  3
MEDUSA PEN 0
 72
    65
 73
     0
 40
0.0
  0
ENDTAB
  0
TABLE
  2
LAYER
  5
220
100
AcDbSymbolTable
 70
    21
  0
LAYER
  5
22C
100
AcDbSymbolTableRecord
100
AcDbLayerTableRecord
  2
0
 70
     0
 62
   146
  6
CADRA_SOLID
  0
LAYER
  5
263
100
AcDbSymbolTableRecord
100
AcDbLayerTableRecord
  2
AXE
 70
     0
 62
    80
  6
AXES2
  0
LAYER
  5
264
100
AcDbSymbolTableRecord
100
AcDbLayerTableRecord
  2
ALPHA
 70
     0
 62
   255
  6
CONTINUOUS
  0
LAYER
  5
265
100
AcDbSymbolTableRecord
100
AcDbLayerTableRecord
  2
CONSTRUCTION
 70
     0
 62
     6
  6
CONTINUOUS
  0
LAYER
  5
266
100
AcDbSymbolTableRecord
100
AcDbLayerTableRecord
  2
COTATION1
 70
     0
 62
     2
  6
CONTINUOUS
  0
LAYER
  5
267
100
AcDbSymbolTableRecord
100
AcDbLayerTableRecord
  2
HACHURES
 70
     0
 62
     9
  6
CONTINUOUS
  0
LAYER
  5
268
100
AcDbSymbolTableRecord
100
AcDbLayerTableRecord
  2
FMULT
 70
     0
 62
     6
  6
CONTINUOUS
  0
LAYER
  5
269
100
AcDbSymbolTableRecord
100
AcDbLayerTableRecord
  2
TEXTE
 70
     0
 62
   131
  6
CONTINUOUS
  0
LAYER
  5
26A
100
AcDbSymbolTableRecord
100
AcDbLayerTableRecord
  2
FDP_CARTOUCHE
 70
     0
 62
     4
  6
CONTINUOUS
  0
LAYER
  5
26B
100
AcDbSymbolTableRecord
100
AcDbLayerTableRecord
  2
FDP_TEXTES
 70
     0
 62
     5
  6
CONTINUOUS
  0
LAYER
  5
26C
100
AcDbSymbolTableRecord
100
AcDbLayerTableRecord
  2
FDP_LOGO_MG
 70
     0
 62
    30
  6
CONTINUOUS
  0
LAYER
  5
26D
100
AcDbSymbolTableRecord
100
AcDbLayerTableRecord
  2
FDP_LOGO_SCH
 70
     0
 62
     3
  6
CONTINUOUS
  0
LAYER
  5
26E
100
AcDbSymbolTableRecord
100
AcDbLayerTableRecord
  2
FDP_FDP
 70
     0
 62
     5
  6
CONTINUOUS
  0
LAYER
  5
26F
100
AcDbSymbolTableRecord
100
AcDbLayerTableRecord
  2
COTATION2
 70
     0
 62
     2
  6
CONTINUOUS
  0
LAYER
  5
270
100
AcDbSymbolTableRecord
100
AcDbLayerTableRecord
  2
COTATION3
 70
     0
 62
     2
  6
CONTINUOUS
  0
LAYER
  5
271
100
AcDbSymbolTableRecord
100
AcDbLayerTableRecord
  2
COTATION4
 70
     0
 62
     2
  6
CONTINUOUS
  0
LAYER
  5
272
100
AcDbSymbolTableRecord
100
AcDbLayerTableRecord
  2
ASHADE
 70
     0
 62
     7
  6
CONTINUOUS
  0
LAYER
  5
273
100
AcDbSymbolTableRecord
100
AcDbLayerTableRecord
  2
POINTILLE_COURT
 70
     0
 62
    40
  6
CACHE2
  0
LAYER
  5
274
100
AcDbSymbolTableRecord
100
AcDbLayerTableRecord
  2
POINTILLE_MOYEN
 70
     0
 62
   140
  6
CACHE
  0
LAYER
  5
275
100
AcDbSymbolTableRecord
100
AcDbLayerTableRecord
  2
POINTILLE_LONG
 70
     0
 62
   240
  6
CACHEX2
  0
LAYER
  5
276
100
AcDbSymbolTableRecord
100
AcDbLayerTableRecord
  2
DEFPOINTS
 70
     0
 62
     7
  6
CONTINUOUS
  0
ENDTAB
  0
TABLE
  2
STYLE
  5
221
100
AcDbSymbolTable
 70
     4
  0
STYLE
  5
22D
100
AcDbSymbolTableRecord
100
AcDbTextStyleTableRecord
  2
STANDARD
 70
     0
 40
0.0
 41
1.0
 50
0.0
 71
     0
 42
5.0
  3
txt
  4

  0
STYLE
  5
243
100
AcDbSymbolTableRecord
100
AcDbTextStyleTableRecord
  2
ROMANS
 70
     0
 40
0.0
 41
1.0
 50
0.0
 71
     0
 42
2.9
  3
romans.shx
  4

  0
STYLE
  5
244
100
AcDbSymbolTableRecord
100
AcDbTextStyleTableRecord
  2
INFOCAR
 70
     0
 40
0.0
 41
1.34
 50
0.0
 71
     0
 42
2.0
  3
ROMANS.SHX
  4

  0
STYLE
  5
245
100
AcDbSymbolTableRecord
100
AcDbTextStyleTableRecord
  2
CARTOUCHE
 70
     0
 40
0.0
 41
1.0
 50
0.0
 71
     0
 42
0.2
  3
ROMANS.SHX
  4

  0
ENDTAB
  0
TABLE
  2
VIEW
  5
224
100
AcDbSymbolTable
 70
     0
  0
ENDTAB
  0
TABLE
  2
UCS
  5
225
100
AcDbSymbolTable
 70
     0
  0
ENDTAB
  0
TABLE
  2
APPID
  5
227
100
AcDbSymbolTable
 70
     3
  0
APPID
  5
22E
100
AcDbSymbolTableRecord
100
AcDbRegAppTableRecord
  2
ACAD
 70
     0
  0
APPID
  5
25F
100
AcDbSymbolTableRecord
100
AcDbRegAppTableRecord
  2
AVE_RENDER
 70
     0
  0
APPID
  5
260
100
AcDbSymbolTableRecord
100
AcDbRegAppTableRecord
  2
AVE_MATERIAL
 70
     0
  0
ENDTAB
  0
TABLE
  2
DIMSTYLE
  5
228
100
AcDbSymbolTable
 70
     2
  0
DIMSTYLE
105
261
100
AcDbSymbolTableRecord
100
AcDbDimStyleTableRecord
  2
STANDARD
 70
     0
  3

  4

  5

  6

  7

 40
1.0
 41
0.18
 42
0.0625
 43
0.38
 44
0.18
 45
0.0
 46
0.0
 47
0.0
 48
0.0
140
0.18
141
0.09
142
0.0
143
25.4
144
1.0
145
0.0
146
1.0
147
0.09
 71
     0
 72
     0
 73
     1
 74
     1
 75
     0
 76
     0
 77
     0
 78
     0
170
     0
171
     2
172
     0
173
     0
174
     0
175
     0
176
     0
177
     0
178
     0
270
     2
271
     3
272
     3
273
     2
274
     2
340
243
275
     0
280
     0
281
     0
282
     0
283
     1
284
    12
285
    12
286
    12
287
     5
288
     0
  0
DIMSTYLE
105
262
102
{ACAD_REACTORS
330
1DF
330
1EC
330
1F9
102
}
100
AcDbSymbolTableRecord
100
AcDbDimStyleTableRecord
  2
SC_STAND
 70
     0
  3

  4

  5

  6

  7

 40
1.0
 41
3.0
 42
0.0625
 43
0.38
 44
0.18
 45
0.01
 46
0.0
 47
0.0
 48
0.0
140
2.5
141
0.09
142
0.0
143
25.4
144
1.0
145
0.0
146
1.0
147
1.0
 71
     0
 72
     0
 73
     0
 74
     0
 75
     0
 76
     0
 77
     1
 78
    12
170
     0
171
     2
172
     1
173
     0
174
     0
175
     0
176
     0
177
     0
178
     0
270
     2
271
     3
272
     3
273
     2
274
     2
340
243
275
     0
280
     0
281
     0
282
     0
283
     1
284
    12
285
    12
286
    12
287
     5
288
     0
  0
ENDTAB
  0
TABLE
  2
BLOCK_RECORD
  5
21F
100
AcDbSymbolTable
 70
     9
  0
BLOCK_RECORD
  5
235
100
AcDbSymbolTableRecord
100
AcDbBlockTableRecord
  2
*MODEL_SPACE
  0
BLOCK_RECORD
  5
232
100
AcDbSymbolTableRecord
100
AcDbBlockTableRecord
  2
*PAPER_SPACE
  0
BLOCK_RECORD
  5
23A
100
AcDbSymbolTableRecord
100
AcDbBlockTableRecord
  2
AVE_RENDER
  0
BLOCK_RECORD
  5
23B
100
AcDbSymbolTableRecord
100
AcDbBlockTableRecord
  2
AVE_GLOBAL
  0
BLOCK_RECORD
  5
23C
100
AcDbSymbolTableRecord
100
AcDbBlockTableRecord
  2
SCH_ISO
  0
BLOCK_RECORD
  5
240
100
AcDbSymbolTableRecord
100
AcDbBlockTableRecord
  2
*D6
  0
BLOCK_RECORD
  5
241
100
AcDbSymbolTableRecord
100
AcDbBlockTableRecord
  2
*D7
  0
BLOCK_RECORD
  5
242
100
AcDbSymbolTableRecord
100
AcDbBlockTableRecord
  2
*D8
  0
ENDTAB
  0
ENDSEC
  0
SECTION
  2
BLOCKS
  0
BLOCK
  5
279
100
AcDbEntity
  8
0
100
AcDbBlockBegin
  2
*MODEL_SPACE
 70
     0
 10
0.0
 20
0.0
 30
0.0
  3
*MODEL_SPACE
  1

  0
ENDBLK
  5
27A
100
AcDbEntity
  8
0
100
AcDbBlockEnd
  0
BLOCK
  5
277
100
AcDbEntity
 67
     1
  8
0
100
AcDbBlockBegin
  2
*PAPER_SPACE
 70
     0
 10
0.0
 20
0.0
 30
0.0
  3
*PAPER_SPACE
  1

  0
ENDBLK
  5
278
100
AcDbEntity
 67
     1
  8
0
100
AcDbBlockEnd
  0
BLOCK
  5
193
100
AcDbEntity
  8
0
100
AcDbBlockBegin
  2
AVE_RENDER
 70
     0
 10
0.0
 20
0.0
 30
0.0
  3
AVE_RENDER
  1
AVE_RENDER
  0
ENDBLK
  5
194
100
AcDbEntity
  8
0
100
AcDbBlockEnd
  0
BLOCK
  5
196
100
AcDbEntity
  8
0
100
AcDbBlockBegin
  2
AVE_GLOBAL
 70
     0
 10
0.0
 20
0.0
 30
0.0
  3
AVE_GLOBAL
  1
AVE_GLOBAL
  0
ENDBLK
  5
197
100
AcDbEntity
  8
0
100
AcDbBlockEnd
  0
BLOCK
  5
1CF
100
AcDbEntity
  8
0
100
AcDbBlockBegin
  2
SCH_ISO
 70
     0
 10
0.0
 20
0.0
 30
0.0
  3
SCH_ISO
  1

  0
INSERT
  5
1C6
100
AcDbEntity
  8
ASHADE
 62
     1
100
AcDbBlockReference
  2
AVE_RENDER
 10
0.0
 20
0.0
 30
0.0
1001
AVE_RENDER
1002
{
1070
     6
1000
Pref
1070
    50
1070
    20
1070
     1
1070
     0
1000

1070
    10
1070
     1
1070
    30
1040
25.4
1070
     1
1040
0.3
1040
0.7
1040
0.0
1040
10.0
1010
-1.0
1020
-1.0
1030
-1.0
1040
0.3
1070
    49
1070
     0
1070
     0
1010
1.0
1020
1.0
1030
1.0
1040
45.0
1070
     1
1070
     0
1000
WCS
1040
0.0
1002
}
  0
INSERT
  5
1C7
100
AcDbEntity
  8
ASHADE
 62
     3
100
AcDbBlockReference
  2
AVE_RENDER
 10
0.0
 20
0.0
 30
0.0
1001
AVE_RENDER
1002
{
1070
     0
1000
Full Opt
1070
     0
1070
     1
1070
     1
1070
     1
1070
     0
1070
     0
1070
     0
1070
     1
1070
     1
1040
0.0001
1040
0.0001
1002
}
  0
INSERT
  5
1C8
100
AcDbEntity
  8
ASHADE
 62
     4
100
AcDbBlockReference
  2
AVE_RENDER
 10
0.0
 20
0.0
 30
0.0
1001
AVE_RENDER
1002
{
1070
     0
1000
Quick Opt
1070
     0
1070
     1
1070
     1
1070
     1
1070
     0
1070
     0
1070
     1
1002
}
  0
INSERT
  5
1C9
100
AcDbEntity
  8
ASHADE
 62
     5
100
AcDbBlockReference
  2
AVE_RENDER
 10
0.0
 20
0.0
 30
0.0
1001
AVE_RENDER
1002
{
1070
     1
1000
Scanl Opt
1070
     2
1070
     0
1070
     2
1040
2.0
1040
4.0
1070
     0
1070
     1
1070
     0
1040
0.03
1002
}
  0
INSERT
  5
1CA
100
AcDbEntity
  8
ASHADE
 62
     6
100
AcDbBlockReference
  2
AVE_RENDER
 10
0.0
 20
0.0
 30
0.0
1001
AVE_RENDER
1002
{
1070
     2
1000
Raytr Opt
1070
     2
1070
     0
1070
     2
1040
2.0
1040
4.0
1070
     0
1070
     1
1070
     1
1040
0.03
1070
     3
1040
0.03
1002
}
  0
INSERT
  5
1CB
100
AcDbEntity
  8
ASHADE
 62
     7
100
AcDbBlockReference
  2
AVE_RENDER
 10
0.0
 20
0.0
 30
0.0
1001
AVE_RENDER
1002
{
1070
     0
1000
RFile Opt
1070
     5
1070
   640
1070
   480
1070
 10000
1070
     3
1070
    32
1070
    24
1070
     0
1070
     0
1070
     0
1070
     1
1070
     0
1070
     0
1070
     0
1002
}
  0
INSERT
  5
1CC
100
AcDbEntity
  8
ASHADE
 62
     8
100
AcDbBlockReference
  2
AVE_RENDER
 10
0.0
 20
0.0
 30
0.0
1001
AVE_RENDER
1002
{
1070
     0
1000
Fog Opt
1070
     0
1070
     0
1040
0.0
1040
1.0
1040
0.0
1040
1.0
1010
0.5
1020
0.5
1030
0.5
1002
}
  0
INSERT
  5
1CD
100
AcDbEntity
  8
ASHADE
 62
     9
100
AcDbBlockReference
  2
AVE_RENDER
 10
0.0
 20
0.0
 30
0.0
1001
AVE_RENDER
1002
{
1070
     0
1000
BG Opt
1070
     0
1070
     1
1010
0.0
1020
0.0
1030
0.0
1010
1.0
1020
0.0
1030
0.0
1010
0.0
1020
1.0
1030
0.0
1010
0.0
1020
0.0
1030
1.0
1040
0.5
1040
0.33
1040
0.0
1000

1070
     1
1000

1070
     1
1070
     1
1040
1.0
1040
1.0
1040
0.0
1040
0.0
1070
     0
1002
}
  0
INSERT
  5
1CE
100
AcDbEntity
  8
ASHADE
 62
     1
100
AcDbBlockReference
  2
AVE_GLOBAL
 10
0.0
 20
0.0
 30
0.0
1001
AVE_MATERIAL
1002
{
1000
*GLOBAL*
1000
1
1000
Finition globale.
1002
{
1002
}
1002
{
1070
    63
1002
{
1002
{
1010
-1.0
1020
-1.0
1030
-1.0
1002
}
1040
0.1
1000

1040
0.0
1002
{
1002
}
1040
0.0
1002
{
1002
}
1040
0.0
1002
}
1002
{
1002
{
1010
-1.0
1020
-1.0
1030
-1.0
1002
}
1040
0.7
1000

1040
0.0
1002
{
1002
}
1040
0.0
1002
{
1002
}
1040
0.0
1002
}
1002
{
1002
{
1010
-1.0
1020
-1.0
1030
-1.0
1002
}
1040
0.2
1000

1040
0.0
1002
{
1002
}
1040
0.0
1002
{
1002
}
1040
0.0
1002
}
1002
{
1070
     0
1002
{
1070
     1
1002
{
1040
1.0
1040
1.0
1000

1040
0.0
1002
{
1002
}
1040
0.0
1002
{
1002
}
1040
0.0
1002
}
1002
}
1040
1.0
1040
0.0
1040
0.0
1002
}
1002
{
1040
1.0
1040
1.0
1000

1040
0.0
1002
{
1002
}
1040
0.0
1002
{
1002
}
1040
0.0
1002
}
1002
{
1040
0.5
1040
1.0
1000

1040
0.0
1002
{
1002
}
1040
0.0
1002
{
1002
}
1040
0.0
1002
}
1002
{
1070
     0
1040
0.0
1002
{
1002
}
1040
1.0
1002
{
1002
}
1040
0.0
1002
}
1002
{
1040
0.0
1002
{
1002
{
1010
0.0
1020
0.0
1030
0.0
1002
}
1040
1.0
1000

1040
0.0
1002
{
1002
}
1040
0.0
1002
{
1002
}
1040
0.0
1002
}
1002
}
1002
{
1002
{
1070
     1
1002
{
1040
0.0
1040
1.0
1000

1040
0.0
1002
{
1002
}
1040
0.0
1002
{
1002
}
1040
0.0
1002
}
1002
}
1040
0.0
1002
{
1002
}
1010
1.0
1020
0.0
1030
0.0
1010
0.0
1020
1.0
1030
0.0
1010
0.0
1020
0.0
1030
1.0
1070
     0
1002
}
1002
{
1002
{
1040
1.0
1040
1.0
1002
{
1070
     1
1002
{
1040
1.0
1040
1.0
1000

1040
0.0
1002
{
1002
}
1040
0.0
1002
{
1002
}
1040
0.0
1002
}
1002
}
1002
}
1070
     0
1040
0.0
1002
{
1002
}
1002
}
1002
{
1002
}
1002
}
1002
{
1071
        3
1070
     3
1070
     0
1002
{
1070
     2
1070
     0
1070
     0
1040
0.0
1002
}
1070
     0
1070
     2
1002
{
1002
}
1002
}
1002
{
1040
8030.0
1040
190.300003
1040
0.305
1040
228.0
1040
545.0
1040
14.0
1040
17.4
1040
0.456
1002
}
1002
}
  0
ENDBLK
  5
1D0
100
AcDbEntity
  8
0
100
AcDbBlockEnd
  0
BLOCK
  5
1FE
100
AcDbEntity
  8
0
100
AcDbBlockBegin
  2
*D6
 70
     1
 10
0.0
 20
0.0
 30
0.0
  3
*D6
  1

  0
LINE
  5
1FF
100
AcDbEntity
  8
0
  6
BYBLOCK
 62
     0
100
AcDbLine
 10
94.258922
 20
63.353705
 30
0.0
 11
287.861685
 21
63.353705
 31
0.0
  0
LINE
  5
200
100
AcDbEntity
  8
0
  6
BYBLOCK
 62
     0
100
AcDbLine
 10
94.258922
 20
367.353705
 30
0.0
 11
287.861685
 21
367.353705
 31
0.0
  0
LINE
  5
201
100
AcDbEntity
  8
0
  6
BYBLOCK
 62
     0
100
AcDbLine
 10
287.681685
 20
66.353705
 30
0.0
 11
287.681685
 21
364.353705
 31
0.0
  0
SOLID
  5
202
100
AcDbEntity
  8
0
  6
BYBLOCK
 62
     0
100
AcDbTrace
 10
287.181685
 20
66.353705
 30
0.0
 11
288.181685
 21
66.353705
 31
0.0
 12
287.681685
 22
63.353705
 32
0.0
 13
287.681685
 23
63.353705
 33
0.0
  0
SOLID
  5
203
100
AcDbEntity
  8
0
  6
BYBLOCK
 62
     0
100
AcDbTrace
 10
287.181685
 20
364.353705
 30
0.0
 11
288.181685
 21
364.353705
 31
0.0
 12
287.681685
 22
367.353705
 32
0.0
 13
287.681685
 23
367.353705
 33
0.0
  0
TEXT
  5
204
100
AcDbEntity
  8
0
  6
BYBLOCK
 62
     0
100
AcDbText
 10
286.431685
 20
211.722752
 30
0.0
 40
2.5
  1
304
 50
90.0
  7
ROMANS
 72
     1
 11
285.181685
 21
215.353705
 31
0.0
100
AcDbText
 73
     2
  0
POINT
  5
205
100
AcDbEntity
  8
DEFPOINTS
  6
BYBLOCK
 62
     0
100
AcDbPoint
 10
94.196422
 20
63.353705
 30
0.0
  0
POINT
  5
206
100
AcDbEntity
  8
DEFPOINTS
  6
BYBLOCK
 62
     0
100
AcDbPoint
 10
94.196422
 20
367.353705
 30
0.0
  0
POINT
  5
207
100
AcDbEntity
  8
DEFPOINTS
  6
BYBLOCK
 62
     0
100
AcDbPoint
 10
287.681685
 20
367.353705
 30
0.0
  0
ENDBLK
  5
208
100
AcDbEntity
  8
0
100
AcDbBlockEnd
  0
BLOCK
  5
209
100
AcDbEntity
  8
0
100
AcDbBlockBegin
  2
*D7
 70
     1
 10
0.0
 20
0.0
 30
0.0
  3
*D7
  1

  0
LINE
  5
20A
100
AcDbEntity
  8
0
  6
BYBLOCK
 62
     0
100
AcDbLine
 10
241.196422
 20
103.491187
 30
0.0
 11
241.196422
 21
21.92925
 31
0.0
  0
LINE
  5
20B
100
AcDbEntity
  8
0
  6
BYBLOCK
 62
     0
100
AcDbLine
 10
-13.603566
 20
120.949454
 30
0.0
 11
-13.603566
 21
21.92925
 31
0.0
  0
LINE
  5
20C
100
AcDbEntity
  8
0
  6
BYBLOCK
 62
     0
100
AcDbLine
 10
238.196422
 20
22.10925
 30
0.0
 11
-10.603566
 21
22.10925
 31
0.0
  0
SOLID
  5
20D
100
AcDbEntity
  8
0
  6
BYBLOCK
 62
     0
100
AcDbTrace
 10
238.196422
 20
22.60925
 30
0.0
 11
238.196422
 21
21.60925
 31
0.0
 12
241.196422
 22
22.10925
 32
0.0
 13
241.196422
 23
22.10925
 33
0.0
  0
SOLID
  5
20E
100
AcDbEntity
  8
0
  6
BYBLOCK
 62
     0
100
AcDbTrace
 10
-10.603566
 20
22.60925
 30
0.0
 11
-10.603566
 21
21.60925
 31
0.0
 12
-13.603566
 22
22.10925
 32
0.0
 13
-13.603566
 23
22.10925
 33
0.0
  0
TEXT
  5
20F
100
AcDbEntity
  8
0
  6
BYBLOCK
 62
     0
100
AcDbText
 10
108.439285
 20
23.35925
 30
0.0
 40
2.5
  1
254.8
  7
ROMANS
 72
     1
 11
113.796428
 21
24.60925
 31
0.0
100
AcDbText
 73
     2
  0
POINT
  5
210
100
AcDbEntity
  8
DEFPOINTS
  6
BYBLOCK
 62
     0
100
AcDbPoint
 10
241.196422
 20
103.553687
 30
0.0
  0
POINT
  5
211
100
AcDbEntity
  8
DEFPOINTS
  6
BYBLOCK
 62
     0
100
AcDbPoint
 10
-13.603566
 20
121.011954
 30
0.0
  0
POINT
  5
212
100
AcDbEntity
  8
DEFPOINTS
  6
BYBLOCK
 62
     0
100
AcDbPoint
 10
-13.603566
 20
22.10925
 30
0.0
  0
ENDBLK
  5
213
100
AcDbEntity
  8
0
100
AcDbBlockEnd
  0
BLOCK
  5
214
100
AcDbEntity
  8
0
100
AcDbBlockBegin
  2
*D8
 70
     1
 10
0.0
 20
0.0
 30
0.0
  3
*D8
  1

  0
LINE
  5
215
100
AcDbEntity
  8
0
  6
BYBLOCK
 62
     0
100
AcDbLine
 10
241.196422
 20
103.491187
 30
0.0
 11
241.196422
 21
42.33779
 31
0.0
  0
LINE
  5
216
100
AcDbEntity
  8
0
  6
BYBLOCK
 62
     0
100
AcDbLine
 10
86.196422
 20
63.291205
 30
0.0
 11
86.196422
 21
42.33779
 31
0.0
  0
LINE
  5
217
100
AcDbEntity
  8
0
  6
BYBLOCK
 62
     0
100
AcDbLine
 10
238.196422
 20
42.51779
 30
0.0
 11
89.196422
 21
42.51779
 31
0.0
  0
SOLID
  5
218
100
AcDbEntity
  8
0
  6
BYBLOCK
 62
     0
100
AcDbTrace
 10
238.196422
 20
43.01779
 30
0.0
 11
238.196422
 21
42.01779
 31
0.0
 12
241.196422
 22
42.51779
 32
0.0
 13
241.196422
 23
42.51779
 33
0.0
  0
SOLID
  5
219
100
AcDbEntity
  8
0
  6
BYBLOCK
 62
     0
100
AcDbTrace
 10
89.196422
 20
43.01779
 30
0.0
 11
89.196422
 21
42.01779
 31
0.0
 12
86.196422
 22
42.51779
 32
0.0
 13
86.196422
 23
42.51779
 33
0.0
  0
TEXT
  5
21A
100
AcDbEntity
  8
0
  6
BYBLOCK
 62
     0
100
AcDbText
 10
159.946422
 20
43.76779
 30
0.0
 40
2.5
  1
155
  7
ROMANS
 72
     1
 11
163.696422
 21
45.01779
 31
0.0
100
AcDbText
 73
     2
  0
POINT
  5
21B
100
AcDbEntity
  8
DEFPOINTS
  6
BYBLOCK
 62
     0
100
AcDbPoint
 10
241.196422
 20
103.553687
 30
0.0
  0
POINT
  5
21C
100
AcDbEntity
  8
DEFPOINTS
  6
BYBLOCK
 62
     0
100
AcDbPoint
 10
86.196422
 20
63.353705
 30
0.0
  0
POINT
  5
21D
100
AcDbEntity
  8
DEFPOINTS
  6
BYBLOCK
 62
     0
100
AcDbPoint
 10
86.196422
 20
42.51779
 30
0.0
  0
ENDBLK
  5
21E
100
AcDbEntity
  8
0
100
AcDbBlockEnd
  0
ENDSEC
  0
SECTION
  2
ENTITIES
  0
LINE
  5
1E
100
AcDbEntity
  8
ALPHA
100
AcDbLine
 10
97.346324
 20
234.353705
 30
0.0
 11
97.346324
 21
245.853705
 31
0.0
  0
LINE
  5
20
100
AcDbEntity
  8
AXE
100
AcDbLine
 10
82.547984
 20
250.353705
 30
0.0
 11
115.21815
 21
250.353705
 31
0.0
  0
LINE
  5
23
100
AcDbEntity
  8
ALPHA
100
AcDbLine
 10
97.346446
 20
266.353774
 30
0.0
 11
97.846446
 21
266.85372
 31
0.0
  0
LINE
  5
24
100
AcDbEntity
  8
ALPHA
100
AcDbLine
 10
97.346202
 20
234.353659
 30
0.0
 11
97.846202
 21
233.853705
 31
0.0
  0
LINE
  5
25
100
AcDbEntity
  8
ALPHA
100
AcDbLine
 10
97.846324
 20
266.853705
 30
0.0
 11
97.846324
 21
273.853705
 31
0.0
  0
LINE
  5
26
100
AcDbEntity
  8
ALPHA
100
AcDbLine
 10
92.346324
 20
234.353705
 30
0.0
 11
97.346324
 21
234.353705
 31
0.0
  0
LINE
  5
27
100
AcDbEntity
  8
ALPHA
100
AcDbLine
 10
92.746471
 20
266.353705
 30
0.0
 11
97.346324
 21
266.353705
 31
0.0
  0
LINE
  5
28
100
AcDbEntity
  8
ALPHA
100
AcDbLine
 10
90.846324
 20
245.353705
 30
0.0
 11
97.346324
 21
245.353705
 31
0.0
  0
LINE
  5
29
100
AcDbEntity
  8
ALPHA
100
AcDbLine
 10
92.746471
 20
255.353705
 30
0.0
 11
97.346324
 21
255.353705
 31
0.0
  0
LINE
  5
2A
100
AcDbEntity
  8
ALPHA
100
AcDbLine
 10
92.746471
 20
255.353705
 30
0.0
 11
92.746471
 21
266.353705
 31
0.0
  0
LINE
  5
2B
100
AcDbEntity
  8
ALPHA
100
AcDbLine
 10
92.346324
 20
234.353705
 30
0.0
 11
92.346324
 21
245.353705
 31
0.0
  0
LINE
  5
2C
100
AcDbEntity
  8
ALPHA
100
AcDbLine
 10
90.846324
 20
243.353705
 30
0.0
 11
90.846324
 21
245.353705
 31
0.0
  0
LINE
  5
2D
100
AcDbEntity
  8
ALPHA
100
AcDbLine
 10
90.846324
 20
243.353705
 30
0.0
 11
92.346324
 21
243.353705
 31
0.0
  0
LINE
  5
2E
100
AcDbEntity
  8
ALPHA
100
AcDbLine
 10
95.246471
 20
234.353705
 30
0.0
 11
95.246471
 21
243.853705
 31
0.0
  0
LINE
  5
2F
100
AcDbEntity
  8
ALPHA
100
AcDbLine
 10
95.246471
 20
257.853705
 30
0.0
 11
95.246471
 21
266.353705
 31
0.0
  0
LINE
  5
30
100
AcDbEntity
  8
ALPHA
100
AcDbLine
 10
98.346324
 20
247.585761
 30
0.0
 11
98.346324
 21
253.121649
 31
0.0
  0
LINE
  5
31
100
AcDbEntity
  8
ALPHA
100
AcDbLine
 10
98.34669
 20
253.12181
 30
0.0
 11
97.34669
 21
254.853858
 31
0.0
  0
LINE
  5
32
100
AcDbEntity
  8
ALPHA
100
AcDbLine
 10
97.346507
 20
245.853606
 30
0.0
 11
98.346507
 21
247.585654
 31
0.0
  0
LINE
  5
33
100
AcDbEntity
  8
ALPHA
100
AcDbLine
 10
97.346324
 20
254.853705
 30
0.0
 11
97.346324
 21
266.353705
 31
0.0
  0
LINE
  5
34
100
AcDbEntity
  8
ALPHA
100
AcDbLine
 10
95.246471
 20
243.853705
 30
0.0
 11
92.346324
 21
243.853705
 31
0.0
  0
LINE
  5
35
100
AcDbEntity
  8
ALPHA
100
AcDbLine
 10
97.346324
 20
257.853705
 30
0.0
 11
95.246471
 21
257.853705
 31
0.0
  0
LINE
  5
36
100
AcDbEntity
  8
ALPHA
100
AcDbLine
 10
97.846324
 20
273.853705
 30
0.0
 11
100.346324
 21
273.853705
 31
0.0
  0
LINE
  5
37
100
AcDbEntity
  8
ALPHA
100
AcDbLine
 10
100.346385
 20
273.853728
 30
0.0
 11
110.846385
 21
293.953749
 31
0.0
  0
LINE
  5
38
100
AcDbEntity
  8
ALPHA
100
AcDbLine
 10
110.846324
 20
293.953711
 30
0.0
 11
154.696422
 21
293.953711
 31
0.0
  0
LINE
  5
39
100
AcDbEntity
  8
ALPHA
100
AcDbLine
 10
154.222484
 20
223.534628
 30
0.0
 11
145.170421
 21
220.239935
 31
0.0
  0
ARC
  5
3A
100
AcDbEntity
  8
ALPHA
100
AcDbCircle
 10
153.196422
 20
226.353705
 30
0.0
 40
3.0
100
AcDbArc
 50
290.000024
 51
0.000037
  0
ARC
  5
3B
100
AcDbEntity
  8
ALPHA
100
AcDbCircle
 10
146.196422
 20
217.420844
 30
0.0
 40
3.0
100
AcDbArc
 50
109.999978
 51
179.999964
  0
LINE
  5
3C
100
AcDbEntity
  8
AXE
100
AcDbLine
 10
126.74525
 20
271.453711
 30
0.0
 11
149.228404
 21
271.453711
 31
0.0
  0
LINE
  5
3D
100
AcDbEntity
  8
AXE
100
AcDbLine
 10
138.196422
 20
258.176459
 30
0.0
 11
138.196422
 21
284.226645
 31
0.0
  0
LINE
  5
3E
100
AcDbEntity
  8
ALPHA
100
AcDbLine
 10
122.196422
 20
251.582846
 30
0.0
 11
122.196422
 21
264.337714
 31
0.0
  0
CIRCLE
  5
3F
100
AcDbEntity
  8
ALPHA
100
AcDbCircle
 10
138.196422
 20
271.453711
 30
0.0
 40
9.0
  0
LINE
  5
40
100
AcDbEntity
  8
ALPHA
100
AcDbLine
 10
137.696422
 20
280.43981
 30
0.0
 11
137.696422
 21
293.953711
 31
0.0
  0
LINE
  5
41
100
AcDbEntity
  8
ALPHA
100
AcDbLine
 10
101.846324
 20
247.585761
 30
0.0
 11
101.846324
 21
253.121649
 31
0.0
  0
LINE
  5
42
100
AcDbEntity
  8
ALPHA
100
AcDbLine
 10
105.846324
 20
247.585761
 30
0.0
 11
105.846324
 21
253.121649
 31
0.0
  0
LINE
  5
43
100
AcDbEntity
  8
ALPHA
100
AcDbLine
 10
101.846324
 20
247.585761
 30
0.0
 11
105.846324
 21
247.585761
 31
0.0
  0
LINE
  5
44
100
AcDbEntity
  8
ALPHA
100
AcDbLine
 10
101.846324
 20
253.121649
 30
0.0
 11
105.846324
 21
253.121649
 31
0.0
  0
LINE
  5
45
100
AcDbEntity
  8
ALPHA
100
AcDbLine
 10
113.658092
 20
257.453711
 30
0.0
 11
132.222545
 21
257.453711
 31
0.0
  0
LINE
  5
46
100
AcDbEntity
  8
ALPHA
100
AcDbLine
 10
113.658092
 20
258.453711
 30
0.0
 11
132.063853
 21
258.453711
 31
0.0
  0
ARC
  5
47
100
AcDbEntity
  8
ALPHA
100
AcDbCircle
 10
122.196422
 20
258.453711
 30
0.0
 40
2.0
100
AcDbArc
 50
90.000037
 51
180.000019
  0
ARC
  5
48
100
AcDbEntity
  8
ALPHA
100
AcDbCircle
 10
122.196422
 20
257.453711
 30
0.0
 40
2.0
100
AcDbArc
 50
179.999964
 51
359.999983
  0
ARC
  5
49
100
AcDbEntity
  8
ALPHA
100
AcDbCircle
 10
122.196422
 20
258.453711
 30
0.0
 40
2.0
100
AcDbArc
 50
0.000031
 51
89.999982
  0
LINE
  5
4A
100
AcDbEntity
  8
ALPHA
100
AcDbLine
 10
120.196422
 20
258.453711
 30
0.0
 11
120.196422
 21
257.453711
 31
0.0
  0
LINE
  5
4B
100
AcDbEntity
  8
ALPHA
100
AcDbLine
 10
124.196422
 20
258.453711
 30
0.0
 11
124.196422
 21
257.453711
 31
0.0
  0
ARC
  5
4C
100
AcDbEntity
  8
ALPHA
100
AcDbCircle
 10
122.196422
 20
258.453711
 30
0.0
 40
4.5
100
AcDbArc
 50
90.000037
 51
180.000019
  0
ARC
  5
4D
100
AcDbEntity
  8
ALPHA
100
AcDbCircle
 10
122.196422
 20
257.453711
 30
0.0
 40
4.5
100
AcDbArc
 50
179.999964
 51
359.999983
  0
ARC
  5
4E
100
AcDbEntity
  8
ALPHA
100
AcDbCircle
 10
122.196422
 20
258.453711
 30
0.0
 40
4.5
100
AcDbArc
 50
0.000031
 51
89.999982
  0
LINE
  5
4F
100
AcDbEntity
  8
ALPHA
100
AcDbLine
 10
117.696422
 20
258.453711
 30
0.0
 11
117.696422
 21
257.453711
 31
0.0
  0
LINE
  5
50
100
AcDbEntity
  8
ALPHA
100
AcDbLine
 10
126.696422
 20
258.453711
 30
0.0
 11
126.696422
 21
257.453711
 31
0.0
  0
ARC
  5
51
100
AcDbEntity
  8
ALPHA
100
AcDbCircle
 10
99.996471
 20
215.353705
 30
0.0
 40
7.85
100
AcDbArc
 50
110.850582
 51
179.999964
  0
ARC
  5
52
100
AcDbEntity
  8
ALPHA
100
AcDbCircle
 10
96.846324
 20
223.624137
 30
0.0
 40
1.0
100
AcDbArc
 50
290.850574
 51
0.000037
  0
LINE
  5
53
100
AcDbEntity
  8
AXE
100
AcDbLine
 10
99.996471
 20
199.652335
 30
0.0
 11
99.996471
 21
231.055075
 31
0.0
  0
LINE
  5
54
100
AcDbEntity
  8
ALPHA
100
AcDbLine
 10
97.346324
 20
184.853705
 30
0.0
 11
97.346324
 21
196.353705
 31
0.0
  0
LINE
  5
55
100
AcDbEntity
  8
AXE
100
AcDbLine
 10
115.21815
 20
180.353705
 30
0.0
 11
82.547984
 21
180.353705
 31
0.0
  0
LINE
  5
56
100
AcDbEntity
  8
ALPHA
100
AcDbLine
 10
97.846324
 20
196.853705
 30
0.0
 11
97.846324
 21
233.853705
 31
0.0
  0
LINE
  5
57
100
AcDbEntity
  8
ALPHA
100
AcDbLine
 10
97.846263
 20
163.853705
 30
0.0
 11
97.346324
 21
164.353659
 31
0.0
  0
LINE
  5
58
100
AcDbEntity
  8
ALPHA
100
AcDbLine
 10
97.846324
 20
196.85372
 30
0.0
 11
97.346385
 21
196.353781
 31
0.0
  0
LINE
  5
59
100
AcDbEntity
  8
ALPHA
100
AcDbLine
 10
97.846324
 20
156.853705
 30
0.0
 11
97.846324
 21
163.853705
 31
0.0
  0
LINE
  5
5A
100
AcDbEntity
  8
ALPHA
100
AcDbLine
 10
97.346324
 20
164.353705
 30
0.0
 11
92.346324
 21
164.353705
 31
0.0
  0
LINE
  5
5B
100
AcDbEntity
  8
ALPHA
100
AcDbLine
 10
97.346324
 20
196.353705
 30
0.0
 11
92.746471
 21
196.353705
 31
0.0
  0
LINE
  5
5C
100
AcDbEntity
  8
ALPHA
100
AcDbLine
 10
97.346324
 20
175.353705
 30
0.0
 11
90.846324
 21
175.353705
 31
0.0
  0
LINE
  5
5D
100
AcDbEntity
  8
ALPHA
100
AcDbLine
 10
97.346324
 20
185.353705
 30
0.0
 11
92.746471
 21
185.353705
 31
0.0
  0
LINE
  5
5E
100
AcDbEntity
  8
ALPHA
100
AcDbLine
 10
92.746471
 20
196.353705
 30
0.0
 11
92.746471
 21
185.353705
 31
0.0
  0
LINE
  5
5F
100
AcDbEntity
  8
ALPHA
100
AcDbLine
 10
92.346324
 20
175.353705
 30
0.0
 11
92.346324
 21
164.353705
 31
0.0
  0
LINE
  5
60
100
AcDbEntity
  8
ALPHA
100
AcDbLine
 10
90.846324
 20
175.353705
 30
0.0
 11
90.846324
 21
173.353705
 31
0.0
  0
LINE
  5
61
100
AcDbEntity
  8
ALPHA
100
AcDbLine
 10
92.346324
 20
173.353705
 30
0.0
 11
90.846324
 21
173.353705
 31
0.0
  0
LINE
  5
62
100
AcDbEntity
  8
ALPHA
100
AcDbLine
 10
95.246471
 20
173.853705
 30
0.0
 11
95.246471
 21
164.353705
 31
0.0
  0
LINE
  5
63
100
AcDbEntity
  8
ALPHA
100
AcDbLine
 10
95.246471
 20
196.353705
 30
0.0
 11
95.246471
 21
187.853705
 31
0.0
  0
LINE
  5
64
100
AcDbEntity
  8
ALPHA
100
AcDbLine
 10
98.346324
 20
177.585761
 30
0.0
 11
98.346324
 21
183.121649
 31
0.0
  0
LINE
  5
65
100
AcDbEntity
  8
ALPHA
100
AcDbLine
 10
97.346507
 20
175.853568
 30
0.0
 11
98.346507
 21
177.585608
 31
0.0
  0
LINE
  5
66
100
AcDbEntity
  8
ALPHA
100
AcDbLine
 10
98.34669
 20
183.121771
 30
0.0
 11
97.34669
 21
184.853827
 31
0.0
  0
LINE
  5
67
100
AcDbEntity
  8
ALPHA
100
AcDbLine
 10
97.346324
 20
164.353705
 30
0.0
 11
97.346324
 21
175.853705
 31
0.0
  0
LINE
  5
68
100
AcDbEntity
  8
ALPHA
100
AcDbLine
 10
92.346324
 20
173.853705
 30
0.0
 11
95.246471
 21
173.853705
 31
0.0
  0
LINE
  5
69
100
AcDbEntity
  8
ALPHA
100
AcDbLine
 10
95.246471
 20
187.853705
 30
0.0
 11
97.346324
 21
187.853705
 31
0.0
  0
LINE
  5
6A
100
AcDbEntity
  8
ALPHA
100
AcDbLine
 10
100.346324
 20
156.85369
 30
0.0
 11
100.346324
 21
273.85372
 31
0.0
  0
LINE
  5
6B
100
AcDbEntity
  8
ALPHA
100
AcDbLine
 10
100.346324
 20
156.853705
 30
0.0
 11
97.846324
 21
156.853705
 31
0.0
  0
LINE
  5
6C
100
AcDbEntity
  8
ALPHA
100
AcDbLine
 10
110.846324
 20
136.753699
 30
0.0
 11
110.846324
 21
293.953711
 31
0.0
  0
LINE
  5
6D
100
AcDbEntity
  8
ALPHA
100
AcDbLine
 10
110.846568
 20
136.753729
 30
0.0
 11
100.346507
 21
156.853736
 31
0.0
  0
LINE
  5
6E
100
AcDbEntity
  8
ALPHA
100
AcDbLine
 10
154.696422
 20
136.753699
 30
0.0
 11
110.846324
 21
136.753699
 31
0.0
  0
LINE
  5
6F
100
AcDbEntity
  8
ALPHA
100
AcDbLine
 10
162.696422
 20
144.753699
 30
0.0
 11
162.696422
 21
176.353705
 31
0.0
  0
ARC
  5
70
100
AcDbEntity
  8
ALPHA
100
AcDbCircle
 10
154.696422
 20
144.753699
 30
0.0
 40
8.0
100
AcDbArc
 50
269.999973
 51
359.999983
  0
LINE
  5
71
100
AcDbEntity
  8
ALPHA
100
AcDbLine
 10
162.696422
 20
176.353705
 30
0.0
 11
159.196422
 21
176.353705
 31
0.0
  0
LINE
  5
72
100
AcDbEntity
  8
ALPHA
100
AcDbLine
 10
156.196422
 20
204.353705
 30
0.0
 11
156.196422
 21
179.353705
 31
0.0
  0
ARC
  5
73
100
AcDbEntity
  8
ALPHA
100
AcDbCircle
 10
159.196422
 20
179.353705
 30
0.0
 40
3.0
100
AcDbArc
 50
180.000046
 51
270.000028
  0
LINE
  5
74
100
AcDbEntity
  8
ALPHA
100
AcDbLine
 10
145.17036
 20
210.46749
 30
0.0
 11
154.222484
 21
207.172782
 31
0.0
  0
ARC
  5
75
100
AcDbEntity
  8
ALPHA
100
AcDbCircle
 10
153.196422
 20
204.353705
 30
0.0
 40
3.0
100
AcDbArc
 50
359.999983
 51
69.999996
  0
LINE
  5
76
100
AcDbEntity
  8
ALPHA
100
AcDbLine
 10
143.196422
 20
213.286566
 30
0.0
 11
143.196422
 21
217.420844
 31
0.0
  0
ARC
  5
77
100
AcDbEntity
  8
ALPHA
100
AcDbCircle
 10
146.196422
 20
213.286566
 30
0.0
 40
3.0
100
AcDbArc
 50
180.000046
 51
250.000032
  0
LINE
  5
78
100
AcDbEntity
  8
AXE
100
AcDbLine
 10
155.112681
 20
159.253699
 30
0.0
 11
121.331187
 21
159.253699
 31
0.0
  0
LINE
  5
79
100
AcDbEntity
  8
AXE
100
AcDbLine
 10
138.196422
 20
143.89733
 30
0.0
 11
138.196422
 21
174.355185
 31
0.0
  0
LINE
  5
7A
100
AcDbEntity
  8
ALPHA
100
AcDbLine
 10
137.696422
 20
172.744437
 30
0.0
 11
137.696422
 21
262.467612
 31
0.0
  0
LINE
  5
7B
100
AcDbEntity
  8
AXE
100
AcDbLine
 10
122.196422
 20
166.369696
 30
0.0
 11
122.196422
 21
179.124564
 31
0.0
  0
LINE
  5
7C
100
AcDbEntity
  8
ALPHA
100
AcDbLine
 10
137.696422
 20
136.753699
 30
0.0
 11
137.696422
 21
145.762961
 31
0.0
  0
LINE
  5
7D
100
AcDbEntity
  8
ALPHA
100
AcDbLine
 10
101.846324
 20
177.585761
 30
0.0
 11
101.846324
 21
183.121649
 31
0.0
  0
LINE
  5
7E
100
AcDbEntity
  8
ALPHA
100
AcDbLine
 10
105.846324
 20
177.585761
 30
0.0
 11
105.846324
 21
183.121649
 31
0.0
  0
LINE
  5
7F
100
AcDbEntity
  8
ALPHA
100
AcDbLine
 10
105.846324
 20
183.121649
 30
0.0
 11
101.846324
 21
183.121649
 31
0.0
  0
LINE
  5
80
100
AcDbEntity
  8
ALPHA
100
AcDbLine
 10
105.846324
 20
177.585761
 30
0.0
 11
101.846324
 21
177.585761
 31
0.0
  0
LINE
  5
81
100
AcDbEntity
  8
AXE
100
AcDbLine
 10
132.222545
 20
173.253699
 30
0.0
 11
113.658092
 21
173.253699
 31
0.0
  0
LINE
  5
82
100
AcDbEntity
  8
AXE
100
AcDbLine
 10
132.063853
 20
172.253699
 30
0.0
 11
113.658092
 21
172.253699
 31
0.0
  0
ARC
  5
83
100
AcDbEntity
  8
ALPHA
100
AcDbCircle
 10
122.196422
 20
173.253699
 30
0.0
 40
2.0
100
AcDbArc
 50
0.000031
 51
180.000073
  0
ARC
  5
84
100
AcDbEntity
  8
ALPHA
100
AcDbCircle
 10
122.196422
 20
172.253699
 30
0.0
 40
2.0
100
AcDbArc
 50
180.000046
 51
359.999983
  0
LINE
  5
85
100
AcDbEntity
  8
ALPHA
100
AcDbLine
 10
120.196422
 20
173.253699
 30
0.0
 11
120.196422
 21
172.253699
 31
0.0
  0
LINE
  5
86
100
AcDbEntity
  8
ALPHA
100
AcDbLine
 10
124.196422
 20
173.253699
 30
0.0
 11
124.196422
 21
172.253699
 31
0.0
  0
ARC
  5
87
100
AcDbEntity
  8
ALPHA
100
AcDbCircle
 10
122.196422
 20
173.253699
 30
0.0
 40
4.5
100
AcDbArc
 50
0.000031
 51
180.000073
  0
ARC
  5
88
100
AcDbEntity
  8
ALPHA
100
AcDbCircle
 10
122.196422
 20
172.253699
 30
0.0
 40
4.5
100
AcDbArc
 50
180.000046
 51
359.999983
  0
LINE
  5
89
100
AcDbEntity
  8
ALPHA
100
AcDbLine
 10
117.696422
 20
173.253699
 30
0.0
 11
117.696422
 21
172.253699
 31
0.0
  0
LINE
  5
8A
100
AcDbEntity
  8
ALPHA
100
AcDbLine
 10
126.696422
 20
173.253699
 30
0.0
 11
126.696422
 21
172.253699
 31
0.0
  0
ARC
  5
8B
100
AcDbEntity
  8
ALPHA
100
AcDbCircle
 10
99.996471
 20
215.353705
 30
0.0
 40
7.85
100
AcDbArc
 50
180.000046
 51
249.149428
  0
ARC
  5
8C
100
AcDbEntity
  8
ALPHA
100
AcDbCircle
 10
96.846324
 20
207.083273
 30
0.0
 40
1.0
100
AcDbArc
 50
359.999983
 51
69.149446
  0
CIRCLE
  5
8D
100
AcDbEntity
  8
ALPHA
100
AcDbCircle
 10
138.196422
 20
159.253699
 30
0.0
 40
7.5
  0
ARC
  5
8E
100
AcDbEntity
  8
ALPHA
100
AcDbCircle
 10
138.196422
 20
159.253699
 30
0.0
 40
12.5
100
AcDbArc
 50
90.000037
 51
115.258896
  0
ARC
  5
8F
100
AcDbEntity
  8
ALPHA
100
AcDbCircle
 10
138.196422
 20
159.253699
 30
0.0
 40
13.5
100
AcDbArc
 50
90.000037
 51
117.602306
  0
ARC
  5
90
100
AcDbEntity
  8
ALPHA
100
AcDbCircle
 10
138.196422
 20
159.253699
 30
0.0
 40
13.5
100
AcDbArc
 50
225.00001
 51
314.999992
  0
ARC
  5
91
100
AcDbEntity
  8
ALPHA
100
AcDbCircle
 10
138.196422
 20
159.253699
 30
0.0
 40
12.5
100
AcDbArc
 50
225.00001
 51
314.999992
  0
ARC
  5
92
100
AcDbEntity
  8
ALPHA
100
AcDbCircle
 10
122.196422
 20
172.253699
 30
0.0
 40
10.8
100
AcDbArc
 50
277.983536
 51
350.969708
  0
ARC
  5
93
100
AcDbEntity
  8
ALPHA
100
AcDbCircle
 10
122.196422
 20
172.253699
 30
0.0
 40
9.8
100
AcDbArc
 50
272.924496
 51
353.928764
  0
LINE
  5
94
100
AcDbEntity
  8
ALPHA
100
AcDbLine
 10
153.696422
 20
162.845603
 30
0.0
 11
147.742442
 21
168.799552
 31
0.0
  0
LINE
  5
95
100
AcDbEntity
  8
ALPHA
100
AcDbLine
 10
152.696544
 20
162.431281
 30
0.0
 11
147.03535
 21
168.092444
 31
0.0
  0
LINE
  5
96
100
AcDbEntity
  8
ALPHA
100
AcDbLine
 10
128.650584
 20
149.707678
 30
0.0
 11
122.696483
 21
155.66181
 31
0.0
  0
LINE
  5
97
100
AcDbEntity
  8
ALPHA
100
AcDbLine
 10
129.357677
 20
150.414771
 30
0.0
 11
123.696544
 21
156.075949
 31
0.0
  0
LINE
  5
98
100
AcDbEntity
  8
ALPHA
100
AcDbLine
 10
147.03535
 20
150.414771
 30
0.0
 11
152.696544
 21
156.075949
 31
0.0
  0
LINE
  5
99
100
AcDbEntity
  8
ALPHA
100
AcDbLine
 10
147.742442
 20
149.707678
 30
0.0
 11
153.696605
 21
155.66181
 31
0.0
  0
LINE
  5
9A
100
AcDbEntity
  8
ALPHA
100
AcDbLine
 10
123.696422
 20
156.076041
 30
0.0
 11
123.696422
 21
161.558371
 31
0.0
  0
LINE
  5
9B
100
AcDbEntity
  8
ALPHA
100
AcDbLine
 10
122.696422
 20
155.661826
 30
0.0
 11
122.696422
 21
162.466467
 31
0.0
  0
LINE
  5
9C
100
AcDbEntity
  8
ALPHA
100
AcDbLine
 10
152.696422
 20
156.076026
 30
0.0
 11
152.696422
 21
162.431372
 31
0.0
  0
LINE
  5
9D
100
AcDbEntity
  8
ALPHA
100
AcDbLine
 10
153.696422
 20
155.66181
 30
0.0
 11
153.696422
 21
162.845587
 31
0.0
  0
ARC
  5
9E
100
AcDbEntity
  8
ALPHA
100
AcDbCircle
 10
138.196422
 20
159.253699
 30
0.0
 40
12.5
100
AcDbArc
 50
44.999994
 51
89.999982
  0
ARC
  5
9F
100
AcDbEntity
  8
ALPHA
100
AcDbCircle
 10
138.196422
 20
159.253699
 30
0.0
 40
13.5
100
AcDbArc
 50
44.999994
 51
89.999982
  0
LINE
  5
A0
100
AcDbEntity
  8
ALPHA
100
AcDbLine
 10
152.696422
 20
156.076117
 30
0.0
 11
153.696544
 21
155.661856
 31
0.0
  0
LINE
  5
A1
100
AcDbEntity
  8
ALPHA
100
AcDbLine
 10
152.696544
 20
162.431418
 30
0.0
 11
153.696422
 21
162.845587
 31
0.0
  0
LINE
  5
A2
100
AcDbEntity
  8
ALPHA
100
AcDbLine
 10
131.941539
 20
171.217063
 30
0.0
 11
132.86262
 21
170.558432
 31
0.0
  0
LINE
  5
A3
100
AcDbEntity
  8
ALPHA
100
AcDbLine
 10
122.696483
 20
162.466605
 30
0.0
 11
123.696544
 21
161.558478
 31
0.0
  0
LINE
  5
A4
100
AcDbEntity
  8
ALPHA
100
AcDbLine
 10
122.696361
 20
155.66181
 30
0.0
 11
123.696483
 21
156.076056
 31
0.0
  0
LINE
  5
A5
100
AcDbEntity
  8
ALPHA
100
AcDbLine
 10
124.696422
 20
157.503699
 30
0.0
 11
124.696422
 21
161.003699
 31
0.0
  0
LINE
  5
A6
100
AcDbEntity
  8
ALPHA
100
AcDbLine
 10
128.096324
 20
157.503699
 30
0.0
 11
128.096324
 21
161.003699
 31
0.0
  0
LINE
  5
A7
100
AcDbEntity
  8
ALPHA
100
AcDbLine
 10
124.696422
 20
157.503699
 30
0.0
 11
129.596324
 21
157.503699
 31
0.0
  0
LINE
  5
A8
100
AcDbEntity
  8
ALPHA
100
AcDbLine
 10
124.696422
 20
161.003699
 30
0.0
 11
129.596324
 21
161.003699
 31
0.0
  0
LINE
  5
A9
100
AcDbEntity
  8
ALPHA
100
AcDbLine
 10
129.596324
 20
157.503699
 30
0.0
 11
129.596324
 21
161.003699
 31
0.0
  0
LINE
  5
AA
100
AcDbEntity
  8
ALPHA
100
AcDbLine
 10
151.696422
 20
161.003699
 30
0.0
 11
151.696422
 21
157.503699
 31
0.0
  0
LINE
  5
AB
100
AcDbEntity
  8
ALPHA
100
AcDbLine
 10
148.296519
 20
161.003699
 30
0.0
 11
148.296519
 21
157.503699
 31
0.0
  0
LINE
  5
AC
100
AcDbEntity
  8
ALPHA
100
AcDbLine
 10
146.796519
 20
157.503699
 30
0.0
 11
151.696422
 21
157.503699
 31
0.0
  0
LINE
  5
AD
100
AcDbEntity
  8
ALPHA
100
AcDbLine
 10
146.796519
 20
161.003699
 30
0.0
 11
151.696422
 21
161.003699
 31
0.0
  0
LINE
  5
AE
100
AcDbEntity
  8
ALPHA
100
AcDbLine
 10
146.796519
 20
161.003699
 30
0.0
 11
146.796519
 21
157.503699
 31
0.0
  0
LINE
  5
AF
100
AcDbEntity
  8
ALPHA
100
AcDbLine
 10
162.696422
 20
285.953711
 30
0.0
 11
162.696422
 21
254.353705
 31
0.0
  0
ARC
  5
B0
100
AcDbEntity
  8
ALPHA
100
AcDbCircle
 10
154.696422
 20
285.953711
 30
0.0
 40
8.0
100
AcDbArc
 50
0.000031
 51
90.000037
  0
LINE
  5
B1
100
AcDbEntity
  8
ALPHA
100
AcDbLine
 10
162.696422
 20
254.353705
 30
0.0
 11
159.196422
 21
254.353705
 31
0.0
  0
LINE
  5
B2
100
AcDbEntity
  8
ALPHA
100
AcDbLine
 10
156.196422
 20
226.353705
 30
0.0
 11
156.196422
 21
251.353705
 31
0.0
  0
ARC
  5
B3
100
AcDbEntity
  8
ALPHA
100
AcDbCircle
 10
159.196422
 20
251.353705
 30
0.0
 40
3.0
100
AcDbArc
 50
89.999982
 51
180.000019
  0
LINE
  5
B4
100
AcDbEntity
  8
ALPHA
100
AcDbLine
 10
220.996471
 20
179.253699
 30
0.0
 11
220.996471
 21
171.753699
 31
0.0
  0
LINE
  5
B5
100
AcDbEntity
  8
ALPHA
100
AcDbLine
 10
162.696422
 20
157.503699
 30
0.0
 11
208.046764
 21
157.503699
 31
0.0
  0
LINE
  5
B6
100
AcDbEntity
  8
ALPHA
100
AcDbLine
 10
162.696422
 20
161.003455
 30
0.0
 11
208.046764
 21
161.003455
 31
0.0
  0
LINE
  5
B7
100
AcDbEntity
  8
ALPHA
100
AcDbLine
 10
224.196666
 20
166.503699
 30
0.0
 11
224.196666
 21
162.853552
 31
0.0
  0
LINE
  5
B8
100
AcDbEntity
  8
ALPHA
100
AcDbLine
 10
224.696422
 20
162.353552
 30
0.0
 11
226.696666
 21
162.353552
 31
0.0
  0
LINE
  5
B9
100
AcDbEntity
  8
ALPHA
100
AcDbLine
 10
224.696422
 20
156.153601
 30
0.0
 11
226.696666
 21
156.153601
 31
0.0
  0
LINE
  5
BA
100
AcDbEntity
  8
ALPHA
100
AcDbLine
 10
224.196666
 20
155.653601
 30
0.0
 11
224.196666
 21
152.003699
 31
0.0
  0
ARC
  5
BB
100
AcDbEntity
  8
ALPHA
100
AcDbCircle
 10
226.696666
 20
155.653601
 30
0.0
 40
0.5
100
AcDbArc
 50
359.999983
 51
90.000047
  0
ARC
  5
BC
100
AcDbEntity
  8
ALPHA
100
AcDbCircle
 10
224.696422
 20
155.653601
 30
0.0
 40
0.5
100
AcDbArc
 50
90.000037
 51
180.000019
  0
ARC
  5
BD
100
AcDbEntity
  8
ALPHA
100
AcDbCircle
 10
226.696666
 20
162.853552
 30
0.0
 40
0.5
100
AcDbArc
 50
269.999973
 51
359.999983
  0
ARC
  5
BE
100
AcDbEntity
  8
ALPHA
100
AcDbCircle
 10
224.696422
 20
162.853552
 30
0.0
 40
0.5
100
AcDbArc
 50
180.000046
 51
269.999973
  0
LINE
  5
BF
100
AcDbEntity
  8
ALPHA
100
AcDbLine
 10
218.696422
 20
151.503699
 30
0.0
 11
223.696422
 21
151.503699
 31
0.0
  0
LINE
  5
C0
100
AcDbEntity
  8
ALPHA
100
AcDbLine
 10
218.696422
 20
167.003699
 30
0.0
 11
223.696422
 21
167.003699
 31
0.0
  0
ARC
  5
C1
100
AcDbEntity
  8
ALPHA
100
AcDbCircle
 10
223.696422
 20
166.503699
 30
0.0
 40
0.5
100
AcDbArc
 50
359.999983
 51
90.000047
  0
ARC
  5
C2
100
AcDbEntity
  8
ALPHA
100
AcDbCircle
 10
223.696422
 20
152.003699
 30
0.0
 40
0.5
100
AcDbArc
 50
269.999973
 51
359.999983
  0
LINE
  5
C3
100
AcDbEntity
  8
ALPHA
100
AcDbLine
 10
218.496471
 20
180.253699
 30
0.0
 11
219.996471
 21
180.253699
 31
0.0
  0
LINE
  5
C4
100
AcDbEntity
  8
ALPHA
100
AcDbLine
 10
216.562633
 20
148.253699
 30
0.0
 11
225.696666
 21
148.253699
 31
0.0
  0
ARC
  5
C5
100
AcDbEntity
  8
ALPHA
100
AcDbCircle
 10
225.696666
 20
149.753455
 30
0.0
 40
1.5
100
AcDbArc
 50
269.999973
 51
359.999983
  0
LINE
  5
C6
100
AcDbEntity
  8
ALPHA
100
AcDbLine
 10
218.196666
 20
156.153601
 30
0.0
 11
218.196666
 21
152.003699
 31
0.0
  0
LINE
  5
C7
100
AcDbEntity
  8
ALPHA
100
AcDbLine
 10
218.196666
 20
166.503699
 30
0.0
 11
218.196666
 21
162.853552
 31
0.0
  0
ARC
  5
C8
100
AcDbEntity
  8
ALPHA
100
AcDbCircle
 10
218.696422
 20
152.003699
 30
0.0
 40
0.5
100
AcDbArc
 50
180.000046
 51
269.999973
  0
ARC
  5
C9
100
AcDbEntity
  8
ALPHA
100
AcDbCircle
 10
218.696422
 20
166.503699
 30
0.0
 40
0.5
100
AcDbArc
 50
90.000037
 51
180.000019
  0
LINE
  5
CA
100
AcDbEntity
  8
ALPHA
100
AcDbLine
 10
216.696666
 20
162.353552
 30
0.0
 11
216.696666
 21
160.523474
 31
0.0
  0
LINE
  5
CB
100
AcDbEntity
  8
ALPHA
100
AcDbLine
 10
216.696666
 20
156.153601
 30
0.0
 11
218.196666
 21
156.153601
 31
0.0
  0
LINE
  5
CC
100
AcDbEntity
  8
ALPHA
100
AcDbLine
 10
216.696666
 20
162.353552
 30
0.0
 11
217.696666
 21
162.353552
 31
0.0
  0
ARC
  5
CD
100
AcDbEntity
  8
ALPHA
100
AcDbCircle
 10
217.696666
 20
162.853552
 30
0.0
 40
0.5
100
AcDbArc
 50
269.999973
 51
359.999983
  0
LINE
  5
CE
100
AcDbEntity
  8
ALPHA
100
AcDbLine
 10
215.263164
 20
149.00376
 30
0.0
 11
211.510356
 21
155.503806
 31
0.0
  0
ARC
  5
CF
100
AcDbEntity
  8
ALPHA
100
AcDbCircle
 10
208.046764
 20
153.503455
 30
0.0
 40
4.0
100
AcDbArc
 50
29.99997
 51
90.000091
  0
ARC
  5
D0
100
AcDbEntity
  8
ALPHA
100
AcDbCircle
 10
216.562633
 20
149.753455
 30
0.0
 40
1.5
100
AcDbArc
 50
209.999985
 51
269.999809
  0
LINE
  5
D1
100
AcDbEntity
  8
ALPHA
100
AcDbLine
 10
222.496471
 20
170.253699
 30
0.0
 11
225.696666
 21
170.253699
 31
0.0
  0
ARC
  5
D2
100
AcDbEntity
  8
ALPHA
100
AcDbCircle
 10
225.696666
 20
168.753699
 30
0.0
 40
1.5
100
AcDbArc
 50
359.999983
 51
90.000047
  0
ARC
  5
D3
100
AcDbEntity
  8
ALPHA
100
AcDbCircle
 10
222.496471
 20
171.753699
 30
0.0
 40
1.5
100
AcDbArc
 50
180.000046
 51
269.999973
  0
ARC
  5
D4
100
AcDbEntity
  8
ALPHA
100
AcDbCircle
 10
219.996471
 20
179.253699
 30
0.0
 40
1.0
100
AcDbArc
 50
359.999983
 51
90.000047
  0
LINE
  5
D5
100
AcDbEntity
  8
ALPHA
100
AcDbLine
 10
217.496471
 20
179.253699
 30
0.0
 11
217.496471
 21
171.699744
 31
0.0
  0
ARC
  5
D6
100
AcDbEntity
  8
ALPHA
100
AcDbCircle
 10
218.496471
 20
179.253699
 30
0.0
 40
1.0
100
AcDbArc
 50
90.000037
 51
180.000019
  0
LINE
  5
D7
100
AcDbEntity
  8
ALPHA
100
AcDbLine
 10
215.263255
 20
169.503974
 30
0.0
 11
211.510326
 21
163.003699
 31
0.0
  0
ARC
  5
D8
100
AcDbEntity
  8
ALPHA
100
AcDbCircle
 10
208.046764
 20
165.003699
 30
0.0
 40
4.0
100
AcDbArc
 50
269.999919
 51
329.999934
  0
ARC
  5
D9
100
AcDbEntity
  8
ALPHA
100
AcDbCircle
 10
216.562633
 20
168.753699
 30
0.0
 40
1.5
100
AcDbArc
 50
100.875446
 51
150.000134
  0
ARC
  5
DA
100
AcDbEntity
  8
ALPHA
100
AcDbCircle
 10
215.996471
 20
171.699744
 30
0.0
 40
1.5
100
AcDbArc
 50
280.875438
 51
359.999983
  0
LINE
  5
DB
100
AcDbEntity
  8
ALPHA
100
AcDbLine
 10
216.696666
 20
157.984168
 30
0.0
 11
216.696666
 21
156.153601
 31
0.0
  0
LINE
  5
DC
100
AcDbEntity
  8
ALPHA
100
AcDbLine
 10
214.6963
 20
157.204016
 30
0.0
 11
214.256114
 21
157.611884
 31
0.0
  0
LINE
  5
DD
100
AcDbEntity
  8
ALPHA
100
AcDbLine
 10
214.696025
 20
157.204306
 30
0.0
 11
215.136027
 21
157.612006
 31
0.0
  0
LINE
  5
DE
100
AcDbEntity
  8
ALPHA
100
AcDbLine
 10
213.671458
 20
157.478766
 30
0.0
 11
213.494243
 21
158.05184
 31
0.0
  0
LINE
  5
DF
100
AcDbEntity
  8
ALPHA
100
AcDbLine
 10
213.671031
 20
157.478751
 30
0.0
 11
214.256175
 21
157.611899
 31
0.0
  0
LINE
  5
E0
100
AcDbEntity
  8
ALPHA
100
AcDbLine
 10
212.921184
 20
158.228964
 30
0.0
 11
213.054271
 21
158.813864
 31
0.0
  0
LINE
  5
E1
100
AcDbEntity
  8
ALPHA
100
AcDbLine
 10
212.921153
 20
158.228827
 30
0.0
 11
213.494487
 21
158.05155
 31
0.0
  0
LINE
  5
E2
100
AcDbEntity
  8
ALPHA
100
AcDbLine
 10
212.645976
 20
159.253913
 30
0.0
 11
213.053691
 21
159.693915
 31
0.0
  0
LINE
  5
E3
100
AcDbEntity
  8
ALPHA
100
AcDbLine
 10
212.646251
 20
159.254416
 30
0.0
 11
213.054118
 21
158.814246
 31
0.0
  0
LINE
  5
E4
100
AcDbEntity
  8
ALPHA
100
AcDbLine
 10
212.920817
 20
160.278967
 30
0.0
 11
213.494151
 21
160.456244
 31
0.0
  0
LINE
  5
E5
100
AcDbEntity
  8
ALPHA
100
AcDbLine
 10
212.920909
 20
160.27909
 30
0.0
 11
213.054057
 21
159.693945
 31
0.0
  0
LINE
  5
E6
100
AcDbEntity
  8
ALPHA
100
AcDbLine
 10
213.671214
 20
161.029318
 30
0.0
 11
214.256358
 21
160.896185
 31
0.0
  0
LINE
  5
E7
100
AcDbEntity
  8
ALPHA
100
AcDbLine
 10
213.671794
 20
161.029273
 30
0.0
 11
213.494517
 21
160.455969
 31
0.0
  0
LINE
  5
E8
100
AcDbEntity
  8
ALPHA
100
AcDbLine
 10
215.721538
 20
157.478919
 30
0.0
 11
215.136607
 21
157.611991
 31
0.0
  0
LINE
  5
E9
100
AcDbEntity
  8
ALPHA
100
AcDbLine
 10
215.72169
 20
157.47843
 30
0.0
 11
215.914683
 21
158.102606
 31
0.0
  0
LINE
  5
EA
100
AcDbEntity
  8
ALPHA
100
AcDbLine
 10
214.695903
 20
161.3039
 30
0.0
 11
215.135905
 21
160.896216
 31
0.0
  0
LINE
  5
EB
100
AcDbEntity
  8
ALPHA
100
AcDbLine
 10
214.696361
 20
161.304205
 30
0.0
 11
214.256175
 21
160.896323
 31
0.0
  0
LINE
  5
EC
100
AcDbEntity
  8
ALPHA
100
AcDbLine
 10
215.721019
 20
161.029578
 30
0.0
 11
215.914134
 21
160.405196
 31
0.0
  0
LINE
  5
ED
100
AcDbEntity
  8
ALPHA
100
AcDbLine
 10
215.721263
 20
161.029212
 30
0.0
 11
215.136363
 21
160.896124
 31
0.0
  0
ARC
  5
EE
100
AcDbEntity
  8
ALPHA
100
AcDbCircle
 10
216.296519
 20
160.523474
 30
0.0
 40
0.4
100
AcDbArc
 50
197.182944
 51
359.9996
  0
ARC
  5
EF
100
AcDbEntity
  8
ALPHA
100
AcDbCircle
 10
216.296519
 20
157.984168
 30
0.0
 40
0.4
100
AcDbArc
 50
0.001014
 51
162.817831
  0
LINE
  5
F0
100
AcDbEntity
  8
ALPHA
100
AcDbLine
 10
220.996471
 20
251.453711
 30
0.0
 11
220.996471
 21
258.953711
 31
0.0
  0
LINE
  5
F1
100
AcDbEntity
  8
ALPHA
100
AcDbLine
 10
162.696422
 20
273.203711
 30
0.0
 11
208.046764
 21
273.203711
 31
0.0
  0
LINE
  5
F2
100
AcDbEntity
  8
ALPHA
100
AcDbLine
 10
162.696422
 20
269.703955
 30
0.0
 11
208.046764
 21
269.703955
 31
0.0
  0
LINE
  5
F3
100
AcDbEntity
  8
ALPHA
100
AcDbLine
 10
224.196666
 20
264.203711
 30
0.0
 11
224.196666
 21
267.853858
 31
0.0
  0
LINE
  5
F4
100
AcDbEntity
  8
ALPHA
100
AcDbLine
 10
224.696422
 20
268.353858
 30
0.0
 11
226.696666
 21
268.353858
 31
0.0
  0
LINE
  5
F5
100
AcDbEntity
  8
ALPHA
100
AcDbLine
 10
224.696422
 20
274.553809
 30
0.0
 11
226.696666
 21
274.553809
 31
0.0
  0
LINE
  5
F6
100
AcDbEntity
  8
ALPHA
100
AcDbLine
 10
224.196666
 20
275.053809
 30
0.0
 11
224.196666
 21
278.703711
 31
0.0
  0
ARC
  5
F7
100
AcDbEntity
  8
ALPHA
100
AcDbCircle
 10
226.696666
 20
275.053809
 30
0.0
 40
0.5
100
AcDbArc
 50
269.999973
 51
0.000037
  0
ARC
  5
F8
100
AcDbEntity
  8
ALPHA
100
AcDbCircle
 10
224.696422
 20
275.053809
 30
0.0
 40
0.5
100
AcDbArc
 50
179.999964
 51
269.999946
  0
ARC
  5
F9
100
AcDbEntity
  8
ALPHA
100
AcDbCircle
 10
226.696666
 20
267.853858
 30
0.0
 40
0.5
100
AcDbArc
 50
0.000031
 51
90.000037
  0
ARC
  5
FA
100
AcDbEntity
  8
ALPHA
100
AcDbCircle
 10
224.696422
 20
267.853858
 30
0.0
 40
0.5
100
AcDbArc
 50
90.000037
 51
179.999964
  0
LINE
  5
FB
100
AcDbEntity
  8
ALPHA
100
AcDbLine
 10
218.696422
 20
279.203711
 30
0.0
 11
223.696422
 21
279.203711
 31
0.0
  0
LINE
  5
FC
100
AcDbEntity
  8
ALPHA
100
AcDbLine
 10
218.696422
 20
263.703711
 30
0.0
 11
223.696422
 21
263.703711
 31
0.0
  0
ARC
  5
FD
100
AcDbEntity
  8
ALPHA
100
AcDbCircle
 10
223.696422
 20
264.203711
 30
0.0
 40
0.5
100
AcDbArc
 50
269.999973
 51
0.000037
  0
ARC
  5
FE
100
AcDbEntity
  8
ALPHA
100
AcDbCircle
 10
223.696422
 20
278.703711
 30
0.0
 40
0.5
100
AcDbArc
 50
0.000031
 51
90.000037
  0
LINE
  5
FF
100
AcDbEntity
  8
ALPHA
100
AcDbLine
 10
218.496471
 20
250.453711
 30
0.0
 11
219.996471
 21
250.453711
 31
0.0
  0
LINE
  5
100
100
AcDbEntity
  8
ALPHA
100
AcDbLine
 10
216.562633
 20
282.453711
 30
0.0
 11
225.696666
 21
282.453711
 31
0.0
  0
ARC
  5
101
100
AcDbEntity
  8
ALPHA
100
AcDbCircle
 10
225.696666
 20
280.953955
 30
0.0
 40
1.5
100
AcDbArc
 50
0.000031
 51
90.000037
  0
LINE
  5
102
100
AcDbEntity
  8
ALPHA
100
AcDbLine
 10
218.196666
 20
274.553809
 30
0.0
 11
218.196666
 21
278.703711
 31
0.0
  0
LINE
  5
103
100
AcDbEntity
  8
ALPHA
100
AcDbLine
 10
218.196666
 20
264.203711
 30
0.0
 11
218.196666
 21
267.853858
 31
0.0
  0
ARC
  5
104
100
AcDbEntity
  8
ALPHA
100
AcDbCircle
 10
218.696422
 20
278.703711
 30
0.0
 40
0.5
100
AcDbArc
 50
90.000037
 51
179.999964
  0
ARC
  5
105
100
AcDbEntity
  8
ALPHA
100
AcDbCircle
 10
218.696422
 20
264.203711
 30
0.0
 40
0.5
100
AcDbArc
 50
179.999964
 51
269.999946
  0
LINE
  5
106
100
AcDbEntity
  8
ALPHA
100
AcDbLine
 10
216.696666
 20
268.353858
 30
0.0
 11
216.696666
 21
270.183936
 31
0.0
  0
LINE
  5
107
100
AcDbEntity
  8
ALPHA
100
AcDbLine
 10
216.696666
 20
274.553809
 30
0.0
 11
218.196666
 21
274.553809
 31
0.0
  0
LINE
  5
108
100
AcDbEntity
  8
ALPHA
100
AcDbLine
 10
216.696666
 20
268.353858
 30
0.0
 11
217.696666
 21
268.353858
 31
0.0
  0
ARC
  5
109
100
AcDbEntity
  8
ALPHA
100
AcDbCircle
 10
217.696666
 20
267.853858
 30
0.0
 40
0.5
100
AcDbArc
 50
0.000031
 51
90.000037
  0
LINE
  5
10A
100
AcDbEntity
  8
ALPHA
100
AcDbLine
 10
215.263225
 20
281.703627
 30
0.0
 11
211.510417
 21
275.203574
 31
0.0
  0
ARC
  5
10B
100
AcDbEntity
  8
ALPHA
100
AcDbCircle
 10
208.046764
 20
277.203955
 30
0.0
 40
4.0
100
AcDbArc
 50
269.999919
 51
330.000043
  0
ARC
  5
10C
100
AcDbEntity
  8
ALPHA
100
AcDbCircle
 10
216.562633
 20
280.953955
 30
0.0
 40
1.5
100
AcDbArc
 50
90.000201
 51
150.000025
  0
LINE
  5
10D
100
AcDbEntity
  8
ALPHA
100
AcDbLine
 10
222.496471
 20
260.453711
 30
0.0
 11
225.696666
 21
260.453711
 31
0.0
  0
ARC
  5
10E
100
AcDbEntity
  8
ALPHA
100
AcDbCircle
 10
225.696666
 20
261.953711
 30
0.0
 40
1.5
100
AcDbArc
 50
269.999973
 51
0.000037
  0
ARC
  5
10F
100
AcDbEntity
  8
ALPHA
100
AcDbCircle
 10
222.496471
 20
258.953711
 30
0.0
 40
1.5
100
AcDbArc
 50
90.000037
 51
179.999964
  0
ARC
  5
110
100
AcDbEntity
  8
ALPHA
100
AcDbCircle
 10
219.996471
 20
251.453711
 30
0.0
 40
1.0
100
AcDbArc
 50
269.999973
 51
0.000037
  0
LINE
  5
111
100
AcDbEntity
  8
ALPHA
100
AcDbLine
 10
217.496471
 20
251.453711
 30
0.0
 11
217.496471
 21
259.007666
 31
0.0
  0
ARC
  5
112
100
AcDbEntity
  8
ALPHA
100
AcDbCircle
 10
218.496471
 20
251.453711
 30
0.0
 40
1.0
100
AcDbArc
 50
179.999964
 51
269.999946
  0
LINE
  5
113
100
AcDbEntity
  8
ALPHA
100
AcDbLine
 10
215.263255
 20
261.20333
 30
0.0
 11
211.510326
 21
267.703589
 31
0.0
  0
ARC
  5
114
100
AcDbEntity
  8
ALPHA
100
AcDbCircle
 10
208.046764
 20
265.703711
 30
0.0
 40
4.0
100
AcDbArc
 50
30.000079
 51
90.000091
  0
ARC
  5
115
100
AcDbEntity
  8
ALPHA
100
AcDbCircle
 10
216.562633
 20
261.953711
 30
0.0
 40
1.5
100
AcDbArc
 50
209.999876
 51
259.124564
  0
ARC
  5
116
100
AcDbEntity
  8
ALPHA
100
AcDbCircle
 10
215.996471
 20
259.007666
 30
0.0
 40
1.5
100
AcDbArc
 50
0.000031
 51
79.124572
  0
LINE
  5
117
100
AcDbEntity
  8
ALPHA
100
AcDbLine
 10
216.696666
 20
272.723242
 30
0.0
 11
216.696666
 21
274.553809
 31
0.0
  0
LINE
  5
118
100
AcDbEntity
  8
ALPHA
100
AcDbLine
 10
214.696483
 20
273.50334
 30
0.0
 11
214.256297
 21
273.095473
 31
0.0
  0
LINE
  5
119
100
AcDbEntity
  8
ALPHA
100
AcDbLine
 10
214.696208
 20
273.503058
 30
0.0
 11
215.136211
 21
273.095351
 31
0.0
  0
LINE
  5
11A
100
AcDbEntity
  8
ALPHA
100
AcDbLine
 10
213.671458
 20
273.228644
 30
0.0
 11
213.494243
 21
272.655554
 31
0.0
  0
LINE
  5
11B
100
AcDbEntity
  8
ALPHA
100
AcDbLine
 10
213.671062
 20
273.228644
 30
0.0
 11
214.256206
 21
273.095496
 31
0.0
  0
LINE
  5
11C
100
AcDbEntity
  8
ALPHA
100
AcDbLine
 10
212.921153
 20
272.478438
 30
0.0
 11
213.05421
 21
271.89353
 31
0.0
  0
LINE
  5
11D
100
AcDbEntity
  8
ALPHA
100
AcDbLine
 10
212.921153
 20
272.478575
 30
0.0
 11
213.494456
 21
272.655844
 31
0.0
  0
LINE
  5
11E
100
AcDbEntity
  8
ALPHA
100
AcDbLine
 10
212.645976
 20
271.453269
 30
0.0
 11
213.05366
 21
271.013266
 31
0.0
  0
LINE
  5
11F
100
AcDbEntity
  8
ALPHA
100
AcDbLine
 10
212.646434
 20
271.452948
 30
0.0
 11
213.054301
 21
271.893134
 31
0.0
  0
LINE
  5
120
100
AcDbEntity
  8
ALPHA
100
AcDbLine
 10
212.920817
 20
270.428435
 30
0.0
 11
213.494151
 21
270.251151
 31
0.0
  0
LINE
  5
121
100
AcDbEntity
  8
ALPHA
100
AcDbLine
 10
212.92097
 20
270.428305
 30
0.0
 11
213.054088
 21
271.013449
 31
0.0
  0
LINE
  5
122
100
AcDbEntity
  8
ALPHA
100
AcDbLine
 10
213.671184
 20
269.678076
 30
0.0
 11
214.256328
 21
269.811209
 31
0.0
  0
LINE
  5
123
100
AcDbEntity
  8
ALPHA
100
AcDbLine
 10
213.671794
 20
269.678122
 30
0.0
 11
213.494517
 21
270.251441
 31
0.0
  0
LINE
  5
124
100
AcDbEntity
  8
ALPHA
100
AcDbLine
 10
215.721507
 20
273.228484
 30
0.0
 11
215.136607
 21
273.095404
 31
0.0
  0
LINE
  5
125
100
AcDbEntity
  8
ALPHA
100
AcDbLine
 10
215.72169
 20
273.228972
 30
0.0
 11
215.914683
 21
272.604804
 31
0.0
  0
LINE
  5
126
100
AcDbEntity
  8
ALPHA
100
AcDbLine
 10
214.695872
 20
269.403281
 30
0.0
 11
215.135875
 21
269.81098
 31
0.0
  0
LINE
  5
127
100
AcDbEntity
  8
ALPHA
100
AcDbLine
 10
214.696544
 20
269.403166
 30
0.0
 11
214.256358
 21
269.811041
 31
0.0
  0
LINE
  5
128
100
AcDbEntity
  8
ALPHA
100
AcDbLine
 10
215.721019
 20
269.677817
 30
0.0
 11
215.914134
 21
270.302203
 31
0.0
  0
LINE
  5
129
100
AcDbEntity
  8
ALPHA
100
AcDbLine
 10
215.721294
 20
269.678191
 30
0.0
 11
215.136394
 21
269.811286
 31
0.0
  0
ARC
  5
12A
100
AcDbEntity
  8
ALPHA
100
AcDbCircle
 10
216.296519
 20
270.183936
 30
0.0
 40
0.4
100
AcDbArc
 50
0.000413
 51
162.817121
  0
ARC
  5
12B
100
AcDbEntity
  8
ALPHA
100
AcDbCircle
 10
216.296519
 20
272.723242
 30
0.0
 40
0.4
100
AcDbArc
 50
197.182234
 51
359.998999
  0
LINE
  5
12C
100
AcDbEntity
  8
ALPHA
100
AcDbLine
 10
115.196422
 20
121.011954
 30
0.0
 11
115.196422
 21
136.753699
 31
0.0
  0
LINE
  5
12D
100
AcDbEntity
  8
ALPHA
100
AcDbLine
 10
86.196422
 20
63.353705
 30
0.0
 11
94.196422
 21
63.353705
 31
0.0
  0
LINE
  5
12E
100
AcDbEntity
  8
ALPHA
100
AcDbLine
 10
86.196422
 20
367.353705
 30
0.0
 11
94.196422
 21
367.353705
 31
0.0
  0
LINE
  5
12F
100
AcDbEntity
  8
ALPHA
100
AcDbLine
 10
-8.603566
 20
116.011954
 30
0.0
 11
110.196422
 21
116.011954
 31
0.0
  0
LINE
  5
130
100
AcDbEntity
  8
ALPHA
100
AcDbLine
 10
-8.603566
 20
314.695456
 30
0.0
 11
110.196422
 21
314.695456
 31
0.0
  0
ARC
  5
131
100
AcDbEntity
  8
ALPHA
100
AcDbCircle
 10
110.196422
 20
309.695456
 30
0.0
 40
5.0
100
AcDbArc
 50
359.999983
 51
90.000047
  0
ARC
  5
132
100
AcDbEntity
  8
ALPHA
100
AcDbCircle
 10
110.196422
 20
121.011954
 30
0.0
 40
5.0
100
AcDbArc
 50
270.000028
 51
359.999983
  0
LINE
  5
133
100
AcDbEntity
  8
ALPHA
100
AcDbLine
 10
94.196422
 20
63.353705
 30
0.0
 11
94.196422
 21
116.011954
 31
0.0
  0
LINE
  5
134
100
AcDbEntity
  8
ALPHA
100
AcDbLine
 10
94.196422
 20
314.695456
 30
0.0
 11
94.196422
 21
367.353705
 31
0.0
  0
LINE
  5
135
100
AcDbEntity
  8
ALPHA
100
AcDbLine
 10
26.196422
 20
116.011954
 30
0.0
 11
26.196422
 21
314.695456
 31
0.0
  0
LINE
  5
136
100
AcDbEntity
  8
ALPHA
100
AcDbLine
 10
115.196422
 20
293.953711
 30
0.0
 11
115.196422
 21
309.695456
 31
0.0
  0
LINE
  5
137
100
AcDbEntity
  8
ALPHA
100
AcDbLine
 10
86.196422
 20
63.353705
 30
0.0
 11
86.196422
 21
367.353705
 31
0.0
  0
ARC
  5
138
100
AcDbEntity
  8
ALPHA
100
AcDbCircle
 10
235.196422
 20
261.553687
 30
0.0
 40
4.0
100
AcDbArc
 50
179.999964
 51
228.189681
  0
ARC
  5
139
100
AcDbEntity
  8
ALPHA
100
AcDbCircle
 10
235.196422
 20
281.553687
 30
0.0
 40
8.0
100
AcDbArc
 50
99.594103
 51
179.999964
  0
ARC
  5
13A
100
AcDbEntity
  8
ALPHA
100
AcDbCircle
 10
233.196422
 20
293.38584
 30
0.0
 40
4.0
100
AcDbArc
 50
279.594094
 51
359.999983
  0
ARC
  5
13B
100
AcDbEntity
  8
ALPHA
100
AcDbCircle
 10
233.196422
 20
293.38584
 30
0.0
 40
8.0
100
AcDbArc
 50
279.594094
 51
359.999983
  0
ARC
  5
13C
100
AcDbEntity
  8
ALPHA
100
AcDbCircle
 10
235.196422
 20
281.553687
 30
0.0
 40
4.0
100
AcDbArc
 50
99.594103
 51
179.999964
  0
ARC
  5
13D
100
AcDbEntity
  8
ALPHA
100
AcDbCircle
 10
233.196422
 20
111.753699
 30
0.0
 40
4.0
100
AcDbArc
 50
269.999973
 51
359.999983
  0
LINE
  5
13E
100
AcDbEntity
  8
ALPHA
100
AcDbLine
 10
229.196422
 20
107.753699
 30
0.0
 11
233.196422
 21
107.753699
 31
0.0
  0
LINE
  5
13F
100
AcDbEntity
  8
ALPHA
100
AcDbLine
 10
221.196422
 20
76.753699
 30
0.0
 11
221.196422
 21
101.253699
 31
0.0
  0
ARC
  5
140
100
AcDbEntity
  8
ALPHA
100
AcDbCircle
 10
229.196422
 20
99.753699
 30
0.0
 40
8.0
100
AcDbArc
 50
90.000037
 51
179.999964
  0
LINE
  5
141
100
AcDbEntity
  8
ALPHA
100
AcDbLine
 10
225.196422
 20
76.753699
 30
0.0
 11
225.196422
 21
99.753699
 31
0.0
  0
ARC
  5
142
100
AcDbEntity
  8
ALPHA
100
AcDbCircle
 10
229.196422
 20
99.753699
 30
0.0
 40
4.0
100
AcDbArc
 50
90.000037
 51
179.999964
  0
LINE
  5
143
100
AcDbEntity
  8
ALPHA
100
AcDbLine
 10
229.196422
 20
103.753699
 30
0.0
 11
233.196422
 21
103.753699
 31
0.0
  0
ARC
  5
144
100
AcDbEntity
  8
ALPHA
100
AcDbCircle
 10
233.196422
 20
111.753699
 30
0.0
 40
8.0
100
AcDbArc
 50
269.999973
 51
299.999967
  0
LINE
  5
145
100
AcDbEntity
  8
ALPHA
100
AcDbLine
 10
221.196422
 20
76.753699
 30
0.0
 11
225.196422
 21
76.753699
 31
0.0
  0
LINE
  5
146
100
AcDbEntity
  8
ALPHA
100
AcDbLine
 10
237.196422
 20
327.253699
 30
0.0
 11
241.196422
 21
327.253699
 31
0.0
  0
LINE
  5
147
100
AcDbEntity
  8
AXE
100
AcDbLine
 10
210.88148
 20
90.253699
 30
0.0
 11
241.196422
 21
90.253699
 31
0.0
  0
LINE
  5
148
100
AcDbEntity
  8
ALPHA
100
AcDbLine
 10
227.196422
 20
82.253699
 30
0.0
 11
227.196422
 21
98.253699
 31
0.0
  0
LINE
  5
149
100
AcDbEntity
  8
ALPHA
100
AcDbLine
 10
225.196422
 20
98.253699
 30
0.0
 11
227.196422
 21
98.253699
 31
0.0
  0
LINE
  5
14A
100
AcDbEntity
  8
ALPHA
100
AcDbLine
 10
225.196422
 20
82.253699
 30
0.0
 11
227.196422
 21
82.253699
 31
0.0
  0
LINE
  5
14B
100
AcDbEntity
  8
ALPHA
100
AcDbLine
 10
211.696422
 20
81.003699
 30
0.0
 11
211.696422
 21
99.503699
 31
0.0
  0
LINE
  5
14C
100
AcDbEntity
  8
ALPHA
100
AcDbLine
 10
213.196422
 20
101.003699
 30
0.0
 11
219.196422
 21
101.003699
 31
0.0
  0
LINE
  5
14D
100
AcDbEntity
  8
ALPHA
100
AcDbLine
 10
213.196422
 20
79.503699
 30
0.0
 11
218.196422
 21
79.503699
 31
0.0
  0
LINE
  5
14E
100
AcDbEntity
  8
ALPHA
100
AcDbLine
 10
213.196422
 20
96.003699
 30
0.0
 11
218.196422
 21
96.003699
 31
0.0
  0
LINE
  5
14F
100
AcDbEntity
  8
ALPHA
100
AcDbLine
 10
213.196422
 20
84.503699
 30
0.0
 11
218.196422
 21
84.503699
 31
0.0
  0
LINE
  5
150
100
AcDbEntity
  8
ALPHA
100
AcDbLine
 10
219.696422
 20
79.253699
 30
0.0
 11
219.696422
 21
101.253699
 31
0.0
  0
ARC
  5
151
100
AcDbEntity
  8
ALPHA
100
AcDbCircle
 10
219.196422
 20
100.503699
 30
0.0
 40
0.5
100
AcDbArc
 50
0.000031
 51
90.000037
  0
LINE
  5
152
100
AcDbEntity
  8
ALPHA
100
AcDbLine
 10
227.196422
 20
84.503699
 30
0.0
 11
238.696422
 21
84.503699
 31
0.0
  0
LINE
  5
153
100
AcDbEntity
  8
ALPHA
100
AcDbLine
 10
227.196422
 20
96.003699
 30
0.0
 11
238.696422
 21
96.003699
 31
0.0
  0
ARC
  5
154
100
AcDbEntity
  8
ALPHA
100
AcDbCircle
 10
218.196422
 20
83.003699
 30
0.0
 40
1.5
100
AcDbArc
 50
0.000031
 51
90.000037
  0
ARC
  5
155
100
AcDbEntity
  8
ALPHA
100
AcDbCircle
 10
218.196422
 20
86.003699
 30
0.0
 40
1.5
100
AcDbArc
 50
269.999973
 51
359.999983
  0
ARC
  5
156
100
AcDbEntity
  8
ALPHA
100
AcDbCircle
 10
218.196422
 20
94.503699
 30
0.0
 40
1.5
100
AcDbArc
 50
0.000031
 51
90.000037
  0
ARC
  5
157
100
AcDbEntity
  8
ALPHA
100
AcDbCircle
 10
218.196422
 20
97.503699
 30
0.0
 40
1.5
100
AcDbArc
 50
269.999973
 51
359.999983
  0
ARC
  5
158
100
AcDbEntity
  8
ALPHA
100
AcDbCircle
 10
213.196422
 20
97.503699
 30
0.0
 40
1.5
100
AcDbArc
 50
179.999964
 51
269.999946
  0
ARC
  5
159
100
AcDbEntity
  8
ALPHA
100
AcDbCircle
 10
213.196422
 20
94.503699
 30
0.0
 40
1.5
100
AcDbArc
 50
90.000037
 51
179.999964
  0
ARC
  5
15A
100
AcDbEntity
  8
ALPHA
100
AcDbCircle
 10
213.196422
 20
86.003699
 30
0.0
 40
1.5
100
AcDbArc
 50
179.999964
 51
269.999946
  0
ARC
  5
15B
100
AcDbEntity
  8
ALPHA
100
AcDbCircle
 10
213.196422
 20
83.003699
 30
0.0
 40
1.5
100
AcDbArc
 50
90.000037
 51
179.999964
  0
ARC
  5
15C
100
AcDbEntity
  8
ALPHA
100
AcDbCircle
 10
218.196422
 20
81.003699
 30
0.0
 40
1.5
100
AcDbArc
 50
269.999973
 51
359.999983
  0
ARC
  5
15D
100
AcDbEntity
  8
ALPHA
100
AcDbCircle
 10
213.196422
 20
99.503699
 30
0.0
 40
1.5
100
AcDbArc
 50
90.000037
 51
179.999964
  0
ARC
  5
15E
100
AcDbEntity
  8
ALPHA
100
AcDbCircle
 10
213.196422
 20
81.003699
 30
0.0
 40
1.5
100
AcDbArc
 50
179.999964
 51
269.999946
  0
LINE
  5
15F
100
AcDbEntity
  8
ALPHA
100
AcDbLine
 10
219.696422
 20
101.253699
 30
0.0
 11
221.196422
 21
101.253699
 31
0.0
  0
LINE
  5
160
100
AcDbEntity
  8
ALPHA
100
AcDbLine
 10
219.696422
 20
79.253699
 30
0.0
 11
221.196422
 21
79.253699
 31
0.0
  0
LINE
  5
161
100
AcDbEntity
  8
ALPHA
100
AcDbLine
 10
239.696422
 20
85.503699
 30
0.0
 11
239.696422
 21
95.003699
 31
0.0
  0
LINE
  5
162
100
AcDbEntity
  8
ALPHA
100
AcDbLine
 10
238.696422
 20
84.503668
 30
0.0
 11
239.6963
 21
85.503546
 31
0.0
  0
LINE
  5
163
100
AcDbEntity
  8
ALPHA
100
AcDbLine
 10
238.696391
 20
96.003851
 30
0.0
 11
239.696452
 21
95.00376
 31
0.0
  0
LINE
  5
164
100
AcDbEntity
  8
ALPHA
100
AcDbLine
 10
239.696422
 20
85.503699
 30
0.0
 11
227.196422
 21
85.503699
 31
0.0
  0
LINE
  5
165
100
AcDbEntity
  8
ALPHA
100
AcDbLine
 10
239.696422
 20
95.003699
 30
0.0
 11
227.196422
 21
95.003699
 31
0.0
  0
LINE
  5
166
100
AcDbEntity
  8
AXE
100
AcDbLine
 10
221.196422
 20
215.403693
 30
0.0
 11
241.196422
 21
215.403693
 31
0.0
  0
LINE
  5
167
100
AcDbEntity
  8
ALPHA
100
AcDbLine
 10
231.196422
 20
252.609442
 30
0.0
 11
231.196422
 21
178.197974
 31
0.0
  0
LINE
  5
168
100
AcDbEntity
  8
ALPHA
100
AcDbLine
 10
227.196422
 20
281.553778
 30
0.0
 11
227.196422
 21
261.553687
 31
0.0
  0
LINE
  5
169
100
AcDbEntity
  8
AXE
100
AcDbLine
 10
221.196422
 20
271.553778
 30
0.0
 11
241.196422
 21
271.553778
 31
0.0
  0
LINE
  5
16A
100
AcDbEntity
  8
AXE
100
AcDbLine
 10
221.196422
 20
159.253699
 30
0.0
 11
241.196422
 21
159.253699
 31
0.0
  0
ARC
  5
16B
100
AcDbEntity
  8
ALPHA
100
AcDbCircle
 10
235.196422
 20
261.553778
 30
0.0
 40
8.0
100
AcDbArc
 50
179.999964
 51
228.189708
  0
ARC
  5
16C
100
AcDbEntity
  8
ALPHA
100
AcDbCircle
 10
227.196422
 20
252.609442
 30
0.0
 40
4.0
100
AcDbArc
 50
359.999928
 51
48.189699
  0
LINE
  5
16D
100
AcDbEntity
  8
ALPHA
100
AcDbLine
 10
231.196422
 20
281.553778
 30
0.0
 11
231.196422
 21
261.553687
 31
0.0
  0
ARC
  5
16E
100
AcDbEntity
  8
ALPHA
100
AcDbCircle
 10
235.196422
 20
169.253699
 30
0.0
 40
4.0
100
AcDbArc
 50
131.810302
 51
180.000019
  0
ARC
  5
16F
100
AcDbEntity
  8
ALPHA
100
AcDbCircle
 10
235.196422
 20
169.253699
 30
0.0
 40
8.0
100
AcDbArc
 50
131.810302
 51
180.000019
  0
ARC
  5
170
100
AcDbEntity
  8
ALPHA
100
AcDbCircle
 10
227.196422
 20
178.197974
 30
0.0
 40
4.0
100
AcDbArc
 50
311.810293
 51
0.000092
  0
ARC
  5
171
100
AcDbEntity
  8
ALPHA
100
AcDbCircle
 10
227.196422
 20
178.197974
 30
0.0
 40
8.0
100
AcDbArc
 50
311.810293
 51
359.999983
  0
LINE
  5
172
100
AcDbEntity
  8
ALPHA
100
AcDbLine
 10
231.196422
 20
169.253699
 30
0.0
 11
231.196422
 21
149.253699
 31
0.0
  0
LINE
  5
173
100
AcDbEntity
  8
ALPHA
100
AcDbLine
 10
237.196422
 20
137.421546
 30
0.0
 11
237.196422
 21
103.553687
 31
0.0
  0
ARC
  5
174
100
AcDbEntity
  8
ALPHA
100
AcDbCircle
 10
235.196422
 20
149.253699
 30
0.0
 40
8.0
100
AcDbArc
 50
179.999964
 51
260.405907
  0
ARC
  5
175
100
AcDbEntity
  8
ALPHA
100
AcDbCircle
 10
233.196422
 20
137.421546
 30
0.0
 40
4.0
100
AcDbArc
 50
0.000031
 51
80.405916
  0
ARC
  5
176
100
AcDbEntity
  8
ALPHA
100
AcDbCircle
 10
233.196422
 20
137.421546
 30
0.0
 40
8.0
100
AcDbArc
 50
0.000031
 51
80.405916
  0
ARC
  5
177
100
AcDbEntity
  8
ALPHA
100
AcDbCircle
 10
235.196422
 20
149.253699
 30
0.0
 40
4.0
100
AcDbArc
 50
179.999964
 51
260.405907
  0
LINE
  5
178
100
AcDbEntity
  8
ALPHA
100
AcDbLine
 10
237.196422
 20
319.053778
 30
0.0
 11
237.196422
 21
293.38584
 31
0.0
  0
ARC
  5
179
100
AcDbEntity
  8
ALPHA
100
AcDbCircle
 10
233.196422
 20
319.053778
 30
0.0
 40
4.0
100
AcDbArc
 50
0.000031
 51
90.000037
  0
LINE
  5
17A
100
AcDbEntity
  8
ALPHA
100
AcDbLine
 10
241.196422
 20
327.253699
 30
0.0
 11
241.196422
 21
293.38584
 31
0.0
  0
LINE
  5
17B
100
AcDbEntity
  8
ALPHA
100
AcDbLine
 10
229.196422
 20
323.053778
 30
0.0
 11
233.196422
 21
323.053778
 31
0.0
  0
LINE
  5
17C
100
AcDbEntity
  8
ALPHA
100
AcDbLine
 10
221.196422
 20
354.053748
 30
0.0
 11
221.196422
 21
329.553778
 31
0.0
  0
ARC
  5
17D
100
AcDbEntity
  8
ALPHA
100
AcDbCircle
 10
229.196422
 20
331.053778
 30
0.0
 40
8.0
100
AcDbArc
 50
180.000046
 51
269.999973
  0
LINE
  5
17E
100
AcDbEntity
  8
ALPHA
100
AcDbLine
 10
225.196422
 20
354.053748
 30
0.0
 11
225.196422
 21
331.053778
 31
0.0
  0
ARC
  5
17F
100
AcDbEntity
  8
ALPHA
100
AcDbCircle
 10
229.196422
 20
331.053778
 30
0.0
 40
4.0
100
AcDbArc
 50
180.000046
 51
269.999973
  0
LINE
  5
180
100
AcDbEntity
  8
ALPHA
100
AcDbLine
 10
229.196422
 20
327.053778
 30
0.0
 11
233.196422
 21
327.053778
 31
0.0
  0
ARC
  5
181
100
AcDbEntity
  8
ALPHA
100
AcDbCircle
 10
233.196422
 20
319.053778
 30
0.0
 40
8.0
100
AcDbArc
 50
0.000031
 51
90.000037
  0
LINE
  5
182
100
AcDbEntity
  8
ALPHA
100
AcDbLine
 10
241.196422
 20
137.421546
 30
0.0
 11
241.196422
 21
103.553687
 31
0.0
  0
LINE
  5
183
100
AcDbEntity
  8
ALPHA
100
AcDbLine
 10
227.196422
 20
169.253699
 30
0.0
 11
227.196422
 21
149.253699
 31
0.0
  0
LINE
  5
184
100
AcDbEntity
  8
ALPHA
100
AcDbLine
 10
221.196422
 20
354.053748
 30
0.0
 11
225.196422
 21
354.053748
 31
0.0
  0
LINE
  5
185
100
AcDbEntity
  8
ALPHA
100
AcDbLine
 10
237.196422
 20
103.553687
 30
0.0
 11
241.196422
 21
103.553687
 31
0.0
  0
LINE
  5
186
100
AcDbEntity
  8
AXE
100
AcDbLine
 10
210.88148
 20
340.553748
 30
0.0
 11
241.196422
 21
340.553748
 31
0.0
  0
LINE
  5
187
100
AcDbEntity
  8
ALPHA
100
AcDbLine
 10
227.196422
 20
348.553748
 30
0.0
 11
227.196422
 21
332.553778
 31
0.0
  0
LINE
  5
188
100
AcDbEntity
  8
ALPHA
100
AcDbLine
 10
225.196422
 20
332.553778
 30
0.0
 11
227.196422
 21
332.553778
 31
0.0
  0
LINE
  5
189
100
AcDbEntity
  8
ALPHA
100
AcDbLine
 10
225.196422
 20
348.553748
 30
0.0
 11
227.196422
 21
348.553748
 31
0.0
  0
ARC
  5
18A
100
AcDbEntity
  8
ALPHA
100
AcDbCircle
 10
227.196422
 20
252.609412
 30
0.0
 40
8.0
100
AcDbArc
 50
359.999983
 51
48.189699
  0
LINE
  5
18B
100
AcDbEntity
  8
ALPHA
100
AcDbLine
 10
235.196422
 20
178.197974
 30
0.0
 11
235.196422
 21
252.609412
 31
0.0
  0
LINE
  5
18C
100
AcDbEntity
  8
ALPHA
100
AcDbLine
 10
237.196422
 20
325.981986
 30
0.0
 11
237.196422
 21
327.253699
 31
0.0
  0
LINE
  5
18D
100
AcDbEntity
  8
ALPHA
100
AcDbLine
 10
-13.603566
 20
121.011954
 30
0.0
 11
-13.603566
 21
309.695456
 31
0.0
  0
ARC
  5
18E
100
AcDbEntity
  8
ALPHA
100
AcDbCircle
 10
-8.603566
 20
309.695456
 30
0.0
 40
5.0
100
AcDbArc
 50
90.000003
 51
180.000005
  0
ARC
  5
18F
100
AcDbEntity
  8
ALPHA
100
AcDbCircle
 10
-8.603566
 20
121.011954
 30
0.0
 40
5.0
100
AcDbArc
 50
180.000005
 51
270.000001
  0
INSERT
  5
1D2
100
AcDbEntity
  8
0
100
AcDbBlockReference
  2
SCH_ISO
 10
0.0
 20
0.0
 30
0.0
  0
DIMENSION
  5
1DF
100
AcDbEntity
  8
COTATION1
100
AcDbDimension
  2
*D8
 10
86.196422
 20
42.51779
 30
0.0
 11
163.696422
 21
45.01779
 31
0.0
  3
SC_STAND
100
AcDbAlignedDimension
 13
241.196422
 23
103.553687
 33
0.0
 14
86.196422
 24
63.353705
 34
0.0
100
AcDbRotatedDimension
  0
DIMENSION
  5
1EC
100
AcDbEntity
  8
COTATION1
100
AcDbDimension
  2
*D7
 10
-13.603566
 20
22.10925
 30
0.0
 11
113.796428
 21
24.60925
 31
0.0
  3
SC_STAND
100
AcDbAlignedDimension
 13
241.196422
 23
103.553687
 33
0.0
 14
-13.603566
 24
121.011954
 34
0.0
100
AcDbRotatedDimension
  0
DIMENSION
  5
1F9
100
AcDbEntity
  8
COTATION1
100
AcDbDimension
  2
*D6
 10
287.681685
 20
367.353705
 30
0.0
 11
285.181685
 21
215.353705
 31
0.0
  3
SC_STAND
100
AcDbAlignedDimension
 13
94.196422
 23
63.353705
 33
0.0
 14
94.196422
 24
367.353705
 34
0.0
 50
90.0
100
AcDbRotatedDimension
  0
ENDSEC
  0
SECTION
  2
OBJECTS
  0
DICTIONARY
  5
22A
100
AcDbDictionary
  3
ACAD_GROUP
350
22B
  3
ACAD_MLINESTYLE
350
238
  3
ACDBVARIABLEDICTIONARY
350
27B
  0
DICTIONARY
  5
22B
102
{ACAD_REACTORS
330
22A
102
}
100
AcDbDictionary
  0
DICTIONARY
  5
238
102
{ACAD_REACTORS
330
22A
102
}
100
AcDbDictionary
  3
STANDARD
350
239
  0
DICTIONARY
  5
27B
102
{ACAD_REACTORS
330
22A
102
}
100
AcDbDictionary
  3
DIMADEC
350
27C
  0
MLINESTYLE
  5
239
102
{ACAD_REACTORS
330
238
102
}
100
AcDbMlineStyle
  2
STANDARD
 70
     0
  3

 62
   256
 51
90.0
 52
90.0
 71
     2
 49
0.5
 62
   256
  6
BYLAYER
 49
-0.5
 62
   256
  6
BYLAYER
  0
DICTIONARYVAR
  5
27C
102
{ACAD_REACTORS
330
27B
102
}
100
DictionaryVariables
280
     0
  1
0
  0
ENDSEC
  0
EOF
