  0
SECTION
  2
HEADER
  9
$ACADVER
  1
AC1014
  9
$ACADMAINTVER
 70
     0
  9
$DWGCODEPAGE
  3
ANSI_1252
  9
$INSBASE
 10
6.210887
 20
2.694285
 30
0.0
  9
$EXTMIN
 10
2.800003
 20
36.625
 30
0.0
  9
$EXTMAX
 10
235.27706
 20
299.375
 30
0.0
  9
$LIMMIN
 10
0.0
 20
0.0
  9
$LIMMAX
 10
210.0
 20
297.0
  9
$ORTHOMODE
 70
     0
  9
$REGENMODE
 70
     1
  9
$FILLMODE
 70
     1
  9
$QTEXTMODE
 70
     0
  9
$MIRRTEXT
 70
     0
  9
$DRAGMODE
 70
     1
  9
$LTSCALE
 40
20.0
  9
$OSMODE
 70
     0
  9
$ATTMODE
 70
     1
  9
$TEXTSIZE
 40
2.5
  9
$TRACEWID
 40
0.05
  9
$TEXTSTYLE
  7
ROMANS
  9
$CLAYER
  8
COTATION1
  9
$CELTYPE
  6
BYLAYER
  9
$CECOLOR
 62
   256
  9
$CELTSCALE
 40
1.0
  9
$DELOBJ
 70
     1
  9
$DISPSILH
 70
     0
  9
$DIMSCALE
 40
1.0
  9
$DIMASZ
 40
3.0
  9
$DIMEXO
 40
0.0625
  9
$DIMDLI
 40
0.38
  9
$DIMRND
 40
0.01
  9
$DIMDLE
 40
0.0
  9
$DIMEXE
 40
0.18
  9
$DIMTP
 40
0.0
  9
$DIMTM
 40
0.0
  9
$DIMTXT
 40
2.5
  9
$DIMCEN
 40
0.09
  9
$DIMTSZ
 40
0.0
  9
$DIMTOL
 70
     0
  9
$DIMLIM
 70
     0
  9
$DIMTIH
 70
     0
  9
$DIMTOH
 70
     0
  9
$DIMSE1
 70
     0
  9
$DIMSE2
 70
     0
  9
$DIMTAD
 70
     1
  9
$DIMZIN
 70
    12
  9
$DIMBLK
  1

  9
$DIMASO
 70
     1
  9
$DIMSHO
 70
     1
  9
$DIMPOST
  1

  9
$DIMAPOST
  1

  9
$DIMALT
 70
     0
  9
$DIMALTD
 70
     2
  9
$DIMALTF
 40
25.4
  9
$DIMLFAC
 40
1.0
  9
$DIMTOFL
 70
     1
  9
$DIMTVP
 40
0.0
  9
$DIMTIX
 70
     0
  9
$DIMSOXD
 70
     0
  9
$DIMSAH
 70
     0
  9
$DIMBLK1
  1

  9
$DIMBLK2
  1

  9
$DIMSTYLE
  2
SC_STAND
  9
$DIMCLRD
 70
     0
  9
$DIMCLRE
 70
     0
  9
$DIMCLRT
 70
     0
  9
$DIMTFAC
 40
1.0
  9
$DIMGAP
 40
1.0
  9
$DIMJUST
 70
     0
  9
$DIMSD1
 70
     0
  9
$DIMSD2
 70
     0
  9
$DIMTOLJ
 70
     1
  9
$DIMTZIN
 70
    12
  9
$DIMALTZ
 70
    12
  9
$DIMALTTZ
 70
    12
  9
$DIMFIT
 70
     5
  9
$DIMUPT
 70
     0
  9
$DIMUNIT
 70
     2
  9
$DIMDEC
 70
     3
  9
$DIMTDEC
 70
     3
  9
$DIMALTU
 70
     2
  9
$DIMALTTD
 70
     2
  9
$DIMTXSTY
  7
ROMANS
  9
$DIMAUNIT
 70
     0
  9
$LUNITS
 70
     2
  9
$LUPREC
 70
     3
  9
$SKETCHINC
 40
0.1
  9
$FILLETRAD
 40
0.0625
  9
$AUNITS
 70
     0
  9
$AUPREC
 70
     0
  9
$MENU
  1
ACAD
  9
$ELEVATION
 40
0.0
  9
$PELEVATION
 40
0.0
  9
$THICKNESS
 40
0.0
  9
$LIMCHECK
 70
     0
  9
$BLIPMODE
 70
     1
  9
$CHAMFERA
 40
0.0
  9
$CHAMFERB
 40
0.0
  9
$CHAMFERC
 40
0.0
  9
$CHAMFERD
 40
0.0
  9
$SKPOLY
 70
     0
  9
$TDCREATE
 40
2450599.365405000
  9
$TDUPDATE
 40
2451387.883740138
  9
$TDINDWG
 40
0.0025302199
  9
$TDUSRTIMER
 40
0.0025302199
  9
$USRTIMER
 70
     1
  9
$ANGBASE
 50
0.0
  9
$ANGDIR
 70
     0
  9
$PDMODE
 70
     0
  9
$PDSIZE
 40
0.0
  9
$PLINEWID
 40
0.0
  9
$COORDS
 70
     2
  9
$SPLFRAME
 70
     0
  9
$SPLINETYPE
 70
     6
  9
$SPLINESEGS
 70
     8
  9
$ATTDIA
 70
     0
  9
$ATTREQ
 70
     1
  9
$HANDLING
 70
     1
  9
$HANDSEED
  5
373
  9
$SURFTAB1
 70
     6
  9
$SURFTAB2
 70
     6
  9
$SURFTYPE
 70
     6
  9
$SURFU
 70
     6
  9
$SURFV
 70
     6
  9
$UCSNAME
  2

  9
$UCSORG
 10
0.0
 20
0.0
 30
0.0
  9
$UCSXDIR
 10
1.0
 20
0.0
 30
0.0
  9
$UCSYDIR
 10
0.0
 20
1.0
 30
0.0
  9
$PUCSNAME
  2

  9
$PUCSORG
 10
0.0
 20
0.0
 30
0.0
  9
$PUCSXDIR
 10
1.0
 20
0.0
 30
0.0
  9
$PUCSYDIR
 10
0.0
 20
1.0
 30
0.0
  9
$USERI1
 70
     0
  9
$USERI2
 70
     0
  9
$USERI3
 70
     0
  9
$USERI4
 70
     0
  9
$USERI5
 70
     0
  9
$USERR1
 40
0.0
  9
$USERR2
 40
0.0
  9
$USERR3
 40
0.0
  9
$USERR4
 40
0.0
  9
$USERR5
 40
0.0
  9
$WORLDVIEW
 70
     1
  9
$SHADEDGE
 70
     3
  9
$SHADEDIF
 70
    70
  9
$TILEMODE
 70
     1
  9
$MAXACTVP
 70
    16
  9
$PINSBASE
 10
0.0
 20
0.0
 30
0.0
  9
$PLIMCHECK
 70
     0
  9
$PEXTMIN
 10
1.000000E+20
 20
1.000000E+20
 30
1.000000E+20
  9
$PEXTMAX
 10
-1.000000E+20
 20
-1.000000E+20
 30
-1.000000E+20
  9
$PLIMMIN
 10
0.0
 20
0.0
  9
$PLIMMAX
 10
12.0
 20
9.0
  9
$UNITMODE
 70
     0
  9
$VISRETAIN
 70
     0
  9
$PLINEGEN
 70
     0
  9
$PSLTSCALE
 70
     1
  9
$TREEDEPTH
 70
  3020
  9
$PICKSTYLE
 70
     1
  9
$CMLSTYLE
  2
STANDARD
  9
$CMLJUST
 70
     0
  9
$CMLSCALE
 40
1.0
  9
$PROXYGRAPHICS
 70
     1
  9
$MEASUREMENT
 70
     0
  0
ENDSEC
  0
SECTION
  2
CLASSES
  0
CLASS
  1
DICTIONARYVAR
  2
AcDbDictionaryVar
  3
"AutoCAD"
 90
        0
280
     0
281
     0
  0
CLASS
  1
LWPOLYLINE
  2
AcDbPolyline
  3
"AutoCAD"
 90
        0
280
     0
281
     1
  0
ENDSEC
  0
SECTION
  2
TABLES
  0
TABLE
  2
VPORT
  5
30B
100
AcDbSymbolTable
 70
     1
  0
VPORT
  5
36E
100
AcDbSymbolTableRecord
100
AcDbViewportTableRecord
  2
*ACTIVE
 70
     0
 10
0.0
 20
0.0
 11
1.0
 21
1.0
 12
285.271203
 22
170.713476
 13
0.0
 23
0.0
 14
1.0
 24
1.0
 15
10.0
 25
10.0
 16
0.0
 26
0.0
 36
1.0
 17
0.0
 27
0.0
 37
0.0
 40
341.426952
 41
1.671053
 42
50.0
 43
0.0
 44
0.0
 50
0.0
 51
0.0
 71
     0
 72
   100
 73
     1
 74
     1
 75
     0
 76
     1
 77
     0
 78
     0
  0
ENDTAB
  0
TABLE
  2
LTYPE
  5
308
100
AcDbSymbolTable
 70
    24
  0
LTYPE
  5
314
100
AcDbSymbolTableRecord
100
AcDbLinetypeTableRecord
  2
BYBLOCK
 70
     0
  3

 72
    65
 73
     0
 40
0.0
  0
LTYPE
  5
315
100
AcDbSymbolTableRecord
100
AcDbLinetypeTableRecord
  2
BYLAYER
 70
     0
  3

 72
    65
 73
     0
 40
0.0
  0
LTYPE
  5
316
100
AcDbSymbolTableRecord
100
AcDbLinetypeTableRecord
  2
CONTINUOUS
 70
     0
  3
Solid line
 72
    65
 73
     0
 40
0.0
  0
LTYPE
  5
334
100
AcDbSymbolTableRecord
100
AcDbLinetypeTableRecord
  2
CADRA_SOLID
 70
     0
  3
Cadra_solid
 72
    65
 73
     0
 40
0.0
  0
LTYPE
  5
335
100
AcDbSymbolTableRecord
100
AcDbLinetypeTableRecord
  2
AXES
 70
     0
  3
____ _ ____ _ ____ _ ____ _ ____ _ ____ _ ____ 
 72
    65
 73
     4
 40
2.0
 49
1.25
 74
     0
 49
-0.25
 74
     0
 49
0.25
 74
     0
 49
-0.25
 74
     0
  0
LTYPE
  5
336
100
AcDbSymbolTableRecord
100
AcDbLinetypeTableRecord
  2
AXES2
 70
     0
  3
___ _ ___ _ ___ _ ___ _ ___ _ ___ _ ___ _ ___ _
 72
    65
 73
     4
 40
1.125
 49
0.75
 74
     0
 49
-0.125
 74
     0
 49
0.125
 74
     0
 49
-0.125
 74
     0
  0
LTYPE
  5
337
100
AcDbSymbolTableRecord
100
AcDbLinetypeTableRecord
  2
AXESX2
 70
     0
  3
________  __  ________  __  ________  __  _____
 72
    65
 73
     4
 40
4.0
 49
2.5
 74
     0
 49
-0.5
 74
     0
 49
0.5
 74
     0
 49
-0.5
 74
     0
  0
LTYPE
  5
338
100
AcDbSymbolTableRecord
100
AcDbLinetypeTableRecord
  2
TIRETPT
 70
     0
  3
__ . __ . __ . __ . __ . __ . __ . __ . __ . __
 72
    65
 73
     4
 40
1.0
 49
0.5
 74
     0
 49
-0.25
 74
     0
 49
0.0
 74
     0
 49
-0.25
 74
     0
  0
LTYPE
  5
339
100
AcDbSymbolTableRecord
100
AcDbLinetypeTableRecord
  2
TIRETPT2
 70
     0
  3
_._._._._._._._._._._._._._._._._._._._._._._._
 72
    65
 73
     4
 40
0.5
 49
0.25
 74
     0
 49
-0.125
 74
     0
 49
0.0
 74
     0
 49
-0.125
 74
     0
  0
LTYPE
  5
33A
100
AcDbSymbolTableRecord
100
AcDbLinetypeTableRecord
  2
TIRETPTX2
 70
     0
  3
____  .  ____  .  ____  .  ____  .  ____  .  __
 72
    65
 73
     4
 40
2.0
 49
1.0
 74
     0
 49
-0.5
 74
     0
 49
0.0
 74
     0
 49
-0.5
 74
     0
  0
LTYPE
  5
33B
100
AcDbSymbolTableRecord
100
AcDbLinetypeTableRecord
  2
DISCONTINU
 70
     0
  3
__ __ __ __ __ __ __ __ __ __ __ __ __ __ __ __
 72
    65
 73
     2
 40
0.75
 49
0.5
 74
     0
 49
-0.25
 74
     0
  0
LTYPE
  5
33C
100
AcDbSymbolTableRecord
100
AcDbLinetypeTableRecord
  2
DISCONTINU2
 70
     0
  3
_ _ _ _ _ _ _ _ _ _ _ _ _ _ _ _ _ _ _ _ _ _ _ _
 72
    65
 73
     2
 40
0.375
 49
0.25
 74
     0
 49
-0.125
 74
     0
  0
LTYPE
  5
33D
100
AcDbSymbolTableRecord
100
AcDbLinetypeTableRecord
  2
DISCONTINUX2
 70
     0
  3
____  ____  ____  ____  ____  ____  ____  ____ 
 72
    65
 73
     2
 40
1.5
 49
1.0
 74
     0
 49
-0.5
 74
     0
  0
LTYPE
  5
33E
100
AcDbSymbolTableRecord
100
AcDbLinetypeTableRecord
  2
DIVISE
 70
     0
  3
____ . . ____ . . ____ . . ____ . . ____ . . __
 72
    65
 73
     6
 40
1.25
 49
0.5
 74
     0
 49
-0.25
 74
     0
 49
0.0
 74
     0
 49
-0.25
 74
     0
 49
0.0
 74
     0
 49
-0.25
 74
     0
  0
LTYPE
  5
33F
100
AcDbSymbolTableRecord
100
AcDbLinetypeTableRecord
  2
DIVISE2
 70
     0
  3
__..__..__..__..__..__..__..__..__..__..__..__.
 72
    65
 73
     6
 40
0.625
 49
0.25
 74
     0
 49
-0.125
 74
     0
 49
0.0
 74
     0
 49
-0.125
 74
     0
 49
0.0
 74
     0
 49
-0.125
 74
     0
  0
LTYPE
  5
340
100
AcDbSymbolTableRecord
100
AcDbLinetypeTableRecord
  2
DIVISEX2
 70
     0
  3
________  .  .  ________  .  .  ________  .  . 
 72
    65
 73
     6
 40
2.5
 49
1.0
 74
     0
 49
-0.5
 74
     0
 49
0.0
 74
     0
 49
-0.5
 74
     0
 49
0.0
 74
     0
 49
-0.5
 74
     0
  0
LTYPE
  5
341
100
AcDbSymbolTableRecord
100
AcDbLinetypeTableRecord
  2
POINTILLE
 70
     0
  3
. . . . . . . . . . . . . . . . . . . . . . . .
 72
    65
 73
     2
 40
0.25
 49
0.0
 74
     0
 49
-0.25
 74
     0
  0
LTYPE
  5
342
100
AcDbSymbolTableRecord
100
AcDbLinetypeTableRecord
  2
POINTILLE2
 70
     0
  3
...............................................
 72
    65
 73
     2
 40
0.125
 49
0.0
 74
     0
 49
-0.125
 74
     0
  0
LTYPE
  5
343
100
AcDbSymbolTableRecord
100
AcDbLinetypeTableRecord
  2
POINTILLEX2
 70
     0
  3
.  .  .  .  .  .  .  .  .  .  .  .  .  .  .  . 
 72
    65
 73
     2
 40
0.5
 49
0.0
 74
     0
 49
-0.5
 74
     0
  0
LTYPE
  5
344
100
AcDbSymbolTableRecord
100
AcDbLinetypeTableRecord
  2
CACHE
 70
     0
  3
__ __ __ __ __ __ __ __ __ __ __ __ __ __ __ __
 72
    65
 73
     2
 40
0.375
 49
0.25
 74
     0
 49
-0.125
 74
     0
  0
LTYPE
  5
345
100
AcDbSymbolTableRecord
100
AcDbLinetypeTableRecord
  2
CACHE2
 70
     0
  3
_ _ _ _ _ _ _ _ _ _ _ _ _ _ _ _ _ _ _ _ _ _ _ _
 72
    65
 73
     2
 40
0.1875
 49
0.125
 74
     0
 49
-0.0625
 74
     0
  0
LTYPE
  5
346
100
AcDbSymbolTableRecord
100
AcDbLinetypeTableRecord
  2
CACHEX2
 70
     0
  3
____ ____ ____ ____ ____ ____ ____ ____ ____ __
 72
    65
 73
     2
 40
0.75
 49
0.5
 74
     0
 49
-0.25
 74
     0
  0
LTYPE
  5
347
100
AcDbSymbolTableRecord
100
AcDbLinetypeTableRecord
  2
FANTOME
 70
     0
  3
______  __  __  ______  __  __  ______  __  __ 
 72
    65
 73
     6
 40
2.5
 49
1.25
 74
     0
 49
-0.25
 74
     0
 49
0.25
 74
     0
 49
-0.25
 74
     0
 49
0.25
 74
     0
 49
-0.25
 74
     0
  0
LTYPE
  5
348
100
AcDbSymbolTableRecord
100
AcDbLinetypeTableRecord
  2
FANTOME2
 70
     0
  3
___ _ _ ___ _ _ ___ _ _ ___ _ _ ___ _ _ ___ _ _
 72
    65
 73
     6
 40
1.25
 49
0.625
 74
     0
 49
-0.125
 74
     0
 49
0.125
 74
     0
 49
-0.125
 74
     0
 49
0.125
 74
     0
 49
-0.125
 74
     0
  0
LTYPE
  5
349
100
AcDbSymbolTableRecord
100
AcDbLinetypeTableRecord
  2
FANTOMEX2
 70
     0
  3
____________    ____    ____    ____________   
 72
    65
 73
     6
 40
5.0
 49
2.5
 74
     0
 49
-0.5
 74
     0
 49
0.5
 74
     0
 49
-0.5
 74
     0
 49
0.5
 74
     0
 49
-0.5
 74
     0
  0
LTYPE
  5
34A
100
AcDbSymbolTableRecord
100
AcDbLinetypeTableRecord
  2
0
 70
     0
  3
MEDUSA PEN 0
 72
    65
 73
     0
 40
0.0
  0
ENDTAB
  0
TABLE
  2
LAYER
  5
305
100
AcDbSymbolTable
 70
    21
  0
LAYER
  5
311
100
AcDbSymbolTableRecord
100
AcDbLayerTableRecord
  2
0
 70
     0
 62
   146
  6
CADRA_SOLID
  0
LAYER
  5
351
100
AcDbSymbolTableRecord
100
AcDbLayerTableRecord
  2
TEXTE
 70
     0
 62
   131
  6
CONTINUOUS
  0
LAYER
  5
352
100
AcDbSymbolTableRecord
100
AcDbLayerTableRecord
  2
ALPHA
 70
     0
 62
   255
  6
CONTINUOUS
  0
LAYER
  5
353
100
AcDbSymbolTableRecord
100
AcDbLayerTableRecord
  2
AXE
 70
     0
 62
    80
  6
AXES2
  0
LAYER
  5
354
100
AcDbSymbolTableRecord
100
AcDbLayerTableRecord
  2
CONSTRUCTION
 70
     0
 62
     6
  6
CONTINUOUS
  0
LAYER
  5
355
100
AcDbSymbolTableRecord
100
AcDbLayerTableRecord
  2
COTATION1
 70
     0
 62
     2
  6
CONTINUOUS
  0
LAYER
  5
356
100
AcDbSymbolTableRecord
100
AcDbLayerTableRecord
  2
HACHURES
 70
     0
 62
     9
  6
CONTINUOUS
  0
LAYER
  5
357
100
AcDbSymbolTableRecord
100
AcDbLayerTableRecord
  2
FMULT
 70
     0
 62
     6
  6
CONTINUOUS
  0
LAYER
  5
358
100
AcDbSymbolTableRecord
100
AcDbLayerTableRecord
  2
FDP_CARTOUCHE
 70
     0
 62
     4
  6
CONTINUOUS
  0
LAYER
  5
359
100
AcDbSymbolTableRecord
100
AcDbLayerTableRecord
  2
FDP_TEXTES
 70
     0
 62
     5
  6
CONTINUOUS
  0
LAYER
  5
35A
100
AcDbSymbolTableRecord
100
AcDbLayerTableRecord
  2
FDP_LOGO_MG
 70
     0
 62
    30
  6
CONTINUOUS
  0
LAYER
  5
35B
100
AcDbSymbolTableRecord
100
AcDbLayerTableRecord
  2
FDP_LOGO_SCH
 70
     0
 62
     3
  6
CONTINUOUS
  0
LAYER
  5
35C
100
AcDbSymbolTableRecord
100
AcDbLayerTableRecord
  2
FDP_FDP
 70
     0
 62
     5
  6
CONTINUOUS
  0
LAYER
  5
35D
100
AcDbSymbolTableRecord
100
AcDbLayerTableRecord
  2
COTATION2
 70
     0
 62
     2
  6
CONTINUOUS
  0
LAYER
  5
35E
100
AcDbSymbolTableRecord
100
AcDbLayerTableRecord
  2
COTATION3
 70
     0
 62
     2
  6
CONTINUOUS
  0
LAYER
  5
35F
100
AcDbSymbolTableRecord
100
AcDbLayerTableRecord
  2
COTATION4
 70
     0
 62
     2
  6
CONTINUOUS
  0
LAYER
  5
360
100
AcDbSymbolTableRecord
100
AcDbLayerTableRecord
  2
ASHADE
 70
     0
 62
     7
  6
CONTINUOUS
  0
LAYER
  5
361
100
AcDbSymbolTableRecord
100
AcDbLayerTableRecord
  2
POINTILLE_COURT
 70
     0
 62
    40
  6
CACHE2
  0
LAYER
  5
362
100
AcDbSymbolTableRecord
100
AcDbLayerTableRecord
  2
POINTILLE_MOYEN
 70
     0
 62
   140
  6
CACHE
  0
LAYER
  5
363
100
AcDbSymbolTableRecord
100
AcDbLayerTableRecord
  2
POINTILLE_LONG
 70
     0
 62
   240
  6
CACHEX2
  0
LAYER
  5
364
100
AcDbSymbolTableRecord
100
AcDbLayerTableRecord
  2
DEFPOINTS
 70
     0
 62
     7
  6
CONTINUOUS
  0
ENDTAB
  0
TABLE
  2
STYLE
  5
306
100
AcDbSymbolTable
 70
     5
  0
STYLE
  5
312
100
AcDbSymbolTableRecord
100
AcDbTextStyleTableRecord
  2
STANDARD
 70
     0
 40
0.0
 41
1.0
 50
0.0
 71
     0
 42
5.0
  3
txt
  4

  0
STYLE
  5
330
100
AcDbSymbolTableRecord
100
AcDbTextStyleTableRecord
  2
BLOCK
 70
     0
 40
0.0
 41
1.0
 50
0.0
 71
     0
 42
5.0
  3
TXT
  4

  0
STYLE
  5
331
100
AcDbSymbolTableRecord
100
AcDbTextStyleTableRecord
  2
ROMANS
 70
     0
 40
0.0
 41
1.0
 50
0.0
 71
     0
 42
2.9
  3
romans.shx
  4

  0
STYLE
  5
332
100
AcDbSymbolTableRecord
100
AcDbTextStyleTableRecord
  2
INFOCAR
 70
     0
 40
0.0
 41
1.34
 50
0.0
 71
     0
 42
2.0
  3
ROMANS.SHX
  4

  0
STYLE
  5
333
100
AcDbSymbolTableRecord
100
AcDbTextStyleTableRecord
  2
CARTOUCHE
 70
     0
 40
0.0
 41
1.0
 50
0.0
 71
     0
 42
0.2
  3
ROMANS.SHX
  4

  0
ENDTAB
  0
TABLE
  2
VIEW
  5
309
100
AcDbSymbolTable
 70
     0
  0
ENDTAB
  0
TABLE
  2
UCS
  5
30A
100
AcDbSymbolTable
 70
     0
  0
ENDTAB
  0
TABLE
  2
APPID
  5
30C
100
AcDbSymbolTable
 70
     3
  0
APPID
  5
313
100
AcDbSymbolTableRecord
100
AcDbRegAppTableRecord
  2
ACAD
 70
     0
  0
APPID
  5
34D
100
AcDbSymbolTableRecord
100
AcDbRegAppTableRecord
  2
AVE_RENDER
 70
     0
  0
APPID
  5
34E
100
AcDbSymbolTableRecord
100
AcDbRegAppTableRecord
  2
AVE_MATERIAL
 70
     0
  0
ENDTAB
  0
TABLE
  2
DIMSTYLE
  5
30D
100
AcDbSymbolTable
 70
     2
  0
DIMSTYLE
105
34F
100
AcDbSymbolTableRecord
100
AcDbDimStyleTableRecord
  2
STANDARD
 70
     0
  3

  4

  5

  6

  7

 40
1.0
 41
0.18
 42
0.0625
 43
0.38
 44
0.18
 45
0.0
 46
0.0
 47
0.0
 48
0.0
140
0.18
141
0.09
142
0.0
143
25.4
144
1.0
145
0.0
146
1.0
147
0.09
 71
     0
 72
     0
 73
     1
 74
     1
 75
     0
 76
     0
 77
     0
 78
     0
170
     0
171
     2
172
     0
173
     0
174
     0
175
     0
176
     0
177
     0
178
     0
270
     2
271
     3
272
     3
273
     2
274
     2
340
331
275
     0
280
     0
281
     0
282
     0
283
     1
284
    12
285
    12
286
    12
287
     5
288
     0
  0
DIMSTYLE
105
350
102
{ACAD_REACTORS
330
267
330
273
330
27F
330
28B
330
298
330
2A5
330
2B2
102
}
100
AcDbSymbolTableRecord
100
AcDbDimStyleTableRecord
  2
SC_STAND
 70
     0
  3

  4

  5

  6

  7

 40
1.0
 41
3.0
 42
0.0625
 43
0.38
 44
0.18
 45
0.01
 46
0.0
 47
0.0
 48
0.0
140
2.5
141
0.09
142
0.0
143
25.4
144
1.0
145
0.0
146
1.0
147
1.0
 71
     0
 72
     0
 73
     0
 74
     0
 75
     0
 76
     0
 77
     1
 78
    12
170
     0
171
     2
172
     1
173
     0
174
     0
175
     0
176
     0
177
     0
178
     0
270
     2
271
     3
272
     3
273
     2
274
     2
340
331
275
     0
280
     0
281
     0
282
     0
283
     1
284
    12
285
    12
286
    12
287
     5
288
     0
  0
ENDTAB
  0
TABLE
  2
BLOCK_RECORD
  5
304
100
AcDbSymbolTable
 70
    17
  0
BLOCK_RECORD
  5
31A
100
AcDbSymbolTableRecord
100
AcDbBlockTableRecord
  2
*MODEL_SPACE
  0
BLOCK_RECORD
  5
317
100
AcDbSymbolTableRecord
100
AcDbBlockTableRecord
  2
*PAPER_SPACE
  0
BLOCK_RECORD
  5
31F
100
AcDbSymbolTableRecord
100
AcDbBlockTableRecord
  2
AVE_RENDER
  0
BLOCK_RECORD
  5
320
100
AcDbSymbolTableRecord
100
AcDbBlockTableRecord
  2
AVE_GLOBAL
  0
BLOCK_RECORD
  5
321
100
AcDbSymbolTableRecord
100
AcDbBlockTableRecord
  2
SCH_ISO
  0
BLOCK_RECORD
  5
329
100
AcDbSymbolTableRecord
100
AcDbBlockTableRecord
  2
*D10
  0
BLOCK_RECORD
  5
32A
100
AcDbSymbolTableRecord
100
AcDbBlockTableRecord
  2
*D11
  0
BLOCK_RECORD
  5
32B
100
AcDbSymbolTableRecord
100
AcDbBlockTableRecord
  2
*D12
  0
BLOCK_RECORD
  5
32C
100
AcDbSymbolTableRecord
100
AcDbBlockTableRecord
  2
*D13
  0
BLOCK_RECORD
  5
32D
100
AcDbSymbolTableRecord
100
AcDbBlockTableRecord
  2
*D14
  0
BLOCK_RECORD
  5
32E
100
AcDbSymbolTableRecord
100
AcDbBlockTableRecord
  2
*D15
  0
BLOCK_RECORD
  5
32F
100
AcDbSymbolTableRecord
100
AcDbBlockTableRecord
  2
*D16
  0
ENDTAB
  0
ENDSEC
  0
SECTION
  2
BLOCKS
  0
BLOCK
  5
367
100
AcDbEntity
  8
0
100
AcDbBlockBegin
  2
*MODEL_SPACE
 70
     0
 10
0.0
 20
0.0
 30
0.0
  3
*MODEL_SPACE
  1

  0
ENDBLK
  5
368
100
AcDbEntity
  8
0
100
AcDbBlockEnd
  0
BLOCK
  5
365
100
AcDbEntity
 67
     1
  8
0
100
AcDbBlockBegin
  2
*PAPER_SPACE
 70
     0
 10
0.0
 20
0.0
 30
0.0
  3
*PAPER_SPACE
  1

  0
ENDBLK
  5
366
100
AcDbEntity
 67
     1
  8
0
100
AcDbBlockEnd
  0
BLOCK
  5
21A
100
AcDbEntity
  8
0
100
AcDbBlockBegin
  2
AVE_RENDER
 70
     0
 10
0.0
 20
0.0
 30
0.0
  3
AVE_RENDER
  1
AVE_RENDER
  0
ENDBLK
  5
21B
100
AcDbEntity
  8
0
100
AcDbBlockEnd
  0
BLOCK
  5
21D
100
AcDbEntity
  8
0
100
AcDbBlockBegin
  2
AVE_GLOBAL
 70
     0
 10
0.0
 20
0.0
 30
0.0
  3
AVE_GLOBAL
  1
AVE_GLOBAL
  0
ENDBLK
  5
21E
100
AcDbEntity
  8
0
100
AcDbBlockEnd
  0
BLOCK
  5
257
100
AcDbEntity
  8
0
100
AcDbBlockBegin
  2
SCH_ISO
 70
     0
 10
0.0
 20
0.0
 30
0.0
  3
SCH_ISO
  1

  0
INSERT
  5
24E
100
AcDbEntity
  8
ASHADE
 62
     1
100
AcDbBlockReference
  2
AVE_RENDER
 10
0.0
 20
0.0
 30
0.0
1001
AVE_RENDER
1002
{
1070
     6
1000
Pref
1070
    50
1070
    20
1070
     1
1070
     0
1000

1070
    10
1070
     1
1070
    30
1040
25.4
1070
     1
1040
0.3
1040
0.7
1040
0.0
1040
10.0
1010
-1.0
1020
-1.0
1030
-1.0
1040
0.3
1070
    49
1070
     0
1070
     0
1010
1.0
1020
1.0
1030
1.0
1040
45.0
1070
     1
1070
     0
1000
WCS
1040
0.0
1002
}
  0
INSERT
  5
24F
100
AcDbEntity
  8
ASHADE
 62
     3
100
AcDbBlockReference
  2
AVE_RENDER
 10
0.0
 20
0.0
 30
0.0
1001
AVE_RENDER
1002
{
1070
     0
1000
Full Opt
1070
     0
1070
     1
1070
     1
1070
     1
1070
     0
1070
     0
1070
     0
1070
     1
1070
     1
1040
0.0001
1040
0.0001
1002
}
  0
INSERT
  5
250
100
AcDbEntity
  8
ASHADE
 62
     4
100
AcDbBlockReference
  2
AVE_RENDER
 10
0.0
 20
0.0
 30
0.0
1001
AVE_RENDER
1002
{
1070
     0
1000
Quick Opt
1070
     0
1070
     1
1070
     1
1070
     1
1070
     0
1070
     0
1070
     1
1002
}
  0
INSERT
  5
251
100
AcDbEntity
  8
ASHADE
 62
     5
100
AcDbBlockReference
  2
AVE_RENDER
 10
0.0
 20
0.0
 30
0.0
1001
AVE_RENDER
1002
{
1070
     1
1000
Scanl Opt
1070
     2
1070
     0
1070
     2
1040
2.0
1040
4.0
1070
     0
1070
     1
1070
     0
1040
0.03
1002
}
  0
INSERT
  5
252
100
AcDbEntity
  8
ASHADE
 62
     6
100
AcDbBlockReference
  2
AVE_RENDER
 10
0.0
 20
0.0
 30
0.0
1001
AVE_RENDER
1002
{
1070
     2
1000
Raytr Opt
1070
     2
1070
     0
1070
     2
1040
2.0
1040
4.0
1070
     0
1070
     1
1070
     1
1040
0.03
1070
     3
1040
0.03
1002
}
  0
INSERT
  5
253
100
AcDbEntity
  8
ASHADE
 62
     7
100
AcDbBlockReference
  2
AVE_RENDER
 10
0.0
 20
0.0
 30
0.0
1001
AVE_RENDER
1002
{
1070
     0
1000
RFile Opt
1070
     5
1070
   640
1070
   480
1070
 10000
1070
     3
1070
    32
1070
    24
1070
     0
1070
     0
1070
     0
1070
     1
1070
     0
1070
     0
1070
     0
1002
}
  0
INSERT
  5
254
100
AcDbEntity
  8
ASHADE
 62
     8
100
AcDbBlockReference
  2
AVE_RENDER
 10
0.0
 20
0.0
 30
0.0
1001
AVE_RENDER
1002
{
1070
     0
1000
Fog Opt
1070
     0
1070
     0
1040
0.0
1040
1.0
1040
0.0
1040
1.0
1010
0.5
1020
0.5
1030
0.5
1002
}
  0
INSERT
  5
255
100
AcDbEntity
  8
ASHADE
 62
     9
100
AcDbBlockReference
  2
AVE_RENDER
 10
0.0
 20
0.0
 30
0.0
1001
AVE_RENDER
1002
{
1070
     0
1000
BG Opt
1070
     0
1070
     1
1010
0.0
1020
0.0
1030
0.0
1010
1.0
1020
0.0
1030
0.0
1010
0.0
1020
1.0
1030
0.0
1010
0.0
1020
0.0
1030
1.0
1040
0.5
1040
0.33
1040
0.0
1000

1070
     1
1000

1070
     1
1070
     1
1040
1.0
1040
1.0
1040
0.0
1040
0.0
1070
     0
1002
}
  0
INSERT
  5
256
100
AcDbEntity
  8
ASHADE
 62
     1
100
AcDbBlockReference
  2
AVE_GLOBAL
 10
0.0
 20
0.0
 30
0.0
1001
AVE_MATERIAL
1002
{
1000
*GLOBAL*
1000
1
1000
Finition globale.
1002
{
1002
}
1002
{
1070
    63
1002
{
1002
{
1010
-1.0
1020
-1.0
1030
-1.0
1002
}
1040
0.1
1000

1040
0.0
1002
{
1002
}
1040
0.0
1002
{
1002
}
1040
0.0
1002
}
1002
{
1002
{
1010
-1.0
1020
-1.0
1030
-1.0
1002
}
1040
0.7
1000

1040
0.0
1002
{
1002
}
1040
0.0
1002
{
1002
}
1040
0.0
1002
}
1002
{
1002
{
1010
-1.0
1020
-1.0
1030
-1.0
1002
}
1040
0.2
1000

1040
0.0
1002
{
1002
}
1040
0.0
1002
{
1002
}
1040
0.0
1002
}
1002
{
1070
     0
1002
{
1070
     1
1002
{
1040
1.0
1040
1.0
1000

1040
0.0
1002
{
1002
}
1040
0.0
1002
{
1002
}
1040
0.0
1002
}
1002
}
1040
1.0
1040
0.0
1040
0.0
1002
}
1002
{
1040
1.0
1040
1.0
1000

1040
0.0
1002
{
1002
}
1040
0.0
1002
{
1002
}
1040
0.0
1002
}
1002
{
1040
0.5
1040
1.0
1000

1040
0.0
1002
{
1002
}
1040
0.0
1002
{
1002
}
1040
0.0
1002
}
1002
{
1070
     0
1040
0.0
1002
{
1002
}
1040
1.0
1002
{
1002
}
1040
0.0
1002
}
1002
{
1040
0.0
1002
{
1002
{
1010
0.0
1020
0.0
1030
0.0
1002
}
1040
1.0
1000

1040
0.0
1002
{
1002
}
1040
0.0
1002
{
1002
}
1040
0.0
1002
}
1002
}
1002
{
1002
{
1070
     1
1002
{
1040
0.0
1040
1.0
1000

1040
0.0
1002
{
1002
}
1040
0.0
1002
{
1002
}
1040
0.0
1002
}
1002
}
1040
0.0
1002
{
1002
}
1010
1.0
1020
0.0
1030
0.0
1010
0.0
1020
1.0
1030
0.0
1010
0.0
1020
0.0
1030
1.0
1070
     0
1002
}
1002
{
1002
{
1040
1.0
1040
1.0
1002
{
1070
     1
1002
{
1040
1.0
1040
1.0
1000

1040
0.0
1002
{
1002
}
1040
0.0
1002
{
1002
}
1040
0.0
1002
}
1002
}
1002
}
1070
     0
1040
0.0
1002
{
1002
}
1002
}
1002
{
1002
}
1002
}
1002
{
1071
        3
1070
     3
1070
     0
1002
{
1070
     2
1070
     0
1070
     0
1040
0.0
1002
}
1070
     0
1070
     2
1002
{
1002
}
1002
}
1002
{
1040
8030.0
1040
190.300003
1040
0.305
1040
228.0
1040
545.0
1040
14.0
1040
17.4
1040
0.456
1002
}
1002
}
  0
ENDBLK
  5
258
100
AcDbEntity
  8
0
100
AcDbBlockEnd
  0
BLOCK
  5
2B7
100
AcDbEntity
  8
0
100
AcDbBlockBegin
  2
*D10
 70
     1
 10
0.0
 20
0.0
 30
0.0
  3
*D10
  1

  0
LINE
  5
2B8
100
AcDbEntity
  8
0
  6
BYBLOCK
 62
     0
100
AcDbLine
 10
29.300003
 20
281.5625
 30
0.0
 11
29.300003
 21
295.805
 31
0.0
  0
LINE
  5
2B9
100
AcDbEntity
  8
0
  6
BYBLOCK
 62
     0
100
AcDbLine
 10
54.300003
 20
281.5625
 30
0.0
 11
54.300003
 21
295.805
 31
0.0
  0
LINE
  5
2BA
100
AcDbEntity
  8
0
  6
BYBLOCK
 62
     0
100
AcDbLine
 10
32.300003
 20
295.625
 30
0.0
 11
51.300003
 21
295.625
 31
0.0
  0
SOLID
  5
2BB
100
AcDbEntity
  8
0
  6
BYBLOCK
 62
     0
100
AcDbTrace
 10
32.300003
 20
296.125
 30
0.0
 11
32.300003
 21
295.125
 31
0.0
 12
29.300003
 22
295.625
 32
0.0
 13
29.300003
 23
295.625
 33
0.0
  0
SOLID
  5
2BC
100
AcDbEntity
  8
0
  6
BYBLOCK
 62
     0
100
AcDbTrace
 10
51.300003
 20
296.125
 30
0.0
 11
51.300003
 21
295.125
 31
0.0
 12
54.300003
 22
295.625
 32
0.0
 13
54.300003
 23
295.625
 33
0.0
  0
TEXT
  5
2BD
100
AcDbEntity
  8
0
  6
BYBLOCK
 62
     0
100
AcDbText
 10
39.419051
 20
296.875
 30
0.0
 40
2.5
  1
25
  7
ROMANS
 72
     1
 11
41.800003
 21
298.125
 31
0.0
100
AcDbText
 73
     2
  0
POINT
  5
2BE
100
AcDbEntity
  8
DEFPOINTS
  6
BYBLOCK
 62
     0
100
AcDbPoint
 10
29.300003
 20
281.5
 30
0.0
  0
POINT
  5
2BF
100
AcDbEntity
  8
DEFPOINTS
  6
BYBLOCK
 62
     0
100
AcDbPoint
 10
54.300003
 20
281.5
 30
0.0
  0
POINT
  5
2C0
100
AcDbEntity
  8
DEFPOINTS
  6
BYBLOCK
 62
     0
100
AcDbPoint
 10
54.300003
 20
295.625
 30
0.0
  0
ENDBLK
  5
2C1
100
AcDbEntity
  8
0
100
AcDbBlockEnd
  0
BLOCK
  5
2C2
100
AcDbEntity
  8
0
100
AcDbBlockBegin
  2
*D11
 70
     1
 10
0.0
 20
0.0
 30
0.0
  3
*D11
  1

  0
LINE
  5
2C3
100
AcDbEntity
  8
0
  6
BYBLOCK
 62
     0
100
AcDbLine
 10
137.862503
 20
91.0
 30
0.0
 11
234.95706
 21
91.0
 31
0.0
  0
LINE
  5
2C4
100
AcDbEntity
  8
0
  6
BYBLOCK
 62
     0
100
AcDbLine
 10
137.862503
 20
269.0
 30
0.0
 11
234.95706
 21
269.0
 31
0.0
  0
LINE
  5
2C5
100
AcDbEntity
  8
0
  6
BYBLOCK
 62
     0
100
AcDbLine
 10
234.77706
 20
94.0
 30
0.0
 11
234.77706
 21
266.0
 31
0.0
  0
SOLID
  5
2C6
100
AcDbEntity
  8
0
  6
BYBLOCK
 62
     0
100
AcDbTrace
 10
234.27706
 20
94.0
 30
0.0
 11
235.27706
 21
94.0
 31
0.0
 12
234.77706
 22
91.0
 32
0.0
 13
234.77706
 23
91.0
 33
0.0
  0
SOLID
  5
2C7
100
AcDbEntity
  8
0
  6
BYBLOCK
 62
     0
100
AcDbTrace
 10
234.27706
 20
266.0
 30
0.0
 11
235.27706
 21
266.0
 31
0.0
 12
234.77706
 22
269.0
 32
0.0
 13
234.77706
 23
269.0
 33
0.0
  0
TEXT
  5
2C8
100
AcDbEntity
  8
0
  6
BYBLOCK
 62
     0
100
AcDbText
 10
233.52706
 20
176.25
 30
0.0
 40
2.5
  1
178
 50
90.0
  7
ROMANS
 72
     1
 11
232.27706
 21
180.0
 31
0.0
100
AcDbText
 73
     2
  0
POINT
  5
2C9
100
AcDbEntity
  8
DEFPOINTS
  6
BYBLOCK
 62
     0
100
AcDbPoint
 10
137.800003
 20
91.0
 30
0.0
  0
POINT
  5
2CA
100
AcDbEntity
  8
DEFPOINTS
  6
BYBLOCK
 62
     0
100
AcDbPoint
 10
137.800003
 20
269.0
 30
0.0
  0
POINT
  5
2CB
100
AcDbEntity
  8
DEFPOINTS
  6
BYBLOCK
 62
     0
100
AcDbPoint
 10
234.77706
 20
269.0
 30
0.0
  0
ENDBLK
  5
2CC
100
AcDbEntity
  8
0
100
AcDbBlockEnd
  0
BLOCK
  5
2CD
100
AcDbEntity
  8
0
100
AcDbBlockBegin
  2
*D12
 70
     1
 10
0.0
 20
0.0
 30
0.0
  3
*D12
  1

  0
LINE
  5
2CE
100
AcDbEntity
  8
0
  6
BYBLOCK
 62
     0
100
AcDbLine
 10
8.600006
 20
113.4375
 30
0.0
 11
8.600006
 21
36.945
 31
0.0
  0
LINE
  5
2CF
100
AcDbEntity
  8
0
  6
BYBLOCK
 62
     0
100
AcDbLine
 10
204.300003
 20
121.375
 30
0.0
 11
204.300003
 21
36.945
 31
0.0
  0
LINE
  5
2D0
100
AcDbEntity
  8
0
  6
BYBLOCK
 62
     0
100
AcDbLine
 10
11.600006
 20
37.125
 30
0.0
 11
201.300003
 21
37.125
 31
0.0
  0
SOLID
  5
2D1
100
AcDbEntity
  8
0
  6
BYBLOCK
 62
     0
100
AcDbTrace
 10
11.600006
 20
37.625
 30
0.0
 11
11.600006
 21
36.625
 31
0.0
 12
8.600006
 22
37.125
 32
0.0
 13
8.600006
 23
37.125
 33
0.0
  0
SOLID
  5
2D2
100
AcDbEntity
  8
0
  6
BYBLOCK
 62
     0
100
AcDbTrace
 10
201.300003
 20
37.625
 30
0.0
 11
201.300003
 21
36.625
 31
0.0
 12
204.300003
 22
37.125
 32
0.0
 13
204.300003
 23
37.125
 33
0.0
  0
TEXT
  5
2D3
100
AcDbEntity
  8
0
  6
BYBLOCK
 62
     0
100
AcDbText
 10
100.91429
 20
38.375
 30
0.0
 40
2.5
  1
195.7
  7
ROMANS
 72
     1
 11
106.450005
 21
39.625
 31
0.0
100
AcDbText
 73
     2
  0
POINT
  5
2D4
100
AcDbEntity
  8
DEFPOINTS
  6
BYBLOCK
 62
     0
100
AcDbPoint
 10
8.600006
 20
113.5
 30
0.0
  0
POINT
  5
2D5
100
AcDbEntity
  8
DEFPOINTS
  6
BYBLOCK
 62
     0
100
AcDbPoint
 10
204.300003
 20
121.4375
 30
0.0
  0
POINT
  5
2D6
100
AcDbEntity
  8
DEFPOINTS
  6
BYBLOCK
 62
     0
100
AcDbPoint
 10
204.300003
 20
37.125
 30
0.0
  0
ENDBLK
  5
2D7
100
AcDbEntity
  8
0
100
AcDbBlockEnd
  0
BLOCK
  5
2D8
100
AcDbEntity
  8
0
100
AcDbBlockBegin
  2
*D13
 70
     1
 10
0.0
 20
0.0
 30
0.0
  3
*D13
  1

  0
LINE
  5
2D9
100
AcDbEntity
  8
0
  6
BYBLOCK
 62
     0
100
AcDbLine
 10
137.800003
 20
90.9375
 30
0.0
 11
137.800003
 21
53.995
 31
0.0
  0
LINE
  5
2DA
100
AcDbEntity
  8
0
  6
BYBLOCK
 62
     0
100
AcDbLine
 10
204.300003
 20
121.4375
 30
0.0
 11
204.300003
 21
53.995
 31
0.0
  0
LINE
  5
2DB
100
AcDbEntity
  8
0
  6
BYBLOCK
 62
     0
100
AcDbLine
 10
140.800003
 20
54.175
 30
0.0
 11
201.300003
 21
54.175
 31
0.0
  0
SOLID
  5
2DC
100
AcDbEntity
  8
0
  6
BYBLOCK
 62
     0
100
AcDbTrace
 10
140.800003
 20
54.675
 30
0.0
 11
140.800003
 21
53.675
 31
0.0
 12
137.800003
 22
54.175
 32
0.0
 13
137.800003
 23
54.175
 33
0.0
  0
SOLID
  5
2DD
100
AcDbEntity
  8
0
  6
BYBLOCK
 62
     0
100
AcDbTrace
 10
201.300003
 20
54.675
 30
0.0
 11
201.300003
 21
53.675
 31
0.0
 12
204.300003
 22
54.175
 32
0.0
 13
204.300003
 23
54.175
 33
0.0
  0
TEXT
  5
2DE
100
AcDbEntity
  8
0
  6
BYBLOCK
 62
     0
100
AcDbText
 10
166.823813
 20
55.425
 30
0.0
 40
2.5
  1
66.5
  7
ROMANS
 72
     1
 11
171.050003
 21
56.675
 31
0.0
100
AcDbText
 73
     2
  0
POINT
  5
2DF
100
AcDbEntity
  8
DEFPOINTS
  6
BYBLOCK
 62
     0
100
AcDbPoint
 10
137.800003
 20
91.0
 30
0.0
  0
POINT
  5
2E0
100
AcDbEntity
  8
DEFPOINTS
  6
BYBLOCK
 62
     0
100
AcDbPoint
 10
204.300003
 20
121.5
 30
0.0
  0
POINT
  5
2E1
100
AcDbEntity
  8
DEFPOINTS
  6
BYBLOCK
 62
     0
100
AcDbPoint
 10
204.300003
 20
54.175
 30
0.0
  0
ENDBLK
  5
2E2
100
AcDbEntity
  8
0
100
AcDbBlockEnd
  0
BLOCK
  5
2E3
100
AcDbEntity
  8
0
100
AcDbBlockBegin
  2
*D14
 70
     1
 10
0.0
 20
0.0
 30
0.0
  3
*D14
  1

  0
LINE
  5
2E4
100
AcDbEntity
  8
0
  6
BYBLOCK
 62
     0
100
AcDbLine
 10
89.800003
 20
90.9375
 30
0.0
 11
89.800003
 21
53.995
 31
0.0
  0
LINE
  5
2E5
100
AcDbEntity
  8
0
  6
BYBLOCK
 62
     0
100
AcDbLine
 10
137.800003
 20
90.9375
 30
0.0
 11
137.800003
 21
53.995
 31
0.0
  0
LINE
  5
2E6
100
AcDbEntity
  8
0
  6
BYBLOCK
 62
     0
100
AcDbLine
 10
92.800003
 20
54.175
 30
0.0
 11
134.800003
 21
54.175
 31
0.0
  0
SOLID
  5
2E7
100
AcDbEntity
  8
0
  6
BYBLOCK
 62
     0
100
AcDbTrace
 10
92.800003
 20
54.675
 30
0.0
 11
92.800003
 21
53.675
 31
0.0
 12
89.800003
 22
54.175
 32
0.0
 13
89.800003
 23
54.175
 33
0.0
  0
SOLID
  5
2E8
100
AcDbEntity
  8
0
  6
BYBLOCK
 62
     0
100
AcDbTrace
 10
134.800003
 20
54.675
 30
0.0
 11
134.800003
 21
53.675
 31
0.0
 12
137.800003
 22
54.175
 32
0.0
 13
137.800003
 23
54.175
 33
0.0
  0
TEXT
  5
2E9
100
AcDbEntity
  8
0
  6
BYBLOCK
 62
     0
100
AcDbText
 10
111.419051
 20
55.425
 30
0.0
 40
2.5
  1
48
  7
ROMANS
 72
     1
 11
113.800003
 21
56.675
 31
0.0
100
AcDbText
 73
     2
  0
POINT
  5
2EA
100
AcDbEntity
  8
DEFPOINTS
  6
BYBLOCK
 62
     0
100
AcDbPoint
 10
89.800003
 20
91.0
 30
0.0
  0
POINT
  5
2EB
100
AcDbEntity
  8
DEFPOINTS
  6
BYBLOCK
 62
     0
100
AcDbPoint
 10
137.800003
 20
91.0
 30
0.0
  0
POINT
  5
2EC
100
AcDbEntity
  8
DEFPOINTS
  6
BYBLOCK
 62
     0
100
AcDbPoint
 10
137.800003
 20
54.175
 30
0.0
  0
ENDBLK
  5
2ED
100
AcDbEntity
  8
0
100
AcDbBlockEnd
  0
BLOCK
  5
2EE
100
AcDbEntity
  8
0
100
AcDbBlockBegin
  2
*D15
 70
     1
 10
0.0
 20
0.0
 30
0.0
  3
*D15
  1

  0
LINE
  5
2EF
100
AcDbEntity
  8
0
  6
BYBLOCK
 62
     0
100
AcDbLine
 10
41.800003
 20
90.9375
 30
0.0
 11
41.800003
 21
53.995
 31
0.0
  0
LINE
  5
2F0
100
AcDbEntity
  8
0
  6
BYBLOCK
 62
     0
100
AcDbLine
 10
89.800003
 20
90.9375
 30
0.0
 11
89.800003
 21
53.995
 31
0.0
  0
LINE
  5
2F1
100
AcDbEntity
  8
0
  6
BYBLOCK
 62
     0
100
AcDbLine
 10
44.800003
 20
54.175
 30
0.0
 11
86.800003
 21
54.175
 31
0.0
  0
SOLID
  5
2F2
100
AcDbEntity
  8
0
  6
BYBLOCK
 62
     0
100
AcDbTrace
 10
44.800003
 20
54.675
 30
0.0
 11
44.800003
 21
53.675
 31
0.0
 12
41.800003
 22
54.175
 32
0.0
 13
41.800003
 23
54.175
 33
0.0
  0
SOLID
  5
2F3
100
AcDbEntity
  8
0
  6
BYBLOCK
 62
     0
100
AcDbTrace
 10
86.800003
 20
54.675
 30
0.0
 11
86.800003
 21
53.675
 31
0.0
 12
89.800003
 22
54.175
 32
0.0
 13
89.800003
 23
54.175
 33
0.0
  0
TEXT
  5
2F4
100
AcDbEntity
  8
0
  6
BYBLOCK
 62
     0
100
AcDbText
 10
63.419051
 20
55.425
 30
0.0
 40
2.5
  1
48
  7
ROMANS
 72
     1
 11
65.800003
 21
56.675
 31
0.0
100
AcDbText
 73
     2
  0
POINT
  5
2F5
100
AcDbEntity
  8
DEFPOINTS
  6
BYBLOCK
 62
     0
100
AcDbPoint
 10
41.800003
 20
91.0
 30
0.0
  0
POINT
  5
2F6
100
AcDbEntity
  8
DEFPOINTS
  6
BYBLOCK
 62
     0
100
AcDbPoint
 10
89.800003
 20
91.0
 30
0.0
  0
POINT
  5
2F7
100
AcDbEntity
  8
DEFPOINTS
  6
BYBLOCK
 62
     0
100
AcDbPoint
 10
89.800003
 20
54.175
 30
0.0
  0
ENDBLK
  5
2F8
100
AcDbEntity
  8
0
100
AcDbBlockEnd
  0
BLOCK
  5
2F9
100
AcDbEntity
  8
0
100
AcDbBlockBegin
  2
*D16
 70
     1
 10
0.0
 20
0.0
 30
0.0
  3
*D16
  1

  0
LINE
  5
2FA
100
AcDbEntity
  8
0
  6
BYBLOCK
 62
     0
100
AcDbLine
 10
8.600006
 20
113.4375
 30
0.0
 11
8.600006
 21
53.995
 31
0.0
  0
LINE
  5
2FB
100
AcDbEntity
  8
0
  6
BYBLOCK
 62
     0
100
AcDbLine
 10
41.800003
 20
90.9375
 30
0.0
 11
41.800003
 21
53.995
 31
0.0
  0
LINE
  5
2FC
100
AcDbEntity
  8
0
  6
BYBLOCK
 62
     0
100
AcDbLine
 10
11.600006
 20
54.175
 30
0.0
 11
38.800003
 21
54.175
 31
0.0
  0
SOLID
  5
2FD
100
AcDbEntity
  8
0
  6
BYBLOCK
 62
     0
100
AcDbTrace
 10
11.600006
 20
54.675
 30
0.0
 11
11.600006
 21
53.675
 31
0.0
 12
8.600006
 22
54.175
 32
0.0
 13
8.600006
 23
54.175
 33
0.0
  0
SOLID
  5
2FE
100
AcDbEntity
  8
0
  6
BYBLOCK
 62
     0
100
AcDbTrace
 10
38.800003
 20
54.675
 30
0.0
 11
38.800003
 21
53.675
 31
0.0
 12
41.800003
 22
54.175
 32
0.0
 13
41.800003
 23
54.175
 33
0.0
  0
TEXT
  5
2FF
100
AcDbEntity
  8
0
  6
BYBLOCK
 62
     0
100
AcDbText
 10
21.033338
 20
55.425
 30
0.0
 40
2.5
  1
33.2
  7
ROMANS
 72
     1
 11
25.200005
 21
56.675
 31
0.0
100
AcDbText
 73
     2
  0
POINT
  5
300
100
AcDbEntity
  8
DEFPOINTS
  6
BYBLOCK
 62
     0
100
AcDbPoint
 10
8.600006
 20
113.5
 30
0.0
  0
POINT
  5
301
100
AcDbEntity
  8
DEFPOINTS
  6
BYBLOCK
 62
     0
100
AcDbPoint
 10
41.800003
 20
91.0
 30
0.0
  0
POINT
  5
302
100
AcDbEntity
  8
DEFPOINTS
  6
BYBLOCK
 62
     0
100
AcDbPoint
 10
41.800003
 20
54.175
 30
0.0
  0
ENDBLK
  5
303
100
AcDbEntity
  8
0
100
AcDbBlockEnd
  0
ENDSEC
  0
SECTION
  2
ENTITIES
  0
LINE
  5
1E
100
AcDbEntity
  8
ALPHA
100
AcDbLine
 10
170.314178
 20
105.114471
 30
0.0
 11
197.614182
 21
105.114471
 31
0.0
  0
LINE
  5
20
100
AcDbEntity
  8
ALPHA
100
AcDbLine
 10
197.614182
 20
105.114471
 30
0.0
 11
197.614182
 21
103.614471
 31
0.0
  0
LINE
  5
21
100
AcDbEntity
  8
ALPHA
100
AcDbLine
 10
193.614182
 20
105.114471
 30
0.0
 11
193.614182
 21
103.614471
 31
0.0
  0
LINE
  5
22
100
AcDbEntity
  8
ALPHA
100
AcDbLine
 10
170.314178
 20
105.114471
 30
0.0
 11
170.314178
 21
103.614471
 31
0.0
  0
LINE
  5
23
100
AcDbEntity
  8
ALPHA
100
AcDbLine
 10
180.814178
 20
105.4879
 30
0.0
 11
180.814178
 21
105.114471
 31
0.0
  0
LINE
  5
24
100
AcDbEntity
  8
ALPHA
100
AcDbLine
 10
170.314178
 20
103.614471
 30
0.0
 11
180.814178
 21
103.614471
 31
0.0
  0
LINE
  5
25
100
AcDbEntity
  8
ALPHA
100
AcDbLine
 10
180.814178
 20
104.769379
 30
0.0
 11
180.814178
 21
103.241058
 31
0.0
  0
LINE
  5
26
100
AcDbEntity
  8
ALPHA
100
AcDbLine
 10
188.894775
 20
103.614471
 30
0.0
 11
197.614182
 21
103.614471
 31
0.0
  0
LINE
  5
27
100
AcDbEntity
  8
ALPHA
100
AcDbLine
 10
180.814157
 20
105.487915
 30
0.0
 11
182.314157
 21
105.461731
 31
0.0
  0
LINE
  5
28
100
AcDbEntity
  8
ALPHA
100
AcDbLine
 10
182.314184
 20
105.461708
 30
0.0
 11
188.814194
 21
105.114464
 31
0.0
  0
LINE
  5
29
100
AcDbEntity
  8
ALPHA
100
AcDbLine
 10
180.814184
 20
103.241066
 30
0.0
 11
182.314169
 21
103.26725
 31
0.0
  0
LINE
  5
2A
100
AcDbEntity
  8
ALPHA
100
AcDbLine
 10
182.314184
 20
103.267242
 30
0.0
 11
188.814178
 21
103.614471
 31
0.0
  0
LINE
  5
2B
100
AcDbEntity
  8
ALPHA
100
AcDbLine
 10
182.234169
 20
104.765106
 30
0.0
 11
188.734161
 21
105.112335
 31
0.0
  0
LINE
  5
2C
100
AcDbEntity
  8
ALPHA
100
AcDbLine
 10
180.814178
 20
104.769379
 30
0.0
 11
182.314178
 21
104.769379
 31
0.0
  0
LINE
  5
2D
100
AcDbEntity
  8
ALPHA
100
AcDbLine
 10
177.314178
 20
105.114471
 30
0.0
 11
177.314178
 21
103.614471
 31
0.0
  0
LINE
  5
2E
100
AcDbEntity
  8
ALPHA
100
AcDbLine
 10
174.314178
 20
105.114471
 30
0.0
 11
174.314178
 21
103.614471
 31
0.0
  0
LINE
  5
2F
100
AcDbEntity
  8
ALPHA
100
AcDbLine
 10
171.314178
 20
105.114471
 30
0.0
 11
171.314178
 21
103.614471
 31
0.0
  0
CIRCLE
  5
30
100
AcDbEntity
  8
ALPHA
100
AcDbCircle
 10
110.800003
 20
117.583603
 30
0.0
 40
4.25
  0
LINE
  5
31
100
AcDbEntity
  8
ALPHA
100
AcDbLine
 10
110.199997
 20
113.376175
 30
0.0
 11
110.199997
 21
121.791031
 31
0.0
  0
LINE
  5
32
100
AcDbEntity
  8
ALPHA
100
AcDbLine
 10
111.400009
 20
113.376175
 30
0.0
 11
111.400009
 21
121.791031
 31
0.0
  0
CIRCLE
  5
33
100
AcDbEntity
  8
ALPHA
100
AcDbCircle
 10
68.800003
 20
242.416397
 30
0.0
 40
4.25
  0
LINE
  5
34
100
AcDbEntity
  8
ALPHA
100
AcDbLine
 10
68.199997
 20
238.208969
 30
0.0
 11
68.199997
 21
246.623825
 31
0.0
  0
LINE
  5
35
100
AcDbEntity
  8
ALPHA
100
AcDbLine
 10
69.400009
 20
238.208969
 30
0.0
 11
69.400009
 21
246.623825
 31
0.0
  0
CIRCLE
  5
36
100
AcDbEntity
  8
ALPHA
100
AcDbCircle
 10
41.800003
 20
269.0
 30
0.0
 40
5.5
  0
CIRCLE
  5
37
100
AcDbEntity
  8
ALPHA
100
AcDbCircle
 10
89.800003
 20
269.0
 30
0.0
 40
5.5
  0
CIRCLE
  5
38
100
AcDbEntity
  8
ALPHA
100
AcDbCircle
 10
137.800003
 20
269.0
 30
0.0
 40
5.5
  0
CIRCLE
  5
39
100
AcDbEntity
  8
ALPHA
100
AcDbCircle
 10
137.800003
 20
91.0
 30
0.0
 40
5.5
  0
CIRCLE
  5
3A
100
AcDbEntity
  8
ALPHA
100
AcDbCircle
 10
89.800003
 20
91.0
 30
0.0
 40
5.5
  0
CIRCLE
  5
3B
100
AcDbEntity
  8
ALPHA
100
AcDbCircle
 10
41.800003
 20
91.0
 30
0.0
 40
5.5
  0
LINE
  5
3C
100
AcDbEntity
  8
ALPHA
100
AcDbLine
 10
29.300003
 20
281.5
 30
0.0
 11
54.300003
 21
281.5
 31
0.0
  0
LINE
  5
3D
100
AcDbEntity
  8
ALPHA
100
AcDbLine
 10
29.300003
 20
78.5
 30
0.0
 11
54.300003
 21
78.5
 31
0.0
  0
LINE
  5
3E
100
AcDbEntity
  8
ALPHA
100
AcDbLine
 10
54.300003
 20
281.5
 30
0.0
 11
54.300003
 21
254.0
 31
0.0
  0
LINE
  5
3F
100
AcDbEntity
  8
ALPHA
100
AcDbLine
 10
29.300003
 20
281.5
 30
0.0
 11
29.300003
 21
254.0
 31
0.0
  0
LINE
  5
40
100
AcDbEntity
  8
ALPHA
100
AcDbLine
 10
102.300003
 20
281.5
 30
0.0
 11
102.300003
 21
254.0
 31
0.0
  0
LINE
  5
41
100
AcDbEntity
  8
ALPHA
100
AcDbLine
 10
77.300003
 20
281.5
 30
0.0
 11
77.300003
 21
254.0
 31
0.0
  0
LINE
  5
42
100
AcDbEntity
  8
ALPHA
100
AcDbLine
 10
150.300003
 20
281.5
 30
0.0
 11
150.300003
 21
254.0
 31
0.0
  0
LINE
  5
43
100
AcDbEntity
  8
ALPHA
100
AcDbLine
 10
125.300003
 20
281.5
 30
0.0
 11
125.300003
 21
254.0
 31
0.0
  0
LINE
  5
44
100
AcDbEntity
  8
ALPHA
100
AcDbLine
 10
125.300003
 20
78.5
 30
0.0
 11
150.300003
 21
78.5
 31
0.0
  0
LINE
  5
45
100
AcDbEntity
  8
ALPHA
100
AcDbLine
 10
77.300003
 20
78.5
 30
0.0
 11
102.300003
 21
78.5
 31
0.0
  0
LINE
  5
46
100
AcDbEntity
  8
ALPHA
100
AcDbLine
 10
29.300003
 20
106.0
 30
0.0
 11
29.300003
 21
78.5
 31
0.0
  0
LINE
  5
47
100
AcDbEntity
  8
ALPHA
100
AcDbLine
 10
54.300003
 20
106.0
 30
0.0
 11
54.300003
 21
78.5
 31
0.0
  0
LINE
  5
48
100
AcDbEntity
  8
ALPHA
100
AcDbLine
 10
77.300003
 20
106.0
 30
0.0
 11
77.300003
 21
78.5
 31
0.0
  0
LINE
  5
49
100
AcDbEntity
  8
ALPHA
100
AcDbLine
 10
102.300003
 20
106.0
 30
0.0
 11
102.300003
 21
78.5
 31
0.0
  0
LINE
  5
4A
100
AcDbEntity
  8
ALPHA
100
AcDbLine
 10
125.300003
 20
106.0
 30
0.0
 11
125.300003
 21
78.5
 31
0.0
  0
LINE
  5
4B
100
AcDbEntity
  8
ALPHA
100
AcDbLine
 10
150.300003
 20
106.0
 30
0.0
 11
150.300003
 21
78.5
 31
0.0
  0
LINE
  5
4C
100
AcDbEntity
  8
ALPHA
100
AcDbLine
 10
77.300003
 20
281.5
 30
0.0
 11
102.300003
 21
281.5
 31
0.0
  0
LINE
  5
4D
100
AcDbEntity
  8
ALPHA
100
AcDbLine
 10
125.300003
 20
281.5
 30
0.0
 11
150.300003
 21
281.5
 31
0.0
  0
LINE
  5
4E
100
AcDbEntity
  8
ALPHA
100
AcDbLine
 10
54.300003
 20
106.0
 30
0.0
 11
55.128281
 21
107.434616
 31
0.0
  0
LINE
  5
4F
100
AcDbEntity
  8
ALPHA
100
AcDbLine
 10
125.299994
 20
254.0
 30
0.0
 11
124.47172
 21
252.565384
 31
0.0
  0
LINE
  5
50
100
AcDbEntity
  8
ALPHA
100
AcDbLine
 10
125.299994
 20
106.0
 30
0.0
 11
124.47172
 21
107.434616
 31
0.0
  0
LINE
  5
51
100
AcDbEntity
  8
ALPHA
100
AcDbLine
 10
54.300018
 20
254.0
 30
0.0
 11
55.128296
 21
252.565384
 31
0.0
  0
LINE
  5
52
100
AcDbEntity
  8
ALPHA
100
AcDbLine
 10
77.300011
 20
254.0
 30
0.0
 11
78.128288
 21
252.565384
 31
0.0
  0
LINE
  5
53
100
AcDbEntity
  8
ALPHA
100
AcDbLine
 10
102.299995
 20
106.000008
 30
0.0
 11
101.471722
 21
107.434616
 31
0.0
  0
LINE
  5
54
100
AcDbEntity
  8
ALPHA
100
AcDbLine
 10
102.299995
 20
253.999992
 30
0.0
 11
101.471722
 21
252.565384
 31
0.0
  0
LINE
  5
55
100
AcDbEntity
  8
ALPHA
100
AcDbLine
 10
77.300011
 20
106.000008
 30
0.0
 11
78.128281
 21
107.434616
 31
0.0
  0
LINE
  5
56
100
AcDbEntity
  8
ALPHA
100
AcDbLine
 10
29.299995
 20
105.999992
 30
0.0
 11
31.348846
 21
107.434616
 31
0.0
  0
LINE
  5
57
100
AcDbEntity
  8
ALPHA
100
AcDbLine
 10
150.299999
 20
254.000015
 30
0.0
 11
148.251134
 21
252.565384
 31
0.0
  0
LINE
  5
58
100
AcDbEntity
  8
ALPHA
100
AcDbLine
 10
29.300003
 20
254.0
 30
0.0
 11
31.348846
 21
252.565384
 31
0.0
  0
LINE
  5
59
100
AcDbEntity
  8
ALPHA
100
AcDbLine
 10
150.299999
 20
105.999992
 30
0.0
 11
148.251147
 21
107.434616
 31
0.0
  0
LINE
  5
5A
100
AcDbEntity
  8
ALPHA
100
AcDbLine
 10
155.0
 20
251.5
 30
0.0
 11
155.0
 21
108.5
 31
0.0
  0
LINE
  5
5B
100
AcDbEntity
  8
ALPHA
100
AcDbLine
 10
204.300003
 20
238.5
 30
0.0
 11
204.300003
 21
121.5
 31
0.0
  0
LINE
  5
5C
100
AcDbEntity
  8
ALPHA
100
AcDbLine
 10
155.300003
 20
108.5
 30
0.0
 11
191.300003
 21
108.5
 31
0.0
  0
LINE
  5
5D
100
AcDbEntity
  8
ALPHA
100
AcDbLine
 10
155.300003
 20
251.5
 30
0.0
 11
191.300003
 21
251.5
 31
0.0
  0
LINE
  5
5E
100
AcDbEntity
  8
ALPHA
100
AcDbLine
 10
155.300003
 20
238.5
 30
0.0
 11
204.300003
 21
238.5
 31
0.0
  0
LINE
  5
5F
100
AcDbEntity
  8
ALPHA
100
AcDbLine
 10
155.300003
 20
121.5
 30
0.0
 11
204.300003
 21
121.5
 31
0.0
  0
LINE
  5
60
100
AcDbEntity
  8
ALPHA
100
AcDbLine
 10
200.299992
 20
121.500004
 30
0.0
 11
191.299992
 21
108.500008
 31
0.0
  0
LINE
  5
61
100
AcDbEntity
  8
ALPHA
100
AcDbLine
 10
200.300003
 20
238.500004
 30
0.0
 11
191.300003
 21
251.5
 31
0.0
  0
LINE
  5
62
100
AcDbEntity
  8
ALPHA
100
AcDbLine
 10
155.300003
 20
231.0
 30
0.0
 11
204.300003
 21
231.0
 31
0.0
  0
LINE
  5
63
100
AcDbEntity
  8
ALPHA
100
AcDbLine
 10
155.300003
 20
199.0
 30
0.0
 11
204.300003
 21
199.0
 31
0.0
  0
LINE
  5
64
100
AcDbEntity
  8
ALPHA
100
AcDbLine
 10
155.300003
 20
161.0
 30
0.0
 11
204.300003
 21
161.0
 31
0.0
  0
LINE
  5
65
100
AcDbEntity
  8
ALPHA
100
AcDbLine
 10
155.300003
 20
129.0
 30
0.0
 11
204.300003
 21
129.0
 31
0.0
  0
LINE
  5
66
100
AcDbEntity
  8
ALPHA
100
AcDbLine
 10
155.300003
 20
150.0
 30
0.0
 11
204.300003
 21
150.0
 31
0.0
  0
LINE
  5
67
100
AcDbEntity
  8
ALPHA
100
AcDbLine
 10
155.300003
 20
140.0
 30
0.0
 11
204.300003
 21
140.0
 31
0.0
  0
LINE
  5
68
100
AcDbEntity
  8
ALPHA
100
AcDbLine
 10
155.300003
 20
220.0
 30
0.0
 11
204.300003
 21
220.0
 31
0.0
  0
LINE
  5
69
100
AcDbEntity
  8
ALPHA
100
AcDbLine
 10
155.300003
 20
210.0
 30
0.0
 11
204.300003
 21
210.0
 31
0.0
  0
LINE
  5
6A
100
AcDbEntity
  8
ALPHA
100
AcDbLine
 10
174.800003
 20
220.0
 30
0.0
 11
174.800003
 21
210.0
 31
0.0
  0
LINE
  5
6B
100
AcDbEntity
  8
ALPHA
100
AcDbLine
 10
189.800003
 20
220.0
 30
0.0
 11
189.800003
 21
210.0
 31
0.0
  0
LINE
  5
6C
100
AcDbEntity
  8
ALPHA
100
AcDbLine
 10
174.800003
 20
150.0
 30
0.0
 11
174.800003
 21
140.0
 31
0.0
  0
LINE
  5
6D
100
AcDbEntity
  8
ALPHA
100
AcDbLine
 10
189.800003
 20
150.0
 30
0.0
 11
189.800003
 21
140.0
 31
0.0
  0
LINE
  5
6E
100
AcDbEntity
  8
ALPHA
100
AcDbLine
 10
10.600006
 20
248.5
 30
0.0
 11
24.600006
 21
248.5
 31
0.0
  0
LINE
  5
6F
100
AcDbEntity
  8
ALPHA
100
AcDbLine
 10
10.600006
 20
111.5
 30
0.0
 11
24.600006
 21
111.5
 31
0.0
  0
LINE
  5
70
100
AcDbEntity
  8
ALPHA
100
AcDbLine
 10
8.600006
 20
246.5
 30
0.0
 11
8.600006
 21
113.5
 31
0.0
  0
LINE
  5
71
100
AcDbEntity
  8
ALPHA
100
AcDbLine
 10
24.600006
 20
248.5
 30
0.0
 11
24.600006
 21
111.5
 31
0.0
  0
ARC
  5
72
100
AcDbEntity
  8
ALPHA
100
AcDbCircle
 10
10.600006
 20
246.5
 30
0.0
 40
2.0
100
AcDbArc
 50
89.999982
 51
180.000019
  0
ARC
  5
73
100
AcDbEntity
  8
ALPHA
100
AcDbCircle
 10
10.600006
 20
113.5
 30
0.0
 40
2.0
100
AcDbArc
 50
180.000019
 51
270.000001
  0
ARC
  5
74
100
AcDbEntity
  8
ALPHA
100
AcDbCircle
 10
19.100006
 20
237.699997
 30
0.0
 40
2.0
100
AcDbArc
 50
0.0
 51
89.999982
  0
LINE
  5
75
100
AcDbEntity
  8
ALPHA
100
AcDbLine
 10
19.100006
 20
239.699997
 30
0.0
 11
8.600006
 21
239.699997
 31
0.0
  0
LINE
  5
76
100
AcDbEntity
  8
ALPHA
100
AcDbLine
 10
19.100006
 20
235.699997
 30
0.0
 11
8.600006
 21
235.699997
 31
0.0
  0
ARC
  5
77
100
AcDbEntity
  8
ALPHA
100
AcDbCircle
 10
19.100006
 20
237.699997
 30
0.0
 40
2.0
100
AcDbArc
 50
270.000028
 51
359.999983
  0
LINE
  5
78
100
AcDbEntity
  8
ALPHA
100
AcDbLine
 10
19.800003
 20
193.5
 30
0.0
 11
19.800003
 21
166.5
 31
0.0
  0
LINE
  5
79
100
AcDbEntity
  8
ALPHA
100
AcDbLine
 10
8.600006
 20
193.5
 30
0.0
 11
19.800003
 21
193.5
 31
0.0
  0
LINE
  5
7A
100
AcDbEntity
  8
ALPHA
100
AcDbLine
 10
8.600006
 20
166.5
 30
0.0
 11
19.800003
 21
166.5
 31
0.0
  0
LINE
  5
7B
100
AcDbEntity
  8
ALPHA
100
AcDbLine
 10
10.850006
 20
183.25
 30
0.0
 11
18.850006
 21
183.25
 31
0.0
  0
LINE
  5
7C
100
AcDbEntity
  8
ALPHA
100
AcDbLine
 10
10.850006
 20
176.75
 30
0.0
 11
18.850006
 21
176.75
 31
0.0
  0
LINE
  5
7D
100
AcDbEntity
  8
ALPHA
100
AcDbLine
 10
10.850006
 20
183.25
 30
0.0
 11
10.850006
 21
176.75
 31
0.0
  0
LINE
  5
7E
100
AcDbEntity
  8
ALPHA
100
AcDbLine
 10
18.850006
 20
183.25
 30
0.0
 11
18.850006
 21
176.75
 31
0.0
  0
LINE
  5
7F
100
AcDbEntity
  8
ALPHA
100
AcDbLine
 10
4.600006
 20
234.699997
 30
0.0
 11
4.600006
 21
223.300003
 31
0.0
  0
LINE
  5
80
100
AcDbEntity
  8
ALPHA
100
AcDbLine
 10
4.600006
 20
223.300003
 30
0.0
 11
8.600006
 21
223.300003
 31
0.0
  0
LINE
  5
81
100
AcDbEntity
  8
ALPHA
100
AcDbLine
 10
4.600006
 20
234.699997
 30
0.0
 11
8.600006
 21
234.699997
 31
0.0
  0
LINE
  5
82
100
AcDbEntity
  8
ALPHA
100
AcDbLine
 10
2.800003
 20
134.0
 30
0.0
 11
8.600006
 21
134.0
 31
0.0
  0
LINE
  5
83
100
AcDbEntity
  8
ALPHA
100
AcDbLine
 10
2.800003
 20
128.0
 30
0.0
 11
8.600006
 21
128.0
 31
0.0
  0
LINE
  5
84
100
AcDbEntity
  8
ALPHA
100
AcDbLine
 10
2.800003
 20
134.0
 30
0.0
 11
2.800003
 21
128.0
 31
0.0
  0
LINE
  5
85
100
AcDbEntity
  8
ALPHA
100
AcDbLine
 10
27.604507
 20
227.0
 30
0.0
 11
118.896103
 21
227.0
 31
0.0
  0
LINE
  5
86
100
AcDbEntity
  8
ALPHA
100
AcDbLine
 10
27.604507
 20
217.0
 30
0.0
 11
118.896103
 21
217.0
 31
0.0
  0
LINE
  5
87
100
AcDbEntity
  8
ALPHA
100
AcDbLine
 10
27.604507
 20
227.0
 30
0.0
 11
27.604507
 21
217.0
 31
0.0
  0
LINE
  5
88
100
AcDbEntity
  8
ALPHA
100
AcDbLine
 10
56.953812
 20
222.167068
 30
0.0
 11
58.264893
 21
222.167068
 31
0.0
  0
LINE
  5
89
100
AcDbEntity
  8
ALPHA
100
AcDbLine
 10
56.953812
 20
221.691345
 30
0.0
 11
58.870224
 21
221.691345
 31
0.0
  0
LINE
  5
8A
100
AcDbEntity
  8
ALPHA
100
AcDbLine
 10
58.145828
 20
221.508362
 30
0.0
 11
58.805771
 21
221.508362
 31
0.0
  0
LWPOLYLINE
  5
8B
100
AcDbEntity
  8
ALPHA
100
AcDbPolyline
 90
        9
 70
     0
 43
0.0
 10
56.953736
 20
221.691317
 10
57.04114
 20
221.545109
 10
57.166074
 20
221.424273
 10
57.320285
 20
221.33679
 10
57.493584
 20
221.288441
 10
57.674524
 20
221.282419
 10
57.851153
 20
221.319123
 10
58.011802
 20
221.396126
 10
58.145858
 20
221.508343
  0
LWPOLYLINE
  5
96
100
AcDbEntity
  8
ALPHA
100
AcDbPolyline
 90
        9
 70
     0
 43
0.0
 10
58.26477
 20
222.167051
 10
58.159711
 20
222.334528
 10
58.005816
 20
222.466043
 10
57.816739
 20
222.549929
 10
57.609253
 20
222.578743
 10
57.401768
 20
222.549929
 10
57.21269
 20
222.466043
 10
57.058795
 20
222.334528
 10
56.953736
 20
222.167051
  0
LINE
  5
A1
100
AcDbEntity
  8
ALPHA
100
AcDbLine
 10
47.948273
 20
223.67659
 30
0.0
 11
47.948273
 21
220.85881
 31
0.0
  0
LINE
  5
A2
100
AcDbEntity
  8
ALPHA
100
AcDbLine
 10
43.996048
 20
220.85881
 30
0.0
 11
44.672974
 21
220.85881
 31
0.0
  0
LINE
  5
A3
100
AcDbEntity
  8
ALPHA
100
AcDbLine
 10
43.072037
 20
223.67659
 30
0.0
 11
45.596985
 21
223.67659
 31
0.0
  0
LINE
  5
A4
100
AcDbEntity
  8
ALPHA
100
AcDbLine
 10
48.625214
 20
223.67659
 30
0.0
 11
48.625214
 21
220.85881
 31
0.0
  0
LINE
  5
A5
100
AcDbEntity
  8
ALPHA
100
AcDbLine
 10
47.948273
 20
220.85881
 30
0.0
 11
48.625214
 21
220.85881
 31
0.0
  0
LINE
  5
A6
100
AcDbEntity
  8
ALPHA
100
AcDbLine
 10
44.672974
 20
223.164261
 30
0.0
 11
44.672974
 21
220.85881
 31
0.0
  0
LINE
  5
A7
100
AcDbEntity
  8
ALPHA
100
AcDbLine
 10
43.996048
 20
223.164261
 30
0.0
 11
43.996048
 21
220.85881
 31
0.0
  0
LINE
  5
A8
100
AcDbEntity
  8
ALPHA
100
AcDbLine
 10
47.948273
 20
223.67659
 30
0.0
 11
48.625214
 21
223.67659
 31
0.0
  0
LINE
  5
A9
100
AcDbEntity
  8
ALPHA
100
AcDbLine
 10
43.072037
 20
223.164261
 30
0.0
 11
43.996048
 21
223.164261
 31
0.0
  0
LINE
  5
AA
100
AcDbEntity
  8
ALPHA
100
AcDbLine
 10
45.596985
 20
223.67659
 30
0.0
 11
45.596985
 21
223.164261
 31
0.0
  0
LINE
  5
AB
100
AcDbEntity
  8
ALPHA
100
AcDbLine
 10
44.672974
 20
223.164261
 30
0.0
 11
45.596985
 21
223.164261
 31
0.0
  0
LINE
  5
AC
100
AcDbEntity
  8
ALPHA
100
AcDbLine
 10
43.072037
 20
223.67659
 30
0.0
 11
43.072037
 21
223.164261
 31
0.0
  0
LWPOLYLINE
  5
AD
100
AcDbEntity
  8
ALPHA
100
AcDbPolyline
 90
       17
 70
     0
 43
0.0
 10
47.599015
 20
221.691317
 10
47.609773
 20
222.118526
 10
47.43717
 20
222.518431
 10
47.106097
 20
222.833368
 10
46.664293
 20
223.017923
 10
46.175466
 20
223.045482
 10
45.710105
 20
222.912073
 10
45.335314
 20
222.636932
 10
45.105137
 20
222.259735
 10
45.052766
 20
221.834873
 10
45.185752
 20
221.42361
 10
45.484919
 20
221.085251
 10
45.907128
 20
220.868585
 10
46.391497
 20
220.804857
 10
46.868179
 20
220.903255
 10
47.268438
 20
221.149591
 10
47.534558
 20
221.508344
  0
LINE
  5
C0
100
AcDbEntity
  8
ALPHA
100
AcDbLine
 10
45.682571
 20
222.167068
 30
0.0
 11
46.993652
 21
222.167068
 31
0.0
  0
LINE
  5
C1
100
AcDbEntity
  8
ALPHA
100
AcDbLine
 10
45.682571
 20
221.691345
 30
0.0
 11
47.598984
 21
221.691345
 31
0.0
  0
LINE
  5
C2
100
AcDbEntity
  8
ALPHA
100
AcDbLine
 10
46.874771
 20
221.508362
 30
0.0
 11
47.534531
 21
221.508362
 31
0.0
  0
LWPOLYLINE
  5
C3
100
AcDbEntity
  8
ALPHA
100
AcDbPolyline
 90
        9
 70
     0
 43
0.0
 10
45.682678
 20
221.691317
 10
45.770083
 20
221.545109
 10
45.895017
 20
221.424273
 10
46.049228
 20
221.33679
 10
46.222527
 20
221.288441
 10
46.403467
 20
221.282419
 10
46.580096
 20
221.319123
 10
46.740745
 20
221.396126
 10
46.874801
 20
221.508343
  0
LWPOLYLINE
  5
CE
100
AcDbEntity
  8
ALPHA
100
AcDbPolyline
 90
        9
 70
     0
 43
0.0
 10
46.993713
 20
222.167051
 10
46.888654
 20
222.334528
 10
46.734759
 20
222.466043
 10
46.545681
 20
222.549929
 10
46.338196
 20
222.578743
 10
46.130711
 20
222.549929
 10
45.941633
 20
222.466043
 10
45.787738
 20
222.334528
 10
45.682679
 20
222.167051
  0
LWPOLYLINE
  5
D9
100
AcDbEntity
  8
ALPHA
100
AcDbPolyline
 90
       17
 70
     0
 43
0.0
 10
58.870134
 20
221.691566
 10
58.880784
 20
222.118761
 10
58.708094
 20
222.518621
 10
58.376963
 20
222.833491
 10
57.935138
 20
223.017971
 10
57.446325
 20
223.04546
 10
56.981003
 20
222.911996
 10
56.606268
 20
222.636821
 10
56.376151
 20
222.259614
 10
56.323834
 20
221.834762
 10
56.456858
 20
221.423525
 10
56.756045
 20
221.085198
 10
57.178254
 20
220.868564
 10
57.662608
 20
220.804859
 10
58.139269
 20
220.903268
 10
58.539508
 20
221.149603
 10
58.805615
 20
221.508344
  0
LINE
  5
EC
100
AcDbEntity
  8
ALPHA
100
AcDbLine
 10
51.845535
 20
222.999588
 30
0.0
 11
51.845535
 21
220.85881
 31
0.0
  0
LINE
  5
ED
100
AcDbEntity
  8
ALPHA
100
AcDbLine
 10
52.522659
 20
222.999588
 30
0.0
 11
52.522659
 21
222.86763
 31
0.0
  0
LINE
  5
EE
100
AcDbEntity
  8
ALPHA
100
AcDbLine
 10
53.583801
 20
222.107498
 30
0.0
 11
53.583801
 21
220.85881
 31
0.0
  0
LINE
  5
EF
100
AcDbEntity
  8
ALPHA
100
AcDbLine
 10
54.26091
 20
222.107498
 30
0.0
 11
54.26091
 21
220.85881
 31
0.0
  0
LINE
  5
F0
100
AcDbEntity
  8
ALPHA
100
AcDbLine
 10
55.322067
 20
222.107498
 30
0.0
 11
55.322067
 21
220.85881
 31
0.0
  0
LINE
  5
F1
100
AcDbEntity
  8
ALPHA
100
AcDbLine
 10
55.999191
 20
222.255081
 30
0.0
 11
55.999191
 21
220.85881
 31
0.0
  0
LINE
  5
F2
100
AcDbEntity
  8
ALPHA
100
AcDbLine
 10
53.583801
 20
220.85881
 30
0.0
 11
54.26091
 21
220.85881
 31
0.0
  0
LINE
  5
F3
100
AcDbEntity
  8
ALPHA
100
AcDbLine
 10
55.322067
 20
220.85881
 30
0.0
 11
55.999191
 21
220.85881
 31
0.0
  0
LINE
  5
F4
100
AcDbEntity
  8
ALPHA
100
AcDbLine
 10
51.845535
 20
220.85881
 30
0.0
 11
52.522659
 21
220.85881
 31
0.0
  0
ARC
  5
F5
100
AcDbEntity
  8
ALPHA
100
AcDbCircle
 10
53.053329
 20
221.993225
 30
0.0
 40
0.585518
100
AcDbArc
 50
51.317783
 51
128.682567
  0
ARC
  5
F6
100
AcDbEntity
  8
ALPHA
100
AcDbCircle
 10
54.79158
 20
221.993225
 30
0.0
 40
0.585518
100
AcDbArc
 50
51.317783
 51
128.682567
  0
ARC
  5
F7
100
AcDbEntity
  8
ALPHA
100
AcDbCircle
 10
52.961838
 20
222.107498
 30
0.0
 40
0.439138
100
AcDbArc
 50
128.682676
 51
180.000019
  0
ARC
  5
F8
100
AcDbEntity
  8
ALPHA
100
AcDbCircle
 10
53.144806
 20
222.107498
 30
0.0
 40
0.439138
100
AcDbArc
 50
0.0
 51
51.317759
  0
ARC
  5
F9
100
AcDbEntity
  8
ALPHA
100
AcDbCircle
 10
54.700104
 20
222.107498
 30
0.0
 40
0.439138
100
AcDbArc
 50
128.682676
 51
180.000019
  0
ARC
  5
FA
100
AcDbEntity
  8
ALPHA
100
AcDbCircle
 10
54.883072
 20
222.107498
 30
0.0
 40
0.439138
100
AcDbArc
 50
0.0
 51
51.317759
  0
LINE
  5
FB
100
AcDbEntity
  8
ALPHA
100
AcDbLine
 10
75.706802
 20
222.167068
 30
0.0
 11
77.017883
 21
222.167068
 31
0.0
  0
LINE
  5
FC
100
AcDbEntity
  8
ALPHA
100
AcDbLine
 10
75.706802
 20
221.691345
 30
0.0
 11
77.623215
 21
221.691345
 31
0.0
  0
LINE
  5
FD
100
AcDbEntity
  8
ALPHA
100
AcDbLine
 10
76.899002
 20
221.508362
 30
0.0
 11
77.558762
 21
221.508362
 31
0.0
  0
LWPOLYLINE
  5
FE
100
AcDbEntity
  8
ALPHA
100
AcDbPolyline
 90
        9
 70
     0
 43
0.0
 10
75.706909
 20
221.691317
 10
75.794314
 20
221.545109
 10
75.919248
 20
221.424273
 10
76.073459
 20
221.33679
 10
76.246758
 20
221.288441
 10
76.427698
 20
221.282419
 10
76.604327
 20
221.319123
 10
76.764976
 20
221.396126
 10
76.899032
 20
221.508343
  0
LWPOLYLINE
  5
109
100
AcDbEntity
  8
ALPHA
100
AcDbPolyline
 90
        9
 70
     0
 43
0.0
 10
77.017944
 20
222.167051
 10
76.912885
 20
222.334528
 10
76.75899
 20
222.466043
 10
76.569912
 20
222.549929
 10
76.362427
 20
222.578743
 10
76.154942
 20
222.549929
 10
75.965864
 20
222.466043
 10
75.811969
 20
222.334528
 10
75.70691
 20
222.167051
  0
LWPOLYLINE
  5
114
100
AcDbEntity
  8
ALPHA
100
AcDbPolyline
 90
       17
 70
     0
 43
0.0
 10
77.623308
 20
221.691566
 10
77.633958
 20
222.118761
 10
77.461267
 20
222.518621
 10
77.130137
 20
222.833491
 10
76.688312
 20
223.017971
 10
76.199498
 20
223.04546
 10
75.734177
 20
222.911996
 10
75.359442
 20
222.636821
 10
75.129325
 20
222.259614
 10
75.077007
 20
221.834762
 10
75.210032
 20
221.423525
 10
75.509219
 20
221.085198
 10
75.931428
 20
220.868564
 10
76.415782
 20
220.804859
 10
76.892443
 20
220.903268
 10
77.292682
 20
221.149603
 10
77.558789
 20
221.508344
  0
LWPOLYLINE
  5
127
100
AcDbEntity
  8
ALPHA
100
AcDbPolyline
 90
       16
 70
     0
 43
0.0
 10
61.723543
 20
222.17071
 10
61.523645
 20
222.570458
 10
61.164524
 20
222.873881
 10
60.700122
 20
223.035401
 10
60.200199
 20
223.030756
 10
59.739847
 20
222.860645
 10
59.388215
 20
222.550619
 10
59.198122
 20
222.147247
 10
59.198122
 20
221.71112
 10
59.388215
 20
221.307749
 10
59.739847
 20
220.997723
 10
60.2002
 20
220.827612
 10
60.700123
 20
220.822967
 10
61.164524
 20
220.984487
 10
61.523646
 20
221.28791
 10
61.723543
 20
221.687658
  0
ARC
  5
139
100
AcDbEntity
  8
ALPHA
100
AcDbCircle
 10
60.463638
 20
221.929184
 30
0.0
 40
0.622113
100
AcDbArc
 50
22.844766
 51
337.15524
  0
LINE
  5
13A
100
AcDbEntity
  8
ALPHA
100
AcDbLine
 10
61.037094
 20
221.687683
 30
0.0
 11
61.723694
 21
221.687683
 31
0.0
  0
LINE
  5
13B
100
AcDbEntity
  8
ALPHA
100
AcDbLine
 10
61.037094
 20
222.170715
 30
0.0
 11
61.723694
 21
222.170715
 31
0.0
  0
LINE
  5
13C
100
AcDbEntity
  8
ALPHA
100
AcDbLine
 10
68.139465
 20
222.999588
 30
0.0
 11
68.139465
 21
220.85881
 31
0.0
  0
LINE
  5
13D
100
AcDbEntity
  8
ALPHA
100
AcDbLine
 10
68.816574
 20
222.999588
 30
0.0
 11
68.816574
 21
220.85881
 31
0.0
  0
LINE
  5
13E
100
AcDbEntity
  8
ALPHA
100
AcDbLine
 10
68.139465
 20
220.85881
 30
0.0
 11
68.816574
 21
220.85881
 31
0.0
  0
LINE
  5
13F
100
AcDbEntity
  8
ALPHA
100
AcDbLine
 10
68.139465
 20
223.725998
 30
0.0
 11
68.139465
 21
223.204514
 31
0.0
  0
LINE
  5
140
100
AcDbEntity
  8
ALPHA
100
AcDbLine
 10
68.816574
 20
223.725998
 30
0.0
 11
68.816574
 21
223.204514
 31
0.0
  0
LINE
  5
141
100
AcDbEntity
  8
ALPHA
100
AcDbLine
 10
71.751343
 20
222.999588
 30
0.0
 11
71.751343
 21
219.95491
 31
0.0
  0
CIRCLE
  5
142
100
AcDbEntity
  8
ALPHA
100
AcDbCircle
 10
70.411972
 20
221.929184
 30
0.0
 40
0.653218
  0
LINE
  5
143
100
AcDbEntity
  8
ALPHA
100
AcDbLine
 10
71.074417
 20
222.999588
 30
0.0
 11
71.074417
 21
222.890808
 31
0.0
  0
LINE
  5
144
100
AcDbEntity
  8
ALPHA
100
AcDbLine
 10
71.074417
 20
219.95491
 30
0.0
 11
71.751343
 21
219.95491
 31
0.0
  0
LWPOLYLINE
  5
145
100
AcDbEntity
  8
ALPHA
100
AcDbPolyline
 90
       12
 70
     0
 43
0.0
 10
71.074339
 20
222.890799
 10
70.616691
 20
223.039879
 10
70.129088
 20
223.02644
 10
69.682878
 20
222.852448
 10
69.34335
 20
222.543361
 10
69.160186
 20
222.144407
 10
69.160186
 20
221.71396
 10
69.343351
 20
221.315006
 10
69.682878
 20
221.00592
 10
70.129089
 20
220.831927
 10
70.616692
 20
220.818489
 10
71.074339
 20
220.967569
  0
LINE
  5
153
100
AcDbEntity
  8
ALPHA
100
AcDbLine
 10
71.074417
 20
220.96759
 30
0.0
 11
71.074417
 21
219.95491
 31
0.0
  0
LINE
  5
154
100
AcDbEntity
  8
ALPHA
100
AcDbLine
 10
49.580002
 20
222.167068
 30
0.0
 11
50.890915
 21
222.167068
 31
0.0
  0
LINE
  5
155
100
AcDbEntity
  8
ALPHA
100
AcDbLine
 10
49.580002
 20
221.691345
 30
0.0
 11
51.496246
 21
221.691345
 31
0.0
  0
LINE
  5
156
100
AcDbEntity
  8
ALPHA
100
AcDbLine
 10
50.772034
 20
221.508362
 30
0.0
 11
51.431793
 21
221.508362
 31
0.0
  0
LWPOLYLINE
  5
157
100
AcDbEntity
  8
ALPHA
100
AcDbPolyline
 90
        9
 70
     0
 43
0.0
 10
49.579941
 20
221.691317
 10
49.667346
 20
221.545109
 10
49.79228
 20
221.424273
 10
49.94649
 20
221.33679
 10
50.11979
 20
221.288441
 10
50.30073
 20
221.282419
 10
50.477358
 20
221.319123
 10
50.638007
 20
221.396126
 10
50.772064
 20
221.508343
  0
LWPOLYLINE
  5
162
100
AcDbEntity
  8
ALPHA
100
AcDbPolyline
 90
        9
 70
     0
 43
0.0
 10
50.890976
 20
222.167051
 10
50.785917
 20
222.334528
 10
50.632022
 20
222.466043
 10
50.442944
 20
222.549929
 10
50.235459
 20
222.578743
 10
50.027973
 20
222.549929
 10
49.838896
 20
222.466043
 10
49.685
 20
222.334528
 10
49.579941
 20
222.167051
  0
LWPOLYLINE
  5
16D
100
AcDbEntity
  8
ALPHA
100
AcDbPolyline
 90
       17
 70
     0
 43
0.0
 10
51.496339
 20
221.691566
 10
51.506989
 20
222.118761
 10
51.334299
 20
222.518621
 10
51.003169
 20
222.833491
 10
50.561344
 20
223.017971
 10
50.07253
 20
223.04546
 10
49.607208
 20
222.911996
 10
49.232473
 20
222.636821
 10
49.002357
 20
222.259614
 10
48.950039
 20
221.834762
 10
49.083064
 20
221.423525
 10
49.38225
 20
221.085198
 10
49.80446
 20
220.868564
 10
50.288814
 20
220.804859
 10
50.765475
 20
220.903268
 10
51.165713
 20
221.149603
 10
51.43182
 20
221.508344
  0
ARC
  5
180
100
AcDbEntity
  8
ALPHA
100
AcDbCircle
 10
54.901337
 20
221.517502
 30
0.0
 40
1.555282
100
AcDbArc
 50
63.612284
 51
108.126375
  0
ARC
  5
181
100
AcDbEntity
  8
ALPHA
100
AcDbCircle
 10
55.267288
 20
222.255081
 30
0.0
 40
0.731897
100
AcDbArc
 50
0.0
 51
63.612393
  0
ARC
  5
182
100
AcDbEntity
  8
ALPHA
100
AcDbCircle
 10
54.645126
 20
222.300018
 30
0.0
 40
0.731897
100
AcDbArc
 50
108.12643
 51
144.765859
  0
LINE
  5
183
100
AcDbEntity
  8
ALPHA
100
AcDbLine
 10
52.522659
 20
222.107498
 30
0.0
 11
52.522659
 21
220.85881
 31
0.0
  0
ARC
  5
184
100
AcDbEntity
  8
ALPHA
100
AcDbCircle
 10
53.21785
 20
221.791977
 30
0.0
 40
1.28082
100
AcDbArc
 50
69.512638
 51
122.878382
  0
ARC
  5
185
100
AcDbEntity
  8
ALPHA
100
AcDbCircle
 10
53.346054
 20
222.134766
 30
0.0
 40
0.914871
100
AcDbArc
 50
39.954103
 51
69.512638
  0
LINE
  5
186
100
AcDbEntity
  8
ALPHA
100
AcDbLine
 10
65.120377
 20
222.999588
 30
0.0
 11
65.120377
 21
220.85881
 31
0.0
  0
LINE
  5
187
100
AcDbEntity
  8
ALPHA
100
AcDbLine
 10
67.645508
 20
222.247772
 30
0.0
 11
67.645508
 21
220.85881
 31
0.0
  0
LINE
  5
188
100
AcDbEntity
  8
ALPHA
100
AcDbLine
 10
65.797485
 20
222.076019
 30
0.0
 11
65.797485
 21
220.85881
 31
0.0
  0
LINE
  5
189
100
AcDbEntity
  8
ALPHA
100
AcDbLine
 10
66.968384
 20
222.076019
 30
0.0
 11
66.968384
 21
220.85881
 31
0.0
  0
LINE
  5
18A
100
AcDbEntity
  8
ALPHA
100
AcDbLine
 10
65.120377
 20
220.85881
 30
0.0
 11
65.797485
 21
220.85881
 31
0.0
  0
LINE
  5
18B
100
AcDbEntity
  8
ALPHA
100
AcDbLine
 10
66.968384
 20
220.85881
 30
0.0
 11
67.645508
 21
220.85881
 31
0.0
  0
LINE
  5
18C
100
AcDbEntity
  8
ALPHA
100
AcDbLine
 10
65.120377
 20
222.999588
 30
0.0
 11
65.797485
 21
222.999588
 31
0.0
  0
ARC
  5
18D
100
AcDbEntity
  8
ALPHA
100
AcDbCircle
 10
66.382935
 20
221.781006
 30
0.0
 40
0.768492
100
AcDbArc
 50
63.612338
 51
116.387953
  0
ARC
  5
18E
100
AcDbEntity
  8
ALPHA
100
AcDbCircle
 10
66.529404
 20
222.076019
 30
0.0
 40
0.439138
100
AcDbArc
 50
0.0
 51
63.612502
  0
ARC
  5
18F
100
AcDbEntity
  8
ALPHA
100
AcDbCircle
 10
66.236496
 20
222.076019
 30
0.0
 40
0.439138
100
AcDbArc
 50
116.388063
 51
180.000019
  0
LINE
  5
190
100
AcDbEntity
  8
ALPHA
100
AcDbLine
 10
65.797485
 20
222.999588
 30
0.0
 11
65.797485
 21
222.787094
 31
0.0
  0
ARC
  5
191
100
AcDbEntity
  8
ALPHA
100
AcDbCircle
 10
66.547653
 20
221.510193
 30
0.0
 40
1.555282
100
AcDbArc
 50
63.612284
 51
101.537155
  0
ARC
  5
192
100
AcDbEntity
  8
ALPHA
100
AcDbCircle
 10
66.913605
 20
222.247772
 30
0.0
 40
0.731897
100
AcDbArc
 50
0.0
 51
63.612393
  0
ARC
  5
193
100
AcDbEntity
  8
ALPHA
100
AcDbCircle
 10
66.401199
 20
222.227295
 30
0.0
 40
0.823384
100
AcDbArc
 50
101.537319
 51
137.166591
  0
LINE
  5
194
100
AcDbEntity
  8
ALPHA
100
AcDbLine
 10
74.75219
 20
220.858791
 30
0.0
 11
74.75219
 21
222.999569
 31
0.0
  0
LINE
  5
195
100
AcDbEntity
  8
ALPHA
100
AcDbLine
 10
72.227058
 20
221.610607
 30
0.0
 11
72.227058
 21
222.999584
 31
0.0
  0
LINE
  5
196
100
AcDbEntity
  8
ALPHA
100
AcDbLine
 10
74.075066
 20
221.78236
 30
0.0
 11
74.075066
 21
222.999584
 31
0.0
  0
LINE
  5
197
100
AcDbEntity
  8
ALPHA
100
AcDbLine
 10
72.904167
 20
221.78236
 30
0.0
 11
72.904167
 21
222.999584
 31
0.0
  0
LINE
  5
198
100
AcDbEntity
  8
ALPHA
100
AcDbLine
 10
74.75219
 20
222.999569
 30
0.0
 11
74.075066
 21
222.999569
 31
0.0
  0
LINE
  5
199
100
AcDbEntity
  8
ALPHA
100
AcDbLine
 10
72.904167
 20
222.999569
 30
0.0
 11
72.227058
 21
222.999569
 31
0.0
  0
LINE
  5
19A
100
AcDbEntity
  8
ALPHA
100
AcDbLine
 10
74.75219
 20
220.858791
 30
0.0
 11
74.075066
 21
220.858791
 31
0.0
  0
ARC
  5
19B
100
AcDbEntity
  8
ALPHA
100
AcDbCircle
 10
73.489609
 20
222.077408
 30
0.0
 40
0.768492
100
AcDbArc
 50
243.610253
 51
296.38789
  0
ARC
  5
19C
100
AcDbEntity
  8
ALPHA
100
AcDbCircle
 10
73.636063
 20
221.782364
 30
0.0
 40
0.439138
100
AcDbArc
 50
296.387999
 51
359.999955
  0
LINE
  5
19D
100
AcDbEntity
  8
ALPHA
100
AcDbLine
 10
74.075066
 20
220.858791
 30
0.0
 11
74.075066
 21
221.071301
 31
0.0
  0
ARC
  5
19E
100
AcDbEntity
  8
ALPHA
100
AcDbCircle
 10
73.324905
 20
222.348206
 30
0.0
 40
1.555282
100
AcDbArc
 50
243.612221
 51
281.537092
  0
ARC
  5
19F
100
AcDbEntity
  8
ALPHA
100
AcDbCircle
 10
72.958954
 20
221.610626
 30
0.0
 40
0.731897
100
AcDbArc
 50
179.999964
 51
243.612357
  0
ARC
  5
1A0
100
AcDbEntity
  8
ALPHA
100
AcDbCircle
 10
73.471359
 20
221.631104
 30
0.0
 40
0.823384
100
AcDbArc
 50
281.537256
 51
317.166528
  0
ARC
  5
1A1
100
AcDbEntity
  8
ALPHA
100
AcDbCircle
 10
73.343338
 20
221.782364
 30
0.0
 40
0.439138
100
AcDbArc
 50
179.999964
 51
243.610062
  0
LINE
  5
1A2
100
AcDbEntity
  8
ALPHA
100
AcDbLine
 10
51.845535
 20
222.999588
 30
0.0
 11
52.522659
 21
222.999588
 31
0.0
  0
LINE
  5
1A3
100
AcDbEntity
  8
ALPHA
100
AcDbLine
 10
71.074417
 20
222.999588
 30
0.0
 11
71.751343
 21
222.999588
 31
0.0
  0
LINE
  5
1A4
100
AcDbEntity
  8
ALPHA
100
AcDbLine
 10
68.139465
 20
222.999588
 30
0.0
 11
68.816574
 21
222.999588
 31
0.0
  0
LINE
  5
1A5
100
AcDbEntity
  8
ALPHA
100
AcDbLine
 10
68.139465
 20
223.204514
 30
0.0
 11
68.816574
 21
223.204514
 31
0.0
  0
LINE
  5
1A6
100
AcDbEntity
  8
ALPHA
100
AcDbLine
 10
68.139465
 20
223.725998
 30
0.0
 11
68.816574
 21
223.725998
 31
0.0
  0
LINE
  5
1A7
100
AcDbEntity
  8
ALPHA
100
AcDbLine
 10
42.240768
 20
225.677231
 30
0.0
 11
78.463608
 21
225.677231
 31
0.0
  0
LINE
  5
1A8
100
AcDbEntity
  8
ALPHA
100
AcDbLine
 10
42.240768
 20
218.322784
 30
0.0
 11
78.463608
 21
218.322784
 31
0.0
  0
LINE
  5
1A9
100
AcDbEntity
  8
ALPHA
100
AcDbLine
 10
34.604507
 20
218.181885
 30
0.0
 11
78.604507
 21
218.181885
 31
0.0
  0
LINE
  5
1AA
100
AcDbEntity
  8
ALPHA
100
AcDbLine
 10
34.604507
 20
225.818115
 30
0.0
 11
78.604507
 21
225.818115
 31
0.0
  0
LINE
  5
1AB
100
AcDbEntity
  8
ALPHA
100
AcDbLine
 10
42.240768
 20
225.677231
 30
0.0
 11
42.240768
 21
218.322784
 31
0.0
  0
LINE
  5
1AC
100
AcDbEntity
  8
ALPHA
100
AcDbLine
 10
78.463608
 20
225.677231
 30
0.0
 11
78.463608
 21
218.322784
 31
0.0
  0
LINE
  5
1AD
100
AcDbEntity
  8
ALPHA
100
AcDbLine
 10
78.604507
 20
225.818115
 30
0.0
 11
78.604507
 21
218.181885
 31
0.0
  0
CIRCLE
  5
1AE
100
AcDbEntity
  8
ALPHA
100
AcDbCircle
 10
38.422638
 20
222.0
 30
0.0
 40
2.727231
  0
CIRCLE
  5
1AF
100
AcDbEntity
  8
ALPHA
100
AcDbCircle
 10
38.422638
 20
222.0
 30
0.0
 40
2.427235
  0
ARC
  5
1B0
100
AcDbEntity
  8
ALPHA
100
AcDbCircle
 10
38.422638
 20
222.0
 30
0.0
 40
2.181786
100
AcDbArc
 50
8.626922
 51
26.743691
  0
ARC
  5
1B1
100
AcDbEntity
  8
ALPHA
100
AcDbCircle
 10
38.422638
 20
222.0
 30
0.0
 40
1.636338
100
AcDbArc
 50
11.536958
 51
15.466014
  0
LINE
  5
1B2
100
AcDbEntity
  8
ALPHA
100
AcDbLine
 10
38.695312
 20
223.418167
 30
0.0
 11
38.695312
 21
222.981796
 31
0.0
  0
LINE
  5
1B3
100
AcDbEntity
  8
ALPHA
100
AcDbLine
 10
38.149963
 20
223.418167
 30
0.0
 11
38.149963
 21
222.981796
 31
0.0
  0
LINE
  5
1B4
100
AcDbEntity
  8
ALPHA
100
AcDbLine
 10
37.113525
 20
222.436356
 30
0.0
 11
37.113525
 21
222.109085
 31
0.0
  0
LINE
  5
1B5
100
AcDbEntity
  8
ALPHA
100
AcDbLine
 10
39.240829
 20
222.21817
 30
0.0
 11
39.240829
 21
222.109085
 31
0.0
  0
LINE
  5
1B6
100
AcDbEntity
  8
ALPHA
100
AcDbLine
 10
39.73175
 20
222.21817
 30
0.0
 11
39.73175
 21
221.454575
 31
0.0
  0
LINE
  5
1B7
100
AcDbEntity
  8
ALPHA
100
AcDbLine
 10
37.113525
 20
222.109085
 30
0.0
 11
38.149963
 21
222.109085
 31
0.0
  0
LINE
  5
1B8
100
AcDbEntity
  8
ALPHA
100
AcDbLine
 10
36.284943
 20
222.436356
 30
0.0
 11
36.568176
 21
222.436356
 31
0.0
  0
LINE
  5
1B9
100
AcDbEntity
  8
ALPHA
100
AcDbLine
 10
36.474182
 20
222.981796
 30
0.0
 11
38.149963
 21
222.981796
 31
0.0
  0
LINE
  5
1BA
100
AcDbEntity
  8
ALPHA
100
AcDbLine
 10
37.606232
 20
223.418167
 30
0.0
 11
38.149963
 21
223.418167
 31
0.0
  0
LINE
  5
1BB
100
AcDbEntity
  8
ALPHA
100
AcDbLine
 10
37.471603
 20
223.963608
 30
0.0
 11
39.373688
 21
223.963608
 31
0.0
  0
LINE
  5
1BC
100
AcDbEntity
  8
ALPHA
100
AcDbLine
 10
37.113525
 20
221.56366
 30
0.0
 11
38.149963
 21
221.56366
 31
0.0
  0
LINE
  5
1BD
100
AcDbEntity
  8
ALPHA
100
AcDbLine
 10
36.378937
 20
221.236389
 30
0.0
 11
36.568176
 21
221.236389
 31
0.0
  0
LINE
  5
1BE
100
AcDbEntity
  8
ALPHA
100
AcDbLine
 10
36.677216
 20
220.690948
 30
0.0
 11
38.149963
 21
220.690948
 31
0.0
  0
LINE
  5
1BF
100
AcDbEntity
  8
ALPHA
100
AcDbLine
 10
38.040756
 20
220.309128
 30
0.0
 11
38.149963
 21
220.309128
 31
0.0
  0
LINE
  5
1C0
100
AcDbEntity
  8
ALPHA
100
AcDbLine
 10
38.040756
 20
219.818222
 30
0.0
 11
38.80452
 21
219.818222
 31
0.0
  0
LINE
  5
1C1
100
AcDbEntity
  8
ALPHA
100
AcDbLine
 10
38.80452
 20
220.309128
 30
0.0
 11
38.80452
 21
219.818222
 31
0.0
  0
LINE
  5
1C2
100
AcDbEntity
  8
ALPHA
100
AcDbLine
 10
38.040756
 20
220.309128
 30
0.0
 11
38.040756
 21
219.818222
 31
0.0
  0
LINE
  5
1C3
100
AcDbEntity
  8
ALPHA
100
AcDbLine
 10
38.695312
 20
220.309128
 30
0.0
 11
38.80452
 21
220.309128
 31
0.0
  0
LINE
  5
1C4
100
AcDbEntity
  8
ALPHA
100
AcDbLine
 10
38.695312
 20
220.690948
 30
0.0
 11
40.16806
 21
220.690948
 31
0.0
  0
LINE
  5
1C5
100
AcDbEntity
  8
ALPHA
100
AcDbLine
 10
38.149963
 20
220.690948
 30
0.0
 11
38.149963
 21
220.309128
 31
0.0
  0
LINE
  5
1C6
100
AcDbEntity
  8
ALPHA
100
AcDbLine
 10
38.695312
 20
220.690948
 30
0.0
 11
38.695312
 21
220.309128
 31
0.0
  0
LINE
  5
1C7
100
AcDbEntity
  8
ALPHA
100
AcDbLine
 10
38.149963
 20
221.56366
 30
0.0
 11
38.149963
 21
221.236389
 31
0.0
  0
LINE
  5
1C8
100
AcDbEntity
  8
ALPHA
100
AcDbLine
 10
38.695312
 20
221.56366
 30
0.0
 11
38.695312
 21
221.236389
 31
0.0
  0
LINE
  5
1C9
100
AcDbEntity
  8
ALPHA
100
AcDbLine
 10
37.113525
 20
221.56366
 30
0.0
 11
37.113525
 21
221.236389
 31
0.0
  0
LINE
  5
1CA
100
AcDbEntity
  8
ALPHA
100
AcDbLine
 10
38.695312
 20
221.236389
 30
0.0
 11
39.869965
 21
221.236389
 31
0.0
  0
LINE
  5
1CB
100
AcDbEntity
  8
ALPHA
100
AcDbLine
 10
38.695312
 20
221.56366
 30
0.0
 11
39.240829
 21
221.56366
 31
0.0
  0
LINE
  5
1CC
100
AcDbEntity
  8
ALPHA
100
AcDbLine
 10
38.149963
 20
222.436356
 30
0.0
 11
38.149963
 21
222.109085
 31
0.0
  0
LINE
  5
1CD
100
AcDbEntity
  8
ALPHA
100
AcDbLine
 10
38.695312
 20
222.436356
 30
0.0
 11
39.999771
 21
222.436356
 31
0.0
  0
LINE
  5
1CE
100
AcDbEntity
  8
ALPHA
100
AcDbLine
 10
38.695312
 20
222.109085
 30
0.0
 11
39.240829
 21
222.109085
 31
0.0
  0
LINE
  5
1CF
100
AcDbEntity
  8
ALPHA
100
AcDbLine
 10
37.113525
 20
222.436356
 30
0.0
 11
38.149963
 21
222.436356
 31
0.0
  0
LINE
  5
1D0
100
AcDbEntity
  8
ALPHA
100
AcDbLine
 10
37.113525
 20
221.236389
 30
0.0
 11
38.149963
 21
221.236389
 31
0.0
  0
ARC
  5
1D1
100
AcDbEntity
  8
ALPHA
100
AcDbCircle
 10
38.422638
 20
222.0
 30
0.0
 40
2.181786
100
AcDbArc
 50
200.487321
 51
216.869885
  0
ARC
  5
1D2
100
AcDbEntity
  8
ALPHA
100
AcDbCircle
 10
38.422638
 20
222.0
 30
0.0
 40
2.181786
100
AcDbArc
 50
153.256276
 51
168.46301
  0
ARC
  5
1D3
100
AcDbEntity
  8
ALPHA
100
AcDbCircle
 10
38.422638
 20
222.0
 30
0.0
 40
2.181786
100
AcDbArc
 50
323.130102
 51
342.542402
  0
LINE
  5
1D4
100
AcDbEntity
  8
ALPHA
100
AcDbLine
 10
36.568176
 20
222.436356
 30
0.0
 11
36.568176
 21
221.236389
 31
0.0
  0
ARC
  5
1D5
100
AcDbEntity
  8
ALPHA
100
AcDbCircle
 10
38.422638
 20
222.0
 30
0.0
 40
2.181786
100
AcDbArc
 50
115.841975
 51
143.130111
  0
ARC
  5
1D6
100
AcDbEntity
  8
ALPHA
100
AcDbCircle
 10
38.422638
 20
222.0
 30
0.0
 40
2.181786
100
AcDbArc
 50
36.869897
 51
64.158043
  0
LINE
  5
1D7
100
AcDbEntity
  8
ALPHA
100
AcDbLine
 10
38.695312
 20
223.418167
 30
0.0
 11
39.239044
 21
223.418167
 31
0.0
  0
LINE
  5
1D8
100
AcDbEntity
  8
ALPHA
100
AcDbLine
 10
39.240829
 20
222.21817
 30
0.0
 11
39.73175
 21
222.21817
 31
0.0
  0
LINE
  5
1D9
100
AcDbEntity
  8
ALPHA
100
AcDbLine
 10
39.240829
 20
221.454575
 30
0.0
 11
39.73175
 21
221.454575
 31
0.0
  0
LINE
  5
1DA
100
AcDbEntity
  8
ALPHA
100
AcDbLine
 10
39.240829
 20
221.56366
 30
0.0
 11
39.240829
 21
221.454575
 31
0.0
  0
LINE
  5
1DB
100
AcDbEntity
  8
ALPHA
100
AcDbLine
 10
38.695312
 20
222.436356
 30
0.0
 11
38.695312
 21
222.109085
 31
0.0
  0
LINE
  5
1DC
100
AcDbEntity
  8
ALPHA
100
AcDbLine
 10
39.922424
 20
221.345474
 30
0.0
 11
40.503937
 21
221.345474
 31
0.0
  0
LINE
  5
1DD
100
AcDbEntity
  8
ALPHA
100
AcDbLine
 10
40.025909
 20
222.327271
 30
0.0
 11
40.579666
 21
222.327271
 31
0.0
  0
LINE
  5
1DE
100
AcDbEntity
  8
ALPHA
100
AcDbLine
 10
39.40448
 20
223.309082
 30
0.0
 11
40.16806
 21
223.309082
 31
0.0
  0
LINE
  5
1DF
100
AcDbEntity
  8
ALPHA
100
AcDbLine
 10
36.677216
 20
223.309082
 30
0.0
 11
37.440796
 21
223.309082
 31
0.0
  0
LINE
  5
1E0
100
AcDbEntity
  8
ALPHA
100
AcDbLine
 10
38.695312
 20
222.981796
 30
0.0
 11
40.371094
 21
222.981796
 31
0.0
  0
ARC
  5
1E1
100
AcDbEntity
  8
ALPHA
100
AcDbCircle
 10
38.422638
 20
222.0
 30
0.0
 40
1.636338
100
AcDbArc
 50
119.926483
 51
126.86989
  0
ARC
  5
1E2
100
AcDbEntity
  8
ALPHA
100
AcDbCircle
 10
38.422638
 20
222.0
 30
0.0
 40
1.636338
100
AcDbArc
 50
53.130085
 51
60.073535
  0
ARC
  5
1E3
100
AcDbEntity
  8
ALPHA
100
AcDbCircle
 10
38.422638
 20
222.0
 30
0.0
 40
1.636338
100
AcDbArc
 50
332.181852
 51
336.421815
  0
LINE
  5
1E4
100
AcDbEntity
  8
ALPHA
100
AcDbLine
 10
34.604507
 20
218.181885
 30
0.0
 11
34.604507
 21
225.818115
 31
0.0
  0
LINE
  5
1E5
100
AcDbEntity
  8
ALPHA
100
AcDbLine
 10
64.626419
 20
222.213715
 30
0.0
 11
64.626419
 21
220.85881
 31
0.0
  0
LINE
  5
1E6
100
AcDbEntity
  8
ALPHA
100
AcDbLine
 10
63.949295
 20
221.871445
 30
0.0
 11
63.949295
 21
221.519852
 31
0.0
  0
LINE
  5
1E7
100
AcDbEntity
  8
ALPHA
100
AcDbLine
 10
63.949295
 20
220.85881
 30
0.0
 11
64.626419
 21
220.85881
 31
0.0
  0
ARC
  5
1E8
100
AcDbEntity
  8
ALPHA
100
AcDbCircle
 10
63.354721
 20
220.465424
 30
0.0
 40
2.56164
100
AcDbArc
 50
72.842438
 51
101.469509
  0
ARC
  5
1E9
100
AcDbEntity
  8
ALPHA
100
AcDbCircle
 10
63.894516
 20
222.213715
 30
0.0
 40
0.731897
100
AcDbArc
 50
0.0
 51
72.842438
  0
LINE
  5
1EA
100
AcDbEntity
  8
ALPHA
100
AcDbLine
 10
62.137985
 20
222.2677
 30
0.0
 11
62.732574
 21
222.2677
 31
0.0
  0
ARC
  5
1EB
100
AcDbEntity
  8
ALPHA
100
AcDbCircle
 10
62.778397
 20
222.2677
 30
0.0
 40
0.64041
100
AcDbArc
 50
123.565335
 51
180.000019
  0
ARC
  5
1EC
100
AcDbEntity
  8
ALPHA
100
AcDbCircle
 10
63.081863
 20
221.810318
 30
0.0
 40
1.189332
100
AcDbArc
 50
101.469509
 51
123.565335
  0
LINE
  5
1ED
100
AcDbEntity
  8
ALPHA
100
AcDbLine
 10
63.949295
 20
221.074173
 30
0.0
 11
63.949295
 21
220.85881
 31
0.0
  0
ARC
  5
1EE
100
AcDbEntity
  8
ALPHA
100
AcDbCircle
 10
62.952255
 20
222.2677
 30
0.0
 40
0.219569
100
AcDbArc
 50
134.09918
 51
180.000019
  0
ARC
  5
1EF
100
AcDbEntity
  8
ALPHA
100
AcDbCircle
 10
63.363846
 20
221.40773
 30
0.0
 40
1.189332
100
AcDbArc
 50
70.423403
 51
109.639945
  0
ARC
  5
1F0
100
AcDbEntity
  8
ALPHA
100
AcDbCircle
 10
63.117844
 20
222.097031
 30
0.0
 40
0.457436
100
AcDbArc
 50
109.639945
 51
134.180924
  0
ARC
  5
1F1
100
AcDbEntity
  8
ALPHA
100
AcDbCircle
 10
63.578522
 20
222.011108
 30
0.0
 40
0.548923
100
AcDbArc
 50
55.411802
 51
70.423403
  0
ARC
  5
1F2
100
AcDbEntity
  8
ALPHA
100
AcDbCircle
 10
63.491867
 20
224.097427
 30
0.0
 40
1.921229
100
AcDbArc
 50
263.312453
 51
278.890038
  0
ARC
  5
1F3
100
AcDbEntity
  8
ALPHA
100
AcDbCircle
 10
63.746262
 20
222.470428
 30
0.0
 40
0.274461
100
AcDbArc
 50
278.851243
 51
298.677643
  0
ARC
  5
1F4
100
AcDbEntity
  8
ALPHA
100
AcDbCircle
 10
63.812164
 20
222.350021
 30
0.0
 40
0.137231
100
AcDbArc
 50
298.677588
 51
55.411832
  0
ARC
  5
1F5
100
AcDbEntity
  8
ALPHA
100
AcDbCircle
 10
63.034424
 20
220.190186
 30
0.0
 40
2.012716
100
AcDbArc
 50
83.312899
 51
102.239517
  0
ARC
  5
1F6
100
AcDbEntity
  8
ALPHA
100
AcDbCircle
 10
62.68692
 20
221.508362
 30
0.0
 40
0.64041
100
AcDbArc
 50
121.643156
 51
226.388642
  0
ARC
  5
1F7
100
AcDbEntity
  8
ALPHA
100
AcDbCircle
 10
62.782883
 20
221.3526
 30
0.0
 40
0.823384
100
AcDbArc
 50
102.15832
 51
121.643156
  0
ARC
  5
1F8
100
AcDbEntity
  8
ALPHA
100
AcDbCircle
 10
63.034424
 20
222.715973
 30
0.0
 40
1.921229
100
AcDbArc
 50
258.372478
 51
289.783206
  0
ARC
  5
1F9
100
AcDbEntity
  8
ALPHA
100
AcDbCircle
 10
62.813309
 20
221.640686
 30
0.0
 40
0.823384
100
AcDbArc
 50
226.254729
 51
258.372478
  0
ARC
  5
1FA
100
AcDbEntity
  8
ALPHA
100
AcDbCircle
 10
63.437073
 20
221.596848
 30
0.0
 40
0.731897
100
AcDbArc
 50
289.783206
 51
314.427021
  0
ARC
  5
1FB
100
AcDbEntity
  8
ALPHA
100
AcDbCircle
 10
63.190002
 20
222.5513
 30
0.0
 40
1.28082
100
AcDbArc
 50
254.119838
 51
306.360021
  0
ARC
  5
1FC
100
AcDbEntity
  8
ALPHA
100
AcDbCircle
 10
62.888153
 20
221.490067
 30
0.0
 40
0.17746
100
AcDbArc
 50
120.410334
 51
254.119866
  0
ARC
  5
1FD
100
AcDbEntity
  8
ALPHA
100
AcDbCircle
 10
63.135223
 20
219.696915
 30
0.0
 40
2.012716
100
AcDbArc
 50
84.72112
 51
93.88248
  0
ARC
  5
1FE
100
AcDbEntity
  8
ALPHA
100
AcDbCircle
 10
63.02977
 20
221.248627
 30
0.0
 40
0.457436
100
AcDbArc
 50
93.88248
 51
120.410388
  0
ARC
  5
1FF
100
AcDbEntity
  8
ALPHA
100
AcDbCircle
 10
63.437073
 20
222.976578
 30
0.0
 40
1.28082
100
AcDbArc
 50
264.710074
 51
285.826669
  0
ARC
  5
200
100
AcDbEntity
  8
ALPHA
100
AcDbCircle
 10
63.711533
 20
222.008362
 30
0.0
 40
0.274461
100
AcDbArc
 50
285.826669
 51
330.073563
  0
LINE
  5
201
100
AcDbEntity
  8
ALPHA
100
AcDbLine
 10
118.896103
 20
107.434616
 30
0.0
 11
118.896103
 21
252.565384
 31
0.0
  0
LINE
  5
202
100
AcDbEntity
  8
ALPHA
100
AcDbLine
 10
149.187698
 20
107.434616
 30
0.0
 11
30.604507
 21
107.434616
 31
0.0
  0
LINE
  5
203
100
AcDbEntity
  8
ALPHA
100
AcDbLine
 10
149.187698
 20
252.565384
 30
0.0
 11
30.604507
 21
252.565384
 31
0.0
  0
LINE
  5
204
100
AcDbEntity
  8
ALPHA
100
AcDbLine
 10
25.604507
 20
112.434616
 30
0.0
 11
25.604507
 21
247.565384
 31
0.0
  0
LINE
  5
205
100
AcDbEntity
  8
ALPHA
100
AcDbLine
 10
154.187698
 20
112.434616
 30
0.0
 11
154.187698
 21
247.565384
 31
0.0
  0
ARC
  5
206
100
AcDbEntity
  8
ALPHA
100
AcDbCircle
 10
149.187698
 20
112.434616
 30
0.0
 40
5.0
100
AcDbArc
 50
270.000001
 51
0.00001
  0
ARC
  5
207
100
AcDbEntity
  8
ALPHA
100
AcDbCircle
 10
30.604507
 20
112.434616
 30
0.0
 40
5.0
100
AcDbArc
 50
180.000005
 51
270.000001
  0
ARC
  5
208
100
AcDbEntity
  8
ALPHA
100
AcDbCircle
 10
149.187698
 20
247.565384
 30
0.0
 40
5.0
100
AcDbArc
 50
0.000005
 51
90.000003
  0
ARC
  5
209
100
AcDbEntity
  8
ALPHA
100
AcDbCircle
 10
30.604507
 20
247.565384
 30
0.0
 40
5.0
100
AcDbArc
 50
90.000003
 51
180.000005
  0
TEXT
  5
20A
100
AcDbEntity
  8
TEXTE
100
AcDbText
 10
41.096642
 20
246.815384
 30
0.0
 40
1.5
  1
1 L1
 41
1.136009
  7
ROMANS
 72
     5
 11
46.695545
 21
246.815384
 31
0.0
100
AcDbText
  0
TEXT
  5
20C
100
AcDbEntity
  8
TEXTE
100
AcDbText
 10
86.896641
 20
246.815384
 30
0.0
 40
1.5
  1
3 L2
 41
1.045129
  7
ROMANS
 72
     5
 11
92.495545
 21
246.815384
 31
0.0
100
AcDbText
  0
TEXT
  5
20D
100
AcDbEntity
  8
TEXTE
100
AcDbText
 10
132.696659
 20
246.815384
 30
0.0
 40
1.5
  1
5 L3
 41
1.045129
  7
ROMANS
 72
     5
 11
138.295563
 21
246.815384
 31
0.0
100
AcDbText
  0
TEXT
  5
20E
100
AcDbEntity
  8
TEXTE
100
AcDbText
 10
128.77758
 20
220.5
 30
0.0
 40
3.0
  1
LC1F265
 41
0.802776
  7
ROMANS
 72
     5
 11
144.030319
 21
220.5
 31
0.0
100
AcDbText
  0
TEXT
  5
210
100
AcDbEntity
  8
TEXTE
100
AcDbText
 10
41.496655
 20
111.684616
 30
0.0
 40
1.5
  1
2 T1
 41
1.152715
  7
ROMANS
 72
     5
 11
47.095558
 21
111.684616
 31
0.0
100
AcDbText
  0
TEXT
  5
211
100
AcDbEntity
  8
TEXTE
100
AcDbText
 10
86.896641
 20
111.684616
 30
0.0
 40
1.5
  1
4 T2
 41
1.059252
  7
ROMANS
 72
     5
 11
92.495545
 21
111.684616
 31
0.0
100
AcDbText
  0
TEXT
  5
212
100
AcDbEntity
  8
TEXTE
100
AcDbText
 10
132.696659
 20
111.684616
 30
0.0
 40
1.5
  1
6 T3
 41
1.059252
  7
ROMANS
 72
     5
 11
138.295563
 21
111.684616
 31
0.0
100
AcDbText
  0
LINE
  5
213
100
AcDbEntity
  8
ALPHA
100
AcDbLine
 10
123.496109
 20
207.5
 30
0.0
 11
123.496109
 21
215.5
 31
0.0
  0
LINE
  5
214
100
AcDbEntity
  8
ALPHA
100
AcDbLine
 10
147.496109
 20
207.5
 30
0.0
 11
147.496109
 21
215.5
 31
0.0
  0
LINE
  5
215
100
AcDbEntity
  8
ALPHA
100
AcDbLine
 10
123.496109
 20
215.5
 30
0.0
 11
147.496109
 21
215.5
 31
0.0
  0
LINE
  5
216
100
AcDbEntity
  8
ALPHA
100
AcDbLine
 10
123.496109
 20
207.5
 30
0.0
 11
147.496109
 21
207.5
 31
0.0
  0
INSERT
  5
25A
100
AcDbEntity
  8
0
100
AcDbBlockReference
  2
SCH_ISO
 10
0.0
 20
0.0
 30
0.0
  0
DIMENSION
  5
267
100
AcDbEntity
  8
COTATION1
100
AcDbDimension
  2
*D16
 10
41.800003
 20
54.175
 30
0.0
 11
25.200005
 21
56.675
 31
0.0
  3
SC_STAND
100
AcDbAlignedDimension
 13
8.600006
 23
113.5
 33
0.0
 14
41.800003
 24
91.0
 34
0.0
100
AcDbRotatedDimension
  0
DIMENSION
  5
273
100
AcDbEntity
  8
COTATION1
100
AcDbDimension
  2
*D15
 10
89.800003
 20
54.175
 30
0.0
 11
65.800003
 21
56.675
 31
0.0
  3
SC_STAND
100
AcDbAlignedDimension
 13
41.800003
 23
91.0
 33
0.0
 14
89.800003
 24
91.0
 34
0.0
100
AcDbRotatedDimension
1001
ACAD
1000
DSTYLE
1002
{
1070
    75
1070
     1
1070
   287
1070
     4
1002
}
  0
DIMENSION
  5
27F
100
AcDbEntity
  8
COTATION1
100
AcDbDimension
  2
*D14
 10
137.800003
 20
54.175
 30
0.0
 11
113.800003
 21
56.675
 31
0.0
  3
SC_STAND
100
AcDbAlignedDimension
 13
89.800003
 23
91.0
 33
0.0
 14
137.800003
 24
91.0
 34
0.0
100
AcDbRotatedDimension
1001
ACAD
1000
DSTYLE
1002
{
1070
    75
1070
     1
1070
   287
1070
     4
1002
}
  0
DIMENSION
  5
28B
100
AcDbEntity
  8
COTATION1
100
AcDbDimension
  2
*D13
 10
204.300003
 20
54.175
 30
0.0
 11
171.050003
 21
56.675
 31
0.0
  3
SC_STAND
100
AcDbAlignedDimension
 13
137.800003
 23
91.0
 33
0.0
 14
204.300003
 24
121.5
 34
0.0
100
AcDbRotatedDimension
1001
ACAD
1000
DSTYLE
1002
{
1070
    75
1070
     1
1070
   287
1070
     4
1002
}
  0
DIMENSION
  5
298
100
AcDbEntity
  8
COTATION1
100
AcDbDimension
  2
*D12
 10
204.300003
 20
37.125
 30
0.0
 11
106.450005
 21
39.625
 31
0.0
  3
SC_STAND
100
AcDbAlignedDimension
 13
8.600006
 23
113.5
 33
0.0
 14
204.300003
 24
121.4375
 34
0.0
100
AcDbRotatedDimension
  0
DIMENSION
  5
2A5
100
AcDbEntity
  8
COTATION1
100
AcDbDimension
  2
*D11
 10
234.77706
 20
269.0
 30
0.0
 11
232.27706
 21
180.0
 31
0.0
  3
SC_STAND
100
AcDbAlignedDimension
 13
137.800003
 23
91.0
 33
0.0
 14
137.800003
 24
269.0
 34
0.0
 50
90.0
100
AcDbRotatedDimension
  0
DIMENSION
  5
2B2
100
AcDbEntity
  8
COTATION1
100
AcDbDimension
  2
*D10
 10
54.300003
 20
295.625
 30
0.0
 11
41.800003
 21
298.125
 31
0.0
  3
SC_STAND
100
AcDbAlignedDimension
 13
29.300003
 23
281.5
 33
0.0
 14
54.300003
 24
281.5
 34
0.0
100
AcDbRotatedDimension
  0
ENDSEC
  0
SECTION
  2
OBJECTS
  0
DICTIONARY
  5
30F
100
AcDbDictionary
  3
ACAD_GROUP
350
310
  3
ACAD_MLINESTYLE
350
31D
  3
ACDBVARIABLEDICTIONARY
350
369
  0
DICTIONARY
  5
310
102
{ACAD_REACTORS
330
30F
102
}
100
AcDbDictionary
  0
DICTIONARY
  5
31D
102
{ACAD_REACTORS
330
30F
102
}
100
AcDbDictionary
  3
STANDARD
350
31E
  0
DICTIONARY
  5
369
102
{ACAD_REACTORS
330
30F
102
}
100
AcDbDictionary
  3
DIMADEC
350
36A
  0
MLINESTYLE
  5
31E
102
{ACAD_REACTORS
330
31D
102
}
100
AcDbMlineStyle
  2
STANDARD
 70
     0
  3

 62
   256
 51
90.0
 52
90.0
 71
     2
 49
0.5
 62
   256
  6
BYLAYER
 49
-0.5
 62
   256
  6
BYLAYER
  0
DICTIONARYVAR
  5
36A
102
{ACAD_REACTORS
330
369
102
}
100
DictionaryVariables
280
     0
  1
0
  0
ENDSEC
  0
EOF
