  0
SECTION
  2
HEADER
  9
$ACADVER
  1
AC1014
  9
$ACADMAINTVER
 70
     0
  9
$DWGCODEPAGE
  3
ANSI_1252
  9
$INSBASE
 10
-246.487027
 20
36.451663
 30
0.0
  9
$EXTMIN
 10
13.728207
 20
27.824999
 30
0.0
  9
$EXTMAX
 10
225.368532
 20
267.414815
 30
0.0
  9
$LIMMIN
 10
0.0
 20
0.0
  9
$LIMMAX
 10
210.0
 20
297.0
  9
$ORTHOMODE
 70
     1
  9
$REGENMODE
 70
     1
  9
$FILLMODE
 70
     1
  9
$QTEXTMODE
 70
     0
  9
$MIRRTEXT
 70
     0
  9
$DRAGMODE
 70
     1
  9
$LTSCALE
 40
20.0
  9
$OSMODE
 70
     0
  9
$ATTMODE
 70
     1
  9
$TEXTSIZE
 40
2.5
  9
$TRACEWID
 40
0.05
  9
$TEXTSTYLE
  7
ROMANS
  9
$CLAYER
  8
COTATION1
  9
$CELTYPE
  6
BYLAYER
  9
$CECOLOR
 62
   256
  9
$CELTSCALE
 40
1.0
  9
$DELOBJ
 70
     1
  9
$DISPSILH
 70
     0
  9
$DIMSCALE
 40
1.0
  9
$DIMASZ
 40
3.0
  9
$DIMEXO
 40
0.0625
  9
$DIMDLI
 40
0.38
  9
$DIMRND
 40
0.01
  9
$DIMDLE
 40
0.0
  9
$DIMEXE
 40
0.18
  9
$DIMTP
 40
0.0
  9
$DIMTM
 40
0.0
  9
$DIMTXT
 40
2.5
  9
$DIMCEN
 40
0.09
  9
$DIMTSZ
 40
0.0
  9
$DIMTOL
 70
     0
  9
$DIMLIM
 70
     0
  9
$DIMTIH
 70
     0
  9
$DIMTOH
 70
     0
  9
$DIMSE1
 70
     0
  9
$DIMSE2
 70
     0
  9
$DIMTAD
 70
     1
  9
$DIMZIN
 70
    12
  9
$DIMBLK
  1

  9
$DIMASO
 70
     1
  9
$DIMSHO
 70
     1
  9
$DIMPOST
  1

  9
$DIMAPOST
  1

  9
$DIMALT
 70
     0
  9
$DIMALTD
 70
     2
  9
$DIMALTF
 40
25.4
  9
$DIMLFAC
 40
1.0
  9
$DIMTOFL
 70
     1
  9
$DIMTVP
 40
0.0
  9
$DIMTIX
 70
     0
  9
$DIMSOXD
 70
     0
  9
$DIMSAH
 70
     0
  9
$DIMBLK1
  1

  9
$DIMBLK2
  1

  9
$DIMSTYLE
  2
SC_STAND
  9
$DIMCLRD
 70
     0
  9
$DIMCLRE
 70
     0
  9
$DIMCLRT
 70
     0
  9
$DIMTFAC
 40
1.0
  9
$DIMGAP
 40
1.0
  9
$DIMJUST
 70
     0
  9
$DIMSD1
 70
     0
  9
$DIMSD2
 70
     0
  9
$DIMTOLJ
 70
     1
  9
$DIMTZIN
 70
    12
  9
$DIMALTZ
 70
    12
  9
$DIMALTTZ
 70
    12
  9
$DIMFIT
 70
     5
  9
$DIMUPT
 70
     0
  9
$DIMUNIT
 70
     2
  9
$DIMDEC
 70
     3
  9
$DIMTDEC
 70
     3
  9
$DIMALTU
 70
     2
  9
$DIMALTTD
 70
     2
  9
$DIMTXSTY
  7
ROMANS
  9
$DIMAUNIT
 70
     0
  9
$LUNITS
 70
     2
  9
$LUPREC
 70
     3
  9
$SKETCHINC
 40
0.1
  9
$FILLETRAD
 40
0.0625
  9
$AUNITS
 70
     0
  9
$AUPREC
 70
     0
  9
$MENU
  1
ACAD
  9
$ELEVATION
 40
0.0
  9
$PELEVATION
 40
0.0
  9
$THICKNESS
 40
0.0
  9
$LIMCHECK
 70
     0
  9
$BLIPMODE
 70
     1
  9
$CHAMFERA
 40
0.0
  9
$CHAMFERB
 40
0.0
  9
$CHAMFERC
 40
0.0
  9
$CHAMFERD
 40
0.0
  9
$SKPOLY
 70
     0
  9
$TDCREATE
 40
2450599.365139004
  9
$TDUPDATE
 40
2451387.883718576
  9
$TDINDWG
 40
0.0015717593
  9
$TDUSRTIMER
 40
0.0015717593
  9
$USRTIMER
 70
     1
  9
$ANGBASE
 50
0.0
  9
$ANGDIR
 70
     0
  9
$PDMODE
 70
     0
  9
$PDSIZE
 40
0.0
  9
$PLINEWID
 40
0.0
  9
$COORDS
 70
     2
  9
$SPLFRAME
 70
     0
  9
$SPLINETYPE
 70
     6
  9
$SPLINESEGS
 70
     8
  9
$ATTDIA
 70
     0
  9
$ATTREQ
 70
     1
  9
$HANDLING
 70
     1
  9
$HANDSEED
  5
23F
  9
$SURFTAB1
 70
     6
  9
$SURFTAB2
 70
     6
  9
$SURFTYPE
 70
     6
  9
$SURFU
 70
     6
  9
$SURFV
 70
     6
  9
$UCSNAME
  2

  9
$UCSORG
 10
0.0
 20
0.0
 30
0.0
  9
$UCSXDIR
 10
1.0
 20
0.0
 30
0.0
  9
$UCSYDIR
 10
0.0
 20
1.0
 30
0.0
  9
$PUCSNAME
  2

  9
$PUCSORG
 10
0.0
 20
0.0
 30
0.0
  9
$PUCSXDIR
 10
1.0
 20
0.0
 30
0.0
  9
$PUCSYDIR
 10
0.0
 20
1.0
 30
0.0
  9
$USERI1
 70
     0
  9
$USERI2
 70
     0
  9
$USERI3
 70
     0
  9
$USERI4
 70
     0
  9
$USERI5
 70
     0
  9
$USERR1
 40
0.0
  9
$USERR2
 40
0.0
  9
$USERR3
 40
0.0
  9
$USERR4
 40
0.0
  9
$USERR5
 40
0.0
  9
$WORLDVIEW
 70
     1
  9
$SHADEDGE
 70
     3
  9
$SHADEDIF
 70
    70
  9
$TILEMODE
 70
     1
  9
$MAXACTVP
 70
    16
  9
$PINSBASE
 10
0.0
 20
0.0
 30
0.0
  9
$PLIMCHECK
 70
     0
  9
$PEXTMIN
 10
1.000000E+20
 20
1.000000E+20
 30
1.000000E+20
  9
$PEXTMAX
 10
-1.000000E+20
 20
-1.000000E+20
 30
-1.000000E+20
  9
$PLIMMIN
 10
0.0
 20
0.0
  9
$PLIMMAX
 10
12.0
 20
9.0
  9
$UNITMODE
 70
     0
  9
$VISRETAIN
 70
     0
  9
$PLINEGEN
 70
     0
  9
$PSLTSCALE
 70
     1
  9
$TREEDEPTH
 70
  3020
  9
$PICKSTYLE
 70
     1
  9
$CMLSTYLE
  2
STANDARD
  9
$CMLJUST
 70
     0
  9
$CMLSCALE
 40
1.0
  9
$PROXYGRAPHICS
 70
     1
  9
$MEASUREMENT
 70
     0
  0
ENDSEC
  0
SECTION
  2
CLASSES
  0
CLASS
  1
DICTIONARYVAR
  2
AcDbDictionaryVar
  3
"AutoCAD"
 90
        0
280
     0
281
     0
  0
ENDSEC
  0
SECTION
  2
TABLES
  0
TABLE
  2
VPORT
  5
1E0
100
AcDbSymbolTable
 70
     1
  0
VPORT
  5
23A
100
AcDbSymbolTableRecord
100
AcDbViewportTableRecord
  2
*ACTIVE
 70
     0
 10
0.0
 20
0.0
 11
1.0
 21
1.0
 12
283.244621
 22
169.500718
 13
0.0
 23
0.0
 14
1.0
 24
1.0
 15
10.0
 25
10.0
 16
0.0
 26
0.0
 36
1.0
 17
0.0
 27
0.0
 37
0.0
 40
339.001436
 41
1.671053
 42
50.0
 43
0.0
 44
0.0
 50
0.0
 51
0.0
 71
     0
 72
   100
 73
     1
 74
     1
 75
     0
 76
     1
 77
     0
 78
     0
  0
ENDTAB
  0
TABLE
  2
LTYPE
  5
1DD
100
AcDbSymbolTable
 70
    24
  0
LTYPE
  5
1E9
100
AcDbSymbolTableRecord
100
AcDbLinetypeTableRecord
  2
BYBLOCK
 70
     0
  3

 72
    65
 73
     0
 40
0.0
  0
LTYPE
  5
1EA
100
AcDbSymbolTableRecord
100
AcDbLinetypeTableRecord
  2
BYLAYER
 70
     0
  3

 72
    65
 73
     0
 40
0.0
  0
LTYPE
  5
1EB
100
AcDbSymbolTableRecord
100
AcDbLinetypeTableRecord
  2
CONTINUOUS
 70
     0
  3
Solid line
 72
    65
 73
     0
 40
0.0
  0
LTYPE
  5
200
100
AcDbSymbolTableRecord
100
AcDbLinetypeTableRecord
  2
CADRA_SOLID
 70
     0
  3
Cadra_solid
 72
    65
 73
     0
 40
0.0
  0
LTYPE
  5
201
100
AcDbSymbolTableRecord
100
AcDbLinetypeTableRecord
  2
AXES2
 70
     0
  3
___ _ ___ _ ___ _ ___ _ ___ _ ___ _ ___ _ ___ _
 72
    65
 73
     4
 40
1.125
 49
0.75
 74
     0
 49
-0.125
 74
     0
 49
0.125
 74
     0
 49
-0.125
 74
     0
  0
LTYPE
  5
202
100
AcDbSymbolTableRecord
100
AcDbLinetypeTableRecord
  2
AXES
 70
     0
  3
____ _ ____ _ ____ _ ____ _ ____ _ ____ _ ____ 
 72
    65
 73
     4
 40
2.0
 49
1.25
 74
     0
 49
-0.25
 74
     0
 49
0.25
 74
     0
 49
-0.25
 74
     0
  0
LTYPE
  5
203
100
AcDbSymbolTableRecord
100
AcDbLinetypeTableRecord
  2
AXESX2
 70
     0
  3
________  __  ________  __  ________  __  _____
 72
    65
 73
     4
 40
4.0
 49
2.5
 74
     0
 49
-0.5
 74
     0
 49
0.5
 74
     0
 49
-0.5
 74
     0
  0
LTYPE
  5
204
100
AcDbSymbolTableRecord
100
AcDbLinetypeTableRecord
  2
TIRETPT
 70
     0
  3
__ . __ . __ . __ . __ . __ . __ . __ . __ . __
 72
    65
 73
     4
 40
1.0
 49
0.5
 74
     0
 49
-0.25
 74
     0
 49
0.0
 74
     0
 49
-0.25
 74
     0
  0
LTYPE
  5
205
100
AcDbSymbolTableRecord
100
AcDbLinetypeTableRecord
  2
TIRETPT2
 70
     0
  3
_._._._._._._._._._._._._._._._._._._._._._._._
 72
    65
 73
     4
 40
0.5
 49
0.25
 74
     0
 49
-0.125
 74
     0
 49
0.0
 74
     0
 49
-0.125
 74
     0
  0
LTYPE
  5
206
100
AcDbSymbolTableRecord
100
AcDbLinetypeTableRecord
  2
TIRETPTX2
 70
     0
  3
____  .  ____  .  ____  .  ____  .  ____  .  __
 72
    65
 73
     4
 40
2.0
 49
1.0
 74
     0
 49
-0.5
 74
     0
 49
0.0
 74
     0
 49
-0.5
 74
     0
  0
LTYPE
  5
207
100
AcDbSymbolTableRecord
100
AcDbLinetypeTableRecord
  2
DISCONTINU
 70
     0
  3
__ __ __ __ __ __ __ __ __ __ __ __ __ __ __ __
 72
    65
 73
     2
 40
0.75
 49
0.5
 74
     0
 49
-0.25
 74
     0
  0
LTYPE
  5
208
100
AcDbSymbolTableRecord
100
AcDbLinetypeTableRecord
  2
DISCONTINU2
 70
     0
  3
_ _ _ _ _ _ _ _ _ _ _ _ _ _ _ _ _ _ _ _ _ _ _ _
 72
    65
 73
     2
 40
0.375
 49
0.25
 74
     0
 49
-0.125
 74
     0
  0
LTYPE
  5
209
100
AcDbSymbolTableRecord
100
AcDbLinetypeTableRecord
  2
DISCONTINUX2
 70
     0
  3
____  ____  ____  ____  ____  ____  ____  ____ 
 72
    65
 73
     2
 40
1.5
 49
1.0
 74
     0
 49
-0.5
 74
     0
  0
LTYPE
  5
20A
100
AcDbSymbolTableRecord
100
AcDbLinetypeTableRecord
  2
DIVISE
 70
     0
  3
____ . . ____ . . ____ . . ____ . . ____ . . __
 72
    65
 73
     6
 40
1.25
 49
0.5
 74
     0
 49
-0.25
 74
     0
 49
0.0
 74
     0
 49
-0.25
 74
     0
 49
0.0
 74
     0
 49
-0.25
 74
     0
  0
LTYPE
  5
20B
100
AcDbSymbolTableRecord
100
AcDbLinetypeTableRecord
  2
DIVISE2
 70
     0
  3
__..__..__..__..__..__..__..__..__..__..__..__.
 72
    65
 73
     6
 40
0.625
 49
0.25
 74
     0
 49
-0.125
 74
     0
 49
0.0
 74
     0
 49
-0.125
 74
     0
 49
0.0
 74
     0
 49
-0.125
 74
     0
  0
LTYPE
  5
20C
100
AcDbSymbolTableRecord
100
AcDbLinetypeTableRecord
  2
DIVISEX2
 70
     0
  3
________  .  .  ________  .  .  ________  .  . 
 72
    65
 73
     6
 40
2.5
 49
1.0
 74
     0
 49
-0.5
 74
     0
 49
0.0
 74
     0
 49
-0.5
 74
     0
 49
0.0
 74
     0
 49
-0.5
 74
     0
  0
LTYPE
  5
20D
100
AcDbSymbolTableRecord
100
AcDbLinetypeTableRecord
  2
POINTILLE
 70
     0
  3
. . . . . . . . . . . . . . . . . . . . . . . .
 72
    65
 73
     2
 40
0.25
 49
0.0
 74
     0
 49
-0.25
 74
     0
  0
LTYPE
  5
20E
100
AcDbSymbolTableRecord
100
AcDbLinetypeTableRecord
  2
POINTILLE2
 70
     0
  3
...............................................
 72
    65
 73
     2
 40
0.125
 49
0.0
 74
     0
 49
-0.125
 74
     0
  0
LTYPE
  5
20F
100
AcDbSymbolTableRecord
100
AcDbLinetypeTableRecord
  2
POINTILLEX2
 70
     0
  3
.  .  .  .  .  .  .  .  .  .  .  .  .  .  .  . 
 72
    65
 73
     2
 40
0.5
 49
0.0
 74
     0
 49
-0.5
 74
     0
  0
LTYPE
  5
210
100
AcDbSymbolTableRecord
100
AcDbLinetypeTableRecord
  2
CACHE
 70
     0
  3
__ __ __ __ __ __ __ __ __ __ __ __ __ __ __ __
 72
    65
 73
     2
 40
0.375
 49
0.25
 74
     0
 49
-0.125
 74
     0
  0
LTYPE
  5
211
100
AcDbSymbolTableRecord
100
AcDbLinetypeTableRecord
  2
CACHE2
 70
     0
  3
_ _ _ _ _ _ _ _ _ _ _ _ _ _ _ _ _ _ _ _ _ _ _ _
 72
    65
 73
     2
 40
0.1875
 49
0.125
 74
     0
 49
-0.0625
 74
     0
  0
LTYPE
  5
212
100
AcDbSymbolTableRecord
100
AcDbLinetypeTableRecord
  2
CACHEX2
 70
     0
  3
____ ____ ____ ____ ____ ____ ____ ____ ____ __
 72
    65
 73
     2
 40
0.75
 49
0.5
 74
     0
 49
-0.25
 74
     0
  0
LTYPE
  5
213
100
AcDbSymbolTableRecord
100
AcDbLinetypeTableRecord
  2
FANTOME
 70
     0
  3
______  __  __  ______  __  __  ______  __  __ 
 72
    65
 73
     6
 40
2.5
 49
1.25
 74
     0
 49
-0.25
 74
     0
 49
0.25
 74
     0
 49
-0.25
 74
     0
 49
0.25
 74
     0
 49
-0.25
 74
     0
  0
LTYPE
  5
214
100
AcDbSymbolTableRecord
100
AcDbLinetypeTableRecord
  2
FANTOME2
 70
     0
  3
___ _ _ ___ _ _ ___ _ _ ___ _ _ ___ _ _ ___ _ _
 72
    65
 73
     6
 40
1.25
 49
0.625
 74
     0
 49
-0.125
 74
     0
 49
0.125
 74
     0
 49
-0.125
 74
     0
 49
0.125
 74
     0
 49
-0.125
 74
     0
  0
LTYPE
  5
215
100
AcDbSymbolTableRecord
100
AcDbLinetypeTableRecord
  2
FANTOMEX2
 70
     0
  3
____________    ____    ____    ____________   
 72
    65
 73
     6
 40
5.0
 49
2.5
 74
     0
 49
-0.5
 74
     0
 49
0.5
 74
     0
 49
-0.5
 74
     0
 49
0.5
 74
     0
 49
-0.5
 74
     0
  0
LTYPE
  5
216
100
AcDbSymbolTableRecord
100
AcDbLinetypeTableRecord
  2
0
 70
     0
  3
MEDUSA PEN 0
 72
    65
 73
     0
 40
0.0
  0
ENDTAB
  0
TABLE
  2
LAYER
  5
1DA
100
AcDbSymbolTable
 70
    21
  0
LAYER
  5
1E6
100
AcDbSymbolTableRecord
100
AcDbLayerTableRecord
  2
0
 70
     0
 62
   146
  6
CADRA_SOLID
  0
LAYER
  5
21D
100
AcDbSymbolTableRecord
100
AcDbLayerTableRecord
  2
AXE
 70
     0
 62
    80
  6
AXES2
  0
LAYER
  5
21E
100
AcDbSymbolTableRecord
100
AcDbLayerTableRecord
  2
ALPHA
 70
     0
 62
   255
  6
CONTINUOUS
  0
LAYER
  5
21F
100
AcDbSymbolTableRecord
100
AcDbLayerTableRecord
  2
CONSTRUCTION
 70
     0
 62
     6
  6
CONTINUOUS
  0
LAYER
  5
220
100
AcDbSymbolTableRecord
100
AcDbLayerTableRecord
  2
COTATION1
 70
     0
 62
     2
  6
CONTINUOUS
  0
LAYER
  5
221
100
AcDbSymbolTableRecord
100
AcDbLayerTableRecord
  2
HACHURES
 70
     0
 62
     9
  6
CONTINUOUS
  0
LAYER
  5
222
100
AcDbSymbolTableRecord
100
AcDbLayerTableRecord
  2
FMULT
 70
     0
 62
     6
  6
CONTINUOUS
  0
LAYER
  5
223
100
AcDbSymbolTableRecord
100
AcDbLayerTableRecord
  2
TEXTE
 70
     0
 62
   131
  6
CONTINUOUS
  0
LAYER
  5
224
100
AcDbSymbolTableRecord
100
AcDbLayerTableRecord
  2
FDP_CARTOUCHE
 70
     0
 62
     4
  6
CONTINUOUS
  0
LAYER
  5
225
100
AcDbSymbolTableRecord
100
AcDbLayerTableRecord
  2
FDP_TEXTES
 70
     0
 62
     5
  6
CONTINUOUS
  0
LAYER
  5
226
100
AcDbSymbolTableRecord
100
AcDbLayerTableRecord
  2
FDP_LOGO_MG
 70
     0
 62
    30
  6
CONTINUOUS
  0
LAYER
  5
227
100
AcDbSymbolTableRecord
100
AcDbLayerTableRecord
  2
FDP_LOGO_SCH
 70
     0
 62
     3
  6
CONTINUOUS
  0
LAYER
  5
228
100
AcDbSymbolTableRecord
100
AcDbLayerTableRecord
  2
FDP_FDP
 70
     0
 62
     5
  6
CONTINUOUS
  0
LAYER
  5
229
100
AcDbSymbolTableRecord
100
AcDbLayerTableRecord
  2
COTATION2
 70
     0
 62
     2
  6
CONTINUOUS
  0
LAYER
  5
22A
100
AcDbSymbolTableRecord
100
AcDbLayerTableRecord
  2
COTATION3
 70
     0
 62
     2
  6
CONTINUOUS
  0
LAYER
  5
22B
100
AcDbSymbolTableRecord
100
AcDbLayerTableRecord
  2
COTATION4
 70
     0
 62
     2
  6
CONTINUOUS
  0
LAYER
  5
22C
100
AcDbSymbolTableRecord
100
AcDbLayerTableRecord
  2
ASHADE
 70
     0
 62
     7
  6
CONTINUOUS
  0
LAYER
  5
22D
100
AcDbSymbolTableRecord
100
AcDbLayerTableRecord
  2
POINTILLE_COURT
 70
     0
 62
    40
  6
CACHE2
  0
LAYER
  5
22E
100
AcDbSymbolTableRecord
100
AcDbLayerTableRecord
  2
POINTILLE_MOYEN
 70
     0
 62
   140
  6
CACHE
  0
LAYER
  5
22F
100
AcDbSymbolTableRecord
100
AcDbLayerTableRecord
  2
POINTILLE_LONG
 70
     0
 62
   240
  6
CACHEX2
  0
LAYER
  5
230
100
AcDbSymbolTableRecord
100
AcDbLayerTableRecord
  2
DEFPOINTS
 70
     0
 62
     7
  6
CONTINUOUS
  0
ENDTAB
  0
TABLE
  2
STYLE
  5
1DB
100
AcDbSymbolTable
 70
     4
  0
STYLE
  5
1E7
100
AcDbSymbolTableRecord
100
AcDbTextStyleTableRecord
  2
STANDARD
 70
     0
 40
0.0
 41
1.0
 50
0.0
 71
     0
 42
2.5
  3
txt
  4

  0
STYLE
  5
1FD
100
AcDbSymbolTableRecord
100
AcDbTextStyleTableRecord
  2
ROMANS
 70
     0
 40
0.0
 41
1.0
 50
0.0
 71
     0
 42
2.9
  3
romans.shx
  4

  0
STYLE
  5
1FE
100
AcDbSymbolTableRecord
100
AcDbTextStyleTableRecord
  2
INFOCAR
 70
     0
 40
0.0
 41
1.34
 50
0.0
 71
     0
 42
2.0
  3
ROMANS.SHX
  4

  0
STYLE
  5
1FF
100
AcDbSymbolTableRecord
100
AcDbTextStyleTableRecord
  2
CARTOUCHE
 70
     0
 40
0.0
 41
1.0
 50
0.0
 71
     0
 42
0.2
  3
ROMANS.SHX
  4

  0
ENDTAB
  0
TABLE
  2
VIEW
  5
1DE
100
AcDbSymbolTable
 70
     0
  0
ENDTAB
  0
TABLE
  2
UCS
  5
1DF
100
AcDbSymbolTable
 70
     0
  0
ENDTAB
  0
TABLE
  2
APPID
  5
1E1
100
AcDbSymbolTable
 70
     3
  0
APPID
  5
1E8
100
AcDbSymbolTableRecord
100
AcDbRegAppTableRecord
  2
ACAD
 70
     0
  0
APPID
  5
219
100
AcDbSymbolTableRecord
100
AcDbRegAppTableRecord
  2
AVE_RENDER
 70
     0
  0
APPID
  5
21A
100
AcDbSymbolTableRecord
100
AcDbRegAppTableRecord
  2
AVE_MATERIAL
 70
     0
  0
ENDTAB
  0
TABLE
  2
DIMSTYLE
  5
1E2
100
AcDbSymbolTable
 70
     2
  0
DIMSTYLE
105
21B
100
AcDbSymbolTableRecord
100
AcDbDimStyleTableRecord
  2
STANDARD
 70
     0
  3

  4

  5

  6

  7

 40
1.0
 41
0.18
 42
0.0625
 43
0.38
 44
0.18
 45
0.0
 46
0.0
 47
0.0
 48
0.0
140
0.18
141
0.09
142
0.0
143
25.4
144
1.0
145
0.0
146
1.0
147
0.09
 71
     0
 72
     0
 73
     1
 74
     1
 75
     0
 76
     0
 77
     0
 78
     0
170
     0
171
     2
172
     0
173
     0
174
     0
175
     0
176
     0
177
     0
178
     0
270
     2
271
     3
272
     3
273
     2
274
     2
340
1FD
275
     0
280
     0
281
     0
282
     0
283
     1
284
    12
285
    12
286
    12
287
     5
288
     0
  0
DIMSTYLE
105
21C
102
{ACAD_REACTORS
330
199
330
1A6
330
1B3
102
}
100
AcDbSymbolTableRecord
100
AcDbDimStyleTableRecord
  2
SC_STAND
 70
     0
  3

  4

  5

  6

  7

 40
1.0
 41
3.0
 42
0.0625
 43
0.38
 44
0.18
 45
0.01
 46
0.0
 47
0.0
 48
0.0
140
2.5
141
0.09
142
0.0
143
25.4
144
1.0
145
0.0
146
1.0
147
1.0
 71
     0
 72
     0
 73
     0
 74
     0
 75
     0
 76
     0
 77
     1
 78
    12
170
     0
171
     2
172
     1
173
     0
174
     0
175
     0
176
     0
177
     0
178
     0
270
     2
271
     3
272
     3
273
     2
274
     2
340
1FD
275
     0
280
     0
281
     0
282
     0
283
     1
284
    12
285
    12
286
    12
287
     5
288
     0
  0
ENDTAB
  0
TABLE
  2
BLOCK_RECORD
  5
1D9
100
AcDbSymbolTable
 70
     9
  0
BLOCK_RECORD
  5
1EF
100
AcDbSymbolTableRecord
100
AcDbBlockTableRecord
  2
*MODEL_SPACE
  0
BLOCK_RECORD
  5
1EC
100
AcDbSymbolTableRecord
100
AcDbBlockTableRecord
  2
*PAPER_SPACE
  0
BLOCK_RECORD
  5
1F4
100
AcDbSymbolTableRecord
100
AcDbBlockTableRecord
  2
AVE_RENDER
  0
BLOCK_RECORD
  5
1F5
100
AcDbSymbolTableRecord
100
AcDbBlockTableRecord
  2
AVE_GLOBAL
  0
BLOCK_RECORD
  5
1F6
100
AcDbSymbolTableRecord
100
AcDbBlockTableRecord
  2
SCH_ISO
  0
BLOCK_RECORD
  5
1FA
100
AcDbSymbolTableRecord
100
AcDbBlockTableRecord
  2
*D6
  0
BLOCK_RECORD
  5
1FB
100
AcDbSymbolTableRecord
100
AcDbBlockTableRecord
  2
*D7
  0
BLOCK_RECORD
  5
1FC
100
AcDbSymbolTableRecord
100
AcDbBlockTableRecord
  2
*D8
  0
ENDTAB
  0
ENDSEC
  0
SECTION
  2
BLOCKS
  0
BLOCK
  5
233
100
AcDbEntity
  8
0
100
AcDbBlockBegin
  2
*MODEL_SPACE
 70
     0
 10
0.0
 20
0.0
 30
0.0
  3
*MODEL_SPACE
  1

  0
ENDBLK
  5
234
100
AcDbEntity
  8
0
100
AcDbBlockEnd
  0
BLOCK
  5
231
100
AcDbEntity
 67
     1
  8
0
100
AcDbBlockBegin
  2
*PAPER_SPACE
 70
     0
 10
0.0
 20
0.0
 30
0.0
  3
*PAPER_SPACE
  1

  0
ENDBLK
  5
232
100
AcDbEntity
 67
     1
  8
0
100
AcDbBlockEnd
  0
BLOCK
  5
140
100
AcDbEntity
  8
0
100
AcDbBlockBegin
  2
AVE_RENDER
 70
     0
 10
0.0
 20
0.0
 30
0.0
  3
AVE_RENDER
  1
AVE_RENDER
  0
ENDBLK
  5
141
100
AcDbEntity
  8
0
100
AcDbBlockEnd
  0
BLOCK
  5
143
100
AcDbEntity
  8
0
100
AcDbBlockBegin
  2
AVE_GLOBAL
 70
     0
 10
0.0
 20
0.0
 30
0.0
  3
AVE_GLOBAL
  1
AVE_GLOBAL
  0
ENDBLK
  5
144
100
AcDbEntity
  8
0
100
AcDbBlockEnd
  0
BLOCK
  5
17C
100
AcDbEntity
  8
0
100
AcDbBlockBegin
  2
SCH_ISO
 70
     0
 10
0.0
 20
0.0
 30
0.0
  3
SCH_ISO
  1

  0
INSERT
  5
173
100
AcDbEntity
  8
ASHADE
 62
     1
100
AcDbBlockReference
  2
AVE_RENDER
 10
0.0
 20
0.0
 30
0.0
1001
AVE_RENDER
1002
{
1070
     6
1000
Pref
1070
    50
1070
    20
1070
     1
1070
     0
1000

1070
    10
1070
     1
1070
    30
1040
25.4
1070
     1
1040
0.3
1040
0.7
1040
0.0
1040
10.0
1010
-1.0
1020
-1.0
1030
-1.0
1040
0.3
1070
    49
1070
     0
1070
     0
1010
1.0
1020
1.0
1030
1.0
1040
45.0
1070
     1
1070
     0
1000
WCS
1040
0.0
1002
}
  0
INSERT
  5
174
100
AcDbEntity
  8
ASHADE
 62
     3
100
AcDbBlockReference
  2
AVE_RENDER
 10
0.0
 20
0.0
 30
0.0
1001
AVE_RENDER
1002
{
1070
     0
1000
Full Opt
1070
     0
1070
     1
1070
     1
1070
     1
1070
     0
1070
     0
1070
     0
1070
     1
1070
     1
1040
0.0001
1040
0.0001
1002
}
  0
INSERT
  5
175
100
AcDbEntity
  8
ASHADE
 62
     4
100
AcDbBlockReference
  2
AVE_RENDER
 10
0.0
 20
0.0
 30
0.0
1001
AVE_RENDER
1002
{
1070
     0
1000
Quick Opt
1070
     0
1070
     1
1070
     1
1070
     1
1070
     0
1070
     0
1070
     1
1002
}
  0
INSERT
  5
176
100
AcDbEntity
  8
ASHADE
 62
     5
100
AcDbBlockReference
  2
AVE_RENDER
 10
0.0
 20
0.0
 30
0.0
1001
AVE_RENDER
1002
{
1070
     1
1000
Scanl Opt
1070
     2
1070
     0
1070
     2
1040
2.0
1040
4.0
1070
     0
1070
     1
1070
     0
1040
0.03
1002
}
  0
INSERT
  5
177
100
AcDbEntity
  8
ASHADE
 62
     6
100
AcDbBlockReference
  2
AVE_RENDER
 10
0.0
 20
0.0
 30
0.0
1001
AVE_RENDER
1002
{
1070
     2
1000
Raytr Opt
1070
     2
1070
     0
1070
     2
1040
2.0
1040
4.0
1070
     0
1070
     1
1070
     1
1040
0.03
1070
     3
1040
0.03
1002
}
  0
INSERT
  5
178
100
AcDbEntity
  8
ASHADE
 62
     7
100
AcDbBlockReference
  2
AVE_RENDER
 10
0.0
 20
0.0
 30
0.0
1001
AVE_RENDER
1002
{
1070
     0
1000
RFile Opt
1070
     5
1070
   640
1070
   480
1070
 10000
1070
     3
1070
    32
1070
    24
1070
     0
1070
     0
1070
     0
1070
     1
1070
     0
1070
     0
1070
     0
1002
}
  0
INSERT
  5
179
100
AcDbEntity
  8
ASHADE
 62
     8
100
AcDbBlockReference
  2
AVE_RENDER
 10
0.0
 20
0.0
 30
0.0
1001
AVE_RENDER
1002
{
1070
     0
1000
Fog Opt
1070
     0
1070
     0
1040
0.0
1040
1.0
1040
0.0
1040
1.0
1010
0.5
1020
0.5
1030
0.5
1002
}
  0
INSERT
  5
17A
100
AcDbEntity
  8
ASHADE
 62
     9
100
AcDbBlockReference
  2
AVE_RENDER
 10
0.0
 20
0.0
 30
0.0
1001
AVE_RENDER
1002
{
1070
     0
1000
BG Opt
1070
     0
1070
     1
1010
0.0
1020
0.0
1030
0.0
1010
1.0
1020
0.0
1030
0.0
1010
0.0
1020
1.0
1030
0.0
1010
0.0
1020
0.0
1030
1.0
1040
0.5
1040
0.33
1040
0.0
1000

1070
     1
1000

1070
     1
1070
     1
1040
1.0
1040
1.0
1040
0.0
1040
0.0
1070
     0
1002
}
  0
INSERT
  5
17B
100
AcDbEntity
  8
ASHADE
 62
     1
100
AcDbBlockReference
  2
AVE_GLOBAL
 10
0.0
 20
0.0
 30
0.0
1001
AVE_MATERIAL
1002
{
1000
*GLOBAL*
1000
1
1000
Finition globale.
1002
{
1002
}
1002
{
1070
    63
1002
{
1002
{
1010
-1.0
1020
-1.0
1030
-1.0
1002
}
1040
0.1
1000

1040
0.0
1002
{
1002
}
1040
0.0
1002
{
1002
}
1040
0.0
1002
}
1002
{
1002
{
1010
-1.0
1020
-1.0
1030
-1.0
1002
}
1040
0.7
1000

1040
0.0
1002
{
1002
}
1040
0.0
1002
{
1002
}
1040
0.0
1002
}
1002
{
1002
{
1010
-1.0
1020
-1.0
1030
-1.0
1002
}
1040
0.2
1000

1040
0.0
1002
{
1002
}
1040
0.0
1002
{
1002
}
1040
0.0
1002
}
1002
{
1070
     0
1002
{
1070
     1
1002
{
1040
1.0
1040
1.0
1000

1040
0.0
1002
{
1002
}
1040
0.0
1002
{
1002
}
1040
0.0
1002
}
1002
}
1040
1.0
1040
0.0
1040
0.0
1002
}
1002
{
1040
1.0
1040
1.0
1000

1040
0.0
1002
{
1002
}
1040
0.0
1002
{
1002
}
1040
0.0
1002
}
1002
{
1040
0.5
1040
1.0
1000

1040
0.0
1002
{
1002
}
1040
0.0
1002
{
1002
}
1040
0.0
1002
}
1002
{
1070
     0
1040
0.0
1002
{
1002
}
1040
1.0
1002
{
1002
}
1040
0.0
1002
}
1002
{
1040
0.0
1002
{
1002
{
1010
0.0
1020
0.0
1030
0.0
1002
}
1040
1.0
1000

1040
0.0
1002
{
1002
}
1040
0.0
1002
{
1002
}
1040
0.0
1002
}
1002
}
1002
{
1002
{
1070
     1
1002
{
1040
0.0
1040
1.0
1000

1040
0.0
1002
{
1002
}
1040
0.0
1002
{
1002
}
1040
0.0
1002
}
1002
}
1040
0.0
1002
{
1002
}
1010
1.0
1020
0.0
1030
0.0
1010
0.0
1020
1.0
1030
0.0
1010
0.0
1020
0.0
1030
1.0
1070
     0
1002
}
1002
{
1002
{
1040
1.0
1040
1.0
1002
{
1070
     1
1002
{
1040
1.0
1040
1.0
1000

1040
0.0
1002
{
1002
}
1040
0.0
1002
{
1002
}
1040
0.0
1002
}
1002
}
1002
}
1070
     0
1040
0.0
1002
{
1002
}
1002
}
1002
{
1002
}
1002
}
1002
{
1071
        3
1070
     3
1070
     0
1002
{
1070
     2
1070
     0
1070
     0
1040
0.0
1002
}
1070
     0
1070
     2
1002
{
1002
}
1002
}
1002
{
1040
8030.0
1040
190.300003
1040
0.305
1040
228.0
1040
545.0
1040
14.0
1040
17.4
1040
0.456
1002
}
1002
}
  0
ENDBLK
  5
17D
100
AcDbEntity
  8
0
100
AcDbBlockEnd
  0
BLOCK
  5
1B8
100
AcDbEntity
  8
0
100
AcDbBlockBegin
  2
*D6
 70
     1
 10
0.0
 20
0.0
 30
0.0
  3
*D6
  1
AVE_GLOBAL
  0
LINE
  5
1B9
100
AcDbEntity
  8
0
  6
BYBLOCK
 62
     0
100
AcDbLine
 10
85.313946
 20
70.414815
 30
0.0
 11
225.048532
 21
70.414815
 31
0.0
  0
LINE
  5
1BA
100
AcDbEntity
  8
0
  6
BYBLOCK
 62
     0
100
AcDbLine
 10
85.313946
 20
267.414815
 30
0.0
 11
225.048532
 21
267.414815
 31
0.0
  0
LINE
  5
1BB
100
AcDbEntity
  8
0
  6
BYBLOCK
 62
     0
100
AcDbLine
 10
224.868532
 20
73.414815
 30
0.0
 11
224.868532
 21
264.414815
 31
0.0
  0
SOLID
  5
1BC
100
AcDbEntity
  8
0
  6
BYBLOCK
 62
     0
100
AcDbTrace
 10
224.368532
 20
73.414815
 30
0.0
 11
225.368532
 21
73.414815
 31
0.0
 12
224.868532
 22
70.414815
 32
0.0
 13
224.868532
 23
70.414815
 33
0.0
  0
SOLID
  5
1BD
100
AcDbEntity
  8
0
  6
BYBLOCK
 62
     0
100
AcDbTrace
 10
224.368532
 20
264.414815
 30
0.0
 11
225.368532
 21
264.414815
 31
0.0
 12
224.868532
 22
267.414815
 32
0.0
 13
224.868532
 23
267.414815
 33
0.0
  0
TEXT
  5
1BE
100
AcDbEntity
  8
0
  6
BYBLOCK
 62
     0
100
AcDbText
 10
223.618532
 20
165.164815
 30
0.0
 40
2.5
  1
197
 50
90.0
  7
ROMANS
 72
     1
 11
222.368532
 21
168.914815
 31
0.0
100
AcDbText
 73
     2
  0
POINT
  5
1BF
100
AcDbEntity
  8
DEFPOINTS
  6
BYBLOCK
 62
     0
100
AcDbPoint
 10
85.251446
 20
70.414815
 30
0.0
  0
POINT
  5
1C0
100
AcDbEntity
  8
DEFPOINTS
  6
BYBLOCK
 62
     0
100
AcDbPoint
 10
85.251446
 20
267.414815
 30
0.0
  0
POINT
  5
1C1
100
AcDbEntity
  8
DEFPOINTS
  6
BYBLOCK
 62
     0
100
AcDbPoint
 10
224.868532
 20
267.414815
 30
0.0
  0
ENDBLK
  5
1C2
100
AcDbEntity
  8
0
100
AcDbBlockEnd
  0
BLOCK
  5
1C3
100
AcDbEntity
  8
0
100
AcDbBlockBegin
  2
*D7
 70
     1
 10
0.0
 20
0.0
 30
0.0
  3
*D7
  1
AVE_GLOBAL
  0
LINE
  5
1C4
100
AcDbEntity
  8
0
  6
BYBLOCK
 62
     0
100
AcDbLine
 10
195.751431
 20
100.8523
 30
0.0
 11
195.751431
 21
28.144999
 31
0.0
  0
LINE
  5
1C5
100
AcDbEntity
  8
0
  6
BYBLOCK
 62
     0
100
AcDbLine
 10
14.551495
 20
110.146146
 30
0.0
 11
14.551495
 21
28.144999
 31
0.0
  0
LINE
  5
1C6
100
AcDbEntity
  8
0
  6
BYBLOCK
 62
     0
100
AcDbLine
 10
192.751431
 20
28.324999
 30
0.0
 11
17.551495
 21
28.324999
 31
0.0
  0
SOLID
  5
1C7
100
AcDbEntity
  8
0
  6
BYBLOCK
 62
     0
100
AcDbTrace
 10
192.751431
 20
28.824999
 30
0.0
 11
192.751431
 21
27.824999
 31
0.0
 12
195.751431
 22
28.324999
 32
0.0
 13
195.751431
 23
28.324999
 33
0.0
  0
SOLID
  5
1C8
100
AcDbEntity
  8
0
  6
BYBLOCK
 62
     0
100
AcDbTrace
 10
17.551495
 20
28.824999
 30
0.0
 11
17.551495
 21
27.824999
 31
0.0
 12
14.551495
 22
28.324999
 32
0.0
 13
14.551495
 23
28.324999
 33
0.0
  0
TEXT
  5
1C9
100
AcDbEntity
  8
0
  6
BYBLOCK
 62
     0
100
AcDbText
 10
99.615749
 20
29.574999
 30
0.0
 40
2.5
  1
181.2
  7
ROMANS
 72
     1
 11
105.151463
 21
30.824999
 31
0.0
100
AcDbText
 73
     2
  0
POINT
  5
1CA
100
AcDbEntity
  8
DEFPOINTS
  6
BYBLOCK
 62
     0
100
AcDbPoint
 10
195.751431
 20
100.9148
 30
0.0
  0
POINT
  5
1CB
100
AcDbEntity
  8
DEFPOINTS
  6
BYBLOCK
 62
     0
100
AcDbPoint
 10
14.551495
 20
110.208646
 30
0.0
  0
POINT
  5
1CC
100
AcDbEntity
  8
DEFPOINTS
  6
BYBLOCK
 62
     0
100
AcDbPoint
 10
14.551495
 20
28.324999
 30
0.0
  0
ENDBLK
  5
1CD
100
AcDbEntity
  8
0
100
AcDbBlockEnd
  0
BLOCK
  5
1CE
100
AcDbEntity
  8
0
100
AcDbBlockBegin
  2
*D8
 70
     1
 10
0.0
 20
0.0
 30
0.0
  3
*D8
  1
AVE_GLOBAL
  0
LINE
  5
1CF
100
AcDbEntity
  8
0
  6
BYBLOCK
 62
     0
100
AcDbLine
 10
195.751431
 20
100.352284
 30
0.0
 11
195.751431
 21
47.944999
 31
0.0
  0
LINE
  5
1D0
100
AcDbEntity
  8
0
  6
BYBLOCK
 62
     0
100
AcDbLine
 10
82.251446
 20
70.352315
 30
0.0
 11
82.251446
 21
47.944999
 31
0.0
  0
LINE
  5
1D1
100
AcDbEntity
  8
0
  6
BYBLOCK
 62
     0
100
AcDbLine
 10
192.751431
 20
48.124999
 30
0.0
 11
85.251446
 21
48.124999
 31
0.0
  0
SOLID
  5
1D2
100
AcDbEntity
  8
0
  6
BYBLOCK
 62
     0
100
AcDbTrace
 10
192.751431
 20
48.624999
 30
0.0
 11
192.751431
 21
47.624999
 31
0.0
 12
195.751431
 22
48.124999
 32
0.0
 13
195.751431
 23
48.124999
 33
0.0
  0
SOLID
  5
1D3
100
AcDbEntity
  8
0
  6
BYBLOCK
 62
     0
100
AcDbTrace
 10
85.251446
 20
48.624999
 30
0.0
 11
85.251446
 21
47.624999
 31
0.0
 12
82.251446
 22
48.124999
 32
0.0
 13
82.251446
 23
48.124999
 33
0.0
  0
TEXT
  5
1D4
100
AcDbEntity
  8
0
  6
BYBLOCK
 62
     0
100
AcDbText
 10
133.465725
 20
49.374999
 30
0.0
 40
2.5
  1
113.5
  7
ROMANS
 72
     1
 11
139.001439
 21
50.624999
 31
0.0
100
AcDbText
 73
     2
  0
POINT
  5
1D5
100
AcDbEntity
  8
DEFPOINTS
  6
BYBLOCK
 62
     0
100
AcDbPoint
 10
195.751431
 20
100.414784
 30
0.0
  0
POINT
  5
1D6
100
AcDbEntity
  8
DEFPOINTS
  6
BYBLOCK
 62
     0
100
AcDbPoint
 10
82.251446
 20
70.414815
 30
0.0
  0
POINT
  5
1D7
100
AcDbEntity
  8
DEFPOINTS
  6
BYBLOCK
 62
     0
100
AcDbPoint
 10
82.251446
 20
48.124999
 30
0.0
  0
ENDBLK
  5
1D8
100
AcDbEntity
  8
0
100
AcDbBlockEnd
  0
ENDSEC
  0
SECTION
  2
ENTITIES
  0
ARC
  5
1E
100
AcDbEntity
  8
ALPHA
100
AcDbCircle
 10
18.551495
 20
110.208646
 30
0.0
 40
4.0
100
AcDbArc
 50
179.999995
 51
269.5
  0
POLYLINE
  5
20
100
AcDbEntity
  8
ALPHA
100
AcDb2dPolyline
 66
     1
 10
0.0
 20
0.0
 30
0.0
 70
     4
  0
VERTEX
  5
21
100
AcDbEntity
  8
ALPHA
100
AcDbVertex
100
AcDb2dVertex
 10
186.051388
 20
115.764821
 30
0.0
 70
    18
  0
VERTEX
  5
22
100
AcDbEntity
  8
ALPHA
100
AcDbVertex
100
AcDb2dVertex
 10
185.871196
 20
116.275288
 30
0.0
 70
     8
  0
VERTEX
  5
23
100
AcDbEntity
  8
ALPHA
100
AcDbVertex
100
AcDb2dVertex
 10
185.712132
 20
116.794064
 30
0.0
 70
     8
  0
VERTEX
  5
24
100
AcDbEntity
  8
ALPHA
100
AcDbVertex
100
AcDb2dVertex
 10
185.575088
 20
117.319963
 30
0.0
 70
     8
  0
VERTEX
  5
25
100
AcDbEntity
  8
ALPHA
100
AcDbVertex
100
AcDb2dVertex
 10
185.460959
 20
117.851798
 30
0.0
 70
     8
  0
VERTEX
  5
26
100
AcDbEntity
  8
ALPHA
100
AcDbVertex
100
AcDb2dVertex
 10
185.370637
 20
118.388383
 30
0.0
 70
     8
  0
VERTEX
  5
27
100
AcDbEntity
  8
ALPHA
100
AcDbVertex
100
AcDb2dVertex
 10
185.305015
 20
118.928532
 30
0.0
 70
     8
  0
VERTEX
  5
28
100
AcDbEntity
  8
ALPHA
100
AcDbVertex
100
AcDb2dVertex
 10
185.264987
 20
119.471058
 30
0.0
 70
     8
  0
VERTEX
  5
29
100
AcDbEntity
  8
ALPHA
100
AcDbVertex
100
AcDb2dVertex
 10
185.251446
 20
120.014775
 30
0.0
 70
     8
  0
VERTEX
  5
2A
100
AcDbEntity
  8
ALPHA
100
AcDbVertex
100
AcDb2dVertex
 10
185.264987
 20
120.558497
 30
0.0
 70
     8
  0
VERTEX
  5
2B
100
AcDbEntity
  8
ALPHA
100
AcDbVertex
100
AcDb2dVertex
 10
185.305015
 20
121.101035
 30
0.0
 70
     8
  0
VERTEX
  5
2C
100
AcDbEntity
  8
ALPHA
100
AcDbVertex
100
AcDb2dVertex
 10
185.370637
 20
121.641201
 30
0.0
 70
     8
  0
VERTEX
  5
2D
100
AcDbEntity
  8
ALPHA
100
AcDbVertex
100
AcDb2dVertex
 10
185.460959
 20
122.177806
 30
0.0
 70
     8
  0
VERTEX
  5
2E
100
AcDbEntity
  8
ALPHA
100
AcDbVertex
100
AcDb2dVertex
 10
185.575088
 20
122.709661
 30
0.0
 70
     8
  0
VERTEX
  5
2F
100
AcDbEntity
  8
ALPHA
100
AcDbVertex
100
AcDb2dVertex
 10
185.712132
 20
123.235577
 30
0.0
 70
     8
  0
VERTEX
  5
30
100
AcDbEntity
  8
ALPHA
100
AcDbVertex
100
AcDb2dVertex
 10
185.871196
 20
123.754365
 30
0.0
 70
     8
  0
VERTEX
  5
31
100
AcDbEntity
  8
ALPHA
100
AcDbVertex
100
AcDb2dVertex
 10
186.051388
 20
124.264836
 30
0.0
 70
     8
  0
VERTEX
  5
32
100
AcDbEntity
  8
ALPHA
100
AcDbVertex
100
AcDb2dVertex
 10
185.251446
 20
120.014775
 30
0.0
 70
    18
  0
VERTEX
  5
33
100
AcDbEntity
  8
ALPHA
100
AcDbVertex
100
AcDb2dVertex
 10
186.051388
 20
124.264836
 30
0.0
 70
    18
  0
SEQEND
  5
34
100
AcDbEntity
  8
ALPHA
  0
POLYLINE
  5
35
100
AcDbEntity
  8
ALPHA
100
AcDb2dPolyline
 66
     1
 10
0.0
 20
0.0
 30
0.0
 70
     4
  0
VERTEX
  5
36
100
AcDbEntity
  8
ALPHA
100
AcDbVertex
100
AcDb2dVertex
 10
186.051388
 20
124.264836
 30
0.0
 70
    18
  0
VERTEX
  5
37
100
AcDbEntity
  8
ALPHA
100
AcDbVertex
100
AcDb2dVertex
 10
185.871196
 20
124.775305
 30
0.0
 70
     8
  0
VERTEX
  5
38
100
AcDbEntity
  8
ALPHA
100
AcDbVertex
100
AcDb2dVertex
 10
185.712132
 20
125.294086
 30
0.0
 70
     8
  0
VERTEX
  5
39
100
AcDbEntity
  8
ALPHA
100
AcDbVertex
100
AcDb2dVertex
 10
185.575088
 20
125.819993
 30
0.0
 70
     8
  0
VERTEX
  5
3A
100
AcDbEntity
  8
ALPHA
100
AcDbVertex
100
AcDb2dVertex
 10
185.460959
 20
126.351836
 30
0.0
 70
     8
  0
VERTEX
  5
3B
100
AcDbEntity
  8
ALPHA
100
AcDbVertex
100
AcDb2dVertex
 10
185.370637
 20
126.88843
 30
0.0
 70
     8
  0
VERTEX
  5
3C
100
AcDbEntity
  8
ALPHA
100
AcDbVertex
100
AcDb2dVertex
 10
185.305015
 20
127.428586
 30
0.0
 70
     8
  0
VERTEX
  5
3D
100
AcDbEntity
  8
ALPHA
100
AcDbVertex
100
AcDb2dVertex
 10
185.264987
 20
127.971117
 30
0.0
 70
     8
  0
VERTEX
  5
3E
100
AcDbEntity
  8
ALPHA
100
AcDbVertex
100
AcDb2dVertex
 10
185.251446
 20
128.514836
 30
0.0
 70
     8
  0
VERTEX
  5
3F
100
AcDbEntity
  8
ALPHA
100
AcDbVertex
100
AcDb2dVertex
 10
185.264987
 20
129.058553
 30
0.0
 70
     8
  0
VERTEX
  5
40
100
AcDbEntity
  8
ALPHA
100
AcDbVertex
100
AcDb2dVertex
 10
185.305015
 20
129.60108
 30
0.0
 70
     8
  0
VERTEX
  5
41
100
AcDbEntity
  8
ALPHA
100
AcDbVertex
100
AcDb2dVertex
 10
185.370637
 20
130.141229
 30
0.0
 70
     8
  0
VERTEX
  5
42
100
AcDbEntity
  8
ALPHA
100
AcDbVertex
100
AcDb2dVertex
 10
185.460959
 20
130.677814
 30
0.0
 70
     8
  0
VERTEX
  5
43
100
AcDbEntity
  8
ALPHA
100
AcDbVertex
100
AcDb2dVertex
 10
185.575088
 20
131.209649
 30
0.0
 70
     8
  0
VERTEX
  5
44
100
AcDbEntity
  8
ALPHA
100
AcDbVertex
100
AcDb2dVertex
 10
185.712132
 20
131.735548
 30
0.0
 70
     8
  0
VERTEX
  5
45
100
AcDbEntity
  8
ALPHA
100
AcDbVertex
100
AcDb2dVertex
 10
185.871196
 20
132.254324
 30
0.0
 70
     8
  0
VERTEX
  5
46
100
AcDbEntity
  8
ALPHA
100
AcDbVertex
100
AcDb2dVertex
 10
186.051388
 20
132.764791
 30
0.0
 70
     8
  0
VERTEX
  5
47
100
AcDbEntity
  8
ALPHA
100
AcDbVertex
100
AcDb2dVertex
 10
185.251446
 20
128.514836
 30
0.0
 70
    18
  0
VERTEX
  5
48
100
AcDbEntity
  8
ALPHA
100
AcDbVertex
100
AcDb2dVertex
 10
186.051388
 20
132.764791
 30
0.0
 70
    18
  0
SEQEND
  5
49
100
AcDbEntity
  8
ALPHA
  0
LINE
  5
4A
100
AcDbEntity
  8
ALPHA
100
AcDbLine
 10
80.851605
 20
232.164815
 30
0.0
 11
80.851605
 21
229.9148
 31
0.0
  0
LINE
  5
4B
100
AcDbEntity
  8
ALPHA
100
AcDbLine
 10
80.851605
 20
107.914784
 30
0.0
 11
80.851605
 21
105.664815
 31
0.0
  0
LINE
  5
4C
100
AcDbEntity
  8
ALPHA
100
AcDbLine
 10
180.401394
 20
190.214818
 30
0.0
 11
180.401394
 21
200.314809
 31
0.0
  0
LINE
  5
4D
100
AcDbEntity
  8
ALPHA
100
AcDbLine
 10
134.011013
 20
205.297345
 30
0.0
 11
134.414868
 21
204.893491
 31
0.0
  0
LINE
  5
4E
100
AcDbEntity
  8
ALPHA
100
AcDbLine
 10
129.451412
 20
201.814809
 30
0.0
 11
178.901379
 21
201.814809
 31
0.0
  0
LINE
  5
4F
100
AcDbEntity
  8
ALPHA
100
AcDbLine
 10
136.536236
 20
204.014806
 30
0.0
 11
189.246914
 21
204.014806
 31
0.0
  0
ARC
  5
50
100
AcDbEntity
  8
ALPHA
100
AcDbCircle
 10
136.536236
 20
207.014806
 30
0.0
 40
3.0
100
AcDbArc
 50
224.999887
 51
269.999864
  0
LINE
  5
51
100
AcDbEntity
  8
ALPHA
100
AcDbLine
 10
184.401455
 20
201.814809
 30
0.0
 11
190.051358
 21
201.814809
 31
0.0
  0
ARC
  5
52
100
AcDbEntity
  8
ALPHA
100
AcDbCircle
 10
178.90147
 20
200.314809
 30
0.0
 40
1.5
100
AcDbArc
 50
359.999983
 51
90.000047
  0
ARC
  5
53
100
AcDbEntity
  8
ALPHA
100
AcDbCircle
 10
184.401394
 20
200.314809
 30
0.0
 40
1.5
100
AcDbArc
 50
90.000091
 51
180.000019
  0
ARC
  5
54
100
AcDbEntity
  8
ALPHA
100
AcDbCircle
 10
190.051403
 20
198.814809
 30
0.0
 40
3.0
100
AcDbArc
 50
359.999983
 51
90.000047
  0
LINE
  5
55
100
AcDbEntity
  8
ALPHA
100
AcDbLine
 10
195.751461
 20
202.780889
 30
0.0
 11
195.251431
 21
201.914815
 31
0.0
  0
LINE
  5
56
100
AcDbEntity
  8
ALPHA
100
AcDbLine
 10
190.632595
 20
204.914861
 30
0.0
 11
190.543881
 21
204.761205
 31
0.0
  0
ARC
  5
57
100
AcDbEntity
  8
ALPHA
100
AcDbCircle
 10
189.246929
 20
205.514806
 30
0.0
 40
1.5
100
AcDbArc
 50
269.999755
 51
329.840026
  0
LINE
  5
58
100
AcDbEntity
  8
ALPHA
100
AcDbLine
 10
190.632565
 20
204.914815
 30
0.0
 11
191.751416
 21
204.914815
 31
0.0
  0
LINE
  5
59
100
AcDbEntity
  8
ALPHA
100
AcDbLine
 10
192.24725
 20
237.4148
 30
0.0
 11
195.255749
 21
237.4148
 31
0.0
  0
ARC
  5
5A
100
AcDbEntity
  8
ALPHA
100
AcDbCircle
 10
192.251416
 20
236.914784
 30
0.0
 40
0.5
100
AcDbArc
 50
90.000091
 51
180.000019
  0
ARC
  5
5B
100
AcDbEntity
  8
ALPHA
100
AcDbCircle
 10
195.251446
 20
236.914784
 30
0.0
 40
0.5
100
AcDbArc
 50
359.999983
 51
90.000047
  0
LINE
  5
5C
100
AcDbEntity
  8
ALPHA
100
AcDbLine
 10
180.901425
 20
189.714818
 30
0.0
 11
182.401364
 21
189.714818
 31
0.0
  0
ARC
  5
5D
100
AcDbEntity
  8
ALPHA
100
AcDbCircle
 10
180.90144
 20
190.214818
 30
0.0
 40
0.5
100
AcDbArc
 50
180.000032
 51
270.000028
  0
ARC
  5
5E
100
AcDbEntity
  8
ALPHA
100
AcDbCircle
 10
182.401455
 20
190.214818
 30
0.0
 40
0.5
100
AcDbArc
 50
270.000028
 51
359.999955
  0
LINE
  5
5F
100
AcDbEntity
  8
ALPHA
100
AcDbLine
 10
180.401394
 20
137.514821
 30
0.0
 11
180.401394
 21
147.614812
 31
0.0
  0
LINE
  5
60
100
AcDbEntity
  8
ALPHA
100
AcDbLine
 10
193.051388
 20
198.814809
 30
0.0
 11
193.051388
 21
139.014791
 31
0.0
  0
LINE
  5
61
100
AcDbEntity
  8
ALPHA
100
AcDbLine
 10
134.414883
 20
132.936197
 30
0.0
 11
134.011029
 21
132.532343
 31
0.0
  0
LINE
  5
62
100
AcDbEntity
  8
ALPHA
100
AcDbLine
 10
195.751431
 20
135.048772
 30
0.0
 11
195.751431
 21
100.414784
 31
0.0
  0
LINE
  5
63
100
AcDbEntity
  8
ALPHA
100
AcDbLine
 10
191.751416
 20
132.914784
 30
0.0
 11
191.751416
 21
100.911687
 31
0.0
  0
LINE
  5
64
100
AcDbEntity
  8
ALPHA
100
AcDbLine
 10
195.2514
 20
201.914815
 30
0.0
 11
195.2514
 21
135.914815
 31
0.0
  0
LINE
  5
65
100
AcDbEntity
  8
ALPHA
100
AcDbLine
 10
178.901379
 20
136.014836
 30
0.0
 11
129.451412
 21
136.014836
 31
0.0
  0
LINE
  5
66
100
AcDbEntity
  8
ALPHA
100
AcDbLine
 10
189.246914
 20
133.814824
 30
0.0
 11
136.536236
 21
133.814824
 31
0.0
  0
ARC
  5
67
100
AcDbEntity
  8
ALPHA
100
AcDbCircle
 10
136.536236
 20
130.814855
 30
0.0
 40
3.0
100
AcDbArc
 50
90.000146
 51
135.00011
  0
LINE
  5
68
100
AcDbEntity
  8
ALPHA
100
AcDbLine
 10
190.051358
 20
136.014836
 30
0.0
 11
184.401455
 21
136.014836
 31
0.0
  0
ARC
  5
69
100
AcDbEntity
  8
ALPHA
100
AcDbCircle
 10
178.901425
 20
137.514806
 30
0.0
 40
1.5
100
AcDbArc
 50
269.999973
 51
359.999955
  0
ARC
  5
6A
100
AcDbEntity
  8
ALPHA
100
AcDbCircle
 10
184.401455
 20
137.514806
 30
0.0
 40
1.5
100
AcDbArc
 50
179.999964
 51
270.000001
  0
ARC
  5
6B
100
AcDbEntity
  8
ALPHA
100
AcDbCircle
 10
190.051373
 20
139.014791
 30
0.0
 40
3.0
100
AcDbArc
 50
269.999973
 51
359.999955
  0
LINE
  5
6C
100
AcDbEntity
  8
ALPHA
100
AcDbLine
 10
195.251385
 20
135.91478
 30
0.0
 11
195.7514
 21
135.048728
 31
0.0
  0
LINE
  5
6D
100
AcDbEntity
  8
ALPHA
100
AcDbLine
 10
190.543926
 20
133.068443
 30
0.0
 11
190.632626
 21
132.914811
 31
0.0
  0
ARC
  5
6E
100
AcDbEntity
  8
ALPHA
100
AcDbCircle
 10
189.246929
 20
132.314809
 30
0.0
 40
1.5
100
AcDbArc
 50
30.159913
 51
90.000255
  0
LINE
  5
6F
100
AcDbEntity
  8
ALPHA
100
AcDbLine
 10
191.751416
 20
132.914784
 30
0.0
 11
190.632565
 21
132.914784
 31
0.0
  0
LINE
  5
70
100
AcDbEntity
  8
ALPHA
100
AcDbLine
 10
195.255749
 20
100.414784
 30
0.0
 11
192.24725
 21
100.414784
 31
0.0
  0
ARC
  5
71
100
AcDbEntity
  8
ALPHA
100
AcDbCircle
 10
192.251477
 20
100.9148
 30
0.0
 40
0.5
100
AcDbArc
 50
179.999964
 51
270.000001
  0
ARC
  5
72
100
AcDbEntity
  8
ALPHA
100
AcDbCircle
 10
195.251431
 20
100.9148
 30
0.0
 40
0.5
100
AcDbArc
 50
269.999973
 51
359.999955
  0
LINE
  5
73
100
AcDbEntity
  8
ALPHA
100
AcDbLine
 10
182.401364
 20
148.114812
 30
0.0
 11
180.901425
 21
148.114812
 31
0.0
  0
ARC
  5
74
100
AcDbEntity
  8
ALPHA
100
AcDbCircle
 10
180.901409
 20
147.614812
 30
0.0
 40
0.5
100
AcDbArc
 50
89.999982
 51
179.999909
  0
ARC
  5
75
100
AcDbEntity
  8
ALPHA
100
AcDbCircle
 10
182.401425
 20
147.614812
 30
0.0
 40
0.5
100
AcDbArc
 50
0.000036
 51
90.000037
  0
LINE
  5
76
100
AcDbEntity
  8
ALPHA
100
AcDbLine
 10
80.001507
 20
229.9148
 30
0.0
 11
129.25137
 21
229.9148
 31
0.0
  0
LINE
  5
77
100
AcDbEntity
  8
ALPHA
100
AcDbLine
 10
80.001507
 20
107.914784
 30
0.0
 11
129.25137
 21
107.914784
 31
0.0
  0
LINE
  5
78
100
AcDbEntity
  8
ALPHA
100
AcDbLine
 10
137.2514
 20
221.914815
 30
0.0
 11
137.2514
 21
207.168141
 31
0.0
  0
ARC
  5
79
100
AcDbEntity
  8
ALPHA
100
AcDbCircle
 10
129.2514
 20
221.9148
 30
0.0
 40
8.000005
100
AcDbArc
 50
359.999983
 51
90.000047
  0
ARC
  5
7A
100
AcDbEntity
  8
ALPHA
100
AcDbCircle
 10
129.25137
 20
115.914769
 30
0.0
 40
8.000005
100
AcDbArc
 50
269.999973
 51
359.999955
  0
CIRCLE
  5
7B
100
AcDbEntity
  8
ALPHA
100
AcDbCircle
 10
118.751461
 20
131.414846
 30
0.0
 40
9.000001
  0
ARC
  5
7C
100
AcDbEntity
  8
ALPHA
100
AcDbCircle
 10
118.751431
 20
206.414815
 30
0.0
 40
12.000001
100
AcDbArc
 50
161.380759
 51
270.000001
  0
LINE
  5
7D
100
AcDbEntity
  8
ALPHA
100
AcDbLine
 10
129.451412
 20
202.200551
 30
0.0
 11
129.451412
 21
174.914815
 31
0.0
  0
LINE
  5
7E
100
AcDbEntity
  8
ALPHA
100
AcDbLine
 10
137.251385
 20
130.661383
 30
0.0
 11
129.451336
 21
135.164748
 31
0.0
  0
LINE
  5
7F
100
AcDbEntity
  8
ALPHA
100
AcDbLine
 10
137.251446
 20
207.16818
 30
0.0
 11
129.664501
 21
202.787854
 31
0.0
  0
LINE
  5
80
100
AcDbEntity
  8
ALPHA
100
AcDbLine
 10
137.2514
 20
130.661519
 30
0.0
 11
137.2514
 21
115.914815
 31
0.0
  0
LINE
  5
81
100
AcDbEntity
  8
ALPHA
100
AcDbLine
 10
126.451382
 20
174.914815
 30
0.0
 11
129.451412
 21
174.914815
 31
0.0
  0
LINE
  5
82
100
AcDbEntity
  8
ALPHA
100
AcDbLine
 10
126.451382
 20
162.914815
 30
0.0
 11
129.451412
 21
162.914815
 31
0.0
  0
LINE
  5
83
100
AcDbEntity
  8
ALPHA
100
AcDbLine
 10
126.451382
 20
174.914815
 30
0.0
 11
126.451382
 21
162.914815
 31
0.0
  0
LINE
  5
84
100
AcDbEntity
  8
ALPHA
100
AcDbLine
 10
129.451412
 20
162.914815
 30
0.0
 11
129.451412
 21
135.164815
 31
0.0
  0
LINE
  5
85
100
AcDbEntity
  8
ALPHA
100
AcDbLine
 10
128.356106
 20
198.914815
 30
0.0
 11
128.951382
 21
198.914815
 31
0.0
  0
ARC
  5
86
100
AcDbEntity
  8
ALPHA
100
AcDbCircle
 10
118.751431
 20
206.414815
 30
0.0
 40
12.000001
100
AcDbArc
 50
270.000028
 51
320.208202
  0
ARC
  5
87
100
AcDbEntity
  8
ALPHA
100
AcDbCircle
 10
128.356152
 20
198.414815
 30
0.0
 40
0.5
100
AcDbArc
 50
89.99949
 51
140.207938
  0
ARC
  5
88
100
AcDbEntity
  8
ALPHA
100
AcDbCircle
 10
128.951397
 20
198.414815
 30
0.0
 40
0.5
100
AcDbArc
 50
359.999983
 51
90.000047
  0
LINE
  5
89
100
AcDbEntity
  8
ALPHA
100
AcDbLine
 10
131.251416
 20
204.414815
 30
0.0
 11
132.573941
 21
204.414815
 31
0.0
  0
LINE
  5
8A
100
AcDbEntity
  8
ALPHA
100
AcDbLine
 10
130.751431
 20
206.414815
 30
0.0
 11
130.751431
 21
204.914815
 31
0.0
  0
ARC
  5
8B
100
AcDbEntity
  8
ALPHA
100
AcDbCircle
 10
131.251431
 20
204.914815
 30
0.0
 40
0.5
100
AcDbArc
 50
179.999964
 51
270.000001
  0
ARC
  5
8C
100
AcDbEntity
  8
ALPHA
100
AcDbCircle
 10
105.251446
 20
120.914784
 30
0.0
 40
4.500001
100
AcDbArc
 50
0.000036
 51
180.000019
  0
ARC
  5
8D
100
AcDbEntity
  8
ALPHA
100
AcDbCircle
 10
105.251446
 20
119.9148
 30
0.0
 40
4.500001
100
AcDbArc
 50
180.000019
 51
359.999983
  0
ARC
  5
8E
100
AcDbEntity
  8
ALPHA
100
AcDbCircle
 10
105.251446
 20
217.914815
 30
0.0
 40
4.500001
100
AcDbArc
 50
0.000036
 51
180.000019
  0
ARC
  5
8F
100
AcDbEntity
  8
ALPHA
100
AcDbCircle
 10
105.251446
 20
216.914815
 30
0.0
 40
4.500001
100
AcDbArc
 50
180.000019
 51
359.999983
  0
LINE
  5
90
100
AcDbEntity
  8
ALPHA
100
AcDbLine
 10
100.751446
 20
217.9148
 30
0.0
 11
100.751446
 21
216.914815
 31
0.0
  0
ARC
  5
91
100
AcDbEntity
  8
ALPHA
100
AcDbCircle
 10
105.251446
 20
216.914815
 30
0.0
 40
7.000001
100
AcDbArc
 50
287.698523
 51
356.551475
  0
ARC
  5
92
100
AcDbEntity
  8
ALPHA
100
AcDbCircle
 10
118.751431
 20
206.414815
 30
0.0
 40
12.000001
100
AcDbArc
 50
359.999983
 51
122.869185
  0
LINE
  5
93
100
AcDbEntity
  8
ALPHA
100
AcDbLine
 10
79.501507
 20
149.9148
 30
0.0
 11
79.501507
 21
138.414815
 31
0.0
  0
LINE
  5
94
100
AcDbEntity
  8
ALPHA
100
AcDbLine
 10
80.501477
 20
131.146853
 30
0.0
 11
79.501446
 21
129.414736
 31
0.0
  0
LINE
  5
95
100
AcDbEntity
  8
ALPHA
100
AcDbLine
 10
79.50169
 20
138.414936
 30
0.0
 11
80.50169
 21
136.682846
 31
0.0
  0
LINE
  5
96
100
AcDbEntity
  8
ALPHA
100
AcDbLine
 10
79.501507
 20
129.4148
 30
0.0
 11
79.501507
 21
117.914784
 31
0.0
  0
LINE
  5
97
100
AcDbEntity
  8
ALPHA
100
AcDbLine
 10
80.001477
 20
117.414796
 30
0.0
 11
79.501477
 21
117.914786
 31
0.0
  0
LINE
  5
98
100
AcDbEntity
  8
ALPHA
100
AcDbLine
 10
80.001507
 20
117.4148
 30
0.0
 11
80.001507
 21
107.914784
 31
0.0
  0
LINE
  5
99
100
AcDbEntity
  8
ALPHA
100
AcDbLine
 10
80.001507
 20
150.414885
 30
0.0
 11
79.501507
 21
149.914895
 31
0.0
  0
LINE
  5
9A
100
AcDbEntity
  8
ALPHA
100
AcDbLine
 10
80.501507
 20
136.68279
 30
0.0
 11
80.501507
 21
131.146871
 31
0.0
  0
LINE
  5
9B
100
AcDbEntity
  8
ALPHA
100
AcDbLine
 10
79.501507
 20
219.914815
 30
0.0
 11
79.501507
 21
208.41483
 31
0.0
  0
LINE
  5
9C
100
AcDbEntity
  8
ALPHA
100
AcDbLine
 10
80.501385
 20
201.146886
 30
0.0
 11
79.501354
 21
199.414796
 31
0.0
  0
LINE
  5
9D
100
AcDbEntity
  8
ALPHA
100
AcDbLine
 10
79.501568
 20
208.414792
 30
0.0
 11
80.501538
 21
206.682813
 31
0.0
  0
LINE
  5
9E
100
AcDbEntity
  8
ALPHA
100
AcDbLine
 10
79.501507
 20
199.4148
 30
0.0
 11
79.501507
 21
187.914815
 31
0.0
  0
LINE
  5
9F
100
AcDbEntity
  8
ALPHA
100
AcDbLine
 10
80.001477
 20
187.414796
 30
0.0
 11
79.501477
 21
187.914784
 31
0.0
  0
LINE
  5
A0
100
AcDbEntity
  8
ALPHA
100
AcDbLine
 10
80.001507
 20
187.4148
 30
0.0
 11
80.001507
 21
150.41483
 31
0.0
  0
LINE
  5
A1
100
AcDbEntity
  8
ALPHA
100
AcDbLine
 10
80.001354
 20
220.414914
 30
0.0
 11
79.501385
 21
219.914929
 31
0.0
  0
LINE
  5
A2
100
AcDbEntity
  8
ALPHA
100
AcDbLine
 10
80.501507
 20
206.682775
 30
0.0
 11
80.501507
 21
201.146855
 31
0.0
  0
LINE
  5
A3
100
AcDbEntity
  8
ALPHA
100
AcDbLine
 10
82.501446
 20
229.9148
 30
0.0
 11
82.501446
 21
107.914784
 31
0.0
  0
ARC
  5
A4
100
AcDbEntity
  8
ALPHA
100
AcDbCircle
 10
82.151593
 20
168.914815
 30
0.0
 40
7.849998
100
AcDbArc
 50
110.850528
 51
249.149455
  0
ARC
  5
A5
100
AcDbEntity
  8
ALPHA
100
AcDbCircle
 10
79.001507
 20
177.185247
 30
0.0
 40
1.0
100
AcDbArc
 50
290.850519
 51
359.999901
  0
LINE
  5
A6
100
AcDbEntity
  8
ALPHA
100
AcDbLine
 10
80.001507
 20
229.9148
 30
0.0
 11
80.001507
 21
220.4148
 31
0.0
  0
ARC
  5
A7
100
AcDbEntity
  8
ALPHA
100
AcDbCircle
 10
79.001507
 20
160.644383
 30
0.0
 40
1.0
100
AcDbArc
 50
359.999983
 51
69.149446
  0
LINE
  5
A8
100
AcDbEntity
  8
ALPHA
100
AcDbLine
 10
83.501446
 20
178.914815
 30
0.0
 11
93.001446
 21
178.914815
 31
0.0
  0
LINE
  5
A9
100
AcDbEntity
  8
ALPHA
100
AcDbLine
 10
83.501446
 20
158.914815
 30
0.0
 11
93.001446
 21
158.914815
 31
0.0
  0
ARC
  5
AA
100
AcDbEntity
  8
ALPHA
100
AcDbCircle
 10
83.501446
 20
159.914815
 30
0.0
 40
1.0
100
AcDbArc
 50
179.999964
 51
270.000001
  0
ARC
  5
AB
100
AcDbEntity
  8
ALPHA
100
AcDbCircle
 10
83.501446
 20
177.914815
 30
0.0
 40
1.0
100
AcDbArc
 50
90.000091
 51
180.000019
  0
LINE
  5
AC
100
AcDbEntity
  8
ALPHA
100
AcDbLine
 10
93.001446
 20
229.9148
 30
0.0
 11
93.001446
 21
178.914815
 31
0.0
  0
LINE
  5
AD
100
AcDbEntity
  8
ALPHA
100
AcDbLine
 10
93.001446
 20
158.914815
 30
0.0
 11
93.001446
 21
107.914784
 31
0.0
  0
LINE
  5
AE
100
AcDbEntity
  8
ALPHA
100
AcDbLine
 10
109.751431
 20
229.9148
 30
0.0
 11
109.751431
 21
211.552907
 31
0.0
  0
LINE
  5
AF
100
AcDbEntity
  8
ALPHA
100
AcDbLine
 10
109.751431
 20
198.477559
 30
0.0
 11
109.751431
 21
107.914784
 31
0.0
  0
ARC
  5
B0
100
AcDbEntity
  8
ALPHA
100
AcDbCircle
 10
124.75465
 20
177.487081
 30
0.0
 40
5.999999
100
AcDbArc
 50
309.341617
 51
38.483181
  0
LINE
  5
B1
100
AcDbEntity
  8
ALPHA
100
AcDbLine
 10
126.45155
 20
171.119805
 30
0.0
 11
128.558377
 21
172.846776
 31
0.0
  0
ARC
  5
B2
100
AcDbEntity
  8
ALPHA
100
AcDbCircle
 10
124.754635
 20
160.342549
 30
0.0
 40
5.999999
100
AcDbArc
 50
321.516948
 51
50.658403
  0
LINE
  5
B3
100
AcDbEntity
  8
ALPHA
100
AcDbLine
 10
126.451489
 20
166.709779
 30
0.0
 11
128.558377
 21
164.982747
 31
0.0
  0
LINE
  5
B4
100
AcDbEntity
  8
ALPHA
100
AcDbLine
 10
147.001431
 20
181.414815
 30
0.0
 11
147.001431
 21
156.414815
 31
0.0
  0
LINE
  5
B5
100
AcDbEntity
  8
ALPHA
100
AcDbLine
 10
190.201351
 20
183.414815
 30
0.0
 11
190.201351
 21
154.414815
 31
0.0
  0
LINE
  5
B6
100
AcDbEntity
  8
ALPHA
100
AcDbLine
 10
147.001431
 20
181.414815
 30
0.0
 11
190.201351
 21
181.414815
 31
0.0
  0
LINE
  5
B7
100
AcDbEntity
  8
ALPHA
100
AcDbLine
 10
147.001431
 20
156.414815
 30
0.0
 11
190.201351
 21
156.414815
 31
0.0
  0
LINE
  5
B8
100
AcDbEntity
  8
ALPHA
100
AcDbLine
 10
149.951412
 20
183.414815
 30
0.0
 11
149.951412
 21
181.414815
 31
0.0
  0
LINE
  5
B9
100
AcDbEntity
  8
ALPHA
100
AcDbLine
 10
149.951412
 20
156.414815
 30
0.0
 11
149.951412
 21
154.414815
 31
0.0
  0
LINE
  5
BA
100
AcDbEntity
  8
ALPHA
100
AcDbLine
 10
147.801419
 20
183.414815
 30
0.0
 11
147.801419
 21
181.414815
 31
0.0
  0
LINE
  5
BB
100
AcDbEntity
  8
ALPHA
100
AcDbLine
 10
147.801419
 20
156.414815
 30
0.0
 11
147.801419
 21
154.414815
 31
0.0
  0
LINE
  5
BC
100
AcDbEntity
  8
ALPHA
100
AcDbLine
 10
147.801419
 20
183.414815
 30
0.0
 11
190.201351
 21
183.414815
 31
0.0
  0
LINE
  5
BD
100
AcDbEntity
  8
ALPHA
100
AcDbLine
 10
152.901394
 20
184.614812
 30
0.0
 11
152.901394
 21
183.414815
 31
0.0
  0
LINE
  5
BE
100
AcDbEntity
  8
ALPHA
100
AcDbLine
 10
156.747921
 20
186.01484
 30
0.0
 11
152.901455
 21
184.614842
 31
0.0
  0
LINE
  5
BF
100
AcDbEntity
  8
ALPHA
100
AcDbLine
 10
156.74783
 20
186.014821
 30
0.0
 11
158.151455
 21
186.014821
 31
0.0
  0
LINE
  5
C0
100
AcDbEntity
  8
ALPHA
100
AcDbLine
 10
160.151379
 20
201.014821
 30
0.0
 11
160.151379
 21
188.014821
 31
0.0
  0
ARC
  5
C1
100
AcDbEntity
  8
ALPHA
100
AcDbCircle
 10
158.151379
 20
188.014821
 30
0.0
 40
2.0
100
AcDbArc
 50
269.999973
 51
359.999955
  0
LINE
  5
C2
100
AcDbEntity
  8
ALPHA
100
AcDbLine
 10
182.901394
 20
200.314809
 30
0.0
 11
182.901394
 21
189.014821
 31
0.0
  0
LINE
  5
C3
100
AcDbEntity
  8
ALPHA
100
AcDbLine
 10
180.001431
 20
199.014821
 30
0.0
 11
180.001431
 21
189.014821
 31
0.0
  0
LINE
  5
C4
100
AcDbEntity
  8
ALPHA
100
AcDbLine
 10
155.151379
 20
201.014821
 30
0.0
 11
178.001339
 21
201.014821
 31
0.0
  0
LINE
  5
C5
100
AcDbEntity
  8
ALPHA
100
AcDbLine
 10
180.501416
 20
188.514821
 30
0.0
 11
182.401364
 21
188.514821
 31
0.0
  0
ARC
  5
C6
100
AcDbEntity
  8
ALPHA
100
AcDbCircle
 10
180.501431
 20
189.014821
 30
0.0
 40
0.5
100
AcDbArc
 50
179.999964
 51
270.000001
  0
ARC
  5
C7
100
AcDbEntity
  8
ALPHA
100
AcDbCircle
 10
182.401455
 20
189.014821
 30
0.0
 40
0.5
100
AcDbArc
 50
269.999973
 51
359.999955
  0
LINE
  5
C8
100
AcDbEntity
  8
ALPHA
100
AcDbLine
 10
182.901394
 20
197.514821
 30
0.0
 11
187.101376
 21
197.514821
 31
0.0
  0
LINE
  5
C9
100
AcDbEntity
  8
ALPHA
100
AcDbLine
 10
180.001553
 20
199.014867
 30
0.0
 11
178.001538
 21
201.014875
 31
0.0
  0
LINE
  5
CA
100
AcDbEntity
  8
ALPHA
100
AcDbLine
 10
150.76669
 20
199.560018
 30
0.0
 11
138.25137
 21
198.465066
 31
0.0
  0
ARC
  5
CB
100
AcDbEntity
  8
ALPHA
100
AcDbCircle
 10
149.895123
 20
209.521977
 30
0.0
 40
10.0
100
AcDbArc
 50
275.0
 51
301.710411
  0
LINE
  5
CC
100
AcDbEntity
  8
ALPHA
100
AcDbLine
 10
142.25137
 20
197.514821
 30
0.0
 11
142.25137
 21
194.863469
 31
0.0
  0
ARC
  5
CD
100
AcDbEntity
  8
ALPHA
100
AcDbCircle
 10
158.151379
 20
196.614827
 30
0.0
 40
2.0
100
AcDbArc
 50
359.999983
 51
90.000101
  0
LINE
  5
CE
100
AcDbEntity
  8
ALPHA
100
AcDbLine
 10
158.15144
 20
198.614759
 30
0.0
 11
142.251431
 21
197.363401
 31
0.0
  0
LINE
  5
CF
100
AcDbEntity
  8
ALPHA
100
AcDbLine
 10
140.2514
 20
194.863469
 30
0.0
 11
142.25137
 21
194.863469
 31
0.0
  0
LINE
  5
D0
100
AcDbEntity
  8
ALPHA
100
AcDbLine
 10
140.251385
 20
194.863488
 30
0.0
 11
138.251385
 21
196.8635
 31
0.0
  0
LINE
  5
D1
100
AcDbEntity
  8
ALPHA
100
AcDbLine
 10
138.251431
 20
198.465077
 30
0.0
 11
138.251431
 21
196.863469
 31
0.0
  0
LINE
  5
D2
100
AcDbEntity
  8
ALPHA
100
AcDbLine
 10
187.101376
 20
197.514821
 30
0.0
 11
187.101376
 21
183.414815
 31
0.0
  0
LINE
  5
D3
100
AcDbEntity
  8
ALPHA
100
AcDbLine
 10
187.101376
 20
185.514821
 30
0.0
 11
193.051388
 21
185.514821
 31
0.0
  0
LINE
  5
D4
100
AcDbEntity
  8
ALPHA
100
AcDbLine
 10
187.101376
 20
194.514821
 30
0.0
 11
193.051388
 21
194.514821
 31
0.0
  0
LINE
  5
D5
100
AcDbEntity
  8
ALPHA
100
AcDbLine
 10
188.101406
 20
194.514821
 30
0.0
 11
188.101406
 21
185.514821
 31
0.0
  0
LINE
  5
D6
100
AcDbEntity
  8
ALPHA
100
AcDbLine
 10
178.001416
 20
199.014821
 30
0.0
 11
178.001416
 21
186.514821
 31
0.0
  0
LINE
  5
D7
100
AcDbEntity
  8
ALPHA
100
AcDbLine
 10
178.001416
 20
186.514821
 30
0.0
 11
184.901364
 21
186.514821
 31
0.0
  0
LINE
  5
D8
100
AcDbEntity
  8
ALPHA
100
AcDbLine
 10
184.901364
 20
197.514821
 30
0.0
 11
184.901364
 21
186.514821
 31
0.0
  0
LINE
  5
D9
100
AcDbEntity
  8
ALPHA
100
AcDbLine
 10
160.151379
 20
199.014821
 30
0.0
 11
178.001339
 21
199.014821
 31
0.0
  0
LINE
  5
DA
100
AcDbEntity
  8
ALPHA
100
AcDbLine
 10
178.001385
 20
199.014772
 30
0.0
 11
179.001385
 21
200.014775
 31
0.0
  0
LINE
  5
DB
100
AcDbEntity
  8
ALPHA
100
AcDbLine
 10
178.001385
 20
186.514813
 30
0.0
 11
180.147869
 21
188.661294
 31
0.0
  0
LINE
  5
DC
100
AcDbEntity
  8
ALPHA
100
AcDbLine
 10
182.754925
 20
188.661328
 30
0.0
 11
184.901364
 21
186.514878
 31
0.0
  0
LINE
  5
DD
100
AcDbEntity
  8
ALPHA
100
AcDbLine
 10
147.801419
 20
154.414815
 30
0.0
 11
190.201351
 21
154.414815
 31
0.0
  0
LINE
  5
DE
100
AcDbEntity
  8
ALPHA
100
AcDbLine
 10
152.901394
 20
153.214818
 30
0.0
 11
152.901394
 21
154.414815
 31
0.0
  0
LINE
  5
DF
100
AcDbEntity
  8
ALPHA
100
AcDbLine
 10
156.747921
 20
151.81486
 30
0.0
 11
152.90147
 21
153.214854
 31
0.0
  0
LINE
  5
E0
100
AcDbEntity
  8
ALPHA
100
AcDbLine
 10
156.74783
 20
151.814809
 30
0.0
 11
158.151455
 21
151.814809
 31
0.0
  0
LINE
  5
E1
100
AcDbEntity
  8
ALPHA
100
AcDbLine
 10
160.151379
 20
136.814778
 30
0.0
 11
160.151379
 21
149.814794
 31
0.0
  0
ARC
  5
E2
100
AcDbEntity
  8
ALPHA
100
AcDbCircle
 10
158.15147
 20
149.814809
 30
0.0
 40
2.0
100
AcDbArc
 50
0.000036
 51
90.000037
  0
LINE
  5
E3
100
AcDbEntity
  8
ALPHA
100
AcDbLine
 10
182.901394
 20
137.514821
 30
0.0
 11
182.901394
 21
148.814794
 31
0.0
  0
LINE
  5
E4
100
AcDbEntity
  8
ALPHA
100
AcDbLine
 10
180.001431
 20
138.814794
 30
0.0
 11
180.001431
 21
148.814794
 31
0.0
  0
LINE
  5
E5
100
AcDbEntity
  8
ALPHA
100
AcDbLine
 10
155.151379
 20
136.814778
 30
0.0
 11
178.001339
 21
136.814778
 31
0.0
  0
LINE
  5
E6
100
AcDbEntity
  8
ALPHA
100
AcDbLine
 10
180.501416
 20
149.314794
 30
0.0
 11
182.401364
 21
149.314794
 31
0.0
  0
ARC
  5
E7
100
AcDbEntity
  8
ALPHA
100
AcDbCircle
 10
180.501477
 20
148.814794
 30
0.0
 40
0.5
100
AcDbArc
 50
90.000091
 51
180.000019
  0
ARC
  5
E8
100
AcDbEntity
  8
ALPHA
100
AcDbCircle
 10
182.401425
 20
148.814794
 30
0.0
 40
0.5
100
AcDbArc
 50
0.000036
 51
90.000037
  0
LINE
  5
E9
100
AcDbEntity
  8
ALPHA
100
AcDbLine
 10
182.901394
 20
140.314809
 30
0.0
 11
187.101376
 21
140.314809
 31
0.0
  0
LINE
  5
EA
100
AcDbEntity
  8
ALPHA
100
AcDbLine
 10
180.001446
 20
138.814769
 30
0.0
 11
178.001431
 21
136.814758
 31
0.0
  0
LINE
  5
EB
100
AcDbEntity
  8
ALPHA
100
AcDbLine
 10
150.76672
 20
138.269605
 30
0.0
 11
138.251431
 21
139.36455
 31
0.0
  0
ARC
  5
EC
100
AcDbEntity
  8
ALPHA
100
AcDbCircle
 10
149.895123
 20
128.307637
 30
0.0
 40
10.0
100
AcDbArc
 50
58.289599
 51
85.00001
  0
LINE
  5
ED
100
AcDbEntity
  8
ALPHA
100
AcDbLine
 10
142.25137
 20
140.314809
 30
0.0
 11
142.25137
 21
142.966176
 31
0.0
  0
ARC
  5
EE
100
AcDbEntity
  8
ALPHA
100
AcDbCircle
 10
158.15147
 20
141.214818
 30
0.0
 40
2.0
100
AcDbArc
 50
269.999973
 51
359.999955
  0
LINE
  5
EF
100
AcDbEntity
  8
ALPHA
100
AcDbLine
 10
158.151409
 20
139.214883
 30
0.0
 11
142.251477
 21
140.466235
 31
0.0
  0
LINE
  5
F0
100
AcDbEntity
  8
ALPHA
100
AcDbLine
 10
140.2514
 20
142.966176
 30
0.0
 11
142.25137
 21
142.966176
 31
0.0
  0
LINE
  5
F1
100
AcDbEntity
  8
ALPHA
100
AcDbLine
 10
140.251339
 20
142.966203
 30
0.0
 11
138.251354
 21
140.966222
 31
0.0
  0
LINE
  5
F2
100
AcDbEntity
  8
ALPHA
100
AcDbLine
 10
138.251431
 20
139.364522
 30
0.0
 11
138.251431
 21
140.966161
 31
0.0
  0
LINE
  5
F3
100
AcDbEntity
  8
ALPHA
100
AcDbLine
 10
187.101376
 20
140.314809
 30
0.0
 11
187.101376
 21
154.414815
 31
0.0
  0
LINE
  5
F4
100
AcDbEntity
  8
ALPHA
100
AcDbLine
 10
187.101376
 20
152.314809
 30
0.0
 11
193.051388
 21
152.314809
 31
0.0
  0
LINE
  5
F5
100
AcDbEntity
  8
ALPHA
100
AcDbLine
 10
187.101376
 20
143.314794
 30
0.0
 11
193.051388
 21
143.314794
 31
0.0
  0
LINE
  5
F6
100
AcDbEntity
  8
ALPHA
100
AcDbLine
 10
188.101406
 20
143.314794
 30
0.0
 11
188.101406
 21
152.314809
 31
0.0
  0
LINE
  5
F7
100
AcDbEntity
  8
ALPHA
100
AcDbLine
 10
178.001416
 20
151.314809
 30
0.0
 11
184.901364
 21
151.314809
 31
0.0
  0
LINE
  5
F8
100
AcDbEntity
  8
ALPHA
100
AcDbLine
 10
184.901364
 20
140.314809
 30
0.0
 11
184.901364
 21
151.314809
 31
0.0
  0
LINE
  5
F9
100
AcDbEntity
  8
ALPHA
100
AcDbLine
 10
178.00137
 20
151.314856
 30
0.0
 11
180.147854
 21
149.168374
 31
0.0
  0
LINE
  5
FA
100
AcDbEntity
  8
ALPHA
100
AcDbLine
 10
182.75491
 20
149.168407
 30
0.0
 11
184.901333
 21
151.314834
 31
0.0
  0
CIRCLE
  5
FB
100
AcDbEntity
  8
ALPHA
100
AcDbCircle
 10
105.251446
 20
120.41483
 30
0.0
 40
4.000001
  0
CIRCLE
  5
FC
100
AcDbEntity
  8
ALPHA
100
AcDbCircle
 10
105.251446
 20
217.414815
 30
0.0
 40
4.000001
  0
LINE
  5
FD
100
AcDbEntity
  8
ALPHA
100
AcDbLine
 10
104.651348
 20
219.564809
 30
0.0
 11
104.651348
 21
218.014821
 31
0.0
  0
LINE
  5
FE
100
AcDbEntity
  8
ALPHA
100
AcDbLine
 10
105.8513
 20
219.564809
 30
0.0
 11
105.8513
 21
218.014821
 31
0.0
  0
LINE
  5
FF
100
AcDbEntity
  8
ALPHA
100
AcDbLine
 10
107.401348
 20
216.814794
 30
0.0
 11
105.8513
 21
216.814794
 31
0.0
  0
LINE
  5
100
100
AcDbEntity
  8
ALPHA
100
AcDbLine
 10
107.401348
 20
218.014821
 30
0.0
 11
105.8513
 21
218.014821
 31
0.0
  0
LINE
  5
101
100
AcDbEntity
  8
ALPHA
100
AcDbLine
 10
103.1013
 20
218.014821
 30
0.0
 11
103.1013
 21
216.814794
 31
0.0
  0
LINE
  5
102
100
AcDbEntity
  8
ALPHA
100
AcDbLine
 10
107.401348
 20
218.014821
 30
0.0
 11
107.401348
 21
216.814794
 31
0.0
  0
LINE
  5
103
100
AcDbEntity
  8
ALPHA
100
AcDbLine
 10
105.8513
 20
215.264806
 30
0.0
 11
104.651348
 21
215.264806
 31
0.0
  0
LINE
  5
104
100
AcDbEntity
  8
ALPHA
100
AcDbLine
 10
105.8513
 20
219.564809
 30
0.0
 11
104.651348
 21
219.564809
 31
0.0
  0
LINE
  5
105
100
AcDbEntity
  8
ALPHA
100
AcDbLine
 10
104.651348
 20
216.814794
 30
0.0
 11
103.1013
 21
216.814794
 31
0.0
  0
LINE
  5
106
100
AcDbEntity
  8
ALPHA
100
AcDbLine
 10
104.651348
 20
218.014821
 30
0.0
 11
103.1013
 21
218.014821
 31
0.0
  0
LINE
  5
107
100
AcDbEntity
  8
ALPHA
100
AcDbLine
 10
104.651348
 20
216.814794
 30
0.0
 11
104.651348
 21
215.264806
 31
0.0
  0
LINE
  5
108
100
AcDbEntity
  8
ALPHA
100
AcDbLine
 10
105.8513
 20
216.814794
 30
0.0
 11
105.8513
 21
215.264806
 31
0.0
  0
LINE
  5
109
100
AcDbEntity
  8
ALPHA
100
AcDbLine
 10
104.651348
 20
122.564824
 30
0.0
 11
104.651348
 21
121.014836
 31
0.0
  0
LINE
  5
10A
100
AcDbEntity
  8
ALPHA
100
AcDbLine
 10
105.8513
 20
122.564824
 30
0.0
 11
105.8513
 21
121.014836
 31
0.0
  0
LINE
  5
10B
100
AcDbEntity
  8
ALPHA
100
AcDbLine
 10
107.401348
 20
119.814809
 30
0.0
 11
105.8513
 21
119.814809
 31
0.0
  0
LINE
  5
10C
100
AcDbEntity
  8
ALPHA
100
AcDbLine
 10
107.401348
 20
121.014836
 30
0.0
 11
105.8513
 21
121.014836
 31
0.0
  0
LINE
  5
10D
100
AcDbEntity
  8
ALPHA
100
AcDbLine
 10
103.1013
 20
121.014836
 30
0.0
 11
103.1013
 21
119.814809
 31
0.0
  0
LINE
  5
10E
100
AcDbEntity
  8
ALPHA
100
AcDbLine
 10
107.401348
 20
121.014836
 30
0.0
 11
107.401348
 21
119.814809
 31
0.0
  0
LINE
  5
10F
100
AcDbEntity
  8
ALPHA
100
AcDbLine
 10
105.8513
 20
118.264821
 30
0.0
 11
104.651348
 21
118.264821
 31
0.0
  0
LINE
  5
110
100
AcDbEntity
  8
ALPHA
100
AcDbLine
 10
105.8513
 20
122.564824
 30
0.0
 11
104.651348
 21
122.564824
 31
0.0
  0
LINE
  5
111
100
AcDbEntity
  8
ALPHA
100
AcDbLine
 10
104.651348
 20
119.814809
 30
0.0
 11
103.1013
 21
119.814809
 31
0.0
  0
LINE
  5
112
100
AcDbEntity
  8
ALPHA
100
AcDbLine
 10
104.651348
 20
121.014836
 30
0.0
 11
103.1013
 21
121.014836
 31
0.0
  0
LINE
  5
113
100
AcDbEntity
  8
ALPHA
100
AcDbLine
 10
104.651348
 20
119.814809
 30
0.0
 11
104.651348
 21
118.264821
 31
0.0
  0
LINE
  5
114
100
AcDbEntity
  8
ALPHA
100
AcDbLine
 10
105.8513
 20
119.814809
 30
0.0
 11
105.8513
 21
118.264821
 31
0.0
  0
ARC
  5
115
100
AcDbEntity
  8
ALPHA
100
AcDbCircle
 10
105.174542
 20
216.64568
 30
0.0
 40
8.000005
100
AcDbArc
 50
287.250682
 51
358.749266
  0
ARC
  5
116
100
AcDbEntity
  8
ALPHA
100
AcDbCircle
 10
118.751431
 20
206.414815
 30
0.0
 40
11.500001
100
AcDbArc
 50
166.98064
 51
119.019417
  0
LINE
  5
117
100
AcDbEntity
  8
ALPHA
100
AcDbLine
 10
128.445355
 20
206.941739
 30
0.0
 11
123.615719
 21
205.647641
 31
0.0
  0
LINE
  5
118
100
AcDbEntity
  8
ALPHA
100
AcDbLine
 10
127.410076
 20
210.805455
 30
0.0
 11
122.580441
 21
209.511365
 31
0.0
  0
LINE
  5
119
100
AcDbEntity
  8
ALPHA
100
AcDbLine
 10
113.887066
 20
207.181981
 30
0.0
 11
114.922344
 21
203.318257
 31
0.0
  0
LINE
  5
11A
100
AcDbEntity
  8
ALPHA
100
AcDbLine
 10
122.580441
 20
209.511365
 30
0.0
 11
123.615719
 21
205.647641
 31
0.0
  0
LINE
  5
11B
100
AcDbEntity
  8
ALPHA
100
AcDbLine
 10
127.410076
 20
210.805455
 30
0.0
 11
128.445355
 21
206.941739
 31
0.0
  0
LINE
  5
11C
100
AcDbEntity
  8
ALPHA
100
AcDbLine
 10
109.057431
 20
205.887883
 30
0.0
 11
110.092709
 21
202.024167
 31
0.0
  0
LINE
  5
11D
100
AcDbEntity
  8
ALPHA
100
AcDbLine
 10
113.887066
 20
207.181981
 30
0.0
 11
109.057431
 21
205.887883
 31
0.0
  0
LINE
  5
11E
100
AcDbEntity
  8
ALPHA
100
AcDbLine
 10
114.922344
 20
203.318257
 30
0.0
 11
110.092709
 21
202.024167
 31
0.0
  0
LINE
  5
11F
100
AcDbEntity
  8
ALPHA
100
AcDbLine
 10
116.948269
 20
128.291744
 30
0.0
 11
121.874554
 21
129.611738
 31
0.0
  0
LINE
  5
120
100
AcDbEntity
  8
ALPHA
100
AcDbLine
 10
115.628292
 20
133.217971
 30
0.0
 11
120.554577
 21
134.537966
 31
0.0
  0
LINE
  5
121
100
AcDbEntity
  8
ALPHA
100
AcDbLine
 10
116.948269
 20
128.291744
 30
0.0
 11
115.628292
 21
133.217971
 31
0.0
  0
LINE
  5
122
100
AcDbEntity
  8
ALPHA
100
AcDbLine
 10
121.874554
 20
129.611738
 30
0.0
 11
120.554577
 21
134.537966
 31
0.0
  0
LINE
  5
123
100
AcDbEntity
  8
ALPHA
100
AcDbLine
 10
117.257092
 20
125.838068
 30
0.0
 11
122.833905
 21
127.332372
 31
0.0
  0
LINE
  5
124
100
AcDbEntity
  8
ALPHA
100
AcDbLine
 10
114.668896
 20
135.497327
 30
0.0
 11
120.245724
 21
136.99163
 31
0.0
  0
LINE
  5
125
100
AcDbEntity
  8
ALPHA
100
AcDbLine
 10
124.328228
 20
132.909092
 30
0.0
 11
122.833905
 21
127.332247
 31
0.0
  0
LINE
  5
126
100
AcDbEntity
  8
ALPHA
100
AcDbLine
 10
124.328213
 20
132.909097
 30
0.0
 11
120.245678
 21
136.99162
 31
0.0
  0
LINE
  5
127
100
AcDbEntity
  8
ALPHA
100
AcDbLine
 10
113.174633
 20
129.920442
 30
0.0
 11
114.668957
 21
135.497288
 31
0.0
  0
LINE
  5
128
100
AcDbEntity
  8
ALPHA
100
AcDbLine
 10
113.174618
 20
129.920552
 30
0.0
 11
117.257138
 21
125.838029
 31
0.0
  0
LINE
  5
129
100
AcDbEntity
  8
ALPHA
100
AcDbLine
 10
185.2514
 20
132.764836
 30
0.0
 11
185.2514
 21
115.764821
 31
0.0
  0
LINE
  5
12A
100
AcDbEntity
  8
ALPHA
100
AcDbLine
 10
191.751416
 20
115.764821
 30
0.0
 11
185.2514
 21
115.764821
 31
0.0
  0
LINE
  5
12B
100
AcDbEntity
  8
ALPHA
100
AcDbLine
 10
191.751416
 20
132.764836
 30
0.0
 11
185.2514
 21
132.764836
 31
0.0
  0
LINE
  5
12C
100
AcDbEntity
  8
ALPHA
100
AcDbLine
 10
186.051342
 20
124.264826
 30
0.0
 11
191.751416
 21
124.264853
 31
0.0
  0
LINE
  5
12D
100
AcDbEntity
  8
ALPHA
100
AcDbLine
 10
195.751431
 20
236.918721
 30
0.0
 11
195.751431
 21
202.780873
 31
0.0
  0
LINE
  5
12E
100
AcDbEntity
  8
ALPHA
100
AcDbLine
 10
191.751416
 20
236.914784
 30
0.0
 11
191.751416
 21
204.914815
 31
0.0
  0
LINE
  5
12F
100
AcDbEntity
  8
ALPHA
100
AcDbLine
 10
82.251446
 20
107.914784
 30
0.0
 11
82.251446
 21
70.414815
 31
0.0
  0
LINE
  5
130
100
AcDbEntity
  8
ALPHA
100
AcDbLine
 10
85.251446
 20
70.414815
 30
0.0
 11
85.251446
 21
107.914784
 31
0.0
  0
LINE
  5
131
100
AcDbEntity
  8
ALPHA
100
AcDbLine
 10
82.251446
 20
267.414815
 30
0.0
 11
82.251446
 21
229.9148
 31
0.0
  0
LINE
  5
132
100
AcDbEntity
  8
ALPHA
100
AcDbLine
 10
85.251446
 20
229.9148
 30
0.0
 11
85.251446
 21
267.414815
 31
0.0
  0
LINE
  5
133
100
AcDbEntity
  8
ALPHA
100
AcDbLine
 10
82.251446
 20
70.414815
 30
0.0
 11
85.251446
 21
70.414815
 31
0.0
  0
LINE
  5
134
100
AcDbEntity
  8
ALPHA
100
AcDbLine
 10
82.251446
 20
267.414815
 30
0.0
 11
85.251446
 21
267.414815
 31
0.0
  0
LINE
  5
135
100
AcDbEntity
  8
AXE
100
AcDbLine
 10
78.751507
 20
82.914815
 30
0.0
 11
88.751446
 21
82.914815
 31
0.0
  0
LINE
  5
138
100
AcDbEntity
  8
AXE
100
AcDbLine
 10
78.751507
 20
254.914815
 30
0.0
 11
88.751446
 21
254.914815
 31
0.0
  0
LINE
  5
139
100
AcDbEntity
  8
ALPHA
100
AcDbLine
 10
18.516583
 20
106.208798
 30
0.0
 11
80.851605
 21
105.664809
 31
0.0
  0
LINE
  5
13A
100
AcDbEntity
  8
ALPHA
100
AcDbLine
 10
18.516583
 20
231.620816
 30
0.0
 11
80.851605
 21
232.164807
 31
0.0
  0
LINE
  5
13B
100
AcDbEntity
  8
ALPHA
100
AcDbLine
 10
14.551495
 20
227.620969
 30
0.0
 11
14.551495
 21
110.208646
 31
0.0
  0
ARC
  5
13C
100
AcDbEntity
  8
ALPHA
100
AcDbCircle
 10
18.551495
 20
227.620969
 30
0.0
 40
4.0
100
AcDbArc
 50
90.5
 51
180.000005
  0
INSERT
  5
17F
100
AcDbEntity
  8
0
100
AcDbBlockReference
  2
SCH_ISO
 10
-6.038532
 20
135.414815
 30
0.0
  0
DIMENSION
  5
199
100
AcDbEntity
  8
COTATION1
100
AcDbDimension
  2
*D8
 10
82.251446
 20
48.124999
 30
0.0
 11
139.001439
 21
50.624999
 31
0.0
  3
SC_STAND
100
AcDbAlignedDimension
 13
195.751431
 23
100.414784
 33
0.0
 14
82.251446
 24
70.414815
 34
0.0
100
AcDbRotatedDimension
  0
DIMENSION
  5
1A6
100
AcDbEntity
  8
COTATION1
100
AcDbDimension
  2
*D7
 10
14.551495
 20
28.324999
 30
0.0
 11
105.151463
 21
30.824999
 31
0.0
  3
SC_STAND
100
AcDbAlignedDimension
 13
195.751431
 23
100.9148
 33
0.0
 14
14.551495
 24
110.208646
 34
0.0
100
AcDbRotatedDimension
  0
DIMENSION
  5
1B3
100
AcDbEntity
  8
COTATION1
100
AcDbDimension
  2
*D6
 10
224.868532
 20
267.414815
 30
0.0
 11
222.368532
 21
168.914815
 31
0.0
  3
SC_STAND
100
AcDbAlignedDimension
 13
85.251446
 23
70.414815
 33
0.0
 14
85.251446
 24
267.414815
 34
0.0
 50
90.0
100
AcDbRotatedDimension
  0
ENDSEC
  0
SECTION
  2
OBJECTS
  0
DICTIONARY
  5
1E4
100
AcDbDictionary
  3
ACAD_GROUP
350
1E5
  3
ACAD_MLINESTYLE
350
1F2
  3
ACDBVARIABLEDICTIONARY
350
235
  0
DICTIONARY
  5
1E5
102
{ACAD_REACTORS
330
1E4
102
}
100
AcDbDictionary
  0
DICTIONARY
  5
1F2
102
{ACAD_REACTORS
330
1E4
102
}
100
AcDbDictionary
  3
STANDARD
350
1F3
  0
DICTIONARY
  5
235
102
{ACAD_REACTORS
330
1E4
102
}
100
AcDbDictionary
  3
DIMADEC
350
236
  0
MLINESTYLE
  5
1F3
102
{ACAD_REACTORS
330
1F2
102
}
100
AcDbMlineStyle
  2
STANDARD
 70
     0
  3

 62
   256
 51
90.0
 52
90.0
 71
     2
 49
0.5
 62
   256
  6
BYLAYER
 49
-0.5
 62
   256
  6
BYLAYER
  0
DICTIONARYVAR
  5
236
102
{ACAD_REACTORS
330
235
102
}
100
DictionaryVariables
280
     0
  1
0
  0
ENDSEC
  0
EOF
