  0
SECTION
  2
HEADER
  9
$ACADVER
  1
AC1014
  9
$ACADMAINTVER
 70
     0
  9
$DWGCODEPAGE
  3
ANSI_1252
  9
$INSBASE
 10
15.625273
 20
-13.046649
 30
0.0
  9
$EXTMIN
 10
28.085801
 20
45.424999
 30
0.0
  9
$EXTMAX
 10
216.010477
 20
271.325
 30
0.0
  9
$LIMMIN
 10
0.0
 20
0.0
  9
$LIMMAX
 10
210.0
 20
297.0
  9
$ORTHOMODE
 70
     0
  9
$REGENMODE
 70
     1
  9
$FILLMODE
 70
     1
  9
$QTEXTMODE
 70
     0
  9
$MIRRTEXT
 70
     0
  9
$DRAGMODE
 70
     1
  9
$LTSCALE
 40
20.0
  9
$OSMODE
 70
     0
  9
$ATTMODE
 70
     1
  9
$TEXTSIZE
 40
2.5
  9
$TRACEWID
 40
0.05
  9
$TEXTSTYLE
  7
ROMANS
  9
$CLAYER
  8
COTATION1
  9
$CELTYPE
  6
BYLAYER
  9
$CECOLOR
 62
   256
  9
$CELTSCALE
 40
1.0
  9
$DELOBJ
 70
     1
  9
$DISPSILH
 70
     0
  9
$DIMSCALE
 40
1.0
  9
$DIMASZ
 40
3.0
  9
$DIMEXO
 40
0.0625
  9
$DIMDLI
 40
0.38
  9
$DIMRND
 40
0.01
  9
$DIMDLE
 40
0.0
  9
$DIMEXE
 40
0.18
  9
$DIMTP
 40
0.0
  9
$DIMTM
 40
0.0
  9
$DIMTXT
 40
2.5
  9
$DIMCEN
 40
0.09
  9
$DIMTSZ
 40
0.0
  9
$DIMTOL
 70
     0
  9
$DIMLIM
 70
     0
  9
$DIMTIH
 70
     0
  9
$DIMTOH
 70
     0
  9
$DIMSE1
 70
     0
  9
$DIMSE2
 70
     0
  9
$DIMTAD
 70
     1
  9
$DIMZIN
 70
    12
  9
$DIMBLK
  1

  9
$DIMASO
 70
     1
  9
$DIMSHO
 70
     1
  9
$DIMPOST
  1

  9
$DIMAPOST
  1

  9
$DIMALT
 70
     0
  9
$DIMALTD
 70
     2
  9
$DIMALTF
 40
25.4
  9
$DIMLFAC
 40
1.0
  9
$DIMTOFL
 70
     1
  9
$DIMTVP
 40
0.0
  9
$DIMTIX
 70
     0
  9
$DIMSOXD
 70
     0
  9
$DIMSAH
 70
     0
  9
$DIMBLK1
  1

  9
$DIMBLK2
  1

  9
$DIMSTYLE
  2
SC_STAND
  9
$DIMCLRD
 70
     0
  9
$DIMCLRE
 70
     0
  9
$DIMCLRT
 70
     0
  9
$DIMTFAC
 40
1.0
  9
$DIMGAP
 40
1.0
  9
$DIMJUST
 70
     0
  9
$DIMSD1
 70
     0
  9
$DIMSD2
 70
     0
  9
$DIMTOLJ
 70
     1
  9
$DIMTZIN
 70
    12
  9
$DIMALTZ
 70
    12
  9
$DIMALTTZ
 70
    12
  9
$DIMFIT
 70
     5
  9
$DIMUPT
 70
     0
  9
$DIMUNIT
 70
     2
  9
$DIMDEC
 70
     3
  9
$DIMTDEC
 70
     3
  9
$DIMALTU
 70
     2
  9
$DIMALTTD
 70
     2
  9
$DIMTXSTY
  7
ROMANS
  9
$DIMAUNIT
 70
     0
  9
$LUNITS
 70
     2
  9
$LUPREC
 70
     3
  9
$SKETCHINC
 40
0.1
  9
$FILLETRAD
 40
0.0625
  9
$AUNITS
 70
     0
  9
$AUPREC
 70
     0
  9
$MENU
  1
ACAD
  9
$ELEVATION
 40
0.0
  9
$PELEVATION
 40
0.0
  9
$THICKNESS
 40
0.0
  9
$LIMCHECK
 70
     0
  9
$BLIPMODE
 70
     1
  9
$CHAMFERA
 40
0.0
  9
$CHAMFERB
 40
0.0
  9
$CHAMFERC
 40
0.0
  9
$CHAMFERD
 40
0.0
  9
$SKPOLY
 70
     0
  9
$TDCREATE
 40
2450599.364687997
  9
$TDUPDATE
 40
2451387.883692963
  9
$TDINDWG
 40
0.0009023148
  9
$TDUSRTIMER
 40
0.0009023148
  9
$USRTIMER
 70
     1
  9
$ANGBASE
 50
0.0
  9
$ANGDIR
 70
     0
  9
$PDMODE
 70
     0
  9
$PDSIZE
 40
0.0
  9
$PLINEWID
 40
0.0
  9
$COORDS
 70
     2
  9
$SPLFRAME
 70
     0
  9
$SPLINETYPE
 70
     6
  9
$SPLINESEGS
 70
     8
  9
$ATTDIA
 70
     0
  9
$ATTREQ
 70
     1
  9
$HANDLING
 70
     1
  9
$HANDSEED
  5
408
  9
$SURFTAB1
 70
     6
  9
$SURFTAB2
 70
     6
  9
$SURFTYPE
 70
     6
  9
$SURFU
 70
     6
  9
$SURFV
 70
     6
  9
$UCSNAME
  2

  9
$UCSORG
 10
0.0
 20
0.0
 30
0.0
  9
$UCSXDIR
 10
1.0
 20
0.0
 30
0.0
  9
$UCSYDIR
 10
0.0
 20
1.0
 30
0.0
  9
$PUCSNAME
  2

  9
$PUCSORG
 10
0.0
 20
0.0
 30
0.0
  9
$PUCSXDIR
 10
1.0
 20
0.0
 30
0.0
  9
$PUCSYDIR
 10
0.0
 20
1.0
 30
0.0
  9
$USERI1
 70
     0
  9
$USERI2
 70
     0
  9
$USERI3
 70
     0
  9
$USERI4
 70
     0
  9
$USERI5
 70
     0
  9
$USERR1
 40
0.0
  9
$USERR2
 40
0.0
  9
$USERR3
 40
0.0
  9
$USERR4
 40
0.0
  9
$USERR5
 40
0.0
  9
$WORLDVIEW
 70
     1
  9
$SHADEDGE
 70
     3
  9
$SHADEDIF
 70
    70
  9
$TILEMODE
 70
     1
  9
$MAXACTVP
 70
    16
  9
$PINSBASE
 10
0.0
 20
0.0
 30
0.0
  9
$PLIMCHECK
 70
     0
  9
$PEXTMIN
 10
1.000000E+20
 20
1.000000E+20
 30
1.000000E+20
  9
$PEXTMAX
 10
-1.000000E+20
 20
-1.000000E+20
 30
-1.000000E+20
  9
$PLIMMIN
 10
0.0
 20
0.0
  9
$PLIMMAX
 10
12.0
 20
9.0
  9
$UNITMODE
 70
     0
  9
$VISRETAIN
 70
     0
  9
$PLINEGEN
 70
     0
  9
$PSLTSCALE
 70
     1
  9
$TREEDEPTH
 70
  3020
  9
$PICKSTYLE
 70
     1
  9
$CMLSTYLE
  2
STANDARD
  9
$CMLJUST
 70
     0
  9
$CMLSCALE
 40
1.0
  9
$PROXYGRAPHICS
 70
     1
  9
$MEASUREMENT
 70
     0
  0
ENDSEC
  0
SECTION
  2
CLASSES
  0
CLASS
  1
DICTIONARYVAR
  2
AcDbDictionaryVar
  3
"AutoCAD"
 90
        0
280
     0
281
     0
  0
CLASS
  1
LWPOLYLINE
  2
AcDbPolyline
  3
"AutoCAD"
 90
        0
280
     0
281
     1
  0
ENDSEC
  0
SECTION
  2
TABLES
  0
TABLE
  2
VPORT
  5
3A1
100
AcDbSymbolTable
 70
     1
  0
VPORT
  5
403
100
AcDbSymbolTableRecord
100
AcDbViewportTableRecord
  2
*ACTIVE
 70
     0
 10
0.0
 20
0.0
 11
1.0
 21
1.0
 12
283.244621
 22
169.500718
 13
0.0
 23
0.0
 14
1.0
 24
1.0
 15
10.0
 25
10.0
 16
0.0
 26
0.0
 36
1.0
 17
0.0
 27
0.0
 37
0.0
 40
339.001436
 41
1.671053
 42
50.0
 43
0.0
 44
0.0
 50
0.0
 51
0.0
 71
     0
 72
   100
 73
     1
 74
     1
 75
     0
 76
     1
 77
     0
 78
     0
  0
ENDTAB
  0
TABLE
  2
LTYPE
  5
39E
100
AcDbSymbolTable
 70
    24
  0
LTYPE
  5
3AA
100
AcDbSymbolTableRecord
100
AcDbLinetypeTableRecord
  2
BYBLOCK
 70
     0
  3

 72
    65
 73
     0
 40
0.0
  0
LTYPE
  5
3AB
100
AcDbSymbolTableRecord
100
AcDbLinetypeTableRecord
  2
BYLAYER
 70
     0
  3

 72
    65
 73
     0
 40
0.0
  0
LTYPE
  5
3AC
100
AcDbSymbolTableRecord
100
AcDbLinetypeTableRecord
  2
CONTINUOUS
 70
     0
  3
Solid line
 72
    65
 73
     0
 40
0.0
  0
LTYPE
  5
3C9
100
AcDbSymbolTableRecord
100
AcDbLinetypeTableRecord
  2
CADRA_SOLID
 70
     0
  3
Cadra_solid
 72
    65
 73
     0
 40
0.0
  0
LTYPE
  5
3CA
100
AcDbSymbolTableRecord
100
AcDbLinetypeTableRecord
  2
AXES
 70
     0
  3
____ _ ____ _ ____ _ ____ _ ____ _ ____ _ ____ 
 72
    65
 73
     4
 40
2.0
 49
1.25
 74
     0
 49
-0.25
 74
     0
 49
0.25
 74
     0
 49
-0.25
 74
     0
  0
LTYPE
  5
3CB
100
AcDbSymbolTableRecord
100
AcDbLinetypeTableRecord
  2
AXES2
 70
     0
  3
___ _ ___ _ ___ _ ___ _ ___ _ ___ _ ___ _ ___ _
 72
    65
 73
     4
 40
1.125
 49
0.75
 74
     0
 49
-0.125
 74
     0
 49
0.125
 74
     0
 49
-0.125
 74
     0
  0
LTYPE
  5
3CC
100
AcDbSymbolTableRecord
100
AcDbLinetypeTableRecord
  2
AXESX2
 70
     0
  3
________  __  ________  __  ________  __  _____
 72
    65
 73
     4
 40
4.0
 49
2.5
 74
     0
 49
-0.5
 74
     0
 49
0.5
 74
     0
 49
-0.5
 74
     0
  0
LTYPE
  5
3CD
100
AcDbSymbolTableRecord
100
AcDbLinetypeTableRecord
  2
TIRETPT
 70
     0
  3
__ . __ . __ . __ . __ . __ . __ . __ . __ . __
 72
    65
 73
     4
 40
1.0
 49
0.5
 74
     0
 49
-0.25
 74
     0
 49
0.0
 74
     0
 49
-0.25
 74
     0
  0
LTYPE
  5
3CE
100
AcDbSymbolTableRecord
100
AcDbLinetypeTableRecord
  2
TIRETPT2
 70
     0
  3
_._._._._._._._._._._._._._._._._._._._._._._._
 72
    65
 73
     4
 40
0.5
 49
0.25
 74
     0
 49
-0.125
 74
     0
 49
0.0
 74
     0
 49
-0.125
 74
     0
  0
LTYPE
  5
3CF
100
AcDbSymbolTableRecord
100
AcDbLinetypeTableRecord
  2
TIRETPTX2
 70
     0
  3
____  .  ____  .  ____  .  ____  .  ____  .  __
 72
    65
 73
     4
 40
2.0
 49
1.0
 74
     0
 49
-0.5
 74
     0
 49
0.0
 74
     0
 49
-0.5
 74
     0
  0
LTYPE
  5
3D0
100
AcDbSymbolTableRecord
100
AcDbLinetypeTableRecord
  2
DISCONTINU
 70
     0
  3
__ __ __ __ __ __ __ __ __ __ __ __ __ __ __ __
 72
    65
 73
     2
 40
0.75
 49
0.5
 74
     0
 49
-0.25
 74
     0
  0
LTYPE
  5
3D1
100
AcDbSymbolTableRecord
100
AcDbLinetypeTableRecord
  2
DISCONTINU2
 70
     0
  3
_ _ _ _ _ _ _ _ _ _ _ _ _ _ _ _ _ _ _ _ _ _ _ _
 72
    65
 73
     2
 40
0.375
 49
0.25
 74
     0
 49
-0.125
 74
     0
  0
LTYPE
  5
3D2
100
AcDbSymbolTableRecord
100
AcDbLinetypeTableRecord
  2
DISCONTINUX2
 70
     0
  3
____  ____  ____  ____  ____  ____  ____  ____ 
 72
    65
 73
     2
 40
1.5
 49
1.0
 74
     0
 49
-0.5
 74
     0
  0
LTYPE
  5
3D3
100
AcDbSymbolTableRecord
100
AcDbLinetypeTableRecord
  2
DIVISE
 70
     0
  3
____ . . ____ . . ____ . . ____ . . ____ . . __
 72
    65
 73
     6
 40
1.25
 49
0.5
 74
     0
 49
-0.25
 74
     0
 49
0.0
 74
     0
 49
-0.25
 74
     0
 49
0.0
 74
     0
 49
-0.25
 74
     0
  0
LTYPE
  5
3D4
100
AcDbSymbolTableRecord
100
AcDbLinetypeTableRecord
  2
DIVISE2
 70
     0
  3
__..__..__..__..__..__..__..__..__..__..__..__.
 72
    65
 73
     6
 40
0.625
 49
0.25
 74
     0
 49
-0.125
 74
     0
 49
0.0
 74
     0
 49
-0.125
 74
     0
 49
0.0
 74
     0
 49
-0.125
 74
     0
  0
LTYPE
  5
3D5
100
AcDbSymbolTableRecord
100
AcDbLinetypeTableRecord
  2
DIVISEX2
 70
     0
  3
________  .  .  ________  .  .  ________  .  . 
 72
    65
 73
     6
 40
2.5
 49
1.0
 74
     0
 49
-0.5
 74
     0
 49
0.0
 74
     0
 49
-0.5
 74
     0
 49
0.0
 74
     0
 49
-0.5
 74
     0
  0
LTYPE
  5
3D6
100
AcDbSymbolTableRecord
100
AcDbLinetypeTableRecord
  2
POINTILLE
 70
     0
  3
. . . . . . . . . . . . . . . . . . . . . . . .
 72
    65
 73
     2
 40
0.25
 49
0.0
 74
     0
 49
-0.25
 74
     0
  0
LTYPE
  5
3D7
100
AcDbSymbolTableRecord
100
AcDbLinetypeTableRecord
  2
POINTILLE2
 70
     0
  3
...............................................
 72
    65
 73
     2
 40
0.125
 49
0.0
 74
     0
 49
-0.125
 74
     0
  0
LTYPE
  5
3D8
100
AcDbSymbolTableRecord
100
AcDbLinetypeTableRecord
  2
POINTILLEX2
 70
     0
  3
.  .  .  .  .  .  .  .  .  .  .  .  .  .  .  . 
 72
    65
 73
     2
 40
0.5
 49
0.0
 74
     0
 49
-0.5
 74
     0
  0
LTYPE
  5
3D9
100
AcDbSymbolTableRecord
100
AcDbLinetypeTableRecord
  2
CACHE
 70
     0
  3
__ __ __ __ __ __ __ __ __ __ __ __ __ __ __ __
 72
    65
 73
     2
 40
0.375
 49
0.25
 74
     0
 49
-0.125
 74
     0
  0
LTYPE
  5
3DA
100
AcDbSymbolTableRecord
100
AcDbLinetypeTableRecord
  2
CACHE2
 70
     0
  3
_ _ _ _ _ _ _ _ _ _ _ _ _ _ _ _ _ _ _ _ _ _ _ _
 72
    65
 73
     2
 40
0.1875
 49
0.125
 74
     0
 49
-0.0625
 74
     0
  0
LTYPE
  5
3DB
100
AcDbSymbolTableRecord
100
AcDbLinetypeTableRecord
  2
CACHEX2
 70
     0
  3
____ ____ ____ ____ ____ ____ ____ ____ ____ __
 72
    65
 73
     2
 40
0.75
 49
0.5
 74
     0
 49
-0.25
 74
     0
  0
LTYPE
  5
3DC
100
AcDbSymbolTableRecord
100
AcDbLinetypeTableRecord
  2
FANTOME
 70
     0
  3
______  __  __  ______  __  __  ______  __  __ 
 72
    65
 73
     6
 40
2.5
 49
1.25
 74
     0
 49
-0.25
 74
     0
 49
0.25
 74
     0
 49
-0.25
 74
     0
 49
0.25
 74
     0
 49
-0.25
 74
     0
  0
LTYPE
  5
3DD
100
AcDbSymbolTableRecord
100
AcDbLinetypeTableRecord
  2
FANTOME2
 70
     0
  3
___ _ _ ___ _ _ ___ _ _ ___ _ _ ___ _ _ ___ _ _
 72
    65
 73
     6
 40
1.25
 49
0.625
 74
     0
 49
-0.125
 74
     0
 49
0.125
 74
     0
 49
-0.125
 74
     0
 49
0.125
 74
     0
 49
-0.125
 74
     0
  0
LTYPE
  5
3DE
100
AcDbSymbolTableRecord
100
AcDbLinetypeTableRecord
  2
FANTOMEX2
 70
     0
  3
____________    ____    ____    ____________   
 72
    65
 73
     6
 40
5.0
 49
2.5
 74
     0
 49
-0.5
 74
     0
 49
0.5
 74
     0
 49
-0.5
 74
     0
 49
0.5
 74
     0
 49
-0.5
 74
     0
  0
LTYPE
  5
3DF
100
AcDbSymbolTableRecord
100
AcDbLinetypeTableRecord
  2
0
 70
     0
  3
MEDUSA PEN 0
 72
    65
 73
     0
 40
0.0
  0
ENDTAB
  0
TABLE
  2
LAYER
  5
39B
100
AcDbSymbolTable
 70
    21
  0
LAYER
  5
3A7
100
AcDbSymbolTableRecord
100
AcDbLayerTableRecord
  2
0
 70
     0
 62
   146
  6
CADRA_SOLID
  0
LAYER
  5
3E6
100
AcDbSymbolTableRecord
100
AcDbLayerTableRecord
  2
ALPHA
 70
     0
 62
   255
  6
CONTINUOUS
  0
LAYER
  5
3E7
100
AcDbSymbolTableRecord
100
AcDbLayerTableRecord
  2
AXE
 70
     0
 62
    80
  6
AXES2
  0
LAYER
  5
3E8
100
AcDbSymbolTableRecord
100
AcDbLayerTableRecord
  2
CONSTRUCTION
 70
     0
 62
     6
  6
CONTINUOUS
  0
LAYER
  5
3E9
100
AcDbSymbolTableRecord
100
AcDbLayerTableRecord
  2
COTATION1
 70
     0
 62
     2
  6
CONTINUOUS
  0
LAYER
  5
3EA
100
AcDbSymbolTableRecord
100
AcDbLayerTableRecord
  2
HACHURES
 70
     0
 62
     9
  6
CONTINUOUS
  0
LAYER
  5
3EB
100
AcDbSymbolTableRecord
100
AcDbLayerTableRecord
  2
FMULT
 70
     0
 62
     6
  6
CONTINUOUS
  0
LAYER
  5
3EC
100
AcDbSymbolTableRecord
100
AcDbLayerTableRecord
  2
TEXTE
 70
     0
 62
   131
  6
CONTINUOUS
  0
LAYER
  5
3ED
100
AcDbSymbolTableRecord
100
AcDbLayerTableRecord
  2
FDP_CARTOUCHE
 70
     0
 62
     4
  6
CONTINUOUS
  0
LAYER
  5
3EE
100
AcDbSymbolTableRecord
100
AcDbLayerTableRecord
  2
FDP_TEXTES
 70
     0
 62
     5
  6
CONTINUOUS
  0
LAYER
  5
3EF
100
AcDbSymbolTableRecord
100
AcDbLayerTableRecord
  2
FDP_LOGO_MG
 70
     0
 62
    30
  6
CONTINUOUS
  0
LAYER
  5
3F0
100
AcDbSymbolTableRecord
100
AcDbLayerTableRecord
  2
FDP_LOGO_SCH
 70
     0
 62
     3
  6
CONTINUOUS
  0
LAYER
  5
3F1
100
AcDbSymbolTableRecord
100
AcDbLayerTableRecord
  2
FDP_FDP
 70
     0
 62
     5
  6
CONTINUOUS
  0
LAYER
  5
3F2
100
AcDbSymbolTableRecord
100
AcDbLayerTableRecord
  2
COTATION2
 70
     0
 62
     2
  6
CONTINUOUS
  0
LAYER
  5
3F3
100
AcDbSymbolTableRecord
100
AcDbLayerTableRecord
  2
COTATION3
 70
     0
 62
     2
  6
CONTINUOUS
  0
LAYER
  5
3F4
100
AcDbSymbolTableRecord
100
AcDbLayerTableRecord
  2
COTATION4
 70
     0
 62
     2
  6
CONTINUOUS
  0
LAYER
  5
3F5
100
AcDbSymbolTableRecord
100
AcDbLayerTableRecord
  2
ASHADE
 70
     0
 62
     7
  6
CONTINUOUS
  0
LAYER
  5
3F6
100
AcDbSymbolTableRecord
100
AcDbLayerTableRecord
  2
POINTILLE_COURT
 70
     0
 62
    40
  6
CACHE2
  0
LAYER
  5
3F7
100
AcDbSymbolTableRecord
100
AcDbLayerTableRecord
  2
POINTILLE_MOYEN
 70
     0
 62
   140
  6
CACHE
  0
LAYER
  5
3F8
100
AcDbSymbolTableRecord
100
AcDbLayerTableRecord
  2
POINTILLE_LONG
 70
     0
 62
   240
  6
CACHEX2
  0
LAYER
  5
3F9
100
AcDbSymbolTableRecord
100
AcDbLayerTableRecord
  2
DEFPOINTS
 70
     0
 62
     7
  6
CONTINUOUS
  0
ENDTAB
  0
TABLE
  2
STYLE
  5
39C
100
AcDbSymbolTable
 70
     4
  0
STYLE
  5
3A8
100
AcDbSymbolTableRecord
100
AcDbTextStyleTableRecord
  2
STANDARD
 70
     0
 40
0.0
 41
1.0
 50
0.0
 71
     0
 42
5.0
  3
txt
  4

  0
STYLE
  5
3C6
100
AcDbSymbolTableRecord
100
AcDbTextStyleTableRecord
  2
ROMANS
 70
     0
 40
0.0
 41
1.0
 50
0.0
 71
     0
 42
2.9
  3
romans.shx
  4

  0
STYLE
  5
3C7
100
AcDbSymbolTableRecord
100
AcDbTextStyleTableRecord
  2
INFOCAR
 70
     0
 40
0.0
 41
1.34
 50
0.0
 71
     0
 42
2.0
  3
ROMANS.SHX
  4

  0
STYLE
  5
3C8
100
AcDbSymbolTableRecord
100
AcDbTextStyleTableRecord
  2
CARTOUCHE
 70
     0
 40
0.0
 41
1.0
 50
0.0
 71
     0
 42
0.2
  3
ROMANS.SHX
  4

  0
ENDTAB
  0
TABLE
  2
VIEW
  5
39F
100
AcDbSymbolTable
 70
     0
  0
ENDTAB
  0
TABLE
  2
UCS
  5
3A0
100
AcDbSymbolTable
 70
     0
  0
ENDTAB
  0
TABLE
  2
APPID
  5
3A2
100
AcDbSymbolTable
 70
     3
  0
APPID
  5
3A9
100
AcDbSymbolTableRecord
100
AcDbRegAppTableRecord
  2
ACAD
 70
     0
  0
APPID
  5
3E2
100
AcDbSymbolTableRecord
100
AcDbRegAppTableRecord
  2
AVE_RENDER
 70
     0
  0
APPID
  5
3E3
100
AcDbSymbolTableRecord
100
AcDbRegAppTableRecord
  2
AVE_MATERIAL
 70
     0
  0
ENDTAB
  0
TABLE
  2
DIMSTYLE
  5
3A3
100
AcDbSymbolTable
 70
     2
  0
DIMSTYLE
105
3E4
100
AcDbSymbolTableRecord
100
AcDbDimStyleTableRecord
  2
STANDARD
 70
     0
  3

  4

  5

  6

  7

 40
1.0
 41
0.18
 42
0.0625
 43
0.38
 44
0.18
 45
0.0
 46
0.0
 47
0.0
 48
0.0
140
0.18
141
0.09
142
0.0
143
25.4
144
1.0
145
0.0
146
1.0
147
0.09
 71
     0
 72
     0
 73
     1
 74
     1
 75
     0
 76
     0
 77
     0
 78
     0
170
     0
171
     2
172
     0
173
     0
174
     0
175
     0
176
     0
177
     0
178
     0
270
     2
271
     3
272
     3
273
     2
274
     2
340
3C6
275
     0
280
     0
281
     0
282
     0
283
     1
284
    12
285
    12
286
    12
287
     5
288
     0
  0
DIMSTYLE
105
3E5
102
{ACAD_REACTORS
330
2FC
330
308
330
314
330
320
330
32D
330
33A
330
347
102
}
100
AcDbSymbolTableRecord
100
AcDbDimStyleTableRecord
  2
SC_STAND
 70
     0
  3

  4

  5

  6

  7

 40
1.0
 41
3.0
 42
0.0625
 43
0.38
 44
0.18
 45
0.01
 46
0.0
 47
0.0
 48
0.0
140
2.5
141
0.09
142
0.0
143
25.4
144
1.0
145
0.0
146
1.0
147
1.0
 71
     0
 72
     0
 73
     0
 74
     0
 75
     0
 76
     0
 77
     1
 78
    12
170
     0
171
     2
172
     1
173
     0
174
     0
175
     0
176
     0
177
     0
178
     0
270
     2
271
     3
272
     3
273
     2
274
     2
340
3C6
275
     0
280
     0
281
     0
282
     0
283
     1
284
    12
285
    12
286
    12
287
     5
288
     0
  0
ENDTAB
  0
TABLE
  2
BLOCK_RECORD
  5
39A
100
AcDbSymbolTable
 70
    17
  0
BLOCK_RECORD
  5
3B0
100
AcDbSymbolTableRecord
100
AcDbBlockTableRecord
  2
*MODEL_SPACE
  0
BLOCK_RECORD
  5
3AD
100
AcDbSymbolTableRecord
100
AcDbBlockTableRecord
  2
*PAPER_SPACE
  0
BLOCK_RECORD
  5
3B5
100
AcDbSymbolTableRecord
100
AcDbBlockTableRecord
  2
AVE_RENDER
  0
BLOCK_RECORD
  5
3B6
100
AcDbSymbolTableRecord
100
AcDbBlockTableRecord
  2
AVE_GLOBAL
  0
BLOCK_RECORD
  5
3B7
100
AcDbSymbolTableRecord
100
AcDbBlockTableRecord
  2
SCH_ISO
  0
BLOCK_RECORD
  5
3BF
100
AcDbSymbolTableRecord
100
AcDbBlockTableRecord
  2
*D10
  0
BLOCK_RECORD
  5
3C0
100
AcDbSymbolTableRecord
100
AcDbBlockTableRecord
  2
*D11
  0
BLOCK_RECORD
  5
3C1
100
AcDbSymbolTableRecord
100
AcDbBlockTableRecord
  2
*D12
  0
BLOCK_RECORD
  5
3C2
100
AcDbSymbolTableRecord
100
AcDbBlockTableRecord
  2
*D13
  0
BLOCK_RECORD
  5
3C3
100
AcDbSymbolTableRecord
100
AcDbBlockTableRecord
  2
*D14
  0
BLOCK_RECORD
  5
3C4
100
AcDbSymbolTableRecord
100
AcDbBlockTableRecord
  2
*D15
  0
BLOCK_RECORD
  5
3C5
100
AcDbSymbolTableRecord
100
AcDbBlockTableRecord
  2
*D16
  0
ENDTAB
  0
ENDSEC
  0
SECTION
  2
BLOCKS
  0
BLOCK
  5
3FC
100
AcDbEntity
  8
0
100
AcDbBlockBegin
  2
*MODEL_SPACE
 70
     0
 10
0.0
 20
0.0
 30
0.0
  3
*MODEL_SPACE
  1

  0
ENDBLK
  5
3FD
100
AcDbEntity
  8
0
100
AcDbBlockEnd
  0
BLOCK
  5
3FA
100
AcDbEntity
 67
     1
  8
0
100
AcDbBlockBegin
  2
*PAPER_SPACE
 70
     0
 10
0.0
 20
0.0
 30
0.0
  3
*PAPER_SPACE
  1

  0
ENDBLK
  5
3FB
100
AcDbEntity
 67
     1
  8
0
100
AcDbBlockEnd
  0
BLOCK
  5
2AE
100
AcDbEntity
  8
0
100
AcDbBlockBegin
  2
AVE_RENDER
 70
     0
 10
0.0
 20
0.0
 30
0.0
  3
AVE_RENDER
  1
AVE_RENDER
  0
ENDBLK
  5
2AF
100
AcDbEntity
  8
0
100
AcDbBlockEnd
  0
BLOCK
  5
2B1
100
AcDbEntity
  8
0
100
AcDbBlockBegin
  2
AVE_GLOBAL
 70
     0
 10
0.0
 20
0.0
 30
0.0
  3
AVE_GLOBAL
  1
AVE_GLOBAL
  0
ENDBLK
  5
2B2
100
AcDbEntity
  8
0
100
AcDbBlockEnd
  0
BLOCK
  5
2EC
100
AcDbEntity
  8
0
100
AcDbBlockBegin
  2
SCH_ISO
 70
     0
 10
0.0
 20
0.0
 30
0.0
  3
SCH_ISO
  1

  0
INSERT
  5
2E3
100
AcDbEntity
  8
ASHADE
 62
     1
100
AcDbBlockReference
  2
AVE_RENDER
 10
0.0
 20
0.0
 30
0.0
1001
AVE_RENDER
1002
{
1070
     6
1000
Pref
1070
    50
1070
    20
1070
     1
1070
     0
1000

1070
    10
1070
     1
1070
    30
1040
25.4
1070
     1
1040
0.3
1040
0.7
1040
0.0
1040
10.0
1010
-1.0
1020
-1.0
1030
-1.0
1040
0.3
1070
    49
1070
     0
1070
     0
1010
1.0
1020
1.0
1030
1.0
1040
45.0
1070
     1
1070
     0
1000
WCS
1040
0.0
1002
}
  0
INSERT
  5
2E4
100
AcDbEntity
  8
ASHADE
 62
     3
100
AcDbBlockReference
  2
AVE_RENDER
 10
0.0
 20
0.0
 30
0.0
1001
AVE_RENDER
1002
{
1070
     0
1000
Full Opt
1070
     0
1070
     1
1070
     1
1070
     1
1070
     0
1070
     0
1070
     0
1070
     1
1070
     1
1040
0.0001
1040
0.0001
1002
}
  0
INSERT
  5
2E5
100
AcDbEntity
  8
ASHADE
 62
     4
100
AcDbBlockReference
  2
AVE_RENDER
 10
0.0
 20
0.0
 30
0.0
1001
AVE_RENDER
1002
{
1070
     0
1000
Quick Opt
1070
     0
1070
     1
1070
     1
1070
     1
1070
     0
1070
     0
1070
     1
1002
}
  0
INSERT
  5
2E6
100
AcDbEntity
  8
ASHADE
 62
     5
100
AcDbBlockReference
  2
AVE_RENDER
 10
0.0
 20
0.0
 30
0.0
1001
AVE_RENDER
1002
{
1070
     1
1000
Scanl Opt
1070
     2
1070
     0
1070
     2
1040
2.0
1040
4.0
1070
     0
1070
     1
1070
     0
1040
0.03
1002
}
  0
INSERT
  5
2E7
100
AcDbEntity
  8
ASHADE
 62
     6
100
AcDbBlockReference
  2
AVE_RENDER
 10
0.0
 20
0.0
 30
0.0
1001
AVE_RENDER
1002
{
1070
     2
1000
Raytr Opt
1070
     2
1070
     0
1070
     2
1040
2.0
1040
4.0
1070
     0
1070
     1
1070
     1
1040
0.03
1070
     3
1040
0.03
1002
}
  0
INSERT
  5
2E8
100
AcDbEntity
  8
ASHADE
 62
     7
100
AcDbBlockReference
  2
AVE_RENDER
 10
0.0
 20
0.0
 30
0.0
1001
AVE_RENDER
1002
{
1070
     0
1000
RFile Opt
1070
     5
1070
   640
1070
   480
1070
 10000
1070
     3
1070
    32
1070
    24
1070
     0
1070
     0
1070
     0
1070
     1
1070
     0
1070
     0
1070
     0
1002
}
  0
INSERT
  5
2E9
100
AcDbEntity
  8
ASHADE
 62
     8
100
AcDbBlockReference
  2
AVE_RENDER
 10
0.0
 20
0.0
 30
0.0
1001
AVE_RENDER
1002
{
1070
     0
1000
Fog Opt
1070
     0
1070
     0
1040
0.0
1040
1.0
1040
0.0
1040
1.0
1010
0.5
1020
0.5
1030
0.5
1002
}
  0
INSERT
  5
2EA
100
AcDbEntity
  8
ASHADE
 62
     9
100
AcDbBlockReference
  2
AVE_RENDER
 10
0.0
 20
0.0
 30
0.0
1001
AVE_RENDER
1002
{
1070
     0
1000
BG Opt
1070
     0
1070
     1
1010
0.0
1020
0.0
1030
0.0
1010
1.0
1020
0.0
1030
0.0
1010
0.0
1020
1.0
1030
0.0
1010
0.0
1020
0.0
1030
1.0
1040
0.5
1040
0.33
1040
0.0
1000

1070
     1
1000

1070
     1
1070
     1
1040
1.0
1040
1.0
1040
0.0
1040
0.0
1070
     0
1002
}
  0
INSERT
  5
2EB
100
AcDbEntity
  8
ASHADE
 62
     1
100
AcDbBlockReference
  2
AVE_GLOBAL
 10
0.0
 20
0.0
 30
0.0
1001
AVE_MATERIAL
1002
{
1000
*GLOBAL*
1000
1
1000
Finition globale.
1002
{
1002
}
1002
{
1070
    63
1002
{
1002
{
1010
-1.0
1020
-1.0
1030
-1.0
1002
}
1040
0.1
1000

1040
0.0
1002
{
1002
}
1040
0.0
1002
{
1002
}
1040
0.0
1002
}
1002
{
1002
{
1010
-1.0
1020
-1.0
1030
-1.0
1002
}
1040
0.7
1000

1040
0.0
1002
{
1002
}
1040
0.0
1002
{
1002
}
1040
0.0
1002
}
1002
{
1002
{
1010
-1.0
1020
-1.0
1030
-1.0
1002
}
1040
0.2
1000

1040
0.0
1002
{
1002
}
1040
0.0
1002
{
1002
}
1040
0.0
1002
}
1002
{
1070
     0
1002
{
1070
     1
1002
{
1040
1.0
1040
1.0
1000

1040
0.0
1002
{
1002
}
1040
0.0
1002
{
1002
}
1040
0.0
1002
}
1002
}
1040
1.0
1040
0.0
1040
0.0
1002
}
1002
{
1040
1.0
1040
1.0
1000

1040
0.0
1002
{
1002
}
1040
0.0
1002
{
1002
}
1040
0.0
1002
}
1002
{
1040
0.5
1040
1.0
1000

1040
0.0
1002
{
1002
}
1040
0.0
1002
{
1002
}
1040
0.0
1002
}
1002
{
1070
     0
1040
0.0
1002
{
1002
}
1040
1.0
1002
{
1002
}
1040
0.0
1002
}
1002
{
1040
0.0
1002
{
1002
{
1010
0.0
1020
0.0
1030
0.0
1002
}
1040
1.0
1000

1040
0.0
1002
{
1002
}
1040
0.0
1002
{
1002
}
1040
0.0
1002
}
1002
}
1002
{
1002
{
1070
     1
1002
{
1040
0.0
1040
1.0
1000

1040
0.0
1002
{
1002
}
1040
0.0
1002
{
1002
}
1040
0.0
1002
}
1002
}
1040
0.0
1002
{
1002
}
1010
1.0
1020
0.0
1030
0.0
1010
0.0
1020
1.0
1030
0.0
1010
0.0
1020
0.0
1030
1.0
1070
     0
1002
}
1002
{
1002
{
1040
1.0
1040
1.0
1002
{
1070
     1
1002
{
1040
1.0
1040
1.0
1000

1040
0.0
1002
{
1002
}
1040
0.0
1002
{
1002
}
1040
0.0
1002
}
1002
}
1002
}
1070
     0
1040
0.0
1002
{
1002
}
1002
}
1002
{
1002
}
1002
}
1002
{
1071
        3
1070
     3
1070
     0
1002
{
1070
     2
1070
     0
1070
     0
1040
0.0
1002
}
1070
     0
1070
     2
1002
{
1002
}
1002
}
1002
{
1040
8030.0
1040
190.300003
1040
0.305
1040
228.0
1040
545.0
1040
14.0
1040
17.4
1040
0.456
1002
}
1002
}
  0
ENDBLK
  5
2ED
100
AcDbEntity
  8
0
100
AcDbBlockEnd
  0
BLOCK
  5
34D
100
AcDbEntity
  8
0
100
AcDbBlockBegin
  2
*D10
 70
     1
 10
0.0
 20
0.0
 30
0.0
  3
*D10
  1

  0
LINE
  5
34E
100
AcDbEntity
  8
0
  6
BYBLOCK
 62
     0
100
AcDbLine
 10
135.062515
 20
91.75
 30
0.0
 11
215.690477
 21
91.75
 31
0.0
  0
LINE
  5
34F
100
AcDbEntity
  8
0
  6
BYBLOCK
 62
     0
100
AcDbLine
 10
135.062454
 20
241.75
 30
0.0
 11
215.690477
 21
241.75
 31
0.0
  0
LINE
  5
350
100
AcDbEntity
  8
0
  6
BYBLOCK
 62
     0
100
AcDbLine
 10
215.510477
 20
94.75
 30
0.0
 11
215.510477
 21
238.75
 31
0.0
  0
SOLID
  5
351
100
AcDbEntity
  8
0
  6
BYBLOCK
 62
     0
100
AcDbTrace
 10
215.010477
 20
94.75
 30
0.0
 11
216.010477
 21
94.75
 31
0.0
 12
215.510477
 22
91.75
 32
0.0
 13
215.510477
 23
91.75
 33
0.0
  0
SOLID
  5
352
100
AcDbEntity
  8
0
  6
BYBLOCK
 62
     0
100
AcDbTrace
 10
215.010477
 20
238.75
 30
0.0
 11
216.010477
 21
238.75
 31
0.0
 12
215.510477
 22
241.75
 32
0.0
 13
215.510477
 23
241.75
 33
0.0
  0
TEXT
  5
353
100
AcDbEntity
  8
0
  6
BYBLOCK
 62
     0
100
AcDbText
 10
214.260477
 20
163.0
 30
0.0
 40
2.5
  1
150
 50
90.0
  7
ROMANS
 72
     1
 11
213.010477
 21
166.75
 31
0.0
100
AcDbText
 73
     2
  0
POINT
  5
354
100
AcDbEntity
  8
DEFPOINTS
  6
BYBLOCK
 62
     0
100
AcDbPoint
 10
135.000015
 20
91.75
 30
0.0
  0
POINT
  5
355
100
AcDbEntity
  8
DEFPOINTS
  6
BYBLOCK
 62
     0
100
AcDbPoint
 10
134.999954
 20
241.75
 30
0.0
  0
POINT
  5
356
100
AcDbEntity
  8
DEFPOINTS
  6
BYBLOCK
 62
     0
100
AcDbPoint
 10
215.510477
 20
241.75
 30
0.0
  0
ENDBLK
  5
357
100
AcDbEntity
  8
0
100
AcDbBlockEnd
  0
BLOCK
  5
358
100
AcDbEntity
  8
0
100
AcDbBlockBegin
  2
*D11
 70
     1
 10
0.0
 20
0.0
 30
0.0
  3
*D11
  1

  0
LINE
  5
359
100
AcDbEntity
  8
0
  6
BYBLOCK
 62
     0
100
AcDbLine
 10
65.000015
 20
251.8125
 30
0.0
 11
65.000015
 21
267.755
 31
0.0
  0
LINE
  5
35A
100
AcDbEntity
  8
0
  6
BYBLOCK
 62
     0
100
AcDbLine
 10
45.000015
 20
251.8125
 30
0.0
 11
45.000015
 21
267.755
 31
0.0
  0
LINE
  5
35B
100
AcDbEntity
  8
0
  6
BYBLOCK
 62
     0
100
AcDbLine
 10
62.000015
 20
267.575
 30
0.0
 11
48.000015
 21
267.575
 31
0.0
  0
SOLID
  5
35C
100
AcDbEntity
  8
0
  6
BYBLOCK
 62
     0
100
AcDbTrace
 10
62.000015
 20
268.075
 30
0.0
 11
62.000015
 21
267.075
 31
0.0
 12
65.000015
 22
267.575
 32
0.0
 13
65.000015
 23
267.575
 33
0.0
  0
SOLID
  5
35D
100
AcDbEntity
  8
0
  6
BYBLOCK
 62
     0
100
AcDbTrace
 10
48.000015
 20
268.075
 30
0.0
 11
48.000015
 21
267.075
 31
0.0
 12
45.000015
 22
267.575
 32
0.0
 13
45.000015
 23
267.575
 33
0.0
  0
TEXT
  5
35E
100
AcDbEntity
  8
0
  6
BYBLOCK
 62
     0
100
AcDbText
 10
52.619063
 20
268.825
 30
0.0
 40
2.5
  1
20
  7
ROMANS
 72
     1
 11
55.000015
 21
270.075
 31
0.0
100
AcDbText
 73
     2
  0
POINT
  5
35F
100
AcDbEntity
  8
DEFPOINTS
  6
BYBLOCK
 62
     0
100
AcDbPoint
 10
65.000015
 20
251.75
 30
0.0
  0
POINT
  5
360
100
AcDbEntity
  8
DEFPOINTS
  6
BYBLOCK
 62
     0
100
AcDbPoint
 10
45.000015
 20
251.75
 30
0.0
  0
POINT
  5
361
100
AcDbEntity
  8
DEFPOINTS
  6
BYBLOCK
 62
     0
100
AcDbPoint
 10
45.000015
 20
267.575
 30
0.0
  0
ENDBLK
  5
362
100
AcDbEntity
  8
0
100
AcDbBlockEnd
  0
BLOCK
  5
363
100
AcDbEntity
  8
0
100
AcDbBlockBegin
  2
*D12
 70
     1
 10
0.0
 20
0.0
 30
0.0
  3
*D12
  1

  0
LINE
  5
364
100
AcDbEntity
  8
0
  6
BYBLOCK
 62
     0
100
AcDbLine
 10
192.499954
 20
105.625
 30
0.0
 11
192.499954
 21
45.744999
 31
0.0
  0
LINE
  5
365
100
AcDbEntity
  8
0
  6
BYBLOCK
 62
     0
100
AcDbLine
 10
28.500015
 20
112.687501
 30
0.0
 11
28.500015
 21
45.744999
 31
0.0
  0
LINE
  5
366
100
AcDbEntity
  8
0
  6
BYBLOCK
 62
     0
100
AcDbLine
 10
189.499954
 20
45.924999
 30
0.0
 11
31.500015
 21
45.924999
 31
0.0
  0
SOLID
  5
367
100
AcDbEntity
  8
0
  6
BYBLOCK
 62
     0
100
AcDbTrace
 10
189.499954
 20
46.424999
 30
0.0
 11
189.499954
 21
45.424999
 31
0.0
 12
192.499954
 22
45.924999
 32
0.0
 13
192.499954
 23
45.924999
 33
0.0
  0
SOLID
  5
368
100
AcDbEntity
  8
0
  6
BYBLOCK
 62
     0
100
AcDbTrace
 10
31.500015
 20
46.424999
 30
0.0
 11
31.500015
 21
45.424999
 31
0.0
 12
28.500015
 22
45.924999
 32
0.0
 13
28.500015
 23
45.924999
 33
0.0
  0
TEXT
  5
369
100
AcDbEntity
  8
0
  6
BYBLOCK
 62
     0
100
AcDbText
 10
106.690461
 20
47.174999
 30
0.0
 40
2.5
  1
164
  7
ROMANS
 72
     1
 11
110.499985
 21
48.424999
 31
0.0
100
AcDbText
 73
     2
  0
POINT
  5
36A
100
AcDbEntity
  8
DEFPOINTS
  6
BYBLOCK
 62
     0
100
AcDbPoint
 10
192.499954
 20
105.6875
 30
0.0
  0
POINT
  5
36B
100
AcDbEntity
  8
DEFPOINTS
  6
BYBLOCK
 62
     0
100
AcDbPoint
 10
28.500015
 20
112.750001
 30
0.0
  0
POINT
  5
36C
100
AcDbEntity
  8
DEFPOINTS
  6
BYBLOCK
 62
     0
100
AcDbPoint
 10
28.500015
 20
45.924999
 30
0.0
  0
ENDBLK
  5
36D
100
AcDbEntity
  8
0
100
AcDbBlockEnd
  0
BLOCK
  5
36E
100
AcDbEntity
  8
0
100
AcDbBlockBegin
  2
*D13
 70
     1
 10
0.0
 20
0.0
 30
0.0
  3
*D13
  1

  0
LINE
  5
36F
100
AcDbEntity
  8
0
  6
BYBLOCK
 62
     0
100
AcDbLine
 10
135.000015
 20
91.6875
 30
0.0
 11
135.000015
 21
62.795
 31
0.0
  0
LINE
  5
370
100
AcDbEntity
  8
0
  6
BYBLOCK
 62
     0
100
AcDbLine
 10
192.499954
 20
105.6875
 30
0.0
 11
192.499954
 21
62.795
 31
0.0
  0
LINE
  5
371
100
AcDbEntity
  8
0
  6
BYBLOCK
 62
     0
100
AcDbLine
 10
138.000015
 20
62.975
 30
0.0
 11
189.499954
 21
62.975
 31
0.0
  0
SOLID
  5
372
100
AcDbEntity
  8
0
  6
BYBLOCK
 62
     0
100
AcDbTrace
 10
138.000015
 20
63.475
 30
0.0
 11
138.000015
 21
62.475
 31
0.0
 12
135.000015
 22
62.975
 32
0.0
 13
135.000015
 23
62.975
 33
0.0
  0
SOLID
  5
373
100
AcDbEntity
  8
0
  6
BYBLOCK
 62
     0
100
AcDbTrace
 10
189.499954
 20
63.475
 30
0.0
 11
189.499954
 21
62.475
 31
0.0
 12
192.499954
 22
62.975
 32
0.0
 13
192.499954
 23
62.975
 33
0.0
  0
TEXT
  5
374
100
AcDbEntity
  8
0
  6
BYBLOCK
 62
     0
100
AcDbText
 10
159.583318
 20
64.225
 30
0.0
 40
2.5
  1
57.5
  7
ROMANS
 72
     1
 11
163.749985
 21
65.475
 31
0.0
100
AcDbText
 73
     2
  0
POINT
  5
375
100
AcDbEntity
  8
DEFPOINTS
  6
BYBLOCK
 62
     0
100
AcDbPoint
 10
135.000015
 20
91.75
 30
0.0
  0
POINT
  5
376
100
AcDbEntity
  8
DEFPOINTS
  6
BYBLOCK
 62
     0
100
AcDbPoint
 10
192.499954
 20
105.75
 30
0.0
  0
POINT
  5
377
100
AcDbEntity
  8
DEFPOINTS
  6
BYBLOCK
 62
     0
100
AcDbPoint
 10
192.499954
 20
62.975
 30
0.0
  0
ENDBLK
  5
378
100
AcDbEntity
  8
0
100
AcDbBlockEnd
  0
BLOCK
  5
379
100
AcDbEntity
  8
0
100
AcDbBlockBegin
  2
*D14
 70
     1
 10
0.0
 20
0.0
 30
0.0
  3
*D14
  1

  0
LINE
  5
37A
100
AcDbEntity
  8
0
  6
BYBLOCK
 62
     0
100
AcDbLine
 10
95.000015
 20
91.6875
 30
0.0
 11
95.000015
 21
62.795
 31
0.0
  0
LINE
  5
37B
100
AcDbEntity
  8
0
  6
BYBLOCK
 62
     0
100
AcDbLine
 10
135.000015
 20
91.6875
 30
0.0
 11
135.000015
 21
62.795
 31
0.0
  0
LINE
  5
37C
100
AcDbEntity
  8
0
  6
BYBLOCK
 62
     0
100
AcDbLine
 10
98.000015
 20
62.975
 30
0.0
 11
132.000015
 21
62.975
 31
0.0
  0
SOLID
  5
37D
100
AcDbEntity
  8
0
  6
BYBLOCK
 62
     0
100
AcDbTrace
 10
98.000015
 20
63.475
 30
0.0
 11
98.000015
 21
62.475
 31
0.0
 12
95.000015
 22
62.975
 32
0.0
 13
95.000015
 23
62.975
 33
0.0
  0
SOLID
  5
37E
100
AcDbEntity
  8
0
  6
BYBLOCK
 62
     0
100
AcDbTrace
 10
132.000015
 20
63.475
 30
0.0
 11
132.000015
 21
62.475
 31
0.0
 12
135.000015
 22
62.975
 32
0.0
 13
135.000015
 23
62.975
 33
0.0
  0
TEXT
  5
37F
100
AcDbEntity
  8
0
  6
BYBLOCK
 62
     0
100
AcDbText
 10
112.619063
 20
64.225
 30
0.0
 40
2.5
  1
40
  7
ROMANS
 72
     1
 11
115.000015
 21
65.475
 31
0.0
100
AcDbText
 73
     2
  0
POINT
  5
380
100
AcDbEntity
  8
DEFPOINTS
  6
BYBLOCK
 62
     0
100
AcDbPoint
 10
95.000015
 20
91.75
 30
0.0
  0
POINT
  5
381
100
AcDbEntity
  8
DEFPOINTS
  6
BYBLOCK
 62
     0
100
AcDbPoint
 10
135.000015
 20
91.75
 30
0.0
  0
POINT
  5
382
100
AcDbEntity
  8
DEFPOINTS
  6
BYBLOCK
 62
     0
100
AcDbPoint
 10
135.000015
 20
62.975
 30
0.0
  0
ENDBLK
  5
383
100
AcDbEntity
  8
0
100
AcDbBlockEnd
  0
BLOCK
  5
384
100
AcDbEntity
  8
0
100
AcDbBlockBegin
  2
*D15
 70
     1
 10
0.0
 20
0.0
 30
0.0
  3
*D15
  1

  0
LINE
  5
385
100
AcDbEntity
  8
0
  6
BYBLOCK
 62
     0
100
AcDbLine
 10
55.000076
 20
91.6875
 30
0.0
 11
55.000076
 21
62.795
 31
0.0
  0
LINE
  5
386
100
AcDbEntity
  8
0
  6
BYBLOCK
 62
     0
100
AcDbLine
 10
95.000015
 20
91.6875
 30
0.0
 11
95.000015
 21
62.795
 31
0.0
  0
LINE
  5
387
100
AcDbEntity
  8
0
  6
BYBLOCK
 62
     0
100
AcDbLine
 10
58.000076
 20
62.975
 30
0.0
 11
92.000015
 21
62.975
 31
0.0
  0
SOLID
  5
388
100
AcDbEntity
  8
0
  6
BYBLOCK
 62
     0
100
AcDbTrace
 10
58.000076
 20
63.475
 30
0.0
 11
58.000076
 21
62.475
 31
0.0
 12
55.000076
 22
62.975
 32
0.0
 13
55.000076
 23
62.975
 33
0.0
  0
SOLID
  5
389
100
AcDbEntity
  8
0
  6
BYBLOCK
 62
     0
100
AcDbTrace
 10
92.000015
 20
63.475
 30
0.0
 11
92.000015
 21
62.475
 31
0.0
 12
95.000015
 22
62.975
 32
0.0
 13
95.000015
 23
62.975
 33
0.0
  0
TEXT
  5
38A
100
AcDbEntity
  8
0
  6
BYBLOCK
 62
     0
100
AcDbText
 10
72.619093
 20
64.225
 30
0.0
 40
2.5
  1
40
  7
ROMANS
 72
     1
 11
75.000046
 21
65.475
 31
0.0
100
AcDbText
 73
     2
  0
POINT
  5
38B
100
AcDbEntity
  8
DEFPOINTS
  6
BYBLOCK
 62
     0
100
AcDbPoint
 10
55.000076
 20
91.75
 30
0.0
  0
POINT
  5
38C
100
AcDbEntity
  8
DEFPOINTS
  6
BYBLOCK
 62
     0
100
AcDbPoint
 10
95.000015
 20
91.75
 30
0.0
  0
POINT
  5
38D
100
AcDbEntity
  8
DEFPOINTS
  6
BYBLOCK
 62
     0
100
AcDbPoint
 10
95.000015
 20
62.975
 30
0.0
  0
ENDBLK
  5
38E
100
AcDbEntity
  8
0
100
AcDbBlockEnd
  0
BLOCK
  5
38F
100
AcDbEntity
  8
0
100
AcDbBlockBegin
  2
*D16
 70
     1
 10
0.0
 20
0.0
 30
0.0
  3
*D16
  1

  0
LINE
  5
390
100
AcDbEntity
  8
0
  6
BYBLOCK
 62
     0
100
AcDbLine
 10
28.500015
 20
112.687501
 30
0.0
 11
28.500015
 21
62.795
 31
0.0
  0
LINE
  5
391
100
AcDbEntity
  8
0
  6
BYBLOCK
 62
     0
100
AcDbLine
 10
55.000076
 20
91.6875
 30
0.0
 11
55.000076
 21
62.795
 31
0.0
  0
LINE
  5
392
100
AcDbEntity
  8
0
  6
BYBLOCK
 62
     0
100
AcDbLine
 10
31.500015
 20
62.975
 30
0.0
 11
52.000076
 21
62.975
 31
0.0
  0
SOLID
  5
393
100
AcDbEntity
  8
0
  6
BYBLOCK
 62
     0
100
AcDbTrace
 10
31.500015
 20
63.475
 30
0.0
 11
31.500015
 21
62.475
 31
0.0
 12
28.500015
 22
62.975
 32
0.0
 13
28.500015
 23
62.975
 33
0.0
  0
SOLID
  5
394
100
AcDbEntity
  8
0
  6
BYBLOCK
 62
     0
100
AcDbTrace
 10
52.000076
 20
63.475
 30
0.0
 11
52.000076
 21
62.475
 31
0.0
 12
55.000076
 22
62.975
 32
0.0
 13
55.000076
 23
62.975
 33
0.0
  0
TEXT
  5
395
100
AcDbEntity
  8
0
  6
BYBLOCK
 62
     0
100
AcDbText
 10
37.583379
 20
64.225
 30
0.0
 40
2.5
  1
26.5
  7
ROMANS
 72
     1
 11
41.750046
 21
65.475
 31
0.0
100
AcDbText
 73
     2
  0
POINT
  5
396
100
AcDbEntity
  8
DEFPOINTS
  6
BYBLOCK
 62
     0
100
AcDbPoint
 10
28.500015
 20
112.750001
 30
0.0
  0
POINT
  5
397
100
AcDbEntity
  8
DEFPOINTS
  6
BYBLOCK
 62
     0
100
AcDbPoint
 10
55.000076
 20
91.75
 30
0.0
  0
POINT
  5
398
100
AcDbEntity
  8
DEFPOINTS
  6
BYBLOCK
 62
     0
100
AcDbPoint
 10
55.000076
 20
62.975
 30
0.0
  0
ENDBLK
  5
399
100
AcDbEntity
  8
0
100
AcDbBlockEnd
  0
ENDSEC
  0
SECTION
  2
ENTITIES
  0
CIRCLE
  5
1E
100
AcDbEntity
  8
ALPHA
100
AcDbCircle
 10
111.250015
 20
116.75
 30
0.0
 40
4.25
  0
LINE
  5
20
100
AcDbEntity
  8
ALPHA
100
AcDbLine
 10
110.650009
 20
112.542572
 30
0.0
 11
110.650009
 21
120.957428
 31
0.0
  0
LINE
  5
21
100
AcDbEntity
  8
ALPHA
100
AcDbLine
 10
111.850021
 20
112.542572
 30
0.0
 11
111.850021
 21
120.957428
 31
0.0
  0
CIRCLE
  5
22
100
AcDbEntity
  8
ALPHA
100
AcDbCircle
 10
78.750015
 20
216.75
 30
0.0
 40
4.25
  0
LINE
  5
23
100
AcDbEntity
  8
ALPHA
100
AcDbLine
 10
78.150009
 20
212.542572
 30
0.0
 11
78.150009
 21
220.957428
 31
0.0
  0
LINE
  5
24
100
AcDbEntity
  8
ALPHA
100
AcDbLine
 10
79.350021
 20
212.542572
 30
0.0
 11
79.350021
 21
220.957428
 31
0.0
  0
LINE
  5
25
100
AcDbEntity
  8
ALPHA
100
AcDbLine
 10
146.499954
 20
105.75
 30
0.0
 11
192.499954
 21
105.75
 31
0.0
  0
LINE
  5
26
100
AcDbEntity
  8
ALPHA
100
AcDbLine
 10
146.499954
 20
227.75
 30
0.0
 11
192.499954
 21
227.75
 31
0.0
  0
LINE
  5
27
100
AcDbEntity
  8
ALPHA
100
AcDbLine
 10
147.999954
 20
163.75
 30
0.0
 11
151.999954
 21
163.75
 31
0.0
  0
LINE
  5
28
100
AcDbEntity
  8
ALPHA
100
AcDbLine
 10
147.999954
 20
169.75
 30
0.0
 11
151.999954
 21
169.75
 31
0.0
  0
ARC
  5
29
100
AcDbEntity
  8
ALPHA
100
AcDbCircle
 10
151.999954
 20
166.75
 30
0.0
 40
3.0
100
AcDbArc
 50
269.999973
 51
90.000047
  0
LINE
  5
2A
100
AcDbEntity
  8
ALPHA
100
AcDbLine
 10
147.999954
 20
169.75
 30
0.0
 11
147.999954
 21
225.25
 31
0.0
  0
LINE
  5
2B
100
AcDbEntity
  8
ALPHA
100
AcDbLine
 10
146.499954
 20
108.25
 30
0.0
 11
147.999954
 21
108.25
 31
0.0
  0
LINE
  5
2C
100
AcDbEntity
  8
ALPHA
100
AcDbLine
 10
146.499954
 20
225.25
 30
0.0
 11
147.999954
 21
225.25
 31
0.0
  0
LINE
  5
2D
100
AcDbEntity
  8
ALPHA
100
AcDbLine
 10
147.999954
 20
158.899994
 30
0.0
 11
179.999954
 21
158.899994
 31
0.0
  0
LINE
  5
2E
100
AcDbEntity
  8
ALPHA
100
AcDbLine
 10
147.999954
 20
174.600006
 30
0.0
 11
179.999954
 21
174.600006
 31
0.0
  0
LINE
  5
2F
100
AcDbEntity
  8
ALPHA
100
AcDbLine
 10
179.999954
 20
158.899994
 30
0.0
 11
179.999954
 21
174.600006
 31
0.0
  0
ARC
  5
30
100
AcDbEntity
  8
ALPHA
100
AcDbCircle
 10
194.405716
 20
166.75
 30
0.0
 40
16.405624
100
AcDbArc
 50
151.41289
 51
208.587092
  0
LINE
  5
31
100
AcDbEntity
  8
ALPHA
100
AcDbLine
 10
183.999954
 20
198.98204
 30
0.0
 11
183.999954
 21
204.51796
 31
0.0
  0
LINE
  5
32
100
AcDbEntity
  8
ALPHA
100
AcDbLine
 10
187.999954
 20
198.98204
 30
0.0
 11
187.999954
 21
204.51796
 31
0.0
  0
LINE
  5
33
100
AcDbEntity
  8
ALPHA
100
AcDbLine
 10
147.999954
 20
197.25
 30
0.0
 11
192.499954
 21
197.25
 31
0.0
  0
LINE
  5
34
100
AcDbEntity
  8
ALPHA
100
AcDbLine
 10
147.999954
 20
206.25
 30
0.0
 11
192.499954
 21
206.25
 31
0.0
  0
LINE
  5
35
100
AcDbEntity
  8
ALPHA
100
AcDbLine
 10
147.999954
 20
185.75
 30
0.0
 11
192.499954
 21
185.75
 31
0.0
  0
LINE
  5
36
100
AcDbEntity
  8
ALPHA
100
AcDbLine
 10
147.999954
 20
217.75
 30
0.0
 11
192.499954
 21
217.75
 31
0.0
  0
LINE
  5
37
100
AcDbEntity
  8
ALPHA
100
AcDbLine
 10
162.499954
 20
197.25
 30
0.0
 11
162.499954
 21
206.25
 31
0.0
  0
LINE
  5
38
100
AcDbEntity
  8
ALPHA
100
AcDbLine
 10
177.499954
 20
197.25
 30
0.0
 11
177.499954
 21
206.25
 31
0.0
  0
LINE
  5
39
100
AcDbEntity
  8
ALPHA
100
AcDbLine
 10
160.899857
 20
196.75
 30
0.0
 11
179.100052
 21
196.75
 31
0.0
  0
LINE
  5
3A
100
AcDbEntity
  8
ALPHA
100
AcDbLine
 10
160.999954
 20
206.75
 30
0.0
 11
178.999954
 21
206.75
 31
0.0
  0
LINE
  5
3B
100
AcDbEntity
  8
ALPHA
100
AcDbLine
 10
160.999954
 20
206.75
 30
0.0
 11
160.999954
 21
217.75
 31
0.0
  0
LINE
  5
3C
100
AcDbEntity
  8
ALPHA
100
AcDbLine
 10
178.999954
 20
206.75
 30
0.0
 11
178.999954
 21
217.75
 31
0.0
  0
LINE
  5
3D
100
AcDbEntity
  8
ALPHA
100
AcDbLine
 10
165.300003
 20
206.75
 30
0.0
 11
165.300003
 21
217.75
 31
0.0
  0
LINE
  5
3E
100
AcDbEntity
  8
ALPHA
100
AcDbLine
 10
174.699905
 20
206.75
 30
0.0
 11
174.699905
 21
217.75
 31
0.0
  0
LINE
  5
3F
100
AcDbEntity
  8
ALPHA
100
AcDbLine
 10
166.999954
 20
215.149994
 30
0.0
 11
172.999954
 21
215.149994
 31
0.0
  0
LINE
  5
40
100
AcDbEntity
  8
ALPHA
100
AcDbLine
 10
166.999954
 20
208.189423
 30
0.0
 11
166.999954
 21
215.149994
 31
0.0
  0
LINE
  5
41
100
AcDbEntity
  8
ALPHA
100
AcDbLine
 10
172.999954
 20
208.189423
 30
0.0
 11
172.999954
 21
215.149994
 31
0.0
  0
LINE
  5
42
100
AcDbEntity
  8
ALPHA
100
AcDbLine
 10
166.999954
 20
214.169708
 30
0.0
 11
172.999954
 21
214.169708
 31
0.0
  0
LINE
  5
43
100
AcDbEntity
  8
ALPHA
100
AcDbLine
 10
166.999954
 20
209.169708
 30
0.0
 11
172.999954
 21
209.169708
 31
0.0
  0
LINE
  5
44
100
AcDbEntity
  8
ALPHA
100
AcDbLine
 10
166.999954
 20
208.189423
 30
0.0
 11
172.999954
 21
208.189423
 31
0.0
  0
LINE
  5
45
100
AcDbEntity
  8
ALPHA
100
AcDbLine
 10
147.999954
 20
198.98204
 30
0.0
 11
162.499954
 21
198.98204
 31
0.0
  0
LINE
  5
46
100
AcDbEntity
  8
ALPHA
100
AcDbLine
 10
147.999954
 20
204.51796
 30
0.0
 11
162.499954
 21
204.51796
 31
0.0
  0
LINE
  5
47
100
AcDbEntity
  8
ALPHA
100
AcDbLine
 10
177.499954
 20
198.98204
 30
0.0
 11
192.499954
 21
198.98204
 31
0.0
  0
LINE
  5
48
100
AcDbEntity
  8
ALPHA
100
AcDbLine
 10
177.499954
 20
204.51796
 30
0.0
 11
192.499954
 21
204.51796
 31
0.0
  0
LINE
  5
49
100
AcDbEntity
  8
ALPHA
100
AcDbLine
 10
160.899857
 20
195.25
 30
0.0
 11
160.899857
 21
196.75
 31
0.0
  0
LINE
  5
4A
100
AcDbEntity
  8
ALPHA
100
AcDbLine
 10
179.100052
 20
195.25
 30
0.0
 11
179.100052
 21
196.75
 31
0.0
  0
LINE
  5
4B
100
AcDbEntity
  8
ALPHA
100
AcDbLine
 10
158.999954
 20
195.25
 30
0.0
 11
160.899857
 21
195.25
 31
0.0
  0
LINE
  5
4C
100
AcDbEntity
  8
ALPHA
100
AcDbLine
 10
158.999954
 20
185.75
 30
0.0
 11
158.999954
 21
195.25
 31
0.0
  0
LINE
  5
4D
100
AcDbEntity
  8
ALPHA
100
AcDbLine
 10
180.999954
 20
185.75
 30
0.0
 11
180.999954
 21
195.25
 31
0.0
  0
LINE
  5
4E
100
AcDbEntity
  8
ALPHA
100
AcDbLine
 10
162.999954
 20
194.75
 30
0.0
 11
176.999954
 21
194.75
 31
0.0
  0
LINE
  5
4F
100
AcDbEntity
  8
ALPHA
100
AcDbLine
 10
162.999954
 20
185.75
 30
0.0
 11
162.999954
 21
194.75
 31
0.0
  0
LINE
  5
50
100
AcDbEntity
  8
ALPHA
100
AcDbLine
 10
176.999954
 20
185.75
 30
0.0
 11
176.999954
 21
194.75
 31
0.0
  0
LINE
  5
51
100
AcDbEntity
  8
ALPHA
100
AcDbLine
 10
147.999954
 20
218.25
 30
0.0
 11
192.499954
 21
218.25
 31
0.0
  0
LINE
  5
52
100
AcDbEntity
  8
ALPHA
100
AcDbLine
 10
147.999954
 20
185.25
 30
0.0
 11
192.499954
 21
185.25
 31
0.0
  0
LINE
  5
53
100
AcDbEntity
  8
ALPHA
100
AcDbLine
 10
183.999954
 20
128.98204
 30
0.0
 11
183.999954
 21
134.51796
 31
0.0
  0
LINE
  5
54
100
AcDbEntity
  8
ALPHA
100
AcDbLine
 10
187.999954
 20
128.98204
 30
0.0
 11
187.999954
 21
134.51796
 31
0.0
  0
LINE
  5
55
100
AcDbEntity
  8
ALPHA
100
AcDbLine
 10
147.999954
 20
127.25
 30
0.0
 11
192.499954
 21
127.25
 31
0.0
  0
LINE
  5
56
100
AcDbEntity
  8
ALPHA
100
AcDbLine
 10
147.999954
 20
136.25
 30
0.0
 11
192.499954
 21
136.25
 31
0.0
  0
LINE
  5
57
100
AcDbEntity
  8
ALPHA
100
AcDbLine
 10
147.999954
 20
115.75
 30
0.0
 11
192.499954
 21
115.75
 31
0.0
  0
LINE
  5
58
100
AcDbEntity
  8
ALPHA
100
AcDbLine
 10
147.999954
 20
147.75
 30
0.0
 11
191.999954
 21
147.75
 31
0.0
  0
LINE
  5
59
100
AcDbEntity
  8
ALPHA
100
AcDbLine
 10
162.499954
 20
127.25
 30
0.0
 11
162.499954
 21
136.25
 31
0.0
  0
LINE
  5
5A
100
AcDbEntity
  8
ALPHA
100
AcDbLine
 10
177.499954
 20
127.25
 30
0.0
 11
177.499954
 21
136.25
 31
0.0
  0
LINE
  5
5B
100
AcDbEntity
  8
ALPHA
100
AcDbLine
 10
160.899857
 20
126.75
 30
0.0
 11
179.100052
 21
126.75
 31
0.0
  0
LINE
  5
5C
100
AcDbEntity
  8
ALPHA
100
AcDbLine
 10
160.999954
 20
136.75
 30
0.0
 11
178.999954
 21
136.75
 31
0.0
  0
LINE
  5
5D
100
AcDbEntity
  8
ALPHA
100
AcDbLine
 10
160.999954
 20
136.75
 30
0.0
 11
160.999954
 21
147.75
 31
0.0
  0
LINE
  5
5E
100
AcDbEntity
  8
ALPHA
100
AcDbLine
 10
178.999954
 20
136.75
 30
0.0
 11
178.999954
 21
147.75
 31
0.0
  0
LINE
  5
5F
100
AcDbEntity
  8
ALPHA
100
AcDbLine
 10
165.300003
 20
136.75
 30
0.0
 11
165.300003
 21
147.75
 31
0.0
  0
LINE
  5
60
100
AcDbEntity
  8
ALPHA
100
AcDbLine
 10
174.699905
 20
136.75
 30
0.0
 11
174.699905
 21
147.75
 31
0.0
  0
LINE
  5
61
100
AcDbEntity
  8
ALPHA
100
AcDbLine
 10
166.999954
 20
145.149994
 30
0.0
 11
172.999954
 21
145.149994
 31
0.0
  0
LINE
  5
62
100
AcDbEntity
  8
ALPHA
100
AcDbLine
 10
166.999954
 20
138.189423
 30
0.0
 11
166.999954
 21
145.149994
 31
0.0
  0
LINE
  5
63
100
AcDbEntity
  8
ALPHA
100
AcDbLine
 10
172.999954
 20
138.189423
 30
0.0
 11
172.999954
 21
145.149994
 31
0.0
  0
LINE
  5
64
100
AcDbEntity
  8
ALPHA
100
AcDbLine
 10
166.999954
 20
144.169708
 30
0.0
 11
172.999954
 21
144.169708
 31
0.0
  0
LINE
  5
65
100
AcDbEntity
  8
ALPHA
100
AcDbLine
 10
166.999954
 20
139.169708
 30
0.0
 11
172.999954
 21
139.169708
 31
0.0
  0
LINE
  5
66
100
AcDbEntity
  8
ALPHA
100
AcDbLine
 10
166.999954
 20
138.189423
 30
0.0
 11
172.999954
 21
138.189423
 31
0.0
  0
LINE
  5
67
100
AcDbEntity
  8
ALPHA
100
AcDbLine
 10
147.999954
 20
128.98204
 30
0.0
 11
162.499954
 21
128.98204
 31
0.0
  0
LINE
  5
68
100
AcDbEntity
  8
ALPHA
100
AcDbLine
 10
147.999954
 20
134.51796
 30
0.0
 11
162.499954
 21
134.51796
 31
0.0
  0
LINE
  5
69
100
AcDbEntity
  8
ALPHA
100
AcDbLine
 10
177.499954
 20
128.98204
 30
0.0
 11
192.499954
 21
128.98204
 31
0.0
  0
LINE
  5
6A
100
AcDbEntity
  8
ALPHA
100
AcDbLine
 10
177.499954
 20
134.51796
 30
0.0
 11
192.499954
 21
134.51796
 31
0.0
  0
LINE
  5
6B
100
AcDbEntity
  8
ALPHA
100
AcDbLine
 10
160.899857
 20
125.25
 30
0.0
 11
160.899857
 21
126.75
 31
0.0
  0
LINE
  5
6C
100
AcDbEntity
  8
ALPHA
100
AcDbLine
 10
179.100052
 20
125.25
 30
0.0
 11
179.100052
 21
126.75
 31
0.0
  0
LINE
  5
6D
100
AcDbEntity
  8
ALPHA
100
AcDbLine
 10
158.999954
 20
125.25
 30
0.0
 11
160.899857
 21
125.25
 31
0.0
  0
LINE
  5
6E
100
AcDbEntity
  8
ALPHA
100
AcDbLine
 10
158.999954
 20
115.75
 30
0.0
 11
158.999954
 21
125.25
 31
0.0
  0
LINE
  5
6F
100
AcDbEntity
  8
ALPHA
100
AcDbLine
 10
180.999954
 20
115.75
 30
0.0
 11
180.999954
 21
125.25
 31
0.0
  0
LINE
  5
70
100
AcDbEntity
  8
ALPHA
100
AcDbLine
 10
162.999954
 20
124.75
 30
0.0
 11
176.999954
 21
124.75
 31
0.0
  0
LINE
  5
71
100
AcDbEntity
  8
ALPHA
100
AcDbLine
 10
162.999954
 20
115.75
 30
0.0
 11
162.999954
 21
124.75
 31
0.0
  0
LINE
  5
72
100
AcDbEntity
  8
ALPHA
100
AcDbLine
 10
176.999954
 20
115.75
 30
0.0
 11
176.999954
 21
124.75
 31
0.0
  0
LINE
  5
73
100
AcDbEntity
  8
ALPHA
100
AcDbLine
 10
147.999954
 20
148.25
 30
0.0
 11
191.999954
 21
148.25
 31
0.0
  0
LINE
  5
74
100
AcDbEntity
  8
ALPHA
100
AcDbLine
 10
147.999954
 20
115.25
 30
0.0
 11
192.499954
 21
115.25
 31
0.0
  0
LINE
  5
75
100
AcDbEntity
  8
ALPHA
100
AcDbLine
 10
179.100052
 20
125.25
 30
0.0
 11
180.999954
 21
125.25
 31
0.0
  0
LINE
  5
76
100
AcDbEntity
  8
ALPHA
100
AcDbLine
 10
164.999954
 20
124.75
 30
0.0
 11
164.999954
 21
126.75
 31
0.0
  0
LINE
  5
77
100
AcDbEntity
  8
ALPHA
100
AcDbLine
 10
174.999954
 20
124.75
 30
0.0
 11
174.999954
 21
126.75
 31
0.0
  0
LINE
  5
78
100
AcDbEntity
  8
ALPHA
100
AcDbLine
 10
179.100052
 20
195.25
 30
0.0
 11
180.999954
 21
195.25
 31
0.0
  0
LINE
  5
79
100
AcDbEntity
  8
ALPHA
100
AcDbLine
 10
164.999954
 20
194.75
 30
0.0
 11
164.999954
 21
196.75
 31
0.0
  0
LINE
  5
7A
100
AcDbEntity
  8
ALPHA
100
AcDbLine
 10
174.999954
 20
194.75
 30
0.0
 11
174.999954
 21
196.75
 31
0.0
  0
LINE
  5
7B
100
AcDbEntity
  8
ALPHA
100
AcDbLine
 10
28.500015
 20
220.75
 30
0.0
 11
28.500015
 21
112.75
 31
0.0
  0
LINE
  5
7C
100
AcDbEntity
  8
ALPHA
100
AcDbLine
 10
42.000015
 20
235.25
 30
0.0
 11
42.000015
 21
98.25
 31
0.0
  0
LINE
  5
7D
100
AcDbEntity
  8
ALPHA
100
AcDbLine
 10
30.500015
 20
222.75
 30
0.0
 11
42.000015
 21
222.75
 31
0.0
  0
LINE
  5
7E
100
AcDbEntity
  8
ALPHA
100
AcDbLine
 10
30.500015
 20
110.75
 30
0.0
 11
42.000015
 21
110.75
 31
0.0
  0
ARC
  5
7F
100
AcDbEntity
  8
ALPHA
100
AcDbCircle
 10
30.500015
 20
220.75
 30
0.0
 40
2.0
100
AcDbArc
 50
89.999982
 51
179.999909
  0
ARC
  5
80
100
AcDbEntity
  8
ALPHA
100
AcDbCircle
 10
30.500015
 20
112.75
 30
0.0
 40
2.0
100
AcDbArc
 50
179.999964
 51
270.000001
  0
LINE
  5
81
100
AcDbEntity
  8
ALPHA
100
AcDbLine
 10
28.500015
 20
198.25
 30
0.0
 11
37.500015
 21
198.25
 31
0.0
  0
LINE
  5
82
100
AcDbEntity
  8
ALPHA
100
AcDbLine
 10
28.500015
 20
202.25
 30
0.0
 11
37.500015
 21
202.25
 31
0.0
  0
ARC
  5
83
100
AcDbEntity
  8
ALPHA
100
AcDbCircle
 10
37.500015
 20
200.25
 30
0.0
 40
2.0
100
AcDbArc
 50
270.000028
 51
90.000047
  0
LINE
  5
84
100
AcDbEntity
  8
ALPHA
100
AcDbLine
 10
30.000015
 20
202.25
 30
0.0
 11
30.000015
 21
198.25
 31
0.0
  0
LINE
  5
85
100
AcDbEntity
  8
ALPHA
100
AcDbLine
 10
28.500015
 20
191.75
 30
0.0
 11
39.500015
 21
191.75
 31
0.0
  0
LINE
  5
86
100
AcDbEntity
  8
ALPHA
100
AcDbLine
 10
39.500015
 20
200.25
 30
0.0
 11
39.500015
 21
191.75
 31
0.0
  0
LINE
  5
87
100
AcDbEntity
  8
ALPHA
100
AcDbLine
 10
29.500015
 20
180.050003
 30
0.0
 11
42.000015
 21
180.050003
 31
0.0
  0
LINE
  5
88
100
AcDbEntity
  8
ALPHA
100
AcDbLine
 10
29.500015
 20
153.449997
 30
0.0
 11
42.000015
 21
153.449997
 31
0.0
  0
ARC
  5
89
100
AcDbEntity
  8
ALPHA
100
AcDbCircle
 10
29.500015
 20
179.050003
 30
0.0
 40
1.0
100
AcDbArc
 50
89.999982
 51
179.999909
  0
ARC
  5
8A
100
AcDbEntity
  8
ALPHA
100
AcDbCircle
 10
29.500015
 20
154.449997
 30
0.0
 40
1.0
100
AcDbArc
 50
179.999964
 51
270.000001
  0
LINE
  5
8B
100
AcDbEntity
  8
ALPHA
100
AcDbLine
 10
29.750015
 20
170.0
 30
0.0
 11
38.750015
 21
170.0
 31
0.0
  0
LINE
  5
8C
100
AcDbEntity
  8
ALPHA
100
AcDbLine
 10
29.750015
 20
163.5
 30
0.0
 11
38.750015
 21
163.5
 31
0.0
  0
LINE
  5
8D
100
AcDbEntity
  8
ALPHA
100
AcDbLine
 10
32.200012
 20
173.25
 30
0.0
 11
36.200012
 21
173.25
 31
0.0
  0
LINE
  5
8E
100
AcDbEntity
  8
ALPHA
100
AcDbLine
 10
32.200012
 20
177.25
 30
0.0
 11
36.200012
 21
177.25
 31
0.0
  0
LINE
  5
8F
100
AcDbEntity
  8
ALPHA
100
AcDbLine
 10
32.200012
 20
177.25
 30
0.0
 11
32.200012
 21
173.25
 31
0.0
  0
LINE
  5
90
100
AcDbEntity
  8
ALPHA
100
AcDbLine
 10
36.200012
 20
177.25
 30
0.0
 11
36.200012
 21
173.25
 31
0.0
  0
LINE
  5
91
100
AcDbEntity
  8
ALPHA
100
AcDbLine
 10
30.750015
 20
170.0
 30
0.0
 11
30.750015
 21
163.5
 31
0.0
  0
LINE
  5
92
100
AcDbEntity
  8
ALPHA
100
AcDbLine
 10
38.750015
 20
170.0
 30
0.0
 11
38.750015
 21
163.5
 31
0.0
  0
LINE
  5
93
100
AcDbEntity
  8
ALPHA
100
AcDbLine
 10
29.750015
 20
170.0
 30
0.0
 11
29.750015
 21
163.5
 31
0.0
  0
LINE
  5
94
100
AcDbEntity
  8
ALPHA
100
AcDbLine
 10
30.950012
 20
169.899994
 30
0.0
 11
38.550018
 21
169.899994
 31
0.0
  0
LINE
  5
95
100
AcDbEntity
  8
ALPHA
100
AcDbLine
 10
30.950012
 20
163.600006
 30
0.0
 11
38.550018
 21
163.600006
 31
0.0
  0
LINE
  5
96
100
AcDbEntity
  8
ALPHA
100
AcDbLine
 10
38.550018
 20
163.600006
 30
0.0
 11
38.550018
 21
169.899994
 31
0.0
  0
LINE
  5
97
100
AcDbEntity
  8
ALPHA
100
AcDbLine
 10
30.950012
 20
163.600006
 30
0.0
 11
30.950012
 21
169.899994
 31
0.0
  0
LINE
  5
98
100
AcDbEntity
  8
ALPHA
100
AcDbLine
 10
34.050018
 20
163.600006
 30
0.0
 11
34.050018
 21
169.899994
 31
0.0
  0
LINE
  5
99
100
AcDbEntity
  8
ALPHA
100
AcDbLine
 10
162.999954
 20
198.747864
 30
0.0
 11
162.999954
 21
204.747925
 31
0.0
  0
LINE
  5
9A
100
AcDbEntity
  8
ALPHA
100
AcDbLine
 10
176.999954
 20
198.747864
 30
0.0
 11
176.999954
 21
204.747925
 31
0.0
  0
LINE
  5
9B
100
AcDbEntity
  8
ALPHA
100
AcDbLine
 10
162.999954
 20
204.747925
 30
0.0
 11
176.999954
 21
204.747925
 31
0.0
  0
LINE
  5
9C
100
AcDbEntity
  8
ALPHA
100
AcDbLine
 10
172.249954
 20
199.249969
 30
0.0
 11
172.249954
 21
204.250015
 31
0.0
  0
LINE
  5
9D
100
AcDbEntity
  8
ALPHA
100
AcDbLine
 10
167.749954
 20
199.249985
 30
0.0
 11
167.749954
 21
204.250015
 31
0.0
  0
LINE
  5
9E
100
AcDbEntity
  8
ALPHA
100
AcDbLine
 10
162.999954
 20
198.747864
 30
0.0
 11
176.999954
 21
198.747864
 31
0.0
  0
LINE
  5
9F
100
AcDbEntity
  8
ALPHA
100
AcDbLine
 10
172.25
 20
204.250015
 30
0.0
 11
172.75
 21
204.747932
 31
0.0
  0
LINE
  5
A0
100
AcDbEntity
  8
ALPHA
100
AcDbLine
 10
167.750023
 20
204.25
 30
0.0
 11
167.250015
 21
204.747917
 31
0.0
  0
LINE
  5
A1
100
AcDbEntity
  8
ALPHA
100
AcDbLine
 10
172.750015
 20
198.747871
 30
0.0
 11
172.250015
 21
199.249985
 31
0.0
  0
LINE
  5
A2
100
AcDbEntity
  8
ALPHA
100
AcDbLine
 10
167.247887
 20
198.747856
 30
0.0
 11
167.750008
 21
199.249985
 31
0.0
  0
LINE
  5
A3
100
AcDbEntity
  8
ALPHA
100
AcDbLine
 10
162.999954
 20
128.747864
 30
0.0
 11
162.999954
 21
134.747925
 31
0.0
  0
LINE
  5
A4
100
AcDbEntity
  8
ALPHA
100
AcDbLine
 10
176.999954
 20
128.747864
 30
0.0
 11
176.999954
 21
134.747925
 31
0.0
  0
LINE
  5
A5
100
AcDbEntity
  8
ALPHA
100
AcDbLine
 10
162.999954
 20
134.747925
 30
0.0
 11
176.999954
 21
134.747925
 31
0.0
  0
LINE
  5
A6
100
AcDbEntity
  8
ALPHA
100
AcDbLine
 10
172.249954
 20
129.249969
 30
0.0
 11
172.249954
 21
134.250015
 31
0.0
  0
LINE
  5
A7
100
AcDbEntity
  8
ALPHA
100
AcDbLine
 10
167.749954
 20
129.249985
 30
0.0
 11
167.749954
 21
134.250015
 31
0.0
  0
LINE
  5
A8
100
AcDbEntity
  8
ALPHA
100
AcDbLine
 10
162.999954
 20
128.747864
 30
0.0
 11
176.999954
 21
128.747864
 31
0.0
  0
LINE
  5
A9
100
AcDbEntity
  8
ALPHA
100
AcDbLine
 10
172.25
 20
134.25001
 30
0.0
 11
172.75
 21
134.747933
 31
0.0
  0
LINE
  5
AA
100
AcDbEntity
  8
ALPHA
100
AcDbLine
 10
167.750038
 20
134.250002
 30
0.0
 11
167.250031
 21
134.747924
 31
0.0
  0
LINE
  5
AB
100
AcDbEntity
  8
ALPHA
100
AcDbLine
 10
172.75
 20
128.747872
 30
0.0
 11
172.249992
 21
129.249982
 31
0.0
  0
LINE
  5
AC
100
AcDbEntity
  8
ALPHA
100
AcDbLine
 10
167.247887
 20
128.747869
 30
0.0
 11
167.75
 21
129.249985
 31
0.0
  0
LINE
  5
AD
100
AcDbEntity
  8
ALPHA
100
AcDbLine
 10
42.000015
 20
218.970276
 30
0.0
 11
44.742279
 21
218.970276
 31
0.0
  0
LINE
  5
AE
100
AcDbEntity
  8
ALPHA
100
AcDbLine
 10
42.000015
 20
187.25
 30
0.0
 11
44.742279
 21
187.25
 31
0.0
  0
LINE
  5
AF
100
AcDbEntity
  8
ALPHA
100
AcDbLine
 10
42.000015
 20
195.492401
 30
0.0
 11
44.742279
 21
195.492401
 31
0.0
  0
LINE
  5
B0
100
AcDbEntity
  8
ALPHA
100
AcDbLine
 10
42.000015
 20
201.625
 30
0.0
 11
44.742279
 21
201.625
 31
0.0
  0
LINE
  5
B1
100
AcDbEntity
  8
ALPHA
100
AcDbLine
 10
42.000015
 20
206.875015
 30
0.0
 11
44.742279
 21
206.875015
 31
0.0
  0
LINE
  5
B2
100
AcDbEntity
  8
ALPHA
100
AcDbLine
 10
42.000015
 20
213.0
 30
0.0
 11
44.742279
 21
213.0
 31
0.0
  0
LINE
  5
B3
100
AcDbEntity
  8
ALPHA
100
AcDbLine
 10
42.000015
 20
217.113968
 30
0.0
 11
44.742279
 21
217.113968
 31
0.0
  0
LINE
  5
B4
100
AcDbEntity
  8
ALPHA
100
AcDbLine
 10
145.542267
 20
218.970276
 30
0.0
 11
147.999954
 21
218.970276
 31
0.0
  0
LINE
  5
B5
100
AcDbEntity
  8
ALPHA
100
AcDbLine
 10
145.542267
 20
217.113968
 30
0.0
 11
147.999954
 21
217.113968
 31
0.0
  0
LINE
  5
B6
100
AcDbEntity
  8
ALPHA
100
AcDbLine
 10
145.542267
 20
213.0
 30
0.0
 11
147.999954
 21
213.0
 31
0.0
  0
LINE
  5
B7
100
AcDbEntity
  8
ALPHA
100
AcDbLine
 10
145.542267
 20
206.875015
 30
0.0
 11
147.999954
 21
206.875015
 31
0.0
  0
LINE
  5
B8
100
AcDbEntity
  8
ALPHA
100
AcDbLine
 10
145.542267
 20
201.625
 30
0.0
 11
147.999954
 21
201.625
 31
0.0
  0
LINE
  5
B9
100
AcDbEntity
  8
ALPHA
100
AcDbLine
 10
147.999954
 20
195.492401
 30
0.0
 11
145.542267
 21
195.492401
 31
0.0
  0
LINE
  5
BA
100
AcDbEntity
  8
ALPHA
100
AcDbLine
 10
145.542267
 20
187.25
 30
0.0
 11
147.999954
 21
187.25
 31
0.0
  0
LINE
  5
BB
100
AcDbEntity
  8
ALPHA
100
AcDbLine
 10
42.000015
 20
146.25
 30
0.0
 11
44.742279
 21
146.25
 31
0.0
  0
LINE
  5
BC
100
AcDbEntity
  8
ALPHA
100
AcDbLine
 10
42.000015
 20
138.007568
 30
0.0
 11
44.742279
 21
138.007568
 31
0.0
  0
LINE
  5
BD
100
AcDbEntity
  8
ALPHA
100
AcDbLine
 10
42.000015
 20
131.875
 30
0.0
 11
44.742279
 21
131.875
 31
0.0
  0
LINE
  5
BE
100
AcDbEntity
  8
ALPHA
100
AcDbLine
 10
42.000015
 20
126.624985
 30
0.0
 11
44.742279
 21
126.624985
 31
0.0
  0
LINE
  5
BF
100
AcDbEntity
  8
ALPHA
100
AcDbLine
 10
42.000015
 20
120.5
 30
0.0
 11
44.742279
 21
120.5
 31
0.0
  0
LINE
  5
C0
100
AcDbEntity
  8
ALPHA
100
AcDbLine
 10
42.000015
 20
116.386032
 30
0.0
 11
44.742279
 21
116.386032
 31
0.0
  0
LINE
  5
C1
100
AcDbEntity
  8
ALPHA
100
AcDbLine
 10
42.000015
 20
114.529724
 30
0.0
 11
44.742279
 21
114.529724
 31
0.0
  0
LINE
  5
C2
100
AcDbEntity
  8
ALPHA
100
AcDbLine
 10
145.542267
 20
146.25
 30
0.0
 11
147.999954
 21
146.25
 31
0.0
  0
LINE
  5
C3
100
AcDbEntity
  8
ALPHA
100
AcDbLine
 10
145.542267
 20
138.007568
 30
0.0
 11
147.999954
 21
138.007568
 31
0.0
  0
LINE
  5
C4
100
AcDbEntity
  8
ALPHA
100
AcDbLine
 10
145.542267
 20
131.875
 30
0.0
 11
147.999954
 21
131.875
 31
0.0
  0
LINE
  5
C5
100
AcDbEntity
  8
ALPHA
100
AcDbLine
 10
145.542267
 20
126.624985
 30
0.0
 11
147.999954
 21
126.624985
 31
0.0
  0
LINE
  5
C6
100
AcDbEntity
  8
ALPHA
100
AcDbLine
 10
145.542267
 20
120.5
 30
0.0
 11
147.999954
 21
120.5
 31
0.0
  0
LINE
  5
C7
100
AcDbEntity
  8
ALPHA
100
AcDbLine
 10
145.542267
 20
116.386032
 30
0.0
 11
147.999954
 21
116.386032
 31
0.0
  0
LINE
  5
C8
100
AcDbEntity
  8
ALPHA
100
AcDbLine
 10
145.542267
 20
114.529724
 30
0.0
 11
147.999954
 21
114.529724
 31
0.0
  0
LINE
  5
C9
100
AcDbEntity
  8
ALPHA
100
AcDbLine
 10
42.000015
 20
235.25
 30
0.0
 11
45.000015
 21
235.25
 31
0.0
  0
LINE
  5
CA
100
AcDbEntity
  8
ALPHA
100
AcDbLine
 10
42.000015
 20
98.25
 30
0.0
 11
45.000076
 21
98.25
 31
0.0
  0
LINE
  5
CB
100
AcDbEntity
  8
ALPHA
100
AcDbLine
 10
65.000015
 20
235.25
 30
0.0
 11
85.000015
 21
235.25
 31
0.0
  0
LINE
  5
CC
100
AcDbEntity
  8
ALPHA
100
AcDbLine
 10
105.000015
 20
235.25
 30
0.0
 11
124.999954
 21
235.25
 31
0.0
  0
LINE
  5
CD
100
AcDbEntity
  8
ALPHA
100
AcDbLine
 10
144.999954
 20
235.25
 30
0.0
 11
147.999954
 21
235.25
 31
0.0
  0
LINE
  5
CE
100
AcDbEntity
  8
ALPHA
100
AcDbLine
 10
65.000076
 20
98.25
 30
0.0
 11
85.000015
 21
98.25
 31
0.0
  0
LINE
  5
CF
100
AcDbEntity
  8
ALPHA
100
AcDbLine
 10
105.000015
 20
98.25
 30
0.0
 11
125.000015
 21
98.25
 31
0.0
  0
LINE
  5
D0
100
AcDbEntity
  8
ALPHA
100
AcDbLine
 10
145.000015
 20
98.25
 30
0.0
 11
147.999954
 21
98.25
 31
0.0
  0
LINE
  5
D1
100
AcDbEntity
  8
ALPHA
100
AcDbLine
 10
147.999954
 20
108.25
 30
0.0
 11
147.999954
 21
163.75
 31
0.0
  0
LINE
  5
D2
100
AcDbEntity
  8
ALPHA
100
AcDbLine
 10
146.499954
 20
227.75
 30
0.0
 11
146.499954
 21
225.25
 31
0.0
  0
LINE
  5
D3
100
AcDbEntity
  8
ALPHA
100
AcDbLine
 10
146.499954
 20
105.75
 30
0.0
 11
146.499954
 21
108.25
 31
0.0
  0
LINE
  5
D4
100
AcDbEntity
  8
ALPHA
100
AcDbLine
 10
147.999954
 20
227.75
 30
0.0
 11
147.999954
 21
235.25
 31
0.0
  0
LINE
  5
D5
100
AcDbEntity
  8
ALPHA
100
AcDbLine
 10
147.999954
 20
98.25
 30
0.0
 11
147.999954
 21
105.75
 31
0.0
  0
LINE
  5
D6
100
AcDbEntity
  8
ALPHA
100
AcDbLine
 10
105.000015
 20
81.75
 30
0.0
 11
85.000015
 21
81.75
 31
0.0
  0
CIRCLE
  5
D7
100
AcDbEntity
  8
ALPHA
100
AcDbCircle
 10
95.000015
 20
91.75
 30
0.0
 40
4.5
  0
LINE
  5
D8
100
AcDbEntity
  8
ALPHA
100
AcDbLine
 10
105.000015
 20
98.75
 30
0.0
 11
105.000015
 21
81.75
 31
0.0
  0
LINE
  5
D9
100
AcDbEntity
  8
ALPHA
100
AcDbLine
 10
85.000015
 20
98.75
 30
0.0
 11
85.000015
 21
81.75
 31
0.0
  0
LINE
  5
DA
100
AcDbEntity
  8
ALPHA
100
AcDbLine
 10
105.000015
 20
98.75
 30
0.0
 11
104.800018
 21
98.75
 31
0.0
  0
LINE
  5
DB
100
AcDbEntity
  8
ALPHA
100
AcDbLine
 10
104.800018
 20
100.946152
 30
0.0
 11
104.800018
 21
98.75
 31
0.0
  0
LINE
  5
DC
100
AcDbEntity
  8
ALPHA
100
AcDbLine
 10
85.200012
 20
100.946167
 30
0.0
 11
85.200012
 21
98.75
 31
0.0
  0
LINE
  5
DD
100
AcDbEntity
  8
ALPHA
100
AcDbLine
 10
85.200012
 20
98.75
 30
0.0
 11
85.000015
 21
98.75
 31
0.0
  0
LINE
  5
DE
100
AcDbEntity
  8
ALPHA
100
AcDbLine
 10
102.404624
 20
105.898933
 30
0.0
 11
104.398085
 21
102.446157
 31
0.0
  0
LINE
  5
DF
100
AcDbEntity
  8
ALPHA
100
AcDbLine
 10
87.595389
 20
105.898933
 30
0.0
 11
85.60194
 21
102.446178
 31
0.0
  0
ARC
  5
E0
100
AcDbEntity
  8
ALPHA
100
AcDbCircle
 10
101.800018
 20
100.946152
 30
0.0
 40
3.0
100
AcDbArc
 50
359.999928
 51
29.999977
  0
ARC
  5
E1
100
AcDbEntity
  8
ALPHA
100
AcDbCircle
 10
88.200012
 20
100.946167
 30
0.0
 40
3.0
100
AcDbArc
 50
149.999861
 51
179.999855
  0
LINE
  5
E2
100
AcDbEntity
  8
ALPHA
100
AcDbLine
 10
145.000015
 20
81.75
 30
0.0
 11
125.000015
 21
81.75
 31
0.0
  0
CIRCLE
  5
E3
100
AcDbEntity
  8
ALPHA
100
AcDbCircle
 10
135.000015
 20
91.75
 30
0.0
 40
4.5
  0
LINE
  5
E4
100
AcDbEntity
  8
ALPHA
100
AcDbLine
 10
145.000015
 20
98.75
 30
0.0
 11
145.000015
 21
81.75
 31
0.0
  0
LINE
  5
E5
100
AcDbEntity
  8
ALPHA
100
AcDbLine
 10
125.000015
 20
98.75
 30
0.0
 11
125.000015
 21
81.75
 31
0.0
  0
LINE
  5
E6
100
AcDbEntity
  8
ALPHA
100
AcDbLine
 10
145.000015
 20
98.75
 30
0.0
 11
144.800018
 21
98.75
 31
0.0
  0
LINE
  5
E7
100
AcDbEntity
  8
ALPHA
100
AcDbLine
 10
144.800018
 20
100.75
 30
0.0
 11
144.800018
 21
98.75
 31
0.0
  0
LINE
  5
E8
100
AcDbEntity
  8
ALPHA
100
AcDbLine
 10
125.200012
 20
100.507355
 30
0.0
 11
125.200012
 21
98.75
 31
0.0
  0
LINE
  5
E9
100
AcDbEntity
  8
ALPHA
100
AcDbLine
 10
125.200012
 20
98.75
 30
0.0
 11
125.000015
 21
98.75
 31
0.0
  0
LINE
  5
EA
100
AcDbEntity
  8
ALPHA
100
AcDbLine
 10
143.800018
 20
101.75
 30
0.0
 11
143.242661
 21
101.75
 31
0.0
  0
ARC
  5
EB
100
AcDbEntity
  8
ALPHA
100
AcDbCircle
 10
143.800018
 20
100.75
 30
0.0
 40
1.0
100
AcDbArc
 50
0.000037
 51
90.000037
  0
LINE
  5
EC
100
AcDbEntity
  8
ALPHA
100
AcDbLine
 10
141.121334
 20
102.628656
 30
0.0
 11
137.851059
 21
105.898933
 31
0.0
  0
LINE
  5
ED
100
AcDbEntity
  8
ALPHA
100
AcDbLine
 10
124.321356
 20
102.628656
 30
0.0
 11
122.478708
 21
104.471302
 31
0.0
  0
ARC
  5
EE
100
AcDbEntity
  8
ALPHA
100
AcDbCircle
 10
143.242661
 20
104.75
 30
0.0
 40
3.0
100
AcDbArc
 50
224.999996
 51
269.999973
  0
ARC
  5
EF
100
AcDbEntity
  8
ALPHA
100
AcDbCircle
 10
122.200012
 20
100.507355
 30
0.0
 40
3.0
100
AcDbArc
 50
0.000037
 51
45.000056
  0
ARC
  5
F0
100
AcDbEntity
  8
ALPHA
100
AcDbCircle
 10
124.600021
 20
106.592636
 30
0.0
 40
3.0
100
AcDbArc
 50
193.369745
 51
224.999996
  0
LINE
  5
F1
100
AcDbEntity
  8
ALPHA
100
AcDbLine
 10
45.000076
 20
81.75
 30
0.0
 11
65.000076
 21
81.75
 31
0.0
  0
CIRCLE
  5
F2
100
AcDbEntity
  8
ALPHA
100
AcDbCircle
 10
55.000076
 20
91.75
 30
0.0
 40
4.5
  0
LINE
  5
F3
100
AcDbEntity
  8
ALPHA
100
AcDbLine
 10
45.000076
 20
98.75
 30
0.0
 11
45.000076
 21
81.75
 31
0.0
  0
LINE
  5
F4
100
AcDbEntity
  8
ALPHA
100
AcDbLine
 10
65.000076
 20
98.75
 30
0.0
 11
65.000076
 21
81.75
 31
0.0
  0
LINE
  5
F5
100
AcDbEntity
  8
ALPHA
100
AcDbLine
 10
45.000076
 20
98.75
 30
0.0
 11
45.200027
 21
98.75
 31
0.0
  0
LINE
  5
F6
100
AcDbEntity
  8
ALPHA
100
AcDbLine
 10
45.200027
 20
100.75
 30
0.0
 11
45.200027
 21
98.75
 31
0.0
  0
LINE
  5
F7
100
AcDbEntity
  8
ALPHA
100
AcDbLine
 10
64.800125
 20
100.507355
 30
0.0
 11
64.800125
 21
98.75
 31
0.0
  0
LINE
  5
F8
100
AcDbEntity
  8
ALPHA
100
AcDbLine
 10
64.800125
 20
98.75
 30
0.0
 11
65.000076
 21
98.75
 31
0.0
  0
LINE
  5
F9
100
AcDbEntity
  8
ALPHA
100
AcDbLine
 10
46.200027
 20
101.75
 30
0.0
 11
46.757401
 21
101.75
 31
0.0
  0
ARC
  5
FA
100
AcDbEntity
  8
ALPHA
100
AcDbCircle
 10
46.200027
 20
100.75
 30
0.0
 40
1.0
100
AcDbArc
 50
89.999982
 51
180.000073
  0
LINE
  5
FB
100
AcDbEntity
  8
ALPHA
100
AcDbLine
 10
48.878708
 20
102.628668
 30
0.0
 11
52.148972
 21
105.898933
 31
0.0
  0
LINE
  5
FC
100
AcDbEntity
  8
ALPHA
100
AcDbLine
 10
65.678696
 20
102.628677
 30
0.0
 11
67.521332
 21
104.471313
 31
0.0
  0
ARC
  5
FD
100
AcDbEntity
  8
ALPHA
100
AcDbCircle
 10
46.757401
 20
104.75
 30
0.0
 40
3.0
100
AcDbArc
 50
270.000028
 51
314.999992
  0
ARC
  5
FE
100
AcDbEntity
  8
ALPHA
100
AcDbCircle
 10
67.800018
 20
100.507355
 30
0.0
 40
3.0
100
AcDbArc
 50
134.999946
 51
179.999964
  0
ARC
  5
FF
100
AcDbEntity
  8
ALPHA
100
AcDbCircle
 10
65.399979
 20
106.592636
 30
0.0
 40
3.0
100
AcDbArc
 50
314.999992
 51
346.630243
  0
LINE
  5
100
100
AcDbEntity
  8
ALPHA
100
AcDbLine
 10
85.000015
 20
251.75
 30
0.0
 11
105.000015
 21
251.75
 31
0.0
  0
CIRCLE
  5
101
100
AcDbEntity
  8
ALPHA
100
AcDbCircle
 10
95.000015
 20
241.75
 30
0.0
 40
4.5
  0
LINE
  5
102
100
AcDbEntity
  8
ALPHA
100
AcDbLine
 10
85.000015
 20
234.75
 30
0.0
 11
85.000015
 21
251.75
 31
0.0
  0
LINE
  5
103
100
AcDbEntity
  8
ALPHA
100
AcDbLine
 10
105.000015
 20
234.75
 30
0.0
 11
105.000015
 21
251.75
 31
0.0
  0
LINE
  5
104
100
AcDbEntity
  8
ALPHA
100
AcDbLine
 10
85.000015
 20
234.75
 30
0.0
 11
85.200012
 21
234.75
 31
0.0
  0
LINE
  5
105
100
AcDbEntity
  8
ALPHA
100
AcDbLine
 10
85.200012
 20
232.553848
 30
0.0
 11
85.200012
 21
234.75
 31
0.0
  0
LINE
  5
106
100
AcDbEntity
  8
ALPHA
100
AcDbLine
 10
104.800018
 20
232.553833
 30
0.0
 11
104.800018
 21
234.75
 31
0.0
  0
LINE
  5
107
100
AcDbEntity
  8
ALPHA
100
AcDbLine
 10
104.800018
 20
234.75
 30
0.0
 11
105.000015
 21
234.75
 31
0.0
  0
LINE
  5
108
100
AcDbEntity
  8
ALPHA
100
AcDbLine
 10
87.595405
 20
227.601067
 30
0.0
 11
85.60194
 21
231.053848
 31
0.0
  0
LINE
  5
109
100
AcDbEntity
  8
ALPHA
100
AcDbLine
 10
102.404642
 20
227.601067
 30
0.0
 11
104.398096
 21
231.053833
 31
0.0
  0
ARC
  5
10A
100
AcDbEntity
  8
ALPHA
100
AcDbCircle
 10
88.200012
 20
232.553848
 30
0.0
 40
3.0
100
AcDbArc
 50
179.999909
 51
209.999958
  0
ARC
  5
10B
100
AcDbEntity
  8
ALPHA
100
AcDbCircle
 10
101.800018
 20
232.553833
 30
0.0
 40
3.0
100
AcDbArc
 50
329.999852
 51
359.999846
  0
LINE
  5
10C
100
AcDbEntity
  8
ALPHA
100
AcDbLine
 10
45.000015
 20
251.75
 30
0.0
 11
65.000015
 21
251.75
 31
0.0
  0
CIRCLE
  5
10D
100
AcDbEntity
  8
ALPHA
100
AcDbCircle
 10
55.000015
 20
241.75
 30
0.0
 40
4.5
  0
LINE
  5
10E
100
AcDbEntity
  8
ALPHA
100
AcDbLine
 10
45.000015
 20
234.75
 30
0.0
 11
45.000015
 21
251.75
 31
0.0
  0
LINE
  5
10F
100
AcDbEntity
  8
ALPHA
100
AcDbLine
 10
65.000015
 20
234.75
 30
0.0
 11
65.000015
 21
251.75
 31
0.0
  0
LINE
  5
110
100
AcDbEntity
  8
ALPHA
100
AcDbLine
 10
45.000015
 20
234.75
 30
0.0
 11
45.200012
 21
234.75
 31
0.0
  0
LINE
  5
111
100
AcDbEntity
  8
ALPHA
100
AcDbLine
 10
45.200012
 20
232.75
 30
0.0
 11
45.200012
 21
234.75
 31
0.0
  0
LINE
  5
112
100
AcDbEntity
  8
ALPHA
100
AcDbLine
 10
64.800018
 20
232.992645
 30
0.0
 11
64.800018
 21
234.75
 31
0.0
  0
LINE
  5
113
100
AcDbEntity
  8
ALPHA
100
AcDbLine
 10
64.800018
 20
234.75
 30
0.0
 11
65.000015
 21
234.75
 31
0.0
  0
LINE
  5
114
100
AcDbEntity
  8
ALPHA
100
AcDbLine
 10
46.200012
 20
231.75
 30
0.0
 11
46.75737
 21
231.75
 31
0.0
  0
ARC
  5
115
100
AcDbEntity
  8
ALPHA
100
AcDbCircle
 10
46.200012
 20
232.75
 30
0.0
 40
1.0
100
AcDbArc
 50
180.000032
 51
270.000028
  0
LINE
  5
116
100
AcDbEntity
  8
ALPHA
100
AcDbLine
 10
48.878693
 20
230.871346
 30
0.0
 11
52.148972
 21
227.601067
 31
0.0
  0
LINE
  5
117
100
AcDbEntity
  8
ALPHA
100
AcDbLine
 10
65.67868
 20
230.871338
 30
0.0
 11
67.521328
 21
229.028687
 31
0.0
  0
ARC
  5
118
100
AcDbEntity
  8
ALPHA
100
AcDbCircle
 10
46.75737
 20
228.75
 30
0.0
 40
3.0
100
AcDbArc
 50
45.000001
 51
89.999982
  0
ARC
  5
119
100
AcDbEntity
  8
ALPHA
100
AcDbCircle
 10
67.800018
 20
232.992645
 30
0.0
 40
3.0
100
AcDbArc
 50
180.000032
 51
225.000051
  0
ARC
  5
11A
100
AcDbEntity
  8
ALPHA
100
AcDbCircle
 10
65.400009
 20
226.907364
 30
0.0
 40
3.0
100
AcDbArc
 50
13.369747
 51
45.000001
  0
LINE
  5
11B
100
AcDbEntity
  8
ALPHA
100
AcDbLine
 10
144.999954
 20
251.75
 30
0.0
 11
124.999954
 21
251.75
 31
0.0
  0
CIRCLE
  5
11C
100
AcDbEntity
  8
ALPHA
100
AcDbCircle
 10
134.999954
 20
241.75
 30
0.0
 40
4.5
  0
LINE
  5
11D
100
AcDbEntity
  8
ALPHA
100
AcDbLine
 10
144.999954
 20
234.75
 30
0.0
 11
144.999954
 21
251.75
 31
0.0
  0
LINE
  5
11E
100
AcDbEntity
  8
ALPHA
100
AcDbLine
 10
124.999954
 20
234.75
 30
0.0
 11
124.999954
 21
251.75
 31
0.0
  0
LINE
  5
11F
100
AcDbEntity
  8
ALPHA
100
AcDbLine
 10
144.999954
 20
234.75
 30
0.0
 11
144.800003
 21
234.75
 31
0.0
  0
LINE
  5
120
100
AcDbEntity
  8
ALPHA
100
AcDbLine
 10
144.800003
 20
232.75
 30
0.0
 11
144.800003
 21
234.75
 31
0.0
  0
LINE
  5
121
100
AcDbEntity
  8
ALPHA
100
AcDbLine
 10
125.199905
 20
232.992645
 30
0.0
 11
125.199905
 21
234.75
 31
0.0
  0
LINE
  5
122
100
AcDbEntity
  8
ALPHA
100
AcDbLine
 10
125.199905
 20
234.75
 30
0.0
 11
124.999954
 21
234.75
 31
0.0
  0
LINE
  5
123
100
AcDbEntity
  8
ALPHA
100
AcDbLine
 10
143.800003
 20
231.75
 30
0.0
 11
143.24263
 21
231.75
 31
0.0
  0
ARC
  5
124
100
AcDbEntity
  8
ALPHA
100
AcDbCircle
 10
143.800003
 20
232.75
 30
0.0
 40
1.0
100
AcDbArc
 50
269.999973
 51
0.000065
  0
LINE
  5
125
100
AcDbEntity
  8
ALPHA
100
AcDbLine
 10
141.121326
 20
230.871338
 30
0.0
 11
137.851059
 21
227.601067
 31
0.0
  0
LINE
  5
126
100
AcDbEntity
  8
ALPHA
100
AcDbLine
 10
124.321339
 20
230.871323
 30
0.0
 11
122.478703
 21
229.028687
 31
0.0
  0
ARC
  5
127
100
AcDbEntity
  8
ALPHA
100
AcDbCircle
 10
143.24263
 20
228.75
 30
0.0
 40
3.0
100
AcDbArc
 50
90.000037
 51
135.0
  0
ARC
  5
128
100
AcDbEntity
  8
ALPHA
100
AcDbCircle
 10
122.200012
 20
232.992645
 30
0.0
 40
3.0
100
AcDbArc
 50
314.999937
 51
359.999955
  0
ARC
  5
129
100
AcDbEntity
  8
ALPHA
100
AcDbCircle
 10
124.600052
 20
226.907364
 30
0.0
 40
3.0
100
AcDbArc
 50
135.0
 51
166.630251
  0
LINE
  5
12A
100
AcDbEntity
  8
ALPHA
100
AcDbLine
 10
192.499954
 20
105.75
 30
0.0
 11
192.499954
 21
227.75
 31
0.0
  0
CIRCLE
  5
12B
100
AcDbEntity
  8
ALPHA
100
AcDbCircle
 10
111.392273
 20
116.750015
 30
0.0
 40
4.5
  0
LINE
  5
12C
100
AcDbEntity
  8
ALPHA
100
AcDbLine
 10
143.542267
 20
105.898933
 30
0.0
 11
46.742279
 21
105.898933
 31
0.0
  0
LINE
  5
12D
100
AcDbEntity
  8
ALPHA
100
AcDbLine
 10
143.542267
 20
227.601067
 30
0.0
 11
46.742279
 21
227.601067
 31
0.0
  0
LINE
  5
12E
100
AcDbEntity
  8
ALPHA
100
AcDbLine
 10
145.542267
 20
107.898933
 30
0.0
 11
145.542267
 21
225.601067
 31
0.0
  0
LINE
  5
12F
100
AcDbEntity
  8
ALPHA
100
AcDbLine
 10
44.742279
 20
107.898933
 30
0.0
 11
44.742279
 21
225.601067
 31
0.0
  0
ARC
  5
130
100
AcDbEntity
  8
ALPHA
100
AcDbCircle
 10
143.542267
 20
107.898933
 30
0.0
 40
2.0
100
AcDbArc
 50
270.000001
 51
0.00001
  0
ARC
  5
131
100
AcDbEntity
  8
ALPHA
100
AcDbCircle
 10
46.742279
 20
107.898933
 30
0.0
 40
2.0
100
AcDbArc
 50
180.000005
 51
270.000001
  0
ARC
  5
132
100
AcDbEntity
  8
ALPHA
100
AcDbCircle
 10
143.542267
 20
225.601067
 30
0.0
 40
2.0
100
AcDbArc
 50
0.000005
 51
90.000003
  0
ARC
  5
133
100
AcDbEntity
  8
ALPHA
100
AcDbCircle
 10
46.742279
 20
225.601067
 30
0.0
 40
2.0
100
AcDbArc
 50
90.000003
 51
180.000005
  0
LINE
  5
134
100
AcDbEntity
  8
ALPHA
100
AcDbLine
 10
118.842287
 20
227.601067
 30
0.0
 11
118.842285
 21
105.898933
 31
0.0
  0
LINE
  5
135
100
AcDbEntity
  8
ALPHA
100
AcDbLine
 10
46.742279
 20
209.750015
 30
0.0
 11
118.842287
 21
209.750015
 31
0.0
  0
LINE
  5
136
100
AcDbEntity
  8
ALPHA
100
AcDbLine
 10
46.742279
 20
201.750015
 30
0.0
 11
118.842287
 21
201.750015
 31
0.0
  0
LINE
  5
137
100
AcDbEntity
  8
ALPHA
100
AcDbLine
 10
46.742279
 20
201.750015
 30
0.0
 11
46.742279
 21
209.750015
 31
0.0
  0
LINE
  5
138
100
AcDbEntity
  8
ALPHA
100
AcDbLine
 10
70.028076
 20
205.886627
 30
0.0
 11
71.100784
 21
205.886627
 31
0.0
  0
LINE
  5
139
100
AcDbEntity
  8
ALPHA
100
AcDbLine
 10
70.028076
 20
205.497391
 30
0.0
 11
71.596039
 21
205.497391
 31
0.0
  0
LINE
  5
13A
100
AcDbEntity
  8
ALPHA
100
AcDbLine
 10
71.003357
 20
205.347687
 30
0.0
 11
71.543304
 21
205.347687
 31
0.0
  0
LWPOLYLINE
  5
13B
100
AcDbEntity
  8
ALPHA
100
AcDbPolyline
 90
        9
 70
     0
 43
0.0
 10
70.028014
 20
205.497383
 10
70.099527
 20
205.377758
 10
70.201746
 20
205.278892
 10
70.327918
 20
205.207316
 10
70.469708
 20
205.167757
 10
70.61775
 20
205.16283
 10
70.762265
 20
205.19286
 10
70.893704
 20
205.255863
 10
71.003387
 20
205.347677
  0
LWPOLYLINE
  5
146
100
AcDbEntity
  8
ALPHA
100
AcDbPolyline
 90
        9
 70
     0
 43
0.0
 10
71.100679
 20
205.88662
 10
71.014721
 20
206.023646
 10
70.888807
 20
206.13125
 10
70.734107
 20
206.199883
 10
70.564346
 20
206.223459
 10
70.394586
 20
206.199883
 10
70.239886
 20
206.13125
 10
70.113972
 20
206.023647
 10
70.028014
 20
205.88662
  0
LINE
  5
151
100
AcDbEntity
  8
ALPHA
100
AcDbLine
 10
62.659897
 20
207.121689
 30
0.0
 11
62.659897
 21
204.816238
 31
0.0
  0
LINE
  5
152
100
AcDbEntity
  8
ALPHA
100
AcDbLine
 10
59.42627
 20
204.816238
 30
0.0
 11
59.980118
 21
204.816238
 31
0.0
  0
LINE
  5
153
100
AcDbEntity
  8
ALPHA
100
AcDbLine
 10
58.670258
 20
207.121689
 30
0.0
 11
60.73613
 21
207.121689
 31
0.0
  0
LINE
  5
154
100
AcDbEntity
  8
ALPHA
100
AcDbLine
 10
63.21376
 20
207.121689
 30
0.0
 11
63.21376
 21
204.816238
 31
0.0
  0
LINE
  5
155
100
AcDbEntity
  8
ALPHA
100
AcDbLine
 10
62.659897
 20
204.816238
 30
0.0
 11
63.21376
 21
204.816238
 31
0.0
  0
LINE
  5
156
100
AcDbEntity
  8
ALPHA
100
AcDbLine
 10
59.980118
 20
206.702515
 30
0.0
 11
59.980118
 21
204.816238
 31
0.0
  0
LINE
  5
157
100
AcDbEntity
  8
ALPHA
100
AcDbLine
 10
59.42627
 20
206.702515
 30
0.0
 11
59.42627
 21
204.816238
 31
0.0
  0
LINE
  5
158
100
AcDbEntity
  8
ALPHA
100
AcDbLine
 10
62.659897
 20
207.121689
 30
0.0
 11
63.21376
 21
207.121689
 31
0.0
  0
LINE
  5
159
100
AcDbEntity
  8
ALPHA
100
AcDbLine
 10
58.670258
 20
206.702515
 30
0.0
 11
59.42627
 21
206.702515
 31
0.0
  0
LINE
  5
15A
100
AcDbEntity
  8
ALPHA
100
AcDbLine
 10
60.73613
 20
207.121689
 30
0.0
 11
60.73613
 21
206.702515
 31
0.0
  0
LINE
  5
15B
100
AcDbEntity
  8
ALPHA
100
AcDbLine
 10
59.980118
 20
206.702515
 30
0.0
 11
60.73613
 21
206.702515
 31
0.0
  0
LINE
  5
15C
100
AcDbEntity
  8
ALPHA
100
AcDbLine
 10
58.670258
 20
207.121689
 30
0.0
 11
58.670258
 21
206.702515
 31
0.0
  0
LWPOLYLINE
  5
15D
100
AcDbEntity
  8
ALPHA
100
AcDbPolyline
 90
       15
 70
     0
 43
0.0
 10
62.374154
 20
205.497383
 10
62.371719
 20
205.896196
 10
62.176175
 20
206.256694
 10
61.824216
 20
206.511234
 10
61.381881
 20
206.612053
 10
60.932172
 20
206.540234
 10
60.55947
 20
206.309254
 10
60.333709
 20
205.962452
 10
60.297251
 20
205.564904
 10
60.456938
 20
205.191203
 10
60.782804
 20
204.911473
 10
61.213706
 20
204.7782
 10
61.668789
 20
204.816392
 10
62.062661
 20
205.018883
 10
62.321416
 20
205.347678
  0
LINE
  5
16E
100
AcDbEntity
  8
ALPHA
100
AcDbLine
 10
60.806152
 20
205.886627
 30
0.0
 11
61.87886
 21
205.886627
 31
0.0
  0
LINE
  5
16F
100
AcDbEntity
  8
ALPHA
100
AcDbLine
 10
60.806152
 20
205.497391
 30
0.0
 11
62.374115
 21
205.497391
 31
0.0
  0
LINE
  5
170
100
AcDbEntity
  8
ALPHA
100
AcDbLine
 10
61.781586
 20
205.347687
 30
0.0
 11
62.321381
 21
205.347687
 31
0.0
  0
LWPOLYLINE
  5
171
100
AcDbEntity
  8
ALPHA
100
AcDbPolyline
 90
        9
 70
     0
 43
0.0
 10
60.806243
 20
205.497383
 10
60.877756
 20
205.377758
 10
60.979975
 20
205.278892
 10
61.106147
 20
205.207316
 10
61.247937
 20
205.167757
 10
61.395979
 20
205.16283
 10
61.540493
 20
205.19286
 10
61.671933
 20
205.255863
 10
61.781616
 20
205.347677
  0
LWPOLYLINE
  5
17C
100
AcDbEntity
  8
ALPHA
100
AcDbPolyline
 90
        9
 70
     0
 43
0.0
 10
61.878907
 20
205.88662
 10
61.79295
 20
206.023646
 10
61.667036
 20
206.13125
 10
61.512336
 20
206.199883
 10
61.342575
 20
206.223459
 10
61.172814
 20
206.199883
 10
61.018115
 20
206.13125
 10
60.8922
 20
206.023647
 10
60.806243
 20
205.88662
  0
LWPOLYLINE
  5
187
100
AcDbEntity
  8
ALPHA
100
AcDbPolyline
 90
       15
 70
     0
 43
0.0
 10
71.595976
 20
205.497586
 10
71.593441
 20
205.896385
 10
71.397821
 20
206.256835
 10
71.04582
 20
206.511309
 10
70.603482
 20
206.612059
 10
70.153802
 20
206.540182
 10
69.781149
 20
206.309166
 10
69.555445
 20
205.962353
 10
69.519037
 20
205.564815
 10
69.678755
 20
205.191141
 10
70.004633
 20
204.911441
 10
70.435528
 20
204.778194
 10
70.890592
 20
204.816401
 10
71.284444
 20
205.018893
 10
71.543188
 20
205.347678
  0
LINE
  5
198
100
AcDbEntity
  8
ALPHA
100
AcDbLine
 10
65.848572
 20
206.56778
 30
0.0
 11
65.848572
 21
204.816238
 31
0.0
  0
LINE
  5
199
100
AcDbEntity
  8
ALPHA
100
AcDbLine
 10
66.402588
 20
206.56778
 30
0.0
 11
66.402588
 21
206.459808
 31
0.0
  0
LINE
  5
19A
100
AcDbEntity
  8
ALPHA
100
AcDbLine
 10
67.270798
 20
205.837891
 30
0.0
 11
67.270798
 21
204.816238
 31
0.0
  0
LINE
  5
19B
100
AcDbEntity
  8
ALPHA
100
AcDbLine
 10
67.824799
 20
205.837891
 30
0.0
 11
67.824799
 21
204.816238
 31
0.0
  0
LINE
  5
19C
100
AcDbEntity
  8
ALPHA
100
AcDbLine
 10
68.693008
 20
205.837891
 30
0.0
 11
68.693008
 21
204.816238
 31
0.0
  0
LINE
  5
19D
100
AcDbEntity
  8
ALPHA
100
AcDbLine
 10
69.247009
 20
205.958649
 30
0.0
 11
69.247009
 21
204.816238
 31
0.0
  0
LINE
  5
19E
100
AcDbEntity
  8
ALPHA
100
AcDbLine
 10
67.270798
 20
204.816238
 30
0.0
 11
67.824799
 21
204.816238
 31
0.0
  0
LINE
  5
19F
100
AcDbEntity
  8
ALPHA
100
AcDbLine
 10
68.693008
 20
204.816238
 30
0.0
 11
69.247009
 21
204.816238
 31
0.0
  0
LINE
  5
1A0
100
AcDbEntity
  8
ALPHA
100
AcDbLine
 10
65.848572
 20
204.816238
 30
0.0
 11
66.402588
 21
204.816238
 31
0.0
  0
ARC
  5
1A1
100
AcDbEntity
  8
ALPHA
100
AcDbCircle
 10
66.836761
 20
205.7444
 30
0.0
 40
0.47906
100
AcDbArc
 50
51.317783
 51
128.682567
  0
ARC
  5
1A2
100
AcDbEntity
  8
ALPHA
100
AcDbCircle
 10
68.258972
 20
205.7444
 30
0.0
 40
0.47906
100
AcDbArc
 50
51.317783
 51
128.682567
  0
ARC
  5
1A3
100
AcDbEntity
  8
ALPHA
100
AcDbCircle
 10
66.761902
 20
205.837891
 30
0.0
 40
0.359295
100
AcDbArc
 50
128.682676
 51
180.000019
  0
ARC
  5
1A4
100
AcDbEntity
  8
ALPHA
100
AcDbCircle
 10
66.911606
 20
205.837891
 30
0.0
 40
0.359295
100
AcDbArc
 50
0.0
 51
51.317759
  0
ARC
  5
1A5
100
AcDbEntity
  8
ALPHA
100
AcDbCircle
 10
68.184128
 20
205.837891
 30
0.0
 40
0.359295
100
AcDbArc
 50
128.682676
 51
180.000019
  0
ARC
  5
1A6
100
AcDbEntity
  8
ALPHA
100
AcDbCircle
 10
68.333832
 20
205.837891
 30
0.0
 40
0.359295
100
AcDbArc
 50
0.0
 51
51.317759
  0
LINE
  5
1A7
100
AcDbEntity
  8
ALPHA
100
AcDbLine
 10
85.371429
 20
205.886627
 30
0.0
 11
86.444138
 21
205.886627
 31
0.0
  0
LINE
  5
1A8
100
AcDbEntity
  8
ALPHA
100
AcDbLine
 10
85.371429
 20
205.497391
 30
0.0
 11
86.939392
 21
205.497391
 31
0.0
  0
LINE
  5
1A9
100
AcDbEntity
  8
ALPHA
100
AcDbLine
 10
86.346863
 20
205.347687
 30
0.0
 11
86.886658
 21
205.347687
 31
0.0
  0
LWPOLYLINE
  5
1AA
100
AcDbEntity
  8
ALPHA
100
AcDbPolyline
 90
        9
 70
     0
 43
0.0
 10
85.37152
 20
205.497383
 10
85.443033
 20
205.377758
 10
85.545252
 20
205.278892
 10
85.671424
 20
205.207316
 10
85.813214
 20
205.167757
 10
85.961256
 20
205.16283
 10
86.10577
 20
205.19286
 10
86.23721
 20
205.255863
 10
86.346893
 20
205.347677
  0
LWPOLYLINE
  5
1B5
100
AcDbEntity
  8
ALPHA
100
AcDbPolyline
 90
        9
 70
     0
 43
0.0
 10
86.444184
 20
205.88662
 10
86.358227
 20
206.023646
 10
86.232313
 20
206.13125
 10
86.077613
 20
206.199883
 10
85.907852
 20
206.223459
 10
85.738092
 20
206.199883
 10
85.583392
 20
206.13125
 10
85.457478
 20
206.023647
 10
85.37152
 20
205.88662
  0
LWPOLYLINE
  5
1C0
100
AcDbEntity
  8
ALPHA
100
AcDbPolyline
 90
       15
 70
     0
 43
0.0
 10
86.939482
 20
205.497586
 10
86.936947
 20
205.896385
 10
86.741327
 20
206.256835
 10
86.389326
 20
206.511309
 10
85.946988
 20
206.612059
 10
85.497307
 20
206.540182
 10
85.124655
 20
206.309166
 10
84.898951
 20
205.962353
 10
84.862543
 20
205.564815
 10
85.022261
 20
205.191141
 10
85.348139
 20
204.911441
 10
85.779034
 20
204.778194
 10
86.234098
 20
204.816401
 10
86.62795
 20
205.018893
 10
86.886694
 20
205.347678
  0
LWPOLYLINE
  5
1D1
100
AcDbEntity
  8
ALPHA
100
AcDbPolyline
 90
       15
 70
     0
 43
0.0
 10
73.930581
 20
205.889614
 10
73.749937
 20
206.237552
 10
73.422967
 20
206.491595
 10
73.005945
 20
206.608019
 10
72.570647
 20
206.566787
 10
72.19199
 20
206.374996
 10
71.935146
 20
206.065653
 10
71.844321
 20
205.692001
 10
71.935147
 20
205.318349
 10
72.19199
 20
205.009007
 10
72.570647
 20
204.817215
 10
73.005946
 20
204.775983
 10
73.422967
 20
204.892408
 10
73.749937
 20
205.146451
 10
73.930581
 20
205.494389
  0
ARC
  5
1E2
100
AcDbEntity
  8
ALPHA
100
AcDbCircle
 10
72.89975
 20
205.692001
 30
0.0
 40
0.509001
100
AcDbArc
 50
22.844766
 51
337.15524
  0
LINE
  5
1E3
100
AcDbEntity
  8
ALPHA
100
AcDbLine
 10
73.368942
 20
205.4944
 30
0.0
 11
73.93071
 21
205.4944
 31
0.0
  0
LINE
  5
1E4
100
AcDbEntity
  8
ALPHA
100
AcDbLine
 10
73.368942
 20
205.889603
 30
0.0
 11
73.93071
 21
205.889603
 31
0.0
  0
LINE
  5
1E5
100
AcDbEntity
  8
ALPHA
100
AcDbLine
 10
79.179977
 20
206.56778
 30
0.0
 11
79.179977
 21
204.816238
 31
0.0
  0
LINE
  5
1E6
100
AcDbEntity
  8
ALPHA
100
AcDbLine
 10
79.733978
 20
206.56778
 30
0.0
 11
79.733978
 21
204.816238
 31
0.0
  0
LINE
  5
1E7
100
AcDbEntity
  8
ALPHA
100
AcDbLine
 10
79.179977
 20
204.816238
 30
0.0
 11
79.733978
 21
204.816238
 31
0.0
  0
LINE
  5
1E8
100
AcDbEntity
  8
ALPHA
100
AcDbLine
 10
79.179977
 20
207.162109
 30
0.0
 11
79.179977
 21
206.735443
 31
0.0
  0
LINE
  5
1E9
100
AcDbEntity
  8
ALPHA
100
AcDbLine
 10
79.733978
 20
207.162109
 30
0.0
 11
79.733978
 21
206.735443
 31
0.0
  0
LINE
  5
1EA
100
AcDbEntity
  8
ALPHA
100
AcDbLine
 10
82.135147
 20
206.56778
 30
0.0
 11
82.135147
 21
204.076691
 31
0.0
  0
CIRCLE
  5
1EB
100
AcDbEntity
  8
ALPHA
100
AcDbCircle
 10
81.039307
 20
205.692001
 30
0.0
 40
0.534451
  0
LINE
  5
1EC
100
AcDbEntity
  8
ALPHA
100
AcDbLine
 10
81.581299
 20
206.56778
 30
0.0
 11
81.581299
 21
206.478775
 31
0.0
  0
LINE
  5
1ED
100
AcDbEntity
  8
ALPHA
100
AcDbLine
 10
81.581299
 20
204.076691
 30
0.0
 11
82.135147
 21
204.076691
 31
0.0
  0
LWPOLYLINE
  5
1EE
100
AcDbEntity
  8
ALPHA
100
AcDbPolyline
 90
       11
 70
     0
 43
0.0
 10
81.581243
 20
206.478778
 10
81.167049
 20
206.605766
 10
80.730297
 20
206.571393
 10
80.348113
 20
206.381728
 10
80.087987
 20
206.070263
 10
79.995855
 20
205.692001
 10
80.087987
 20
205.313739
 10
80.348113
 20
205.002275
 10
80.730297
 20
204.812609
 10
81.167049
 20
204.778236
 10
81.581243
 20
204.905225
  0
LINE
  5
1FB
100
AcDbEntity
  8
ALPHA
100
AcDbLine
 10
81.581299
 20
204.905228
 30
0.0
 11
81.581299
 21
204.076691
 31
0.0
  0
LINE
  5
1FC
100
AcDbEntity
  8
ALPHA
100
AcDbLine
 10
63.994965
 20
205.886627
 30
0.0
 11
65.06752
 21
205.886627
 31
0.0
  0
LINE
  5
1FD
100
AcDbEntity
  8
ALPHA
100
AcDbLine
 10
63.994965
 20
205.497391
 30
0.0
 11
65.56279
 21
205.497391
 31
0.0
  0
LINE
  5
1FE
100
AcDbEntity
  8
ALPHA
100
AcDbLine
 10
64.970261
 20
205.347687
 30
0.0
 11
65.510056
 21
205.347687
 31
0.0
  0
LWPOLYLINE
  5
1FF
100
AcDbEntity
  8
ALPHA
100
AcDbPolyline
 90
        9
 70
     0
 43
0.0
 10
63.994918
 20
205.497383
 10
64.066431
 20
205.377758
 10
64.168649
 20
205.278892
 10
64.294821
 20
205.207316
 10
64.436612
 20
205.167757
 10
64.584654
 20
205.16283
 10
64.729168
 20
205.19286
 10
64.860608
 20
205.255863
 10
64.970291
 20
205.347677
  0
LWPOLYLINE
  5
20A
100
AcDbEntity
  8
ALPHA
100
AcDbPolyline
 90
        9
 70
     0
 43
0.0
 10
65.067582
 20
205.88662
 10
64.981625
 20
206.023646
 10
64.855711
 20
206.13125
 10
64.701011
 20
206.199883
 10
64.53125
 20
206.223459
 10
64.361489
 20
206.199883
 10
64.20679
 20
206.13125
 10
64.080875
 20
206.023647
 10
63.994918
 20
205.88662
  0
LWPOLYLINE
  5
215
100
AcDbEntity
  8
ALPHA
100
AcDbPolyline
 90
       15
 70
     0
 43
0.0
 10
65.56288
 20
205.497586
 10
65.560345
 20
205.896385
 10
65.364725
 20
206.256835
 10
65.012724
 20
206.511309
 10
64.570386
 20
206.612059
 10
64.120705
 20
206.540182
 10
63.748053
 20
206.309166
 10
63.522349
 20
205.962353
 10
63.48594
 20
205.564815
 10
63.645659
 20
205.191141
 10
63.971537
 20
204.911441
 10
64.402432
 20
204.778194
 10
64.857496
 20
204.816401
 10
65.251348
 20
205.018893
 10
65.510091
 20
205.347678
  0
ARC
  5
226
100
AcDbEntity
  8
ALPHA
100
AcDbCircle
 10
68.34877
 20
205.355164
 30
0.0
 40
1.272503
100
AcDbArc
 50
63.612284
 51
108.126375
  0
ARC
  5
227
100
AcDbEntity
  8
ALPHA
100
AcDbCircle
 10
68.648193
 20
205.958649
 30
0.0
 40
0.598825
100
AcDbArc
 50
0.0
 51
63.612393
  0
ARC
  5
228
100
AcDbEntity
  8
ALPHA
100
AcDbCircle
 10
68.13916
 20
205.995407
 30
0.0
 40
0.598825
100
AcDbArc
 50
108.12643
 51
144.765859
  0
LINE
  5
229
100
AcDbEntity
  8
ALPHA
100
AcDbLine
 10
66.402588
 20
205.837891
 30
0.0
 11
66.402588
 21
204.816238
 31
0.0
  0
ARC
  5
22A
100
AcDbEntity
  8
ALPHA
100
AcDbCircle
 10
66.971375
 20
205.579727
 30
0.0
 40
1.047943
100
AcDbArc
 50
69.512638
 51
122.878382
  0
ARC
  5
22B
100
AcDbEntity
  8
ALPHA
100
AcDbCircle
 10
67.076263
 20
205.860199
 30
0.0
 40
0.748531
100
AcDbArc
 50
39.954103
 51
69.512638
  0
LINE
  5
22C
100
AcDbEntity
  8
ALPHA
100
AcDbLine
 10
76.709808
 20
206.56778
 30
0.0
 11
76.709808
 21
204.816238
 31
0.0
  0
LINE
  5
22D
100
AcDbEntity
  8
ALPHA
100
AcDbLine
 10
78.775833
 20
205.952652
 30
0.0
 11
78.775833
 21
204.816238
 31
0.0
  0
LINE
  5
22E
100
AcDbEntity
  8
ALPHA
100
AcDbLine
 10
77.263809
 20
205.812134
 30
0.0
 11
77.263809
 21
204.816238
 31
0.0
  0
LINE
  5
22F
100
AcDbEntity
  8
ALPHA
100
AcDbLine
 10
78.221817
 20
205.812134
 30
0.0
 11
78.221817
 21
204.816238
 31
0.0
  0
LINE
  5
230
100
AcDbEntity
  8
ALPHA
100
AcDbLine
 10
76.709808
 20
204.816238
 30
0.0
 11
77.263809
 21
204.816238
 31
0.0
  0
LINE
  5
231
100
AcDbEntity
  8
ALPHA
100
AcDbLine
 10
78.221817
 20
204.816238
 30
0.0
 11
78.775833
 21
204.816238
 31
0.0
  0
LINE
  5
232
100
AcDbEntity
  8
ALPHA
100
AcDbLine
 10
76.709808
 20
206.56778
 30
0.0
 11
77.263809
 21
206.56778
 31
0.0
  0
ARC
  5
233
100
AcDbEntity
  8
ALPHA
100
AcDbCircle
 10
77.742813
 20
205.570755
 30
0.0
 40
0.628766
100
AcDbArc
 50
63.612338
 51
116.387953
  0
ARC
  5
234
100
AcDbEntity
  8
ALPHA
100
AcDbCircle
 10
77.86264
 20
205.812134
 30
0.0
 40
0.359295
100
AcDbArc
 50
0.0
 51
63.612502
  0
ARC
  5
235
100
AcDbEntity
  8
ALPHA
100
AcDbCircle
 10
77.622986
 20
205.812134
 30
0.0
 40
0.359295
100
AcDbArc
 50
116.388063
 51
180.000019
  0
LINE
  5
236
100
AcDbEntity
  8
ALPHA
100
AcDbLine
 10
77.263809
 20
206.56778
 30
0.0
 11
77.263809
 21
206.393921
 31
0.0
  0
ARC
  5
237
100
AcDbEntity
  8
ALPHA
100
AcDbCircle
 10
77.877579
 20
205.349182
 30
0.0
 40
1.272503
100
AcDbArc
 50
63.612284
 51
101.537155
  0
ARC
  5
238
100
AcDbEntity
  8
ALPHA
100
AcDbCircle
 10
78.176987
 20
205.952652
 30
0.0
 40
0.598825
100
AcDbArc
 50
0.0
 51
63.612393
  0
ARC
  5
239
100
AcDbEntity
  8
ALPHA
100
AcDbCircle
 10
77.757751
 20
205.935898
 30
0.0
 40
0.673678
100
AcDbArc
 50
101.537319
 51
137.166591
  0
LINE
  5
23A
100
AcDbEntity
  8
ALPHA
100
AcDbLine
 10
84.590378
 20
204.816216
 30
0.0
 11
84.590382
 21
206.567757
 31
0.0
  0
LINE
  5
23B
100
AcDbEntity
  8
ALPHA
100
AcDbLine
 10
82.524368
 20
205.431343
 30
0.0
 11
82.524368
 21
206.567772
 31
0.0
  0
LINE
  5
23C
100
AcDbEntity
  8
ALPHA
100
AcDbLine
 10
84.036377
 20
205.571861
 30
0.0
 11
84.036381
 21
206.567772
 31
0.0
  0
LINE
  5
23D
100
AcDbEntity
  8
ALPHA
100
AcDbLine
 10
83.078369
 20
205.571861
 30
0.0
 11
83.078369
 21
206.567772
 31
0.0
  0
LINE
  5
23E
100
AcDbEntity
  8
ALPHA
100
AcDbLine
 10
84.590382
 20
206.567757
 30
0.0
 11
84.036381
 21
206.567757
 31
0.0
  0
LINE
  5
23F
100
AcDbEntity
  8
ALPHA
100
AcDbLine
 10
83.078369
 20
206.567757
 30
0.0
 11
82.524368
 21
206.567757
 31
0.0
  0
LINE
  5
240
100
AcDbEntity
  8
ALPHA
100
AcDbLine
 10
84.590378
 20
204.816216
 30
0.0
 11
84.036377
 21
204.816216
 31
0.0
  0
ARC
  5
241
100
AcDbEntity
  8
ALPHA
100
AcDbCircle
 10
83.557373
 20
205.813263
 30
0.0
 40
0.628766
100
AcDbArc
 50
243.610253
 51
296.38789
  0
ARC
  5
242
100
AcDbEntity
  8
ALPHA
100
AcDbCircle
 10
83.677185
 20
205.571869
 30
0.0
 40
0.359295
100
AcDbArc
 50
296.387999
 51
359.999955
  0
LINE
  5
243
100
AcDbEntity
  8
ALPHA
100
AcDbLine
 10
84.036377
 20
204.816216
 30
0.0
 11
84.036377
 21
204.990089
 31
0.0
  0
ARC
  5
244
100
AcDbEntity
  8
ALPHA
100
AcDbCircle
 10
83.422607
 20
206.034836
 30
0.0
 40
1.272503
100
AcDbArc
 50
243.612221
 51
281.537092
  0
ARC
  5
245
100
AcDbEntity
  8
ALPHA
100
AcDbCircle
 10
83.123184
 20
205.431351
 30
0.0
 40
0.598825
100
AcDbArc
 50
179.999964
 51
243.612357
  0
ARC
  5
246
100
AcDbEntity
  8
ALPHA
100
AcDbCircle
 10
83.542419
 20
205.448105
 30
0.0
 40
0.673678
100
AcDbArc
 50
281.537256
 51
317.166528
  0
ARC
  5
247
100
AcDbEntity
  8
ALPHA
100
AcDbCircle
 10
83.437683
 20
205.571869
 30
0.0
 40
0.359295
100
AcDbArc
 50
179.999964
 51
243.610062
  0
LINE
  5
248
100
AcDbEntity
  8
ALPHA
100
AcDbLine
 10
65.848572
 20
206.56778
 30
0.0
 11
66.402588
 21
206.56778
 31
0.0
  0
LINE
  5
249
100
AcDbEntity
  8
ALPHA
100
AcDbLine
 10
81.581299
 20
206.56778
 30
0.0
 11
82.135147
 21
206.56778
 31
0.0
  0
LINE
  5
24A
100
AcDbEntity
  8
ALPHA
100
AcDbLine
 10
79.179977
 20
206.56778
 30
0.0
 11
79.733978
 21
206.56778
 31
0.0
  0
LINE
  5
24B
100
AcDbEntity
  8
ALPHA
100
AcDbLine
 10
79.179977
 20
206.735443
 30
0.0
 11
79.733978
 21
206.735443
 31
0.0
  0
LINE
  5
24C
100
AcDbEntity
  8
ALPHA
100
AcDbLine
 10
79.179977
 20
207.162109
 30
0.0
 11
79.733978
 21
207.162109
 31
0.0
  0
LINE
  5
24D
100
AcDbEntity
  8
ALPHA
100
AcDbLine
 10
57.990128
 20
208.758575
 30
0.0
 11
87.626999
 21
208.758575
 31
0.0
  0
LINE
  5
24E
100
AcDbEntity
  8
ALPHA
100
AcDbLine
 10
57.990128
 20
202.741302
 30
0.0
 11
87.626999
 21
202.741302
 31
0.0
  0
LINE
  5
24F
100
AcDbEntity
  8
ALPHA
100
AcDbLine
 10
51.742279
 20
202.626022
 30
0.0
 11
87.742279
 21
202.626022
 31
0.0
  0
LINE
  5
250
100
AcDbEntity
  8
ALPHA
100
AcDbLine
 10
51.742279
 20
208.873856
 30
0.0
 11
87.742279
 21
208.873856
 31
0.0
  0
LINE
  5
251
100
AcDbEntity
  8
ALPHA
100
AcDbLine
 10
57.990128
 20
208.758575
 30
0.0
 11
57.990128
 21
202.741302
 31
0.0
  0
LINE
  5
252
100
AcDbEntity
  8
ALPHA
100
AcDbLine
 10
87.626999
 20
208.758575
 30
0.0
 11
87.626999
 21
202.741302
 31
0.0
  0
LINE
  5
253
100
AcDbEntity
  8
ALPHA
100
AcDbLine
 10
87.742279
 20
208.873856
 30
0.0
 11
87.742279
 21
202.626022
 31
0.0
  0
CIRCLE
  5
254
100
AcDbEntity
  8
ALPHA
100
AcDbCircle
 10
54.866211
 20
205.749939
 30
0.0
 40
2.231371
  0
CIRCLE
  5
255
100
AcDbEntity
  8
ALPHA
100
AcDbCircle
 10
54.866211
 20
205.749939
 30
0.0
 40
1.985919
  0
ARC
  5
256
100
AcDbEntity
  8
ALPHA
100
AcDbCircle
 10
54.866211
 20
205.749939
 30
0.0
 40
1.785097
100
AcDbArc
 50
8.626922
 51
26.743691
  0
ARC
  5
257
100
AcDbEntity
  8
ALPHA
100
AcDbCircle
 10
54.866211
 20
205.749939
 30
0.0
 40
1.338822
100
AcDbArc
 50
11.536958
 51
15.466014
  0
LINE
  5
258
100
AcDbEntity
  8
ALPHA
100
AcDbLine
 10
55.089294
 20
206.910248
 30
0.0
 11
55.089294
 21
206.553223
 31
0.0
  0
LINE
  5
259
100
AcDbEntity
  8
ALPHA
100
AcDbLine
 10
54.643112
 20
206.910248
 30
0.0
 11
54.643112
 21
206.553223
 31
0.0
  0
LINE
  5
25A
100
AcDbEntity
  8
ALPHA
100
AcDbLine
 10
53.795105
 20
206.106964
 30
0.0
 11
53.795105
 21
205.839188
 31
0.0
  0
LINE
  5
25B
100
AcDbEntity
  8
ALPHA
100
AcDbLine
 10
55.535645
 20
205.928436
 30
0.0
 11
55.535645
 21
205.839188
 31
0.0
  0
LINE
  5
25C
100
AcDbEntity
  8
ALPHA
100
AcDbLine
 10
55.937302
 20
205.928436
 30
0.0
 11
55.937302
 21
205.30368
 31
0.0
  0
LINE
  5
25D
100
AcDbEntity
  8
ALPHA
100
AcDbLine
 10
53.795105
 20
205.839188
 30
0.0
 11
54.643112
 21
205.839188
 31
0.0
  0
LINE
  5
25E
100
AcDbEntity
  8
ALPHA
100
AcDbLine
 10
53.117187
 20
206.106964
 30
0.0
 11
53.348923
 21
206.106964
 31
0.0
  0
LINE
  5
25F
100
AcDbEntity
  8
ALPHA
100
AcDbLine
 10
53.272018
 20
206.553223
 30
0.0
 11
54.643112
 21
206.553223
 31
0.0
  0
LINE
  5
260
100
AcDbEntity
  8
ALPHA
100
AcDbLine
 10
54.198242
 20
206.910248
 30
0.0
 11
54.643112
 21
206.910248
 31
0.0
  0
LINE
  5
261
100
AcDbEntity
  8
ALPHA
100
AcDbLine
 10
54.088074
 20
207.356522
 30
0.0
 11
55.644333
 21
207.356522
 31
0.0
  0
LINE
  5
262
100
AcDbEntity
  8
ALPHA
100
AcDbLine
 10
53.795105
 20
205.392929
 30
0.0
 11
54.643112
 21
205.392929
 31
0.0
  0
LINE
  5
263
100
AcDbEntity
  8
ALPHA
100
AcDbLine
 10
53.194092
 20
205.125168
 30
0.0
 11
53.348923
 21
205.125168
 31
0.0
  0
LINE
  5
264
100
AcDbEntity
  8
ALPHA
100
AcDbLine
 10
53.438126
 20
204.678894
 30
0.0
 11
54.643112
 21
204.678894
 31
0.0
  0
LINE
  5
265
100
AcDbEntity
  8
ALPHA
100
AcDbLine
 10
54.553757
 20
204.366501
 30
0.0
 11
54.643112
 21
204.366501
 31
0.0
  0
LINE
  5
266
100
AcDbEntity
  8
ALPHA
100
AcDbLine
 10
54.553757
 20
203.964844
 30
0.0
 11
55.17865
 21
203.964844
 31
0.0
  0
LINE
  5
267
100
AcDbEntity
  8
ALPHA
100
AcDbLine
 10
55.17865
 20
204.366501
 30
0.0
 11
55.17865
 21
203.964844
 31
0.0
  0
LINE
  5
268
100
AcDbEntity
  8
ALPHA
100
AcDbLine
 10
54.553757
 20
204.366501
 30
0.0
 11
54.553757
 21
203.964844
 31
0.0
  0
LINE
  5
269
100
AcDbEntity
  8
ALPHA
100
AcDbLine
 10
55.089294
 20
204.366501
 30
0.0
 11
55.17865
 21
204.366501
 31
0.0
  0
LINE
  5
26A
100
AcDbEntity
  8
ALPHA
100
AcDbLine
 10
55.089294
 20
204.678894
 30
0.0
 11
56.294281
 21
204.678894
 31
0.0
  0
LINE
  5
26B
100
AcDbEntity
  8
ALPHA
100
AcDbLine
 10
54.643112
 20
204.678894
 30
0.0
 11
54.643112
 21
204.366501
 31
0.0
  0
LINE
  5
26C
100
AcDbEntity
  8
ALPHA
100
AcDbLine
 10
55.089294
 20
204.678894
 30
0.0
 11
55.089294
 21
204.366501
 31
0.0
  0
LINE
  5
26D
100
AcDbEntity
  8
ALPHA
100
AcDbLine
 10
54.643112
 20
205.392929
 30
0.0
 11
54.643112
 21
205.125168
 31
0.0
  0
LINE
  5
26E
100
AcDbEntity
  8
ALPHA
100
AcDbLine
 10
55.089294
 20
205.392929
 30
0.0
 11
55.089294
 21
205.125168
 31
0.0
  0
LINE
  5
26F
100
AcDbEntity
  8
ALPHA
100
AcDbLine
 10
53.795105
 20
205.392929
 30
0.0
 11
53.795105
 21
205.125168
 31
0.0
  0
LINE
  5
270
100
AcDbEntity
  8
ALPHA
100
AcDbLine
 10
55.089294
 20
205.125168
 30
0.0
 11
56.050385
 21
205.125168
 31
0.0
  0
LINE
  5
271
100
AcDbEntity
  8
ALPHA
100
AcDbLine
 10
55.089294
 20
205.392929
 30
0.0
 11
55.535645
 21
205.392929
 31
0.0
  0
LINE
  5
272
100
AcDbEntity
  8
ALPHA
100
AcDbLine
 10
54.643112
 20
206.106964
 30
0.0
 11
54.643112
 21
205.839188
 31
0.0
  0
LINE
  5
273
100
AcDbEntity
  8
ALPHA
100
AcDbLine
 10
55.089294
 20
206.106964
 30
0.0
 11
56.156586
 21
206.106964
 31
0.0
  0
LINE
  5
274
100
AcDbEntity
  8
ALPHA
100
AcDbLine
 10
55.089294
 20
205.839188
 30
0.0
 11
55.535645
 21
205.839188
 31
0.0
  0
LINE
  5
275
100
AcDbEntity
  8
ALPHA
100
AcDbLine
 10
53.795105
 20
206.106964
 30
0.0
 11
54.643112
 21
206.106964
 31
0.0
  0
LINE
  5
276
100
AcDbEntity
  8
ALPHA
100
AcDbLine
 10
53.795105
 20
205.125168
 30
0.0
 11
54.643112
 21
205.125168
 31
0.0
  0
ARC
  5
277
100
AcDbEntity
  8
ALPHA
100
AcDbCircle
 10
54.866211
 20
205.749939
 30
0.0
 40
1.785097
100
AcDbArc
 50
200.487321
 51
216.869885
  0
ARC
  5
278
100
AcDbEntity
  8
ALPHA
100
AcDbCircle
 10
54.866211
 20
205.749939
 30
0.0
 40
1.785097
100
AcDbArc
 50
153.256276
 51
168.46301
  0
ARC
  5
279
100
AcDbEntity
  8
ALPHA
100
AcDbCircle
 10
54.866211
 20
205.749939
 30
0.0
 40
1.785097
100
AcDbArc
 50
323.130102
 51
342.542402
  0
LINE
  5
27A
100
AcDbEntity
  8
ALPHA
100
AcDbLine
 10
53.348923
 20
206.106964
 30
0.0
 11
53.348923
 21
205.125168
 31
0.0
  0
ARC
  5
27B
100
AcDbEntity
  8
ALPHA
100
AcDbCircle
 10
54.866211
 20
205.749939
 30
0.0
 40
1.785097
100
AcDbArc
 50
115.841975
 51
143.130111
  0
ARC
  5
27C
100
AcDbEntity
  8
ALPHA
100
AcDbCircle
 10
54.866211
 20
205.749939
 30
0.0
 40
1.785097
100
AcDbArc
 50
36.869897
 51
64.158043
  0
LINE
  5
27D
100
AcDbEntity
  8
ALPHA
100
AcDbLine
 10
55.089294
 20
206.910248
 30
0.0
 11
55.53418
 21
206.910248
 31
0.0
  0
LINE
  5
27E
100
AcDbEntity
  8
ALPHA
100
AcDbLine
 10
55.535645
 20
205.928436
 30
0.0
 11
55.937302
 21
205.928436
 31
0.0
  0
LINE
  5
27F
100
AcDbEntity
  8
ALPHA
100
AcDbLine
 10
55.535645
 20
205.30368
 30
0.0
 11
55.937302
 21
205.30368
 31
0.0
  0
LINE
  5
280
100
AcDbEntity
  8
ALPHA
100
AcDbLine
 10
55.535645
 20
205.392929
 30
0.0
 11
55.535645
 21
205.30368
 31
0.0
  0
LINE
  5
281
100
AcDbEntity
  8
ALPHA
100
AcDbLine
 10
55.089294
 20
206.106964
 30
0.0
 11
55.089294
 21
205.839188
 31
0.0
  0
LINE
  5
282
100
AcDbEntity
  8
ALPHA
100
AcDbLine
 10
56.093307
 20
205.214417
 30
0.0
 11
56.569092
 21
205.214417
 31
0.0
  0
LINE
  5
283
100
AcDbEntity
  8
ALPHA
100
AcDbLine
 10
56.177979
 20
206.0177
 30
0.0
 11
56.631042
 21
206.0177
 31
0.0
  0
LINE
  5
284
100
AcDbEntity
  8
ALPHA
100
AcDbLine
 10
55.669525
 20
206.820999
 30
0.0
 11
56.294281
 21
206.820999
 31
0.0
  0
LINE
  5
285
100
AcDbEntity
  8
ALPHA
100
AcDbLine
 10
53.438126
 20
206.820999
 30
0.0
 11
54.062881
 21
206.820999
 31
0.0
  0
LINE
  5
286
100
AcDbEntity
  8
ALPHA
100
AcDbLine
 10
55.089294
 20
206.553223
 30
0.0
 11
56.460388
 21
206.553223
 31
0.0
  0
ARC
  5
287
100
AcDbEntity
  8
ALPHA
100
AcDbCircle
 10
54.866211
 20
205.749939
 30
0.0
 40
1.338822
100
AcDbArc
 50
119.926483
 51
126.86989
  0
ARC
  5
288
100
AcDbEntity
  8
ALPHA
100
AcDbCircle
 10
54.866211
 20
205.749939
 30
0.0
 40
1.338822
100
AcDbArc
 50
53.130085
 51
60.073535
  0
ARC
  5
289
100
AcDbEntity
  8
ALPHA
100
AcDbCircle
 10
54.866211
 20
205.749939
 30
0.0
 40
1.338822
100
AcDbArc
 50
332.181852
 51
336.421815
  0
LINE
  5
28A
100
AcDbEntity
  8
ALPHA
100
AcDbLine
 10
51.742279
 20
202.626022
 30
0.0
 11
51.742279
 21
208.873856
 31
0.0
  0
LINE
  5
28B
100
AcDbEntity
  8
ALPHA
100
AcDbLine
 10
76.305664
 20
205.924789
 30
0.0
 11
76.305664
 21
204.816238
 31
0.0
  0
LINE
  5
28C
100
AcDbEntity
  8
ALPHA
100
AcDbLine
 10
75.751648
 20
205.64476
 30
0.0
 11
75.751648
 21
205.357086
 31
0.0
  0
LINE
  5
28D
100
AcDbEntity
  8
ALPHA
100
AcDbLine
 10
75.751648
 20
204.816238
 30
0.0
 11
76.305664
 21
204.816238
 31
0.0
  0
ARC
  5
28E
100
AcDbEntity
  8
ALPHA
100
AcDbCircle
 10
75.265182
 20
204.49437
 30
0.0
 40
2.095887
100
AcDbArc
 50
72.842438
 51
101.469509
  0
ARC
  5
28F
100
AcDbEntity
  8
ALPHA
100
AcDbCircle
 10
75.706833
 20
205.924789
 30
0.0
 40
0.598825
100
AcDbArc
 50
0.0
 51
72.842438
  0
LINE
  5
290
100
AcDbEntity
  8
ALPHA
100
AcDbLine
 10
74.269669
 20
205.968964
 30
0.0
 11
74.756149
 21
205.968964
 31
0.0
  0
ARC
  5
291
100
AcDbEntity
  8
ALPHA
100
AcDbCircle
 10
74.79364
 20
205.968964
 30
0.0
 40
0.523972
100
AcDbArc
 50
123.565335
 51
180.000019
  0
ARC
  5
292
100
AcDbEntity
  8
ALPHA
100
AcDbCircle
 10
75.041931
 20
205.594742
 30
0.0
 40
0.97309
100
AcDbArc
 50
101.469509
 51
123.565335
  0
LINE
  5
293
100
AcDbEntity
  8
ALPHA
100
AcDbLine
 10
75.751648
 20
204.992447
 30
0.0
 11
75.751648
 21
204.816238
 31
0.0
  0
ARC
  5
294
100
AcDbEntity
  8
ALPHA
100
AcDbCircle
 10
74.935883
 20
205.968964
 30
0.0
 40
0.179648
100
AcDbArc
 50
134.09918
 51
180.000019
  0
ARC
  5
295
100
AcDbEntity
  8
ALPHA
100
AcDbCircle
 10
75.272644
 20
205.26535
 30
0.0
 40
0.97309
100
AcDbArc
 50
70.423403
 51
109.639945
  0
ARC
  5
296
100
AcDbEntity
  8
ALPHA
100
AcDbCircle
 10
75.071381
 20
205.82933
 30
0.0
 40
0.374266
100
AcDbArc
 50
109.639945
 51
134.180924
  0
ARC
  5
297
100
AcDbEntity
  8
ALPHA
100
AcDbCircle
 10
75.448288
 20
205.759018
 30
0.0
 40
0.449119
100
AcDbArc
 50
55.411802
 51
70.423403
  0
ARC
  5
298
100
AcDbEntity
  8
ALPHA
100
AcDbCircle
 10
75.37738
 20
207.466019
 30
0.0
 40
1.571915
100
AcDbArc
 50
263.312453
 51
278.890038
  0
ARC
  5
299
100
AcDbEntity
  8
ALPHA
100
AcDbCircle
 10
75.585541
 20
206.134827
 30
0.0
 40
0.224559
100
AcDbArc
 50
278.851243
 51
298.677643
  0
ARC
  5
29A
100
AcDbEntity
  8
ALPHA
100
AcDbCircle
 10
75.63945
 20
206.036316
 30
0.0
 40
0.11228
100
AcDbArc
 50
298.677588
 51
55.411832
  0
ARC
  5
29B
100
AcDbEntity
  8
ALPHA
100
AcDbCircle
 10
75.003128
 20
204.26918
 30
0.0
 40
1.646769
100
AcDbArc
 50
83.312899
 51
102.239517
  0
ARC
  5
29C
100
AcDbEntity
  8
ALPHA
100
AcDbCircle
 10
74.718796
 20
205.347687
 30
0.0
 40
0.523972
100
AcDbArc
 50
121.643156
 51
226.388642
  0
ARC
  5
29D
100
AcDbEntity
  8
ALPHA
100
AcDbCircle
 10
74.797302
 20
205.220245
 30
0.0
 40
0.673678
100
AcDbArc
 50
102.15832
 51
121.643156
  0
ARC
  5
29E
100
AcDbEntity
  8
ALPHA
100
AcDbCircle
 10
75.003128
 20
206.335739
 30
0.0
 40
1.571915
100
AcDbArc
 50
258.372478
 51
289.783206
  0
ARC
  5
29F
100
AcDbEntity
  8
ALPHA
100
AcDbCircle
 10
74.822205
 20
205.455948
 30
0.0
 40
0.673678
100
AcDbArc
 50
226.254729
 51
258.372478
  0
ARC
  5
2A0
100
AcDbEntity
  8
ALPHA
100
AcDbCircle
 10
75.332565
 20
205.42009
 30
0.0
 40
0.598825
100
AcDbArc
 50
289.783206
 51
314.427021
  0
ARC
  5
2A1
100
AcDbEntity
  8
ALPHA
100
AcDbCircle
 10
75.130417
 20
206.201004
 30
0.0
 40
1.047943
100
AcDbArc
 50
254.119838
 51
306.360021
  0
ARC
  5
2A2
100
AcDbEntity
  8
ALPHA
100
AcDbCircle
 10
74.883438
 20
205.332718
 30
0.0
 40
0.145195
100
AcDbArc
 50
120.410334
 51
254.119866
  0
ARC
  5
2A3
100
AcDbEntity
  8
ALPHA
100
AcDbCircle
 10
75.085587
 20
203.865585
 30
0.0
 40
1.646769
100
AcDbArc
 50
84.72112
 51
93.88248
  0
ARC
  5
2A4
100
AcDbEntity
  8
ALPHA
100
AcDbCircle
 10
74.999313
 20
205.135178
 30
0.0
 40
0.374266
100
AcDbArc
 50
93.88248
 51
120.410388
  0
ARC
  5
2A5
100
AcDbEntity
  8
ALPHA
100
AcDbCircle
 10
75.332565
 20
206.54895
 30
0.0
 40
1.047943
100
AcDbArc
 50
264.710074
 51
285.826669
  0
ARC
  5
2A6
100
AcDbEntity
  8
ALPHA
100
AcDbCircle
 10
75.557129
 20
205.756775
 30
0.0
 40
0.224559
100
AcDbArc
 50
285.826669
 51
330.073563
  0
LINE
  5
2A7
100
AcDbEntity
  8
ALPHA
100
AcDbLine
 10
119.142273
 20
192.25
 30
0.0
 11
119.142273
 21
200.25
 31
0.0
  0
LINE
  5
2A8
100
AcDbEntity
  8
ALPHA
100
AcDbLine
 10
143.142273
 20
192.25
 30
0.0
 11
143.142273
 21
200.25
 31
0.0
  0
LINE
  5
2A9
100
AcDbEntity
  8
ALPHA
100
AcDbLine
 10
119.142273
 20
200.25
 30
0.0
 11
143.142273
 21
200.25
 31
0.0
  0
LINE
  5
2AA
100
AcDbEntity
  8
ALPHA
100
AcDbLine
 10
119.142273
 20
192.25
 30
0.0
 11
143.142273
 21
192.25
 31
0.0
  0
INSERT
  5
2EF
100
AcDbEntity
  8
0
100
AcDbBlockReference
  2
SCH_ISO
 10
0.0
 20
0.0
 30
0.0
  0
DIMENSION
  5
2FC
100
AcDbEntity
  8
COTATION1
100
AcDbDimension
  2
*D16
 10
55.000076
 20
62.975
 30
0.0
 11
41.750046
 21
65.475
 31
0.0
  3
SC_STAND
100
AcDbAlignedDimension
 13
28.500015
 23
112.750001
 33
0.0
 14
55.000076
 24
91.75
 34
0.0
100
AcDbRotatedDimension
  0
DIMENSION
  5
308
100
AcDbEntity
  8
COTATION1
100
AcDbDimension
  2
*D15
 10
95.000015
 20
62.975
 30
0.0
 11
75.000046
 21
65.475
 31
0.0
  3
SC_STAND
100
AcDbAlignedDimension
 13
55.000076
 23
91.75
 33
0.0
 14
95.000015
 24
91.75
 34
0.0
100
AcDbRotatedDimension
1001
ACAD
1000
DSTYLE
1002
{
1070
    75
1070
     1
1070
   287
1070
     4
1002
}
  0
DIMENSION
  5
314
100
AcDbEntity
  8
COTATION1
100
AcDbDimension
  2
*D14
 10
135.000015
 20
62.975
 30
0.0
 11
115.000015
 21
65.475
 31
0.0
  3
SC_STAND
100
AcDbAlignedDimension
 13
95.000015
 23
91.75
 33
0.0
 14
135.000015
 24
91.75
 34
0.0
100
AcDbRotatedDimension
1001
ACAD
1000
DSTYLE
1002
{
1070
    75
1070
     1
1070
   287
1070
     4
1002
}
  0
DIMENSION
  5
320
100
AcDbEntity
  8
COTATION1
100
AcDbDimension
  2
*D13
 10
192.499954
 20
62.975
 30
0.0
 11
163.749985
 21
65.475
 31
0.0
  3
SC_STAND
100
AcDbAlignedDimension
 13
135.000015
 23
91.75
 33
0.0
 14
192.499954
 24
105.75
 34
0.0
100
AcDbRotatedDimension
1001
ACAD
1000
DSTYLE
1002
{
1070
    75
1070
     1
1070
   287
1070
     4
1002
}
  0
DIMENSION
  5
32D
100
AcDbEntity
  8
COTATION1
100
AcDbDimension
  2
*D12
 10
28.500015
 20
45.924999
 30
0.0
 11
110.499985
 21
48.424999
 31
0.0
  3
SC_STAND
100
AcDbAlignedDimension
 13
192.499954
 23
105.6875
 33
0.0
 14
28.500015
 24
112.750001
 34
0.0
100
AcDbRotatedDimension
  0
DIMENSION
  5
33A
100
AcDbEntity
  8
COTATION1
100
AcDbDimension
  2
*D11
 10
45.000015
 20
267.575
 30
0.0
 11
55.000015
 21
270.075
 31
0.0
  3
SC_STAND
100
AcDbAlignedDimension
 13
65.000015
 23
251.75
 33
0.0
 14
45.000015
 24
251.75
 34
0.0
100
AcDbRotatedDimension
  0
DIMENSION
  5
347
100
AcDbEntity
  8
COTATION1
100
AcDbDimension
  2
*D10
 10
215.510477
 20
241.75
 30
0.0
 11
213.010477
 21
166.75
 31
0.0
  3
SC_STAND
100
AcDbAlignedDimension
 13
135.000015
 23
91.75
 33
0.0
 14
134.999954
 24
241.75
 34
0.0
 50
90.0
100
AcDbRotatedDimension
  0
ENDSEC
  0
SECTION
  2
OBJECTS
  0
DICTIONARY
  5
3A5
100
AcDbDictionary
  3
ACAD_GROUP
350
3A6
  3
ACAD_MLINESTYLE
350
3B3
  3
ACDBVARIABLEDICTIONARY
350
3FE
  0
DICTIONARY
  5
3A6
102
{ACAD_REACTORS
330
3A5
102
}
100
AcDbDictionary
  0
DICTIONARY
  5
3B3
102
{ACAD_REACTORS
330
3A5
102
}
100
AcDbDictionary
  3
STANDARD
350
3B4
  0
DICTIONARY
  5
3FE
102
{ACAD_REACTORS
330
3A5
102
}
100
AcDbDictionary
  3
DIMADEC
350
3FF
  0
MLINESTYLE
  5
3B4
102
{ACAD_REACTORS
330
3B3
102
}
100
AcDbMlineStyle
  2
STANDARD
 70
     0
  3

 62
   256
 51
90.0
 52
90.0
 71
     2
 49
0.5
 62
   256
  6
BYLAYER
 49
-0.5
 62
   256
  6
BYLAYER
  0
DICTIONARYVAR
  5
3FF
102
{ACAD_REACTORS
330
3FE
102
}
100
DictionaryVariables
280
     0
  1
0
  0
ENDSEC
  0
EOF
