  0
SECTION
  2
HEADER
  9
$ACADVER
  1
AC1014
  9
$ACADMAINTVER
 70
     0
  9
$DWGCODEPAGE
  3
ANSI_1252
  9
$INSBASE
 10
93.894301
 20
236.06014
 30
0.0
  9
$EXTMIN
 10
0.136489
 20
-5.150018
 30
0.0
  9
$EXTMAX
 10
116.136667
 20
36.536224
 30
0.0
  9
$LIMMIN
 10
0.0
 20
0.0
  9
$LIMMAX
 10
210.0
 20
297.0
  9
$ORTHOMODE
 70
     0
  9
$REGENMODE
 70
     1
  9
$FILLMODE
 70
     1
  9
$QTEXTMODE
 70
     0
  9
$MIRRTEXT
 70
     0
  9
$DRAGMODE
 70
     1
  9
$LTSCALE
 40
7.0
  9
$OSMODE
 70
  4095
  9
$ATTMODE
 70
     1
  9
$TEXTSIZE
 40
2.5
  9
$TRACEWID
 40
0.05
  9
$TEXTSTYLE
  7
STANDARD
  9
$CLAYER
  8
COTATION1
  9
$CELTYPE
  6
BYLAYER
  9
$CECOLOR
 62
   256
  9
$CELTSCALE
 40
1.0
  9
$DELOBJ
 70
     1
  9
$DISPSILH
 70
     0
  9
$DIMSCALE
 40
1.0
  9
$DIMASZ
 40
3.0
  9
$DIMEXO
 40
0.0625
  9
$DIMDLI
 40
0.38
  9
$DIMRND
 40
0.01
  9
$DIMDLE
 40
0.0
  9
$DIMEXE
 40
0.18
  9
$DIMTP
 40
0.0
  9
$DIMTM
 40
0.0
  9
$DIMTXT
 40
2.5
  9
$DIMCEN
 40
0.09
  9
$DIMTSZ
 40
0.0
  9
$DIMTOL
 70
     0
  9
$DIMLIM
 70
     0
  9
$DIMTIH
 70
     0
  9
$DIMTOH
 70
     0
  9
$DIMSE1
 70
     0
  9
$DIMSE2
 70
     0
  9
$DIMTAD
 70
     1
  9
$DIMZIN
 70
    12
  9
$DIMBLK
  1

  9
$DIMASO
 70
     1
  9
$DIMSHO
 70
     0
  9
$DIMPOST
  1

  9
$DIMAPOST
  1

  9
$DIMALT
 70
     0
  9
$DIMALTD
 70
     2
  9
$DIMALTF
 40
25.4
  9
$DIMLFAC
 40
1.0
  9
$DIMTOFL
 70
     1
  9
$DIMTVP
 40
0.0
  9
$DIMTIX
 70
     0
  9
$DIMSOXD
 70
     0
  9
$DIMSAH
 70
     0
  9
$DIMBLK1
  1

  9
$DIMBLK2
  1

  9
$DIMSTYLE
  2
SC_STAND
  9
$DIMCLRD
 70
     0
  9
$DIMCLRE
 70
     0
  9
$DIMCLRT
 70
     0
  9
$DIMTFAC
 40
1.0
  9
$DIMGAP
 40
1.0
  9
$DIMJUST
 70
     0
  9
$DIMSD1
 70
     0
  9
$DIMSD2
 70
     0
  9
$DIMTOLJ
 70
     1
  9
$DIMTZIN
 70
    12
  9
$DIMALTZ
 70
    12
  9
$DIMALTTZ
 70
    12
  9
$DIMFIT
 70
     5
  9
$DIMUPT
 70
     0
  9
$DIMUNIT
 70
     2
  9
$DIMDEC
 70
     3
  9
$DIMTDEC
 70
     3
  9
$DIMALTU
 70
     2
  9
$DIMALTTD
 70
     2
  9
$DIMTXSTY
  7
STANDARD
  9
$DIMAUNIT
 70
     0
  9
$LUNITS
 70
     2
  9
$LUPREC
 70
     3
  9
$SKETCHINC
 40
0.1
  9
$FILLETRAD
 40
0.0625
  9
$AUNITS
 70
     0
  9
$AUPREC
 70
     0
  9
$MENU
  1
ACAD
  9
$ELEVATION
 40
0.0
  9
$PELEVATION
 40
0.0
  9
$THICKNESS
 40
0.0
  9
$LIMCHECK
 70
     0
  9
$BLIPMODE
 70
     1
  9
$CHAMFERA
 40
0.0
  9
$CHAMFERB
 40
0.0
  9
$CHAMFERC
 40
0.0
  9
$CHAMFERD
 40
0.0
  9
$SKPOLY
 70
     0
  9
$TDCREATE
 40
2450953.590960648
  9
$TDUPDATE
 40
2453950.717461134
  9
$TDINDWG
 40
0.0039627546
  9
$TDUSRTIMER
 40
0.0039627546
  9
$USRTIMER
 70
     1
  9
$ANGBASE
 50
0.0
  9
$ANGDIR
 70
     0
  9
$PDMODE
 70
     0
  9
$PDSIZE
 40
0.0
  9
$PLINEWID
 40
0.0
  9
$COORDS
 70
     0
  9
$SPLFRAME
 70
     0
  9
$SPLINETYPE
 70
     6
  9
$SPLINESEGS
 70
     8
  9
$ATTDIA
 70
     0
  9
$ATTREQ
 70
     1
  9
$HANDLING
 70
     1
  9
$HANDSEED
  5
FE2
  9
$SURFTAB1
 70
     6
  9
$SURFTAB2
 70
     6
  9
$SURFTYPE
 70
     6
  9
$SURFU
 70
     6
  9
$SURFV
 70
     6
  9
$UCSNAME
  2

  9
$UCSORG
 10
0.0
 20
0.0
 30
0.0
  9
$UCSXDIR
 10
1.0
 20
0.0
 30
0.0
  9
$UCSYDIR
 10
0.0
 20
1.0
 30
0.0
  9
$PUCSNAME
  2

  9
$PUCSORG
 10
0.0
 20
0.0
 30
0.0
  9
$PUCSXDIR
 10
1.0
 20
0.0
 30
0.0
  9
$PUCSYDIR
 10
0.0
 20
1.0
 30
0.0
  9
$USERI1
 70
     0
  9
$USERI2
 70
     0
  9
$USERI3
 70
     0
  9
$USERI4
 70
     0
  9
$USERI5
 70
     0
  9
$USERR1
 40
0.0
  9
$USERR2
 40
0.0
  9
$USERR3
 40
0.0
  9
$USERR4
 40
0.0
  9
$USERR5
 40
0.0
  9
$WORLDVIEW
 70
     1
  9
$SHADEDGE
 70
     3
  9
$SHADEDIF
 70
    70
  9
$TILEMODE
 70
     1
  9
$MAXACTVP
 70
    32
  9
$PINSBASE
 10
0.0
 20
0.0
 30
0.0
  9
$PLIMCHECK
 70
     0
  9
$PEXTMIN
 10
-3.174999
 20
-3.175
 30
0.0
  9
$PEXTMAX
 10
203.812116
 20
370.276807
 30
0.0
  9
$PLIMMIN
 10
-3.175
 20
-3.175
  9
$PLIMMAX
 10
203.812115
 20
370.276807
  9
$UNITMODE
 70
     0
  9
$VISRETAIN
 70
     0
  9
$PLINEGEN
 70
     0
  9
$PSLTSCALE
 70
     1
  9
$TREEDEPTH
 70
  3020
  9
$PICKSTYLE
 70
     1
  9
$CMLSTYLE
  2
STANDARD
  9
$CMLJUST
 70
     0
  9
$CMLSCALE
 40
1.0
  9
$PROXYGRAPHICS
 70
     1
  9
$MEASUREMENT
 70
     0
  0
ENDSEC
  0
SECTION
  2
CLASSES
  0
CLASS
  1
DICTIONARYVAR
  2
AcDbDictionaryVar
  3
"AutoCAD"
 90
        0
280
     0
281
     0
  0
CLASS
  1
HATCH
  2
AcDbHatch
  3
"ACAD_SEDONA"
 90
        0
280
     0
281
     1
  0
ENDSEC
  0
SECTION
  2
TABLES
  0
TABLE
  2
VPORT
  5
F4
100
AcDbSymbolTable
 70
     2
  0
VPORT
  5
FE1
100
AcDbSymbolTableRecord
100
AcDbViewportTableRecord
  2
*ACTIVE
 70
     0
 10
0.0
 20
0.0
 11
1.0
 21
1.0
 12
58.136445
 22
15.693833
 13
0.0
 23
0.0
 14
1.0
 24
1.0
 15
10.0
 25
10.0
 16
0.0
 26
0.0
 36
1.0
 17
0.0
 27
0.0
 37
0.0
 40
59.350217
 41
1.966667
 42
50.0
 43
0.0
 44
0.0
 50
0.0
 51
0.0
 71
     0
 72
   100
 73
     1
 74
     1
 75
     0
 76
     1
 77
     0
 78
     0
  0
ENDTAB
  0
TABLE
  2
LTYPE
  5
F1
100
AcDbSymbolTable
 70
     5
  0
LTYPE
  5
FD
100
AcDbSymbolTableRecord
100
AcDbLinetypeTableRecord
  2
BYBLOCK
 70
     0
  3

 72
    65
 73
     0
 40
0.0
  0
LTYPE
  5
FE
100
AcDbSymbolTableRecord
100
AcDbLinetypeTableRecord
  2
BYLAYER
 70
     0
  3

 72
    65
 73
     0
 40
0.0
  0
LTYPE
  5
FF
100
AcDbSymbolTableRecord
100
AcDbLinetypeTableRecord
  2
CONTINUOUS
 70
     0
  3
Solid line
 72
    65
 73
     0
 40
0.0
  0
LTYPE
  5
112
100
AcDbSymbolTableRecord
100
AcDbLinetypeTableRecord
  2
AXES2
 70
     0
  3
___ _ ___ _ ___ _ ___ _ ___ _ ___ _ ___ _ ___ _
 72
    65
 73
     4
 40
1.125
 49
0.75
 74
     0
 49
-0.125
 74
     0
 49
0.125
 74
     0
 49
-0.125
 74
     0
  0
ENDTAB
  0
TABLE
  2
LAYER
  5
EE
100
AcDbSymbolTable
 70
     6
  0
LAYER
  5
FA
100
AcDbSymbolTableRecord
100
AcDbLayerTableRecord
  2
0
 70
     0
 62
     7
  6
CONTINUOUS
  0
LAYER
  5
12C
100
AcDbSymbolTableRecord
100
AcDbLayerTableRecord
  2
ALPHA
 70
     0
 62
   255
  6
CONTINUOUS
  0
LAYER
  5
12D
100
AcDbSymbolTableRecord
100
AcDbLayerTableRecord
  2
AXE
 70
     0
 62
    80
  6
AXES2
  0
LAYER
  5
12F
100
AcDbSymbolTableRecord
100
AcDbLayerTableRecord
  2
COTATION1
 70
     0
 62
     2
  6
CONTINUOUS
  0
LAYER
  5
13B
100
AcDbSymbolTableRecord
100
AcDbLayerTableRecord
  2
ASHADE
 70
     0
 62
     7
  6
CONTINUOUS
  0
LAYER
  5
13E
100
AcDbSymbolTableRecord
100
AcDbLayerTableRecord
  2
DEFPOINTS
 70
     0
 62
     7
  6
CONTINUOUS
  0
ENDTAB
  0
TABLE
  2
STYLE
  5
EF
100
AcDbSymbolTable
 70
     2
  0
STYLE
  5
FB
100
AcDbSymbolTableRecord
100
AcDbTextStyleTableRecord
  2
STANDARD
 70
     0
 40
0.0
 41
1.0
 50
0.0
 71
     0
 42
2.5
  3
txt
  4

  0
ENDTAB
  0
TABLE
  2
VIEW
  5
F2
100
AcDbSymbolTable
 70
     0
  0
ENDTAB
  0
TABLE
  2
UCS
  5
F3
100
AcDbSymbolTable
 70
     0
  0
ENDTAB
  0
TABLE
  2
APPID
  5
F5
100
AcDbSymbolTable
 70
     3
  0
APPID
  5
FC
100
AcDbSymbolTableRecord
100
AcDbRegAppTableRecord
  2
ACAD
 70
     0
  0
APPID
  5
127
100
AcDbSymbolTableRecord
100
AcDbRegAppTableRecord
  2
AVE_RENDER
 70
     0
  0
APPID
  5
128
100
AcDbSymbolTableRecord
100
AcDbRegAppTableRecord
  2
AVE_MATERIAL
 70
     0
  0
ENDTAB
  0
TABLE
  2
DIMSTYLE
  5
F6
100
AcDbSymbolTable
 70
     2
  0
DIMSTYLE
105
129
100
AcDbSymbolTableRecord
100
AcDbDimStyleTableRecord
  2
STANDARD
 70
     0
  3

  4

  5

  6

  7

 40
1.0
 41
0.18
 42
0.0625
 43
0.38
 44
0.18
 45
0.0
 46
0.0
 47
0.0
 48
0.0
140
0.18
141
0.09
142
0.0
143
25.4
144
1.0
145
0.0
146
1.0
147
0.09
 71
     0
 72
     0
 73
     1
 74
     1
 75
     0
 76
     0
 77
     0
 78
     0
170
     0
171
     2
172
     0
173
     0
174
     0
175
     0
176
     0
177
     0
178
     0
270
     2
271
     3
272
     3
273
     2
274
     2
340
FB
275
     0
280
     0
281
     0
282
     0
283
     1
284
    12
285
    12
286
    12
287
     5
288
     0
  0
DIMSTYLE
105
12A
102
{ACAD_REACTORS
330
FCE
330
FDB
102
}
100
AcDbSymbolTableRecord
100
AcDbDimStyleTableRecord
  2
SC_STAND
 70
     0
  3

  4

  5

  6

  7

 40
1.0
 41
3.0
 42
0.0625
 43
0.38
 44
0.18
 45
0.01
 46
0.0
 47
0.0
 48
0.0
140
2.5
141
0.09
142
0.0
143
25.4
144
1.0
145
0.0
146
1.0
147
1.0
 71
     0
 72
     0
 73
     0
 74
     0
 75
     0
 76
     0
 77
     1
 78
    12
170
     0
171
     2
172
     1
173
     0
174
     0
175
     0
176
     0
177
     0
178
     0
270
     2
271
     3
272
     3
273
     2
274
     2
340
FB
275
     0
280
     0
281
     0
282
     0
283
     1
284
    12
285
    12
286
    12
287
     5
288
     0
  0
ENDTAB
  0
TABLE
  2
BLOCK_RECORD
  5
ED
100
AcDbSymbolTable
 70
     9
  0
BLOCK_RECORD
  5
103
100
AcDbSymbolTableRecord
100
AcDbBlockTableRecord
  2
*MODEL_SPACE
  0
BLOCK_RECORD
  5
100
100
AcDbSymbolTableRecord
100
AcDbBlockTableRecord
  2
*PAPER_SPACE
  0
BLOCK_RECORD
  5
108
100
AcDbSymbolTableRecord
100
AcDbBlockTableRecord
  2
AVE_RENDER
  0
BLOCK_RECORD
  5
109
100
AcDbSymbolTableRecord
100
AcDbBlockTableRecord
  2
AVE_GLOBAL
  0
BLOCK_RECORD
  5
10A
100
AcDbSymbolTableRecord
100
AcDbBlockTableRecord
  2
SCH_IS
  0
BLOCK_RECORD
  5
FC2
100
AcDbSymbolTableRecord
100
AcDbBlockTableRecord
  2
*D7
  0
BLOCK_RECORD
  5
FCF
100
AcDbSymbolTableRecord
100
AcDbBlockTableRecord
  2
*D8
  0
ENDTAB
  0
ENDSEC
  0
SECTION
  2
BLOCKS
  0
BLOCK
  5
141
100
AcDbEntity
  8
0
100
AcDbBlockBegin
  2
*MODEL_SPACE
 70
     0
 10
0.0
 20
0.0
 30
0.0
  3
*MODEL_SPACE
  1

  0
ENDBLK
  5
142
100
AcDbEntity
  8
0
100
AcDbBlockEnd
  0
BLOCK
  5
13F
100
AcDbEntity
 67
     1
  8
0
100
AcDbBlockBegin
  2
*PAPER_SPACE
 70
     0
 10
0.0
 20
0.0
 30
0.0
  3
*PAPER_SPACE
  1

  0
ENDBLK
  5
140
100
AcDbEntity
 67
     1
  8
0
100
AcDbBlockEnd
  0
BLOCK
  5
8D
100
AcDbEntity
  8
0
100
AcDbBlockBegin
  2
AVE_RENDER
 70
     0
 10
0.0
 20
0.0
 30
0.0
  3
AVE_RENDER
  1
AVE_RENDER
  0
ENDBLK
  5
8E
100
AcDbEntity
  8
0
100
AcDbBlockEnd
  0
BLOCK
  5
90
100
AcDbEntity
  8
0
100
AcDbBlockBegin
  2
AVE_GLOBAL
 70
     0
 10
0.0
 20
0.0
 30
0.0
  3
AVE_GLOBAL
  1
AVE_GLOBAL
  0
ENDBLK
  5
91
100
AcDbEntity
  8
0
100
AcDbBlockEnd
  0
BLOCK
  5
C9
100
AcDbEntity
  8
0
100
AcDbBlockBegin
  2
SCH_IS
 70
     0
 10
0.0
 20
0.0
 30
0.0
  3
SCH_IS
  1

  0
INSERT
  5
C0
100
AcDbEntity
  8
ASHADE
 62
     1
100
AcDbBlockReference
  2
AVE_RENDER
 10
0.0
 20
0.0
 30
0.0
1001
AVE_RENDER
1002
{
1070
     6
1000
Pref
1070
    50
1070
    20
1070
     1
1070
     0
1000

1070
    10
1070
     1
1070
    30
1040
25.4
1070
     1
1040
0.3
1040
0.7
1040
0.0
1040
10.0
1010
-1.0
1020
-1.0
1030
-1.0
1040
0.3
1070
    49
1070
     0
1070
     0
1010
1.0
1020
1.0
1030
1.0
1040
45.0
1070
     1
1070
     0
1000
WCS
1040
0.0
1002
}
  0
INSERT
  5
C1
100
AcDbEntity
  8
ASHADE
 62
     3
100
AcDbBlockReference
  2
AVE_RENDER
 10
0.0
 20
0.0
 30
0.0
1001
AVE_RENDER
1002
{
1070
     0
1000
Full Opt
1070
     0
1070
     1
1070
     1
1070
     1
1070
     0
1070
     0
1070
     0
1070
     1
1070
     1
1040
0.0001
1040
0.0001
1002
}
  0
INSERT
  5
C2
100
AcDbEntity
  8
ASHADE
 62
     4
100
AcDbBlockReference
  2
AVE_RENDER
 10
0.0
 20
0.0
 30
0.0
1001
AVE_RENDER
1002
{
1070
     0
1000
Quick Opt
1070
     0
1070
     1
1070
     1
1070
     1
1070
     0
1070
     0
1070
     1
1002
}
  0
INSERT
  5
C3
100
AcDbEntity
  8
ASHADE
 62
     5
100
AcDbBlockReference
  2
AVE_RENDER
 10
0.0
 20
0.0
 30
0.0
1001
AVE_RENDER
1002
{
1070
     1
1000
Scanl Opt
1070
     2
1070
     0
1070
     2
1040
2.0
1040
4.0
1070
     0
1070
     1
1070
     0
1040
0.03
1002
}
  0
INSERT
  5
C4
100
AcDbEntity
  8
ASHADE
 62
     6
100
AcDbBlockReference
  2
AVE_RENDER
 10
0.0
 20
0.0
 30
0.0
1001
AVE_RENDER
1002
{
1070
     2
1000
Raytr Opt
1070
     2
1070
     0
1070
     2
1040
2.0
1040
4.0
1070
     0
1070
     1
1070
     1
1040
0.03
1070
     3
1040
0.03
1002
}
  0
INSERT
  5
C5
100
AcDbEntity
  8
ASHADE
 62
     7
100
AcDbBlockReference
  2
AVE_RENDER
 10
0.0
 20
0.0
 30
0.0
1001
AVE_RENDER
1002
{
1070
     0
1000
RFile Opt
1070
     5
1070
   640
1070
   480
1070
 10000
1070
     3
1070
    32
1070
    24
1070
     0
1070
     0
1070
     0
1070
     1
1070
     0
1070
     0
1070
     0
1002
}
  0
INSERT
  5
C6
100
AcDbEntity
  8
ASHADE
 62
     8
100
AcDbBlockReference
  2
AVE_RENDER
 10
0.0
 20
0.0
 30
0.0
1001
AVE_RENDER
1002
{
1070
     0
1000
Fog Opt
1070
     0
1070
     0
1040
0.0
1040
1.0
1040
0.0
1040
1.0
1010
0.5
1020
0.5
1030
0.5
1002
}
  0
INSERT
  5
C7
100
AcDbEntity
  8
ASHADE
 62
     9
100
AcDbBlockReference
  2
AVE_RENDER
 10
0.0
 20
0.0
 30
0.0
1001
AVE_RENDER
1002
{
1070
     0
1000
BG Opt
1070
     0
1070
     1
1010
0.0
1020
0.0
1030
0.0
1010
1.0
1020
0.0
1030
0.0
1010
0.0
1020
1.0
1030
0.0
1010
0.0
1020
0.0
1030
1.0
1040
0.5
1040
0.33
1040
0.0
1000

1070
     1
1000

1070
     1
1070
     1
1040
1.0
1040
1.0
1040
0.0
1040
0.0
1070
     0
1002
}
  0
INSERT
  5
C8
100
AcDbEntity
  8
ASHADE
 62
     1
100
AcDbBlockReference
  2
AVE_GLOBAL
 10
0.0
 20
0.0
 30
0.0
1001
AVE_MATERIAL
1002
{
1000
*GLOBAL*
1000
1
1000
Finition globale.
1002
{
1002
}
1002
{
1070
    63
1002
{
1002
{
1010
-1.0
1020
-1.0
1030
-1.0
1002
}
1040
0.1
1000

1040
0.0
1002
{
1002
}
1040
0.0
1002
{
1002
}
1040
0.0
1002
}
1002
{
1002
{
1010
-1.0
1020
-1.0
1030
-1.0
1002
}
1040
0.7
1000

1040
0.0
1002
{
1002
}
1040
0.0
1002
{
1002
}
1040
0.0
1002
}
1002
{
1002
{
1010
-1.0
1020
-1.0
1030
-1.0
1002
}
1040
0.2
1000

1040
0.0
1002
{
1002
}
1040
0.0
1002
{
1002
}
1040
0.0
1002
}
1002
{
1070
     0
1002
{
1070
     1
1002
{
1040
1.0
1040
1.0
1000

1040
0.0
1002
{
1002
}
1040
0.0
1002
{
1002
}
1040
0.0
1002
}
1002
}
1040
1.0
1040
0.0
1040
0.0
1002
}
1002
{
1040
1.0
1040
1.0
1000

1040
0.0
1002
{
1002
}
1040
0.0
1002
{
1002
}
1040
0.0
1002
}
1002
{
1040
0.5
1040
1.0
1000

1040
0.0
1002
{
1002
}
1040
0.0
1002
{
1002
}
1040
0.0
1002
}
1002
{
1070
     0
1040
0.0
1002
{
1002
}
1040
1.0
1002
{
1002
}
1040
0.0
1002
}
1002
{
1040
0.0
1002
{
1002
{
1010
0.0
1020
0.0
1030
0.0
1002
}
1040
1.0
1000

1040
0.0
1002
{
1002
}
1040
0.0
1002
{
1002
}
1040
0.0
1002
}
1002
}
1002
{
1002
{
1070
     1
1002
{
1040
0.0
1040
1.0
1000

1040
0.0
1002
{
1002
}
1040
0.0
1002
{
1002
}
1040
0.0
1002
}
1002
}
1040
0.0
1002
{
1002
}
1010
1.0
1020
0.0
1030
0.0
1010
0.0
1020
1.0
1030
0.0
1010
0.0
1020
0.0
1030
1.0
1070
     0
1002
}
1002
{
1002
{
1040
1.0
1040
1.0
1002
{
1070
     1
1002
{
1040
1.0
1040
1.0
1000

1040
0.0
1002
{
1002
}
1040
0.0
1002
{
1002
}
1040
0.0
1002
}
1002
}
1002
}
1070
     0
1040
0.0
1002
{
1002
}
1002
}
1002
{
1002
}
1002
}
1002
{
1071
        3
1070
     3
1070
     0
1002
{
1070
     2
1070
     0
1070
     0
1040
0.0
1002
}
1070
     0
1070
     2
1002
{
1002
}
1002
}
1002
{
1040
8030.0
1040
190.300003
1040
0.305
1040
228.0
1040
545.0
1040
14.0
1040
17.4
1040
0.456
1002
}
1002
}
  0
ENDBLK
  5
CA
100
AcDbEntity
  8
0
100
AcDbBlockEnd
  0
BLOCK
  5
FC3
100
AcDbEntity
  8
0
100
AcDbBlockBegin
  2
*D7
 70
     1
 10
0.0
 20
0.0
 30
0.0
  3
*D7
  1

  0
LINE
  5
FC4
100
AcDbEntity
  8
0
  6
BYBLOCK
 62
     0
100
AcDbLine
 10
22.12347
 20
-1.868879
 30
0.0
 11
22.12347
 21
-4.830018
 31
0.0
  0
LINE
  5
FC5
100
AcDbEntity
  8
0
  6
BYBLOCK
 62
     0
100
AcDbLine
 10
94.123545
 20
-1.868879
 30
0.0
 11
94.123545
 21
-4.830018
 31
0.0
  0
LINE
  5
FC6
100
AcDbEntity
  8
0
  6
BYBLOCK
 62
     0
100
AcDbLine
 10
25.12347
 20
-4.650018
 30
0.0
 11
91.123545
 21
-4.650018
 31
0.0
  0
SOLID
  5
FC7
100
AcDbEntity
  8
0
  6
BYBLOCK
 62
     0
100
AcDbTrace
 10
25.12347
 20
-4.150018
 30
0.0
 11
25.12347
 21
-5.150018
 31
0.0
 12
22.12347
 22
-4.650018
 32
0.0
 13
22.12347
 23
-4.650018
 33
0.0
  0
SOLID
  5
FC8
100
AcDbEntity
  8
0
  6
BYBLOCK
 62
     0
100
AcDbTrace
 10
91.123545
 20
-4.150018
 30
0.0
 11
91.123545
 21
-5.150018
 31
0.0
 12
94.123545
 22
-4.650018
 32
0.0
 13
94.123545
 23
-4.650018
 33
0.0
  0
MTEXT
  5
FC9
100
AcDbEntity
  8
0
  6
BYBLOCK
 62
     0
100
AcDbMText
 10
58.123508
 20
-2.400018
 30
0.0
 40
2.5
 41
0.0
 71
     5
 72
     1
  1
\A1;72
  0
POINT
  5
FCA
100
AcDbEntity
  8
DEFPOINTS
  6
BYBLOCK
 62
     0
100
AcDbPoint
 10
22.12347
 20
-1.806379
 30
0.0
  0
POINT
  5
FCB
100
AcDbEntity
  8
DEFPOINTS
  6
BYBLOCK
 62
     0
100
AcDbPoint
 10
94.123545
 20
-1.806379
 30
0.0
  0
POINT
  5
FCC
100
AcDbEntity
  8
DEFPOINTS
  6
BYBLOCK
 62
     0
100
AcDbPoint
 10
94.123545
 20
-4.650018
 30
0.0
  0
ENDBLK
  5
FCD
100
AcDbEntity
  8
0
100
AcDbBlockEnd
  0
BLOCK
  5
FD0
100
AcDbEntity
  8
0
100
AcDbBlockBegin
  2
*D8
 70
     1
 10
0.0
 20
0.0
 30
0.0
  3
*D8
  1

  0
LINE
  5
FD1
100
AcDbEntity
  8
0
  6
BYBLOCK
 62
     0
100
AcDbLine
 10
0.136489
 20
28.52763
 30
0.0
 11
0.136489
 21
33.216224
 31
0.0
  0
LINE
  5
FD2
100
AcDbEntity
  8
0
  6
BYBLOCK
 62
     0
100
AcDbLine
 10
116.136667
 20
28.52763
 30
0.0
 11
116.136667
 21
33.216224
 31
0.0
  0
LINE
  5
FD3
100
AcDbEntity
  8
0
  6
BYBLOCK
 62
     0
100
AcDbLine
 10
3.136489
 20
33.036224
 30
0.0
 11
113.136667
 21
33.036224
 31
0.0
  0
SOLID
  5
FD4
100
AcDbEntity
  8
0
  6
BYBLOCK
 62
     0
100
AcDbTrace
 10
3.136489
 20
33.536224
 30
0.0
 11
3.136489
 21
32.536224
 31
0.0
 12
0.136489
 22
33.036224
 32
0.0
 13
0.136489
 23
33.036224
 33
0.0
  0
SOLID
  5
FD5
100
AcDbEntity
  8
0
  6
BYBLOCK
 62
     0
100
AcDbTrace
 10
113.136667
 20
33.536224
 30
0.0
 11
113.136667
 21
32.536224
 31
0.0
 12
116.136667
 22
33.036224
 32
0.0
 13
116.136667
 23
33.036224
 33
0.0
  0
MTEXT
  5
FD6
100
AcDbEntity
  8
0
  6
BYBLOCK
 62
     0
100
AcDbMText
 10
58.136578
 20
35.286224
 30
0.0
 40
2.5
 41
0.0
 71
     5
 72
     1
  1
\A1;116
  0
POINT
  5
FD7
100
AcDbEntity
  8
DEFPOINTS
  6
BYBLOCK
 62
     0
100
AcDbPoint
 10
0.136489
 20
28.46513
 30
0.0
  0
POINT
  5
FD8
100
AcDbEntity
  8
DEFPOINTS
  6
BYBLOCK
 62
     0
100
AcDbPoint
 10
116.136667
 20
28.46513
 30
0.0
  0
POINT
  5
FD9
100
AcDbEntity
  8
DEFPOINTS
  6
BYBLOCK
 62
     0
100
AcDbPoint
 10
116.136667
 20
33.036224
 30
0.0
  0
ENDBLK
  5
FDA
100
AcDbEntity
  8
0
100
AcDbBlockEnd
  0
ENDSEC
  0
SECTION
  2
ENTITIES
  0
INSERT
  5
CC
100
AcDbEntity
  8
0
100
AcDbBlockReference
  2
SCH_IS
 10
-68.718396
 20
-140.042541
 30
0.0
  0
INSERT
  5
EC
100
AcDbEntity
  8
COTATION1
100
AcDbBlockReference
  2
SCH_IS
 10
0.0
 20
0.0
 30
0.0
  0
POLYLINE
  5
DE4
100
AcDbEntity
  8
ALPHA
100
AcDb2dPolyline
 66
     1
 10
0.0
 20
0.0
 30
0.0
  0
VERTEX
  5
DE5
100
AcDbEntity
  8
ALPHA
100
AcDbVertex
100
AcDb2dVertex
 10
116.136667
 20
28.46513
 30
0.0
  0
VERTEX
  5
DE6
100
AcDbEntity
  8
ALPHA
100
AcDbVertex
100
AcDb2dVertex
 10
116.136667
 20
10.465208
 30
0.0
  0
VERTEX
  5
DE7
100
AcDbEntity
  8
ALPHA
100
AcDbVertex
100
AcDb2dVertex
 10
71.886656
 20
10.445206
 30
0.0
  0
VERTEX
  5
DE8
100
AcDbEntity
  8
ALPHA
100
AcDbVertex
100
AcDb2dVertex
 10
71.886656
 20
17.443223
 30
0.0
  0
VERTEX
  5
DE9
100
AcDbEntity
  8
ALPHA
100
AcDbVertex
100
AcDb2dVertex
 10
44.386676
 20
17.443223
 30
0.0
  0
VERTEX
  5
DEA
100
AcDbEntity
  8
ALPHA
100
AcDbVertex
100
AcDb2dVertex
 10
44.386676
 20
10.465208
 30
0.0
  0
VERTEX
  5
DEB
100
AcDbEntity
  8
ALPHA
100
AcDbVertex
100
AcDb2dVertex
 10
0.136489
 20
10.445206
 30
0.0
  0
VERTEX
  5
DEC
100
AcDbEntity
  8
ALPHA
100
AcDbVertex
100
AcDb2dVertex
 10
0.136489
 20
28.46513
 30
0.0
  0
VERTEX
  5
DED
100
AcDbEntity
  8
ALPHA
100
AcDbVertex
100
AcDb2dVertex
 10
116.136667
 20
28.46513
 30
0.0
  0
SEQEND
  5
DEE
100
AcDbEntity
  8
ALPHA
  0
POLYLINE
  5
DEF
100
AcDbEntity
  8
ALPHA
100
AcDb2dPolyline
 66
     1
 10
0.0
 20
0.0
 30
0.0
  0
VERTEX
  5
DF0
100
AcDbEntity
  8
ALPHA
100
AcDbVertex
100
AcDb2dVertex
 10
20.248985
 20
10.364949
 30
0.0
  0
VERTEX
  5
DF1
100
AcDbEntity
  8
ALPHA
100
AcDbVertex
100
AcDb2dVertex
 10
20.248985
 20
8.313052
 30
0.0
  0
VERTEX
  5
DF2
100
AcDbEntity
  8
ALPHA
100
AcDbVertex
100
AcDb2dVertex
 10
18.372772
 20
7.812813
 30
0.0
  0
VERTEX
  5
DF3
100
AcDbEntity
  8
ALPHA
100
AcDbVertex
100
AcDb2dVertex
 10
18.372772
 20
0.465123
 30
0.0
  0
VERTEX
  5
DF4
100
AcDbEntity
  8
ALPHA
100
AcDbVertex
100
AcDb2dVertex
 10
20.24828
 20
1.613696
 30
0.0
  0
VERTEX
  5
DF5
100
AcDbEntity
  8
ALPHA
100
AcDbVertex
100
AcDb2dVertex
 10
20.249656
 20
4.694999
 30
0.0
  0
VERTEX
  5
DF6
100
AcDbEntity
  8
ALPHA
100
AcDbVertex
100
AcDb2dVertex
 10
20.259348
 20
4.907265
 30
0.0
  0
VERTEX
  5
DF7
100
AcDbEntity
  8
ALPHA
100
AcDbVertex
100
AcDb2dVertex
 10
20.287794
 20
5.113068
 30
0.0
  0
VERTEX
  5
DF8
100
AcDbEntity
  8
ALPHA
100
AcDbVertex
100
AcDb2dVertex
 10
20.334043
 20
5.311409
 30
0.0
  0
VERTEX
  5
DF9
100
AcDbEntity
  8
ALPHA
100
AcDbVertex
100
AcDb2dVertex
 10
20.397148
 20
5.50129
 30
0.0
  0
VERTEX
  5
DFA
100
AcDbEntity
  8
ALPHA
100
AcDbVertex
100
AcDb2dVertex
 10
20.47616
 20
5.681715
 30
0.0
  0
VERTEX
  5
DFB
100
AcDbEntity
  8
ALPHA
100
AcDbVertex
100
AcDb2dVertex
 10
20.570129
 20
5.851685
 30
0.0
  0
VERTEX
  5
DFC
100
AcDbEntity
  8
ALPHA
100
AcDbVertex
100
AcDb2dVertex
 10
20.678108
 20
6.010203
 30
0.0
  0
VERTEX
  5
DFD
100
AcDbEntity
  8
ALPHA
100
AcDbVertex
100
AcDb2dVertex
 10
20.799147
 20
6.15627
 30
0.0
  0
VERTEX
  5
DFE
100
AcDbEntity
  8
ALPHA
100
AcDbVertex
100
AcDb2dVertex
 10
20.932298
 20
6.28889
 30
0.0
  0
VERTEX
  5
DFF
100
AcDbEntity
  8
ALPHA
100
AcDbVertex
100
AcDb2dVertex
 10
21.076611
 20
6.407064
 30
0.0
  0
VERTEX
  5
E00
100
AcDbEntity
  8
ALPHA
100
AcDbVertex
100
AcDb2dVertex
 10
21.231139
 20
6.509795
 30
0.0
  0
VERTEX
  5
E01
100
AcDbEntity
  8
ALPHA
100
AcDbVertex
100
AcDb2dVertex
 10
21.394933
 20
6.596084
 30
0.0
  0
VERTEX
  5
E02
100
AcDbEntity
  8
ALPHA
100
AcDbVertex
100
AcDb2dVertex
 10
21.567043
 20
6.664935
 30
0.0
  0
VERTEX
  5
E03
100
AcDbEntity
  8
ALPHA
100
AcDbVertex
100
AcDb2dVertex
 10
21.746522
 20
6.71535
 30
0.0
  0
VERTEX
  5
E04
100
AcDbEntity
  8
ALPHA
100
AcDbVertex
100
AcDb2dVertex
 10
21.932419
 20
6.74633
 30
0.0
  0
VERTEX
  5
E05
100
AcDbEntity
  8
ALPHA
100
AcDbVertex
100
AcDb2dVertex
 10
22.123788
 20
6.756879
 30
0.0
  0
VERTEX
  5
E06
100
AcDbEntity
  8
ALPHA
100
AcDbVertex
100
AcDb2dVertex
 10
22.315122
 20
6.74633
 30
0.0
  0
VERTEX
  5
E07
100
AcDbEntity
  8
ALPHA
100
AcDbVertex
100
AcDb2dVertex
 10
22.500924
 20
6.71535
 30
0.0
  0
VERTEX
  5
E08
100
AcDbEntity
  8
ALPHA
100
AcDbVertex
100
AcDb2dVertex
 10
22.680256
 20
6.664935
 30
0.0
  0
VERTEX
  5
E09
100
AcDbEntity
  8
ALPHA
100
AcDbVertex
100
AcDb2dVertex
 10
22.852179
 20
6.596084
 30
0.0
  0
VERTEX
  5
E0A
100
AcDbEntity
  8
ALPHA
100
AcDbVertex
100
AcDb2dVertex
 10
23.015755
 20
6.509795
 30
0.0
  0
VERTEX
  5
E0B
100
AcDbEntity
  8
ALPHA
100
AcDbVertex
100
AcDb2dVertex
 10
23.170046
 20
6.407064
 30
0.0
  0
VERTEX
  5
E0C
100
AcDbEntity
  8
ALPHA
100
AcDbVertex
100
AcDb2dVertex
 10
23.314115
 20
6.28889
 30
0.0
  0
VERTEX
  5
E0D
100
AcDbEntity
  8
ALPHA
100
AcDbVertex
100
AcDb2dVertex
 10
23.447021
 20
6.15627
 30
0.0
  0
VERTEX
  5
E0E
100
AcDbEntity
  8
ALPHA
100
AcDbVertex
100
AcDb2dVertex
 10
23.567828
 20
6.010203
 30
0.0
  0
VERTEX
  5
E0F
100
AcDbEntity
  8
ALPHA
100
AcDbVertex
100
AcDb2dVertex
 10
23.675597
 20
5.851685
 30
0.0
  0
VERTEX
  5
E10
100
AcDbEntity
  8
ALPHA
100
AcDbVertex
100
AcDb2dVertex
 10
23.76939
 20
5.681715
 30
0.0
  0
VERTEX
  5
E11
100
AcDbEntity
  8
ALPHA
100
AcDbVertex
100
AcDb2dVertex
 10
23.848268
 20
5.50129
 30
0.0
  0
VERTEX
  5
E12
100
AcDbEntity
  8
ALPHA
100
AcDbVertex
100
AcDb2dVertex
 10
23.911294
 20
5.311408
 30
0.0
  0
VERTEX
  5
E13
100
AcDbEntity
  8
ALPHA
100
AcDbVertex
100
AcDb2dVertex
 10
23.957529
 20
5.113067
 30
0.0
  0
VERTEX
  5
E14
100
AcDbEntity
  8
ALPHA
100
AcDbVertex
100
AcDb2dVertex
 10
23.986035
 20
4.907265
 30
0.0
  0
VERTEX
  5
E15
100
AcDbEntity
  8
ALPHA
100
AcDbVertex
100
AcDb2dVertex
 10
23.995874
 20
4.694999
 30
0.0
  0
VERTEX
  5
E16
100
AcDbEntity
  8
ALPHA
100
AcDbVertex
100
AcDb2dVertex
 10
23.998625
 20
1.613696
 30
0.0
  0
VERTEX
  5
E17
100
AcDbEntity
  8
ALPHA
100
AcDbVertex
100
AcDb2dVertex
 10
25.874133
 20
0.465123
 30
0.0
  0
VERTEX
  5
E18
100
AcDbEntity
  8
ALPHA
100
AcDbVertex
100
AcDb2dVertex
 10
25.874133
 20
7.812813
 30
0.0
  0
VERTEX
  5
E19
100
AcDbEntity
  8
ALPHA
100
AcDbVertex
100
AcDb2dVertex
 10
23.999295
 20
8.313052
 30
0.0
  0
VERTEX
  5
E1A
100
AcDbEntity
  8
ALPHA
100
AcDbVertex
100
AcDb2dVertex
 10
23.999295
 20
10.364949
 30
0.0
  0
SEQEND
  5
E1B
100
AcDbEntity
  8
ALPHA
  0
POLYLINE
  5
E1C
100
AcDbEntity
  8
ALPHA
100
AcDb2dPolyline
 66
     1
 10
0.0
 20
0.0
 30
0.0
  0
VERTEX
  5
E1D
100
AcDbEntity
  8
ALPHA
100
AcDbVertex
100
AcDb2dVertex
 10
6.773827
 20
10.364949
 30
0.0
  0
VERTEX
  5
E1E
100
AcDbEntity
  8
ALPHA
100
AcDbVertex
100
AcDb2dVertex
 10
6.773827
 20
8.313052
 30
0.0
  0
VERTEX
  5
E1F
100
AcDbEntity
  8
ALPHA
100
AcDbVertex
100
AcDb2dVertex
 10
4.897614
 20
7.812813
 30
0.0
  0
VERTEX
  5
E20
100
AcDbEntity
  8
ALPHA
100
AcDbVertex
100
AcDb2dVertex
 10
4.897614
 20
0.465123
 30
0.0
  0
VERTEX
  5
E21
100
AcDbEntity
  8
ALPHA
100
AcDbVertex
100
AcDb2dVertex
 10
6.773121
 20
1.613696
 30
0.0
  0
VERTEX
  5
E22
100
AcDbEntity
  8
ALPHA
100
AcDbVertex
100
AcDb2dVertex
 10
6.774497
 20
4.694999
 30
0.0
  0
VERTEX
  5
E23
100
AcDbEntity
  8
ALPHA
100
AcDbVertex
100
AcDb2dVertex
 10
6.78419
 20
4.907265
 30
0.0
  0
VERTEX
  5
E24
100
AcDbEntity
  8
ALPHA
100
AcDbVertex
100
AcDb2dVertex
 10
6.812637
 20
5.113068
 30
0.0
  0
VERTEX
  5
E25
100
AcDbEntity
  8
ALPHA
100
AcDbVertex
100
AcDb2dVertex
 10
6.858888
 20
5.311409
 30
0.0
  0
VERTEX
  5
E26
100
AcDbEntity
  8
ALPHA
100
AcDbVertex
100
AcDb2dVertex
 10
6.921995
 20
5.50129
 30
0.0
  0
VERTEX
  5
E27
100
AcDbEntity
  8
ALPHA
100
AcDbVertex
100
AcDb2dVertex
 10
7.001008
 20
5.681715
 30
0.0
  0
VERTEX
  5
E28
100
AcDbEntity
  8
ALPHA
100
AcDbVertex
100
AcDb2dVertex
 10
7.09498
 20
5.851685
 30
0.0
  0
VERTEX
  5
E29
100
AcDbEntity
  8
ALPHA
100
AcDbVertex
100
AcDb2dVertex
 10
7.202961
 20
6.010203
 30
0.0
  0
VERTEX
  5
E2A
100
AcDbEntity
  8
ALPHA
100
AcDbVertex
100
AcDb2dVertex
 10
7.324001
 20
6.15627
 30
0.0
  0
VERTEX
  5
E2B
100
AcDbEntity
  8
ALPHA
100
AcDbVertex
100
AcDb2dVertex
 10
7.457154
 20
6.28889
 30
0.0
  0
VERTEX
  5
E2C
100
AcDbEntity
  8
ALPHA
100
AcDbVertex
100
AcDb2dVertex
 10
7.601468
 20
6.407064
 30
0.0
  0
VERTEX
  5
E2D
100
AcDbEntity
  8
ALPHA
100
AcDbVertex
100
AcDb2dVertex
 10
7.755996
 20
6.509795
 30
0.0
  0
VERTEX
  5
E2E
100
AcDbEntity
  8
ALPHA
100
AcDbVertex
100
AcDb2dVertex
 10
7.919789
 20
6.596084
 30
0.0
  0
VERTEX
  5
E2F
100
AcDbEntity
  8
ALPHA
100
AcDbVertex
100
AcDb2dVertex
 10
8.091898
 20
6.664935
 30
0.0
  0
VERTEX
  5
E30
100
AcDbEntity
  8
ALPHA
100
AcDbVertex
100
AcDb2dVertex
 10
8.271373
 20
6.71535
 30
0.0
  0
VERTEX
  5
E31
100
AcDbEntity
  8
ALPHA
100
AcDbVertex
100
AcDb2dVertex
 10
8.457267
 20
6.74633
 30
0.0
  0
VERTEX
  5
E32
100
AcDbEntity
  8
ALPHA
100
AcDbVertex
100
AcDb2dVertex
 10
8.648629
 20
6.756879
 30
0.0
  0
VERTEX
  5
E33
100
AcDbEntity
  8
ALPHA
100
AcDbVertex
100
AcDb2dVertex
 10
8.839963
 20
6.74633
 30
0.0
  0
VERTEX
  5
E34
100
AcDbEntity
  8
ALPHA
100
AcDbVertex
100
AcDb2dVertex
 10
9.025765
 20
6.71535
 30
0.0
  0
VERTEX
  5
E35
100
AcDbEntity
  8
ALPHA
100
AcDbVertex
100
AcDb2dVertex
 10
9.205097
 20
6.664935
 30
0.0
  0
VERTEX
  5
E36
100
AcDbEntity
  8
ALPHA
100
AcDbVertex
100
AcDb2dVertex
 10
9.37702
 20
6.596084
 30
0.0
  0
VERTEX
  5
E37
100
AcDbEntity
  8
ALPHA
100
AcDbVertex
100
AcDb2dVertex
 10
9.540597
 20
6.509795
 30
0.0
  0
VERTEX
  5
E38
100
AcDbEntity
  8
ALPHA
100
AcDbVertex
100
AcDb2dVertex
 10
9.694888
 20
6.407064
 30
0.0
  0
VERTEX
  5
E39
100
AcDbEntity
  8
ALPHA
100
AcDbVertex
100
AcDb2dVertex
 10
9.838956
 20
6.28889
 30
0.0
  0
VERTEX
  5
E3A
100
AcDbEntity
  8
ALPHA
100
AcDbVertex
100
AcDb2dVertex
 10
9.971863
 20
6.15627
 30
0.0
  0
VERTEX
  5
E3B
100
AcDbEntity
  8
ALPHA
100
AcDbVertex
100
AcDb2dVertex
 10
10.09267
 20
6.010203
 30
0.0
  0
VERTEX
  5
E3C
100
AcDbEntity
  8
ALPHA
100
AcDbVertex
100
AcDb2dVertex
 10
10.200439
 20
5.851685
 30
0.0
  0
VERTEX
  5
E3D
100
AcDbEntity
  8
ALPHA
100
AcDbVertex
100
AcDb2dVertex
 10
10.294231
 20
5.681715
 30
0.0
  0
VERTEX
  5
E3E
100
AcDbEntity
  8
ALPHA
100
AcDbVertex
100
AcDb2dVertex
 10
10.37311
 20
5.50129
 30
0.0
  0
VERTEX
  5
E3F
100
AcDbEntity
  8
ALPHA
100
AcDbVertex
100
AcDb2dVertex
 10
10.436136
 20
5.311408
 30
0.0
  0
VERTEX
  5
E40
100
AcDbEntity
  8
ALPHA
100
AcDbVertex
100
AcDb2dVertex
 10
10.482371
 20
5.113067
 30
0.0
  0
VERTEX
  5
E41
100
AcDbEntity
  8
ALPHA
100
AcDbVertex
100
AcDb2dVertex
 10
10.510876
 20
4.907265
 30
0.0
  0
VERTEX
  5
E42
100
AcDbEntity
  8
ALPHA
100
AcDbVertex
100
AcDb2dVertex
 10
10.520715
 20
4.694999
 30
0.0
  0
VERTEX
  5
E43
100
AcDbEntity
  8
ALPHA
100
AcDbVertex
100
AcDb2dVertex
 10
10.523467
 20
1.613696
 30
0.0
  0
VERTEX
  5
E44
100
AcDbEntity
  8
ALPHA
100
AcDbVertex
100
AcDb2dVertex
 10
12.398974
 20
0.465123
 30
0.0
  0
VERTEX
  5
E45
100
AcDbEntity
  8
ALPHA
100
AcDbVertex
100
AcDb2dVertex
 10
12.398974
 20
7.812813
 30
0.0
  0
VERTEX
  5
E46
100
AcDbEntity
  8
ALPHA
100
AcDbVertex
100
AcDb2dVertex
 10
10.524172
 20
8.313052
 30
0.0
  0
VERTEX
  5
E47
100
AcDbEntity
  8
ALPHA
100
AcDbVertex
100
AcDb2dVertex
 10
10.524172
 20
10.364949
 30
0.0
  0
SEQEND
  5
E48
100
AcDbEntity
  8
ALPHA
  0
POLYLINE
  5
E49
100
AcDbEntity
  8
ALPHA
100
AcDb2dPolyline
 66
     1
 10
0.0
 20
0.0
 30
0.0
  0
VERTEX
  5
E4A
100
AcDbEntity
  8
ALPHA
100
AcDbVertex
100
AcDb2dVertex
 10
33.748909
 20
10.364949
 30
0.0
  0
VERTEX
  5
E4B
100
AcDbEntity
  8
ALPHA
100
AcDbVertex
100
AcDb2dVertex
 10
33.748909
 20
8.313052
 30
0.0
  0
VERTEX
  5
E4C
100
AcDbEntity
  8
ALPHA
100
AcDbVertex
100
AcDb2dVertex
 10
31.872731
 20
7.812813
 30
0.0
  0
VERTEX
  5
E4D
100
AcDbEntity
  8
ALPHA
100
AcDbVertex
100
AcDb2dVertex
 10
31.872731
 20
0.465123
 30
0.0
  0
VERTEX
  5
E4E
100
AcDbEntity
  8
ALPHA
100
AcDbVertex
100
AcDb2dVertex
 10
33.748239
 20
1.613696
 30
0.0
  0
VERTEX
  5
E4F
100
AcDbEntity
  8
ALPHA
100
AcDbVertex
100
AcDb2dVertex
 10
33.749615
 20
4.694999
 30
0.0
  0
VERTEX
  5
E50
100
AcDbEntity
  8
ALPHA
100
AcDbVertex
100
AcDb2dVertex
 10
33.759307
 20
4.907265
 30
0.0
  0
VERTEX
  5
E51
100
AcDbEntity
  8
ALPHA
100
AcDbVertex
100
AcDb2dVertex
 10
33.787753
 20
5.113068
 30
0.0
  0
VERTEX
  5
E52
100
AcDbEntity
  8
ALPHA
100
AcDbVertex
100
AcDb2dVertex
 10
33.834002
 20
5.311409
 30
0.0
  0
VERTEX
  5
E53
100
AcDbEntity
  8
ALPHA
100
AcDbVertex
100
AcDb2dVertex
 10
33.897107
 20
5.50129
 30
0.0
  0
VERTEX
  5
E54
100
AcDbEntity
  8
ALPHA
100
AcDbVertex
100
AcDb2dVertex
 10
33.976119
 20
5.681715
 30
0.0
  0
VERTEX
  5
E55
100
AcDbEntity
  8
ALPHA
100
AcDbVertex
100
AcDb2dVertex
 10
34.070088
 20
5.851685
 30
0.0
  0
VERTEX
  5
E56
100
AcDbEntity
  8
ALPHA
100
AcDbVertex
100
AcDb2dVertex
 10
34.178067
 20
6.010203
 30
0.0
  0
VERTEX
  5
E57
100
AcDbEntity
  8
ALPHA
100
AcDbVertex
100
AcDb2dVertex
 10
34.299106
 20
6.15627
 30
0.0
  0
VERTEX
  5
E58
100
AcDbEntity
  8
ALPHA
100
AcDbVertex
100
AcDb2dVertex
 10
34.432256
 20
6.28889
 30
0.0
  0
VERTEX
  5
E59
100
AcDbEntity
  8
ALPHA
100
AcDbVertex
100
AcDb2dVertex
 10
34.57657
 20
6.407064
 30
0.0
  0
VERTEX
  5
E5A
100
AcDbEntity
  8
ALPHA
100
AcDbVertex
100
AcDb2dVertex
 10
34.731098
 20
6.509795
 30
0.0
  0
VERTEX
  5
E5B
100
AcDbEntity
  8
ALPHA
100
AcDbVertex
100
AcDb2dVertex
 10
34.894892
 20
6.596084
 30
0.0
  0
VERTEX
  5
E5C
100
AcDbEntity
  8
ALPHA
100
AcDbVertex
100
AcDb2dVertex
 10
35.067002
 20
6.664935
 30
0.0
  0
VERTEX
  5
E5D
100
AcDbEntity
  8
ALPHA
100
AcDbVertex
100
AcDb2dVertex
 10
35.24648
 20
6.71535
 30
0.0
  0
VERTEX
  5
E5E
100
AcDbEntity
  8
ALPHA
100
AcDbVertex
100
AcDb2dVertex
 10
35.432378
 20
6.74633
 30
0.0
  0
VERTEX
  5
E5F
100
AcDbEntity
  8
ALPHA
100
AcDbVertex
100
AcDb2dVertex
 10
35.623747
 20
6.756879
 30
0.0
  0
VERTEX
  5
E60
100
AcDbEntity
  8
ALPHA
100
AcDbVertex
100
AcDb2dVertex
 10
35.81508
 20
6.74633
 30
0.0
  0
VERTEX
  5
E61
100
AcDbEntity
  8
ALPHA
100
AcDbVertex
100
AcDb2dVertex
 10
36.000881
 20
6.71535
 30
0.0
  0
VERTEX
  5
E62
100
AcDbEntity
  8
ALPHA
100
AcDbVertex
100
AcDb2dVertex
 10
36.180211
 20
6.664935
 30
0.0
  0
VERTEX
  5
E63
100
AcDbEntity
  8
ALPHA
100
AcDbVertex
100
AcDb2dVertex
 10
36.352132
 20
6.596084
 30
0.0
  0
VERTEX
  5
E64
100
AcDbEntity
  8
ALPHA
100
AcDbVertex
100
AcDb2dVertex
 10
36.515706
 20
6.509795
 30
0.0
  0
VERTEX
  5
E65
100
AcDbEntity
  8
ALPHA
100
AcDbVertex
100
AcDb2dVertex
 10
36.669994
 20
6.407064
 30
0.0
  0
VERTEX
  5
E66
100
AcDbEntity
  8
ALPHA
100
AcDbVertex
100
AcDb2dVertex
 10
36.814059
 20
6.28889
 30
0.0
  0
VERTEX
  5
E67
100
AcDbEntity
  8
ALPHA
100
AcDbVertex
100
AcDb2dVertex
 10
36.946962
 20
6.15627
 30
0.0
  0
VERTEX
  5
E68
100
AcDbEntity
  8
ALPHA
100
AcDbVertex
100
AcDb2dVertex
 10
37.067766
 20
6.010203
 30
0.0
  0
VERTEX
  5
E69
100
AcDbEntity
  8
ALPHA
100
AcDbVertex
100
AcDb2dVertex
 10
37.175532
 20
5.851685
 30
0.0
  0
VERTEX
  5
E6A
100
AcDbEntity
  8
ALPHA
100
AcDbVertex
100
AcDb2dVertex
 10
37.269322
 20
5.681715
 30
0.0
  0
VERTEX
  5
E6B
100
AcDbEntity
  8
ALPHA
100
AcDbVertex
100
AcDb2dVertex
 10
37.348198
 20
5.50129
 30
0.0
  0
VERTEX
  5
E6C
100
AcDbEntity
  8
ALPHA
100
AcDbVertex
100
AcDb2dVertex
 10
37.411221
 20
5.311408
 30
0.0
  0
VERTEX
  5
E6D
100
AcDbEntity
  8
ALPHA
100
AcDbVertex
100
AcDb2dVertex
 10
37.457454
 20
5.113067
 30
0.0
  0
VERTEX
  5
E6E
100
AcDbEntity
  8
ALPHA
100
AcDbVertex
100
AcDb2dVertex
 10
37.485959
 20
4.907265
 30
0.0
  0
VERTEX
  5
E6F
100
AcDbEntity
  8
ALPHA
100
AcDbVertex
100
AcDb2dVertex
 10
37.495797
 20
4.694999
 30
0.0
  0
VERTEX
  5
E70
100
AcDbEntity
  8
ALPHA
100
AcDbVertex
100
AcDb2dVertex
 10
37.498549
 20
1.613696
 30
0.0
  0
VERTEX
  5
E71
100
AcDbEntity
  8
ALPHA
100
AcDbVertex
100
AcDb2dVertex
 10
39.374057
 20
0.465123
 30
0.0
  0
VERTEX
  5
E72
100
AcDbEntity
  8
ALPHA
100
AcDbVertex
100
AcDb2dVertex
 10
39.374057
 20
7.812813
 30
0.0
  0
VERTEX
  5
E73
100
AcDbEntity
  8
ALPHA
100
AcDbVertex
100
AcDb2dVertex
 10
37.499254
 20
8.313052
 30
0.0
  0
VERTEX
  5
E74
100
AcDbEntity
  8
ALPHA
100
AcDbVertex
100
AcDb2dVertex
 10
37.499254
 20
10.364949
 30
0.0
  0
SEQEND
  5
E75
100
AcDbEntity
  8
ALPHA
  0
POLYLINE
  5
E76
100
AcDbEntity
  8
ALPHA
100
AcDb2dPolyline
 66
     1
 10
0.0
 20
0.0
 30
0.0
  0
VERTEX
  5
E77
100
AcDbEntity
  8
ALPHA
100
AcDbVertex
100
AcDb2dVertex
 10
78.773902
 20
10.364949
 30
0.0
  0
VERTEX
  5
E78
100
AcDbEntity
  8
ALPHA
100
AcDbVertex
100
AcDb2dVertex
 10
78.773902
 20
8.313052
 30
0.0
  0
VERTEX
  5
E79
100
AcDbEntity
  8
ALPHA
100
AcDbVertex
100
AcDb2dVertex
 10
76.897724
 20
7.812813
 30
0.0
  0
VERTEX
  5
E7A
100
AcDbEntity
  8
ALPHA
100
AcDbVertex
100
AcDb2dVertex
 10
76.897724
 20
0.465123
 30
0.0
  0
VERTEX
  5
E7B
100
AcDbEntity
  8
ALPHA
100
AcDbVertex
100
AcDb2dVertex
 10
78.773231
 20
1.613696
 30
0.0
  0
VERTEX
  5
E7C
100
AcDbEntity
  8
ALPHA
100
AcDbVertex
100
AcDb2dVertex
 10
78.774607
 20
4.694999
 30
0.0
  0
VERTEX
  5
E7D
100
AcDbEntity
  8
ALPHA
100
AcDbVertex
100
AcDb2dVertex
 10
78.7843
 20
4.907265
 30
0.0
  0
VERTEX
  5
E7E
100
AcDbEntity
  8
ALPHA
100
AcDbVertex
100
AcDb2dVertex
 10
78.812745
 20
5.113068
 30
0.0
  0
VERTEX
  5
E7F
100
AcDbEntity
  8
ALPHA
100
AcDbVertex
100
AcDb2dVertex
 10
78.858995
 20
5.311409
 30
0.0
  0
VERTEX
  5
E80
100
AcDbEntity
  8
ALPHA
100
AcDbVertex
100
AcDb2dVertex
 10
78.9221
 20
5.50129
 30
0.0
  0
VERTEX
  5
E81
100
AcDbEntity
  8
ALPHA
100
AcDbVertex
100
AcDb2dVertex
 10
79.001111
 20
5.681715
 30
0.0
  0
VERTEX
  5
E82
100
AcDbEntity
  8
ALPHA
100
AcDbVertex
100
AcDb2dVertex
 10
79.095081
 20
5.851685
 30
0.0
  0
VERTEX
  5
E83
100
AcDbEntity
  8
ALPHA
100
AcDbVertex
100
AcDb2dVertex
 10
79.203059
 20
6.010203
 30
0.0
  0
VERTEX
  5
E84
100
AcDbEntity
  8
ALPHA
100
AcDbVertex
100
AcDb2dVertex
 10
79.324098
 20
6.15627
 30
0.0
  0
VERTEX
  5
E85
100
AcDbEntity
  8
ALPHA
100
AcDbVertex
100
AcDb2dVertex
 10
79.457249
 20
6.28889
 30
0.0
  0
VERTEX
  5
E86
100
AcDbEntity
  8
ALPHA
100
AcDbVertex
100
AcDb2dVertex
 10
79.601563
 20
6.407064
 30
0.0
  0
VERTEX
  5
E87
100
AcDbEntity
  8
ALPHA
100
AcDbVertex
100
AcDb2dVertex
 10
79.756091
 20
6.509795
 30
0.0
  0
VERTEX
  5
E88
100
AcDbEntity
  8
ALPHA
100
AcDbVertex
100
AcDb2dVertex
 10
79.919884
 20
6.596084
 30
0.0
  0
VERTEX
  5
E89
100
AcDbEntity
  8
ALPHA
100
AcDbVertex
100
AcDb2dVertex
 10
80.091995
 20
6.664935
 30
0.0
  0
VERTEX
  5
E8A
100
AcDbEntity
  8
ALPHA
100
AcDbVertex
100
AcDb2dVertex
 10
80.271473
 20
6.71535
 30
0.0
  0
VERTEX
  5
E8B
100
AcDbEntity
  8
ALPHA
100
AcDbVertex
100
AcDb2dVertex
 10
80.457371
 20
6.74633
 30
0.0
  0
VERTEX
  5
E8C
100
AcDbEntity
  8
ALPHA
100
AcDbVertex
100
AcDb2dVertex
 10
80.648739
 20
6.756879
 30
0.0
  0
VERTEX
  5
E8D
100
AcDbEntity
  8
ALPHA
100
AcDbVertex
100
AcDb2dVertex
 10
80.840073
 20
6.74633
 30
0.0
  0
VERTEX
  5
E8E
100
AcDbEntity
  8
ALPHA
100
AcDbVertex
100
AcDb2dVertex
 10
81.025874
 20
6.71535
 30
0.0
  0
VERTEX
  5
E8F
100
AcDbEntity
  8
ALPHA
100
AcDbVertex
100
AcDb2dVertex
 10
81.205204
 20
6.664935
 30
0.0
  0
VERTEX
  5
E90
100
AcDbEntity
  8
ALPHA
100
AcDbVertex
100
AcDb2dVertex
 10
81.377125
 20
6.596084
 30
0.0
  0
VERTEX
  5
E91
100
AcDbEntity
  8
ALPHA
100
AcDbVertex
100
AcDb2dVertex
 10
81.540698
 20
6.509795
 30
0.0
  0
VERTEX
  5
E92
100
AcDbEntity
  8
ALPHA
100
AcDbVertex
100
AcDb2dVertex
 10
81.694987
 20
6.407064
 30
0.0
  0
VERTEX
  5
E93
100
AcDbEntity
  8
ALPHA
100
AcDbVertex
100
AcDb2dVertex
 10
81.839052
 20
6.28889
 30
0.0
  0
VERTEX
  5
E94
100
AcDbEntity
  8
ALPHA
100
AcDbVertex
100
AcDb2dVertex
 10
81.971955
 20
6.15627
 30
0.0
  0
VERTEX
  5
E95
100
AcDbEntity
  8
ALPHA
100
AcDbVertex
100
AcDb2dVertex
 10
82.092759
 20
6.010203
 30
0.0
  0
VERTEX
  5
E96
100
AcDbEntity
  8
ALPHA
100
AcDbVertex
100
AcDb2dVertex
 10
82.200524
 20
5.851685
 30
0.0
  0
VERTEX
  5
E97
100
AcDbEntity
  8
ALPHA
100
AcDbVertex
100
AcDb2dVertex
 10
82.294314
 20
5.681715
 30
0.0
  0
VERTEX
  5
E98
100
AcDbEntity
  8
ALPHA
100
AcDbVertex
100
AcDb2dVertex
 10
82.37319
 20
5.50129
 30
0.0
  0
VERTEX
  5
E99
100
AcDbEntity
  8
ALPHA
100
AcDbVertex
100
AcDb2dVertex
 10
82.436214
 20
5.311408
 30
0.0
  0
VERTEX
  5
E9A
100
AcDbEntity
  8
ALPHA
100
AcDbVertex
100
AcDb2dVertex
 10
82.482447
 20
5.113067
 30
0.0
  0
VERTEX
  5
E9B
100
AcDbEntity
  8
ALPHA
100
AcDbVertex
100
AcDb2dVertex
 10
82.510952
 20
4.907265
 30
0.0
  0
VERTEX
  5
E9C
100
AcDbEntity
  8
ALPHA
100
AcDbVertex
100
AcDb2dVertex
 10
82.52079
 20
4.694999
 30
0.0
  0
VERTEX
  5
E9D
100
AcDbEntity
  8
ALPHA
100
AcDbVertex
100
AcDb2dVertex
 10
82.523541
 20
1.613696
 30
0.0
  0
VERTEX
  5
E9E
100
AcDbEntity
  8
ALPHA
100
AcDbVertex
100
AcDb2dVertex
 10
84.399049
 20
0.465123
 30
0.0
  0
VERTEX
  5
E9F
100
AcDbEntity
  8
ALPHA
100
AcDbVertex
100
AcDb2dVertex
 10
84.399049
 20
7.812813
 30
0.0
  0
VERTEX
  5
EA0
100
AcDbEntity
  8
ALPHA
100
AcDbVertex
100
AcDb2dVertex
 10
82.524247
 20
8.313052
 30
0.0
  0
VERTEX
  5
EA1
100
AcDbEntity
  8
ALPHA
100
AcDbVertex
100
AcDb2dVertex
 10
82.524247
 20
10.364949
 30
0.0
  0
SEQEND
  5
EA2
100
AcDbEntity
  8
ALPHA
  0
POLYLINE
  5
EA3
100
AcDbEntity
  8
ALPHA
100
AcDb2dPolyline
 66
     1
 10
0.0
 20
0.0
 30
0.0
  0
VERTEX
  5
EA4
100
AcDbEntity
  8
ALPHA
100
AcDbVertex
100
AcDb2dVertex
 10
92.24906
 20
10.364949
 30
0.0
  0
VERTEX
  5
EA5
100
AcDbEntity
  8
ALPHA
100
AcDbVertex
100
AcDb2dVertex
 10
92.24906
 20
8.313052
 30
0.0
  0
VERTEX
  5
EA6
100
AcDbEntity
  8
ALPHA
100
AcDbVertex
100
AcDb2dVertex
 10
90.372847
 20
7.812813
 30
0.0
  0
VERTEX
  5
EA7
100
AcDbEntity
  8
ALPHA
100
AcDbVertex
100
AcDb2dVertex
 10
90.372847
 20
0.465123
 30
0.0
  0
VERTEX
  5
EA8
100
AcDbEntity
  8
ALPHA
100
AcDbVertex
100
AcDb2dVertex
 10
92.248355
 20
1.613696
 30
0.0
  0
VERTEX
  5
EA9
100
AcDbEntity
  8
ALPHA
100
AcDbVertex
100
AcDb2dVertex
 10
92.24973
 20
4.694999
 30
0.0
  0
VERTEX
  5
EAA
100
AcDbEntity
  8
ALPHA
100
AcDbVertex
100
AcDb2dVertex
 10
92.259423
 20
4.907265
 30
0.0
  0
VERTEX
  5
EAB
100
AcDbEntity
  8
ALPHA
100
AcDbVertex
100
AcDb2dVertex
 10
92.287869
 20
5.113068
 30
0.0
  0
VERTEX
  5
EAC
100
AcDbEntity
  8
ALPHA
100
AcDbVertex
100
AcDb2dVertex
 10
92.334118
 20
5.311409
 30
0.0
  0
VERTEX
  5
EAD
100
AcDbEntity
  8
ALPHA
100
AcDbVertex
100
AcDb2dVertex
 10
92.397223
 20
5.50129
 30
0.0
  0
VERTEX
  5
EAE
100
AcDbEntity
  8
ALPHA
100
AcDbVertex
100
AcDb2dVertex
 10
92.476235
 20
5.681715
 30
0.0
  0
VERTEX
  5
EAF
100
AcDbEntity
  8
ALPHA
100
AcDbVertex
100
AcDb2dVertex
 10
92.570204
 20
5.851685
 30
0.0
  0
VERTEX
  5
EB0
100
AcDbEntity
  8
ALPHA
100
AcDbVertex
100
AcDb2dVertex
 10
92.678183
 20
6.010203
 30
0.0
  0
VERTEX
  5
EB1
100
AcDbEntity
  8
ALPHA
100
AcDbVertex
100
AcDb2dVertex
 10
92.799222
 20
6.15627
 30
0.0
  0
VERTEX
  5
EB2
100
AcDbEntity
  8
ALPHA
100
AcDbVertex
100
AcDb2dVertex
 10
92.932372
 20
6.28889
 30
0.0
  0
VERTEX
  5
EB3
100
AcDbEntity
  8
ALPHA
100
AcDbVertex
100
AcDb2dVertex
 10
93.076686
 20
6.407064
 30
0.0
  0
VERTEX
  5
EB4
100
AcDbEntity
  8
ALPHA
100
AcDbVertex
100
AcDb2dVertex
 10
93.231214
 20
6.509795
 30
0.0
  0
VERTEX
  5
EB5
100
AcDbEntity
  8
ALPHA
100
AcDbVertex
100
AcDb2dVertex
 10
93.395008
 20
6.596084
 30
0.0
  0
VERTEX
  5
EB6
100
AcDbEntity
  8
ALPHA
100
AcDbVertex
100
AcDb2dVertex
 10
93.567118
 20
6.664935
 30
0.0
  0
VERTEX
  5
EB7
100
AcDbEntity
  8
ALPHA
100
AcDbVertex
100
AcDb2dVertex
 10
93.746596
 20
6.71535
 30
0.0
  0
VERTEX
  5
EB8
100
AcDbEntity
  8
ALPHA
100
AcDbVertex
100
AcDb2dVertex
 10
93.932494
 20
6.74633
 30
0.0
  0
VERTEX
  5
EB9
100
AcDbEntity
  8
ALPHA
100
AcDbVertex
100
AcDb2dVertex
 10
94.123862
 20
6.756879
 30
0.0
  0
VERTEX
  5
EBA
100
AcDbEntity
  8
ALPHA
100
AcDbVertex
100
AcDb2dVertex
 10
94.315197
 20
6.74633
 30
0.0
  0
VERTEX
  5
EBB
100
AcDbEntity
  8
ALPHA
100
AcDbVertex
100
AcDb2dVertex
 10
94.500999
 20
6.71535
 30
0.0
  0
VERTEX
  5
EBC
100
AcDbEntity
  8
ALPHA
100
AcDbVertex
100
AcDb2dVertex
 10
94.68033
 20
6.664935
 30
0.0
  0
VERTEX
  5
EBD
100
AcDbEntity
  8
ALPHA
100
AcDbVertex
100
AcDb2dVertex
 10
94.852253
 20
6.596084
 30
0.0
  0
VERTEX
  5
EBE
100
AcDbEntity
  8
ALPHA
100
AcDbVertex
100
AcDb2dVertex
 10
95.01583
 20
6.509795
 30
0.0
  0
VERTEX
  5
EBF
100
AcDbEntity
  8
ALPHA
100
AcDbVertex
100
AcDb2dVertex
 10
95.170121
 20
6.407064
 30
0.0
  0
VERTEX
  5
EC0
100
AcDbEntity
  8
ALPHA
100
AcDbVertex
100
AcDb2dVertex
 10
95.314189
 20
6.28889
 30
0.0
  0
VERTEX
  5
EC1
100
AcDbEntity
  8
ALPHA
100
AcDbVertex
100
AcDb2dVertex
 10
95.447096
 20
6.15627
 30
0.0
  0
VERTEX
  5
EC2
100
AcDbEntity
  8
ALPHA
100
AcDbVertex
100
AcDb2dVertex
 10
95.567903
 20
6.010203
 30
0.0
  0
VERTEX
  5
EC3
100
AcDbEntity
  8
ALPHA
100
AcDbVertex
100
AcDb2dVertex
 10
95.675672
 20
5.851685
 30
0.0
  0
VERTEX
  5
EC4
100
AcDbEntity
  8
ALPHA
100
AcDbVertex
100
AcDb2dVertex
 10
95.769465
 20
5.681715
 30
0.0
  0
VERTEX
  5
EC5
100
AcDbEntity
  8
ALPHA
100
AcDbVertex
100
AcDb2dVertex
 10
95.848343
 20
5.50129
 30
0.0
  0
VERTEX
  5
EC6
100
AcDbEntity
  8
ALPHA
100
AcDbVertex
100
AcDb2dVertex
 10
95.911369
 20
5.311408
 30
0.0
  0
VERTEX
  5
EC7
100
AcDbEntity
  8
ALPHA
100
AcDbVertex
100
AcDb2dVertex
 10
95.957604
 20
5.113067
 30
0.0
  0
VERTEX
  5
EC8
100
AcDbEntity
  8
ALPHA
100
AcDbVertex
100
AcDb2dVertex
 10
95.98611
 20
4.907265
 30
0.0
  0
VERTEX
  5
EC9
100
AcDbEntity
  8
ALPHA
100
AcDbVertex
100
AcDb2dVertex
 10
95.995948
 20
4.694999
 30
0.0
  0
VERTEX
  5
ECA
100
AcDbEntity
  8
ALPHA
100
AcDbVertex
100
AcDb2dVertex
 10
95.9987
 20
1.613696
 30
0.0
  0
VERTEX
  5
ECB
100
AcDbEntity
  8
ALPHA
100
AcDbVertex
100
AcDb2dVertex
 10
97.874208
 20
0.465123
 30
0.0
  0
VERTEX
  5
ECC
100
AcDbEntity
  8
ALPHA
100
AcDbVertex
100
AcDb2dVertex
 10
97.874208
 20
7.812813
 30
0.0
  0
VERTEX
  5
ECD
100
AcDbEntity
  8
ALPHA
100
AcDbVertex
100
AcDb2dVertex
 10
95.99937
 20
8.313052
 30
0.0
  0
VERTEX
  5
ECE
100
AcDbEntity
  8
ALPHA
100
AcDbVertex
100
AcDb2dVertex
 10
95.99937
 20
10.364949
 30
0.0
  0
SEQEND
  5
ECF
100
AcDbEntity
  8
ALPHA
  0
POLYLINE
  5
ED0
100
AcDbEntity
  8
ALPHA
100
AcDb2dPolyline
 66
     1
 10
0.0
 20
0.0
 30
0.0
  0
VERTEX
  5
ED1
100
AcDbEntity
  8
ALPHA
100
AcDbVertex
100
AcDb2dVertex
 10
105.749019
 20
10.364949
 30
0.0
  0
VERTEX
  5
ED2
100
AcDbEntity
  8
ALPHA
100
AcDbVertex
100
AcDb2dVertex
 10
105.749019
 20
8.313052
 30
0.0
  0
VERTEX
  5
ED3
100
AcDbEntity
  8
ALPHA
100
AcDbVertex
100
AcDb2dVertex
 10
103.872806
 20
7.812813
 30
0.0
  0
VERTEX
  5
ED4
100
AcDbEntity
  8
ALPHA
100
AcDbVertex
100
AcDb2dVertex
 10
103.872806
 20
0.465123
 30
0.0
  0
VERTEX
  5
ED5
100
AcDbEntity
  8
ALPHA
100
AcDbVertex
100
AcDb2dVertex
 10
105.748314
 20
1.613696
 30
0.0
  0
VERTEX
  5
ED6
100
AcDbEntity
  8
ALPHA
100
AcDbVertex
100
AcDb2dVertex
 10
105.749689
 20
4.694999
 30
0.0
  0
VERTEX
  5
ED7
100
AcDbEntity
  8
ALPHA
100
AcDbVertex
100
AcDb2dVertex
 10
105.759382
 20
4.907265
 30
0.0
  0
VERTEX
  5
ED8
100
AcDbEntity
  8
ALPHA
100
AcDbVertex
100
AcDb2dVertex
 10
105.787827
 20
5.113068
 30
0.0
  0
VERTEX
  5
ED9
100
AcDbEntity
  8
ALPHA
100
AcDbVertex
100
AcDb2dVertex
 10
105.834077
 20
5.311409
 30
0.0
  0
VERTEX
  5
EDA
100
AcDbEntity
  8
ALPHA
100
AcDbVertex
100
AcDb2dVertex
 10
105.897182
 20
5.50129
 30
0.0
  0
VERTEX
  5
EDB
100
AcDbEntity
  8
ALPHA
100
AcDbVertex
100
AcDb2dVertex
 10
105.976193
 20
5.681715
 30
0.0
  0
VERTEX
  5
EDC
100
AcDbEntity
  8
ALPHA
100
AcDbVertex
100
AcDb2dVertex
 10
106.070163
 20
5.851685
 30
0.0
  0
VERTEX
  5
EDD
100
AcDbEntity
  8
ALPHA
100
AcDbVertex
100
AcDb2dVertex
 10
106.178141
 20
6.010203
 30
0.0
  0
VERTEX
  5
EDE
100
AcDbEntity
  8
ALPHA
100
AcDbVertex
100
AcDb2dVertex
 10
106.29918
 20
6.15627
 30
0.0
  0
VERTEX
  5
EDF
100
AcDbEntity
  8
ALPHA
100
AcDbVertex
100
AcDb2dVertex
 10
106.432331
 20
6.28889
 30
0.0
  0
VERTEX
  5
EE0
100
AcDbEntity
  8
ALPHA
100
AcDbVertex
100
AcDb2dVertex
 10
106.576645
 20
6.407064
 30
0.0
  0
VERTEX
  5
EE1
100
AcDbEntity
  8
ALPHA
100
AcDbVertex
100
AcDb2dVertex
 10
106.731173
 20
6.509795
 30
0.0
  0
VERTEX
  5
EE2
100
AcDbEntity
  8
ALPHA
100
AcDbVertex
100
AcDb2dVertex
 10
106.894966
 20
6.596084
 30
0.0
  0
VERTEX
  5
EE3
100
AcDbEntity
  8
ALPHA
100
AcDbVertex
100
AcDb2dVertex
 10
107.067077
 20
6.664935
 30
0.0
  0
VERTEX
  5
EE4
100
AcDbEntity
  8
ALPHA
100
AcDbVertex
100
AcDb2dVertex
 10
107.246555
 20
6.71535
 30
0.0
  0
VERTEX
  5
EE5
100
AcDbEntity
  8
ALPHA
100
AcDbVertex
100
AcDb2dVertex
 10
107.432453
 20
6.74633
 30
0.0
  0
VERTEX
  5
EE6
100
AcDbEntity
  8
ALPHA
100
AcDbVertex
100
AcDb2dVertex
 10
107.623821
 20
6.756879
 30
0.0
  0
VERTEX
  5
EE7
100
AcDbEntity
  8
ALPHA
100
AcDbVertex
100
AcDb2dVertex
 10
107.815155
 20
6.74633
 30
0.0
  0
VERTEX
  5
EE8
100
AcDbEntity
  8
ALPHA
100
AcDbVertex
100
AcDb2dVertex
 10
108.000958
 20
6.71535
 30
0.0
  0
VERTEX
  5
EE9
100
AcDbEntity
  8
ALPHA
100
AcDbVertex
100
AcDb2dVertex
 10
108.180289
 20
6.664935
 30
0.0
  0
VERTEX
  5
EEA
100
AcDbEntity
  8
ALPHA
100
AcDbVertex
100
AcDb2dVertex
 10
108.352212
 20
6.596084
 30
0.0
  0
VERTEX
  5
EEB
100
AcDbEntity
  8
ALPHA
100
AcDbVertex
100
AcDb2dVertex
 10
108.515789
 20
6.509795
 30
0.0
  0
VERTEX
  5
EEC
100
AcDbEntity
  8
ALPHA
100
AcDbVertex
100
AcDb2dVertex
 10
108.67008
 20
6.407064
 30
0.0
  0
VERTEX
  5
EED
100
AcDbEntity
  8
ALPHA
100
AcDbVertex
100
AcDb2dVertex
 10
108.814148
 20
6.28889
 30
0.0
  0
VERTEX
  5
EEE
100
AcDbEntity
  8
ALPHA
100
AcDbVertex
100
AcDb2dVertex
 10
108.947055
 20
6.15627
 30
0.0
  0
VERTEX
  5
EEF
100
AcDbEntity
  8
ALPHA
100
AcDbVertex
100
AcDb2dVertex
 10
109.067862
 20
6.010203
 30
0.0
  0
VERTEX
  5
EF0
100
AcDbEntity
  8
ALPHA
100
AcDbVertex
100
AcDb2dVertex
 10
109.175631
 20
5.851685
 30
0.0
  0
VERTEX
  5
EF1
100
AcDbEntity
  8
ALPHA
100
AcDbVertex
100
AcDb2dVertex
 10
109.269424
 20
5.681715
 30
0.0
  0
VERTEX
  5
EF2
100
AcDbEntity
  8
ALPHA
100
AcDbVertex
100
AcDb2dVertex
 10
109.348302
 20
5.50129
 30
0.0
  0
VERTEX
  5
EF3
100
AcDbEntity
  8
ALPHA
100
AcDbVertex
100
AcDb2dVertex
 10
109.411328
 20
5.311408
 30
0.0
  0
VERTEX
  5
EF4
100
AcDbEntity
  8
ALPHA
100
AcDbVertex
100
AcDb2dVertex
 10
109.457563
 20
5.113067
 30
0.0
  0
VERTEX
  5
EF5
100
AcDbEntity
  8
ALPHA
100
AcDbVertex
100
AcDb2dVertex
 10
109.486069
 20
4.907265
 30
0.0
  0
VERTEX
  5
EF6
100
AcDbEntity
  8
ALPHA
100
AcDbVertex
100
AcDb2dVertex
 10
109.495907
 20
4.694999
 30
0.0
  0
VERTEX
  5
EF7
100
AcDbEntity
  8
ALPHA
100
AcDbVertex
100
AcDb2dVertex
 10
109.498659
 20
1.613696
 30
0.0
  0
VERTEX
  5
EF8
100
AcDbEntity
  8
ALPHA
100
AcDbVertex
100
AcDb2dVertex
 10
111.374167
 20
0.465123
 30
0.0
  0
VERTEX
  5
EF9
100
AcDbEntity
  8
ALPHA
100
AcDbVertex
100
AcDb2dVertex
 10
111.374167
 20
7.812813
 30
0.0
  0
VERTEX
  5
EFA
100
AcDbEntity
  8
ALPHA
100
AcDbVertex
100
AcDb2dVertex
 10
109.499329
 20
8.313052
 30
0.0
  0
VERTEX
  5
EFB
100
AcDbEntity
  8
ALPHA
100
AcDbVertex
100
AcDb2dVertex
 10
109.499329
 20
10.364949
 30
0.0
  0
SEQEND
  5
EFC
100
AcDbEntity
  8
ALPHA
  0
LINE
  5
F66
100
AcDbEntity
  8
AXE
100
AcDbLine
 10
22.12347
 20
16.838759
 30
0.0
 11
22.12347
 21
-1.806379
 31
0.0
  0
LINE
  5
F94
100
AcDbEntity
  8
AXE
100
AcDbLine
 10
94.123545
 20
16.838759
 30
0.0
 11
94.123545
 21
-1.806379
 31
0.0
  0
DIMENSION
  5
FCE
100
AcDbEntity
  8
COTATION1
100
AcDbDimension
  2
*D7
 10
94.123545
 20
-4.650018
 30
0.0
 11
58.123508
 21
-2.400018
 31
0.0
 70
    32
  3
SC_STAND
100
AcDbAlignedDimension
 13
22.12347
 23
-1.806379
 33
0.0
 14
94.123545
 24
-1.806379
 34
0.0
100
AcDbRotatedDimension
  0
DIMENSION
  5
FDB
100
AcDbEntity
  8
COTATION1
100
AcDbDimension
  2
*D8
 10
116.136667
 20
33.036224
 30
0.0
 11
58.136578
 21
35.286224
 31
0.0
 70
    32
  3
SC_STAND
100
AcDbAlignedDimension
 13
0.136489
 23
28.46513
 33
0.0
 14
116.136667
 24
28.46513
 34
0.0
100
AcDbRotatedDimension
  0
ENDSEC
  0
SECTION
  2
OBJECTS
  0
DICTIONARY
  5
F8
100
AcDbDictionary
  3
ACAD_GROUP
350
F9
  3
ACAD_MLINESTYLE
350
106
  3
ACDBVARIABLEDICTIONARY
350
143
  0
DICTIONARY
  5
F9
102
{ACAD_REACTORS
330
F8
102
}
100
AcDbDictionary
  0
DICTIONARY
  5
106
102
{ACAD_REACTORS
330
F8
102
}
100
AcDbDictionary
  3
STANDARD
350
107
  0
DICTIONARY
  5
143
102
{ACAD_REACTORS
330
F8
102
}
100
AcDbDictionary
  3
DIMADEC
350
144
  0
MLINESTYLE
  5
107
102
{ACAD_REACTORS
330
106
102
}
100
AcDbMlineStyle
  2
STANDARD
 70
     0
  3

 62
   256
 51
90.0
 52
90.0
 71
     2
 49
0.5
 62
   256
  6
BYLAYER
 49
-0.5
 62
   256
  6
BYLAYER
  0
DICTIONARYVAR
  5
144
102
{ACAD_REACTORS
330
143
102
}
100
DictionaryVariables
280
     0
  1
0
  0
ENDSEC
  0
EOF
