  0
SECTION
  2
HEADER
  9
$ACADVER
  1
AC1015
  9
$ACADMAINTVER
 70
    13
  9
$DWGCODEPAGE
  3
ANSI_1252
  9
$INSBASE
 10
0.0
 20
0.0
 30
0.0
  9
$EXTMIN
 10
199.4920731749022
 20
102.8637642574527
 30
0.0
  9
$EXTMAX
 10
555.9410618929838
 20
303.7138847485896
 30
0.0
  9
$LIMMIN
 10
0.0
 20
0.0
  9
$LIMMAX
 10
420.0
 20
297.0
  9
$ORTHOMODE
 70
     1
  9
$REGENMODE
 70
     1
  9
$FILLMODE
 70
     1
  9
$QTEXTMODE
 70
     0
  9
$MIRRTEXT
 70
     1
  9
$LTSCALE
 40
1.0
  9
$ATTMODE
 70
     1
  9
$TEXTSIZE
 40
2.5
  9
$TRACEWID
 40
1.0
  9
$TEXTSTYLE
  7
Standard
  9
$CLAYER
  8
COTE
  9
$CELTYPE
  6
ByLayer
  9
$CECOLOR
 62
   256
  9
$CELTSCALE
 40
1.0
  9
$DISPSILH
 70
     0
  9
$DIMSCALE
 40
1.0
  9
$DIMASZ
 40
3.5
  9
$DIMEXO
 40
1.0
  9
$DIMDLI
 40
22.572
  9
$DIMRND
 40
0.0
  9
$DIMDLE
 40
0.0
  9
$DIMEXE
 40
2.0
  9
$DIMTP
 40
0.0
  9
$DIMTM
 40
0.0
  9
$DIMTXT
 40
6.0
  9
$DIMCEN
 40
5.346
  9
$DIMTSZ
 40
0.0
  9
$DIMTOL
 70
     0
  9
$DIMLIM
 70
     0
  9
$DIMTIH
 70
     0
  9
$DIMTOH
 70
     1
  9
$DIMSE1
 70
     0
  9
$DIMSE2
 70
     0
  9
$DIMTAD
 70
     1
  9
$DIMZIN
 70
     0
  9
$DIMBLK
  1

  9
$DIMASO
 70
     1
  9
$DIMSHO
 70
     1
  9
$DIMPOST
  1

  9
$DIMAPOST
  1

  9
$DIMALT
 70
     0
  9
$DIMALTD
 70
     0
  9
$DIMALTF
 40
25.4
  9
$DIMLFAC
 40
1.0
  9
$DIMTOFL
 70
     0
  9
$DIMTVP
 40
0.0
  9
$DIMTIX
 70
     0
  9
$DIMSOXD
 70
     0
  9
$DIMSAH
 70
     0
  9
$DIMBLK1
  1

  9
$DIMBLK2
  1

  9
$DIMSTYLE
  2
COTATION1
  9
$DIMCLRD
 70
     0
  9
$DIMCLRE
 70
     0
  9
$DIMCLRT
 70
     0
  9
$DIMTFAC
 40
1.0
  9
$DIMGAP
 40
1.0
  9
$DIMJUST
 70
     0
  9
$DIMSD1
 70
     0
  9
$DIMSD2
 70
     0
  9
$DIMTOLJ
 70
     1
  9
$DIMTZIN
 70
     0
  9
$DIMALTZ
 70
     0
  9
$DIMALTTZ
 70
     0
  9
$DIMUPT
 70
     0
  9
$DIMDEC
 70
     0
  9
$DIMTDEC
 70
     0
  9
$DIMALTU
 70
     2
  9
$DIMALTTD
 70
     0
  9
$DIMTXSTY
  7
Standard
  9
$DIMAUNIT
 70
     0
  9
$DIMADEC
 70
     0
  9
$DIMALTRND
 40
0.0
  9
$DIMAZIN
 70
     0
  9
$DIMDSEP
 70
    46
  9
$DIMATFIT
 70
     3
  9
$DIMFRAC
 70
     0
  9
$DIMLDRBLK
  1

  9
$DIMLUNIT
 70
     2
  9
$DIMLWD
 70
    -2
  9
$DIMLWE
 70
    -2
  9
$DIMTMOVE
 70
     0
  9
$LUNITS
 70
     2
  9
$LUPREC
 70
     4
  9
$SKETCHINC
 40
1.0
  9
$FILLETRAD
 40
10.0
  9
$AUNITS
 70
     0
  9
$AUPREC
 70
     0
  9
$MENU
  1
.
  9
$ELEVATION
 40
0.0
  9
$PELEVATION
 40
0.0
  9
$THICKNESS
 40
0.0
  9
$LIMCHECK
 70
     0
  9
$CHAMFERA
 40
10.0
  9
$CHAMFERB
 40
10.0
  9
$CHAMFERC
 40
20.0
  9
$CHAMFERD
 40
0.0
  9
$SKPOLY
 70
     0
  9
$TDCREATE
 40
2452660.722161088
  9
$TDUCREATE
 40
2452660.638827754
  9
$TDUPDATE
 40
2452746.514182754
  9
$TDUUPDATE
 40
2452746.430849421
  9
$TDINDWG
 40
0.0224861806
  9
$TDUSRTIMER
 40
0.0224860069
  9
$USRTIMER
 70
     1
  9
$ANGBASE
 50
0.0
  9
$ANGDIR
 70
     0
  9
$PDMODE
 70
     0
  9
$PDSIZE
 40
0.0
  9
$PLINEWID
 40
0.0
  9
$SPLFRAME
 70
     0
  9
$SPLINETYPE
 70
     6
  9
$SPLINESEGS
 70
     8
  9
$HANDSEED
  5
8CE
  9
$SURFTAB1
 70
     6
  9
$SURFTAB2
 70
     6
  9
$SURFTYPE
 70
     6
  9
$SURFU
 70
     6
  9
$SURFV
 70
     6
  9
$UCSBASE
  2

  9
$UCSNAME
  2

  9
$UCSORG
 10
0.0
 20
0.0
 30
0.0
  9
$UCSXDIR
 10
1.0
 20
0.0
 30
0.0
  9
$UCSYDIR
 10
0.0
 20
1.0
 30
0.0
  9
$UCSORTHOREF
  2

  9
$UCSORTHOVIEW
 70
     0
  9
$UCSORGTOP
 10
0.0
 20
0.0
 30
0.0
  9
$UCSORGBOTTOM
 10
0.0
 20
0.0
 30
0.0
  9
$UCSORGLEFT
 10
0.0
 20
0.0
 30
0.0
  9
$UCSORGRIGHT
 10
0.0
 20
0.0
 30
0.0
  9
$UCSORGFRONT
 10
0.0
 20
0.0
 30
0.0
  9
$UCSORGBACK
 10
0.0
 20
0.0
 30
0.0
  9
$PUCSBASE
  2

  9
$PUCSNAME
  2

  9
$PUCSORG
 10
0.0
 20
0.0
 30
0.0
  9
$PUCSXDIR
 10
1.0
 20
0.0
 30
0.0
  9
$PUCSYDIR
 10
0.0
 20
1.0
 30
0.0
  9
$PUCSORTHOREF
  2

  9
$PUCSORTHOVIEW
 70
     0
  9
$PUCSORGTOP
 10
0.0
 20
0.0
 30
0.0
  9
$PUCSORGBOTTOM
 10
0.0
 20
0.0
 30
0.0
  9
$PUCSORGLEFT
 10
0.0
 20
0.0
 30
0.0
  9
$PUCSORGRIGHT
 10
0.0
 20
0.0
 30
0.0
  9
$PUCSORGFRONT
 10
0.0
 20
0.0
 30
0.0
  9
$PUCSORGBACK
 10
0.0
 20
0.0
 30
0.0
  9
$USERI1
 70
     0
  9
$USERI2
 70
     0
  9
$USERI3
 70
     0
  9
$USERI4
 70
     0
  9
$USERI5
 70
     0
  9
$USERR1
 40
0.0
  9
$USERR2
 40
0.0
  9
$USERR3
 40
0.0
  9
$USERR4
 40
0.0
  9
$USERR5
 40
0.0
  9
$WORLDVIEW
 70
     1
  9
$SHADEDGE
 70
     3
  9
$SHADEDIF
 70
    70
  9
$TILEMODE
 70
     1
  9
$MAXACTVP
 70
    64
  9
$PINSBASE
 10
0.0
 20
0.0
 30
0.0
  9
$PLIMCHECK
 70
     0
  9
$PEXTMIN
 10
1.000000000000000E+20
 20
1.000000000000000E+20
 30
1.000000000000000E+20
  9
$PEXTMAX
 10
-1.000000000000000E+20
 20
-1.000000000000000E+20
 30
-1.000000000000000E+20
  9
$PLIMMIN
 10
0.0
 20
0.0
  9
$PLIMMAX
 10
420.0
 20
297.0
  9
$UNITMODE
 70
     0
  9
$VISRETAIN
 70
     1
  9
$PLINEGEN
 70
     0
  9
$PSLTSCALE
 70
     1
  9
$TREEDEPTH
 70
  3020
  9
$CMLSTYLE
  2
Standard
  9
$CMLJUST
 70
     0
  9
$CMLSCALE
 40
20.0
  9
$PROXYGRAPHICS
 70
     1
  9
$MEASUREMENT
 70
     1
  9
$CELWEIGHT
370
    -1
  9
$ENDCAPS
280
     0
  9
$JOINSTYLE
280
     0
  9
$LWDISPLAY
290
     0
  9
$INSUNITS
 70
     4
  9
$HYPERLINKBASE
  1

  9
$STYLESHEET
  1

  9
$XEDIT
290
     1
  9
$CEPSNTYPE
380
     0
  9
$PSTYLEMODE
290
     1
  9
$FINGERPRINTGUID
  2
{FDEAD578-A652-11D2-9A35-0060089B3A3F}
  9
$VERSIONGUID
  2
{C558219C-6FF2-11D7-93B7-00C04FA10166}
  9
$EXTNAMES
290
     1
  9
$PSVPSCALE
 40
0.0
  9
$OLESTARTUP
290
     0
  0
ENDSEC
  0
SECTION
  2
CLASSES
  0
CLASS
  1
ACDBDICTIONARYWDFLT
  2
AcDbDictionaryWithDefault
  3
AutoCAD 2000
 90
        0
280
     0
281
     0
  0
CLASS
  1
ACDBPLACEHOLDER
  2
AcDbPlaceHolder
  3
AutoCAD 2000
 90
        0
280
     0
281
     0
  0
CLASS
  1
LAYOUT
  2
AcDbLayout
  3
AutoCAD 2000
 90
        0
280
     0
281
     0
  0
CLASS
  1
DICTIONARYVAR
  2
AcDbDictionaryVar
  3
AutoCAD 2000
 90
        0
280
     0
281
     0
  0
CLASS
  1
ACME_DOCUMENT
  2
AcMeDbDoc
  3
AcMeServices
 90
    32768
280
     0
281
     0
  0
CLASS
  1
AMGSETTINGSOBJ
  2
AmgSettingsObj
  3
"AcadM|Product Description: AutoCAD Mechanical 2000|Company: Autodesk"
 90
        0
280
     0
281
     0
  0
CLASS
  1
ACMESCOPE
  2
AcMeScope
  3
AcMeServices
 90
        0
280
     0
281
     0
  0
CLASS
  1
ACMECOMMANDHISTORY
  2
AcMeCommandHistory
  3
AcMeServices
 90
        0
280
     0
281
     0
  0
CLASS
  1
ACIMSYSVARMAN
  2
AcImSysVarManager
  3
AcMeServices
 90
        0
280
     0
281
     0
  0
CLASS
  1
ACIMREALSYSVAR
  2
AcImRealSysVar
  3
AcMeServices
 90
        0
280
     0
281
     0
  0
CLASS
  1
ACIMINTSYSVAR
  2
AcImIntSysVar
  3
AcMeServices
 90
        0
280
     0
281
     0
  0
CLASS
  1
ACMEDRAWINGMAN
  2
AcMeDrawingMan
  3
AcMeServices
 90
        0
280
     0
281
     0
  0
CLASS
  1
ACMEVIEW
  2
AcMeView
  3
AcMeServices
 90
        0
280
     0
281
     0
  0
CLASS
  1
ACDBENTITYCACHE
  2
AcMeEntityCache
  3
AcMeServices
 90
    32768
280
     0
281
     0
  0
CLASS
  1
GSMANAGER
  2
AcMeGSManager
  3
AcMeServices
 90
    32768
280
     0
281
     0
  0
CLASS
  1
AMDTINTERNALREACTOR
  2
AmdtInternalReactor
  3
AcMeServices
 90
    32768
280
     0
281
     0
  0
CLASS
  1
ACMESTATEMGR
  2
AcMeStateMgr
  3
AcMeServices
 90
        0
280
     0
281
     0
  0
CLASS
  1
ACGREFMASTER
  2
AcGrefMaster
  3
AcAttribServices
 90
        0
280
     0
281
     0
  0
CLASS
  1
AM_DRAWING_MGR
  2
AcDmDwgMgr
  3
AcMechDwgViewMgmt
 90
        0
280
     0
281
     0
  0
CLASS
  1
AM_DWG_DOCUMENT
  2
AcDmDwgDocument
  3
AcMechDwgViewMgmt
 90
        0
280
     0
281
     0
  0
CLASS
  1
AM_DWG_SHEET
  2
AcDmSheet
  3
AcMechDwgViewMgmt
 90
        0
280
     0
281
     0
  0
CLASS
  1
AM_VIEWDIMPARMAP
  2
AcDmViewDimParMap
  3
AcMechDwgViewMgmt
 90
        0
280
     0
281
     0
  0
CLASS
  1
AM_DWGMGR_NAME
  2
AcDmDwgMgrName
  3
AcMechDwgViewMgmt
 90
        0
280
     0
281
     0
  0
CLASS
  1
ACME_DATABASE
  2
AcMeDbDatabase
  3
AcMeServices
 90
    32768
280
     0
281
     0
  0
CLASS
  1
ACRFINSADJUSTERMGR
  2
AcRfInsAdjusterMgr
  3
AcMeServices
 90
    32768
280
     0
281
     0
  0
CLASS
  1
ACGREFACADMASTER
  2
AcGrefacadMaster
  3
AcGrefServices
 90
        0
280
     0
281
     0
  0
CLASS
  1
AMDTMENUSTATEMGR
  2
AmdtMenuStateMgr
  3
McadcomServices
 90
    32768
280
     0
281
     0
  0
CLASS
  1
AMDTMCOMMENUSTATE
  2
AmdtMcomMenuState
  3
McadcomServices
 90
    32768
280
     0
281
     0
  0
CLASS
  1
AMIMASTER
  2
AmiMaster
  3
AmiServices
 90
        0
280
     0
281
     0
  0
CLASS
  1
ASAPP
  2
AcAsAppObject
  3
AutoSurfServices
 90
        0
280
     0
281
     0
  0
CLASS
  1
IM_STATIC_MAN
  2
AcImStaticVarManager
  3
AcMeServices
 90
        0
280
     0
281
     0
  0
CLASS
  1
ACIMSTRSYSVAR
  2
AcImStrSysVar
  3
AcMeServices
 90
        0
280
     0
281
     0
  0
CLASS
  1
ACIMDBLSTATICVAR
  2
AcImDblStaticVar
  3
AcMeServices
 90
        0
280
     0
281
     0
  0
CLASS
  1
ACIMSTRSTATICVAR
  2
AcImStrStaticVar
  3
AcMeServices
 90
        0
280
     0
281
     0
  0
CLASS
  1
ACIMINTSTATICVAR
  2
AcImIntStaticVar
  3
AcMeServices
 90
        0
280
     0
281
     0
  0
CLASS
  1
ACASGREFMASTER
  2
AcAsGrefMaster
  3
AutoSurfResolverServices
 90
        0
280
     0
281
     0
  0
CLASS
  1
ACADGREFMODULE
  2
AcAdGrefModule
  3
AdGrefServices
 90
        0
280
     0
281
     0
  0
CLASS
  1
AMDTMAPISURFMOUDULE
  2
AmdtMApiSurfModule
  3
MApiSurfServices
 90
        0
280
     0
281
     0
  0
CLASS
  1
MAPIAMMOUDLE
  2
MApiAmModule
  3
MApiAmServices
 90
        0
280
     0
281
     0
  0
CLASS
  1
AMDTADMENUSTATE
  2
AmdtAdMenuState
  3
DesignerServices
 90
    32768
280
     0
281
     0
  0
CLASS
  1
ADAPPL
  2
AcAdAppl
  3
DesignerServices
 90
        0
280
     0
281
     0
  0
CLASS
  1
DEPMGR
  2
AcAdDepMgr
  3
DesignerServices
 90
        0
280
     0
281
     0
  0
CLASS
  1
PARAMMGR
  2
AcAdParamMgr
  3
DesignerServices
 90
        0
280
     0
281
     0
  0
CLASS
  1
PARAMSCOPE
  2
AcAdParamScope
  3
DesignerServices
 90
        0
280
     0
281
     0
  0
CLASS
  1
NAMEDAPPL
  2
AcAdNamedAppl
  3
DesignerServices
 90
        0
280
     0
281
     0
  0
CLASS
  1
AMDTDMMENUSTATE
  2
AmdtDmMenuState
  3
AcMechDwgViewMgmt
 90
    32768
280
     0
281
     0
  0
CLASS
  1
MAPIADMODULE
  2
MApiAdModule
  3
MApiAdServices
 90
        0
280
     0
281
     0
  0
CLASS
  1
AMDTAMMENUSTATE
  2
AmdtAmMenuState
  3
DesignerAssemblies
 90
    32768
280
     0
281
     0
  0
CLASS
  1
ACAMPROJECT
  2
AcAmProject
  3
DesignerAssemblies
 90
        0
280
     0
281
     0
  0
CLASS
  1
ACAMGRCOMPDEF
  2
AcAmGrCompDef
  3
DesignerAssemblies
 90
        0
280
     0
281
     0
  0
CLASS
  1
ACCMCONTEXT
  2
AcCmContext
  3
DesignerAssemblies
 90
        0
280
     0
281
     0
  0
CLASS
  1
ACAMCOMPDEF
  2
AcAmCompDef
  3
DesignerAssemblies
 90
        0
280
     0
281
     0
  0
CLASS
  1
ACAMCOMPDEFMGR
  2
AcAmCompDefMgr
  3
DesignerAssemblies
 90
        0
280
     0
281
     0
  0
CLASS
  1
AMCONTEXTMGR
  2
AcAmContextMgr
  3
DesignerAssemblies
 90
        0
280
     0
281
     0
  0
CLASS
  1
ACAMCONTEXTMODELER
  2
AcAmContextModeler
  3
DesignerAssemblies
 90
        0
280
     0
281
     0
  0
CLASS
  1
ACMDATADICTIONARY
  2
AcmDataDictionary
  3
"AcmSymBB|Product Description: AutoCAD Mechanical 2000|Company: Autodesk"
 90
        0
280
     0
281
     0
  0
CLASS
  1
ACMDATAENTRYBLOCK
  2
AcmDataEntryBlock
  3
"AcmSymBB|Product Description: AutoCAD Mechanical 2000|Company: Autodesk"
 90
        0
280
     0
281
     0
  0
CLASS
  1
CATALOGSTATE
  2
AcAmCatalogState
  3
DesignerAssemblies
 90
        0
280
     0
281
     0
  0
CLASS
  1
ACAMGRCOMPDEFSET
  2
AcAmGrCompDefSet
  3
DesignerAssemblies
 90
    32768
280
     0
281
     0
  0
CLASS
  1
AMDTBROWSERDBTAB
  2
AmdtBrowserDbTab
  3
McadcomServices
 90
    32768
280
     0
281
     0
  0
CLASS
  1
CBROWSERAPPOBJECT
  2
CBrowserAppObject
  3
McadcomServices
 90
    32768
280
     0
281
     0
  0
CLASS
  1
DM_PLACEHOLDER
  2
AcDmSelsetPlaceholder
  3
AcMechDwgViewMgmt
 90
    32768
280
     0
281
     0
  0
CLASS
  1
ACMSTANDARDISO
  2
AcmStandardISO
  3
"Amdt_StdImp|Product Description: AutoCAD Mechanical 2000|Company: Autodesk"
 90
        0
280
     0
281
     0
  0
CLASS
  1
AMGOBJPROPCFG
  2
AmgObjPropCfg
  3
"AmgLay|Product Description: AutoCAD Mechanical 2000|Company: Autodesk"
 90
        1
280
     0
281
     0
  0
CLASS
  1
AMDTEDGESTANDARDISO
  2
AmdtEdgeStdISO
  3
"Amdt_StdImp|Product Description: AutoCAD Mechanical 2000|Company: Autodesk"
 90
        0
280
     0
281
     0
  0
CLASS
  1
ACMSURFSTANDARDISO
  2
AcmSurfTextStdISO
  3
"Amdt_StdImp|Product Description: AutoCAD Mechanical 2000|Company: Autodesk"
 90
        0
280
     0
281
     0
  0
CLASS
  1
ACMFCFSTANDARDISO
  2
AcmFCFStdISO
  3
"Amdt_StdImp|Product Description: AutoCAD Mechanical 2000|Company: Autodesk"
 90
        0
280
     0
281
     0
  0
CLASS
  1
ACMWELDSTANDARDISO
  2
AcmWeldingStdISO
  3
"Amdt_StdImp|Product Description: AutoCAD Mechanical 2000|Company: Autodesk"
 90
        0
280
     0
281
     0
  0
CLASS
  1
ACMIDSTANDARDISO
  2
AcmIdStdISO
  3
"Amdt_StdImp|Product Description: AutoCAD Mechanical 2000|Company: Autodesk"
 90
        0
280
     0
281
     0
  0
CLASS
  1
ACMDATUMSTANDARDISO
  2
AcmDatumStdISO
  3
"Amdt_StdImp|Product Description: AutoCAD Mechanical 2000|Company: Autodesk"
 90
        0
280
     0
281
     0
  0
CLASS
  1
ACMBOMSTANDARDISO
  2
AcmBOMStdISO
  3
"Amdt_StdImp|Product Description: AutoCAD Mechanical 2000|Company: Autodesk"
 90
        0
280
     0
281
     0
  0
CLASS
  1
ACMDETAILSTANDARDISO
  2
AmdtDetailSymStdISO
  3
"Amdt_StdImp|Product Description: AutoCAD Mechanical 2000|Company: Autodesk"
 90
        0
280
     0
281
     0
  0
CLASS
  1
ACMSECTIONSTANDARDISO
  2
AmdtSectionSymStdISO
  3
"Amdt_StdImp|Product Description: AutoCAD Mechanical 2000|Company: Autodesk"
 90
        0
280
     0
281
     0
  0
CLASS
  1
ACMCENTERLINESTANDARDISO
  2
AmdtCenterLineStdISO
  3
"Amdt_StdImp|Product Description: AutoCAD Mechanical 2000|Company: Autodesk"
 90
        0
280
     0
281
     0
  0
CLASS
  1
ACMTHREADLINESTANDARDISO
  2
AmdtThreadLineStdISO
  3
"Amdt_StdImp|Product Description: AutoCAD Mechanical 2000|Company: Autodesk"
 90
        0
280
     0
281
     0
  0
CLASS
  1
ACMNOTESTANDARDISO
  2
AmdtNoteStdISO
  3
"Amdt_StdImp|Product Description: AutoCAD Mechanical 2000|Company: Autodesk"
 90
        0
280
     0
281
     0
  0
CLASS
  1
ACAMGLAYSTD
  2
AcAmgLayStd
  3
"AcAmgLayStd|Product Description: AutoCAD Mechanical 2000|Company: Autodesk"
 90
        0
280
     0
281
     0
  0
CLASS
  1
ACAMGDIMSTD
  2
AcAmgDimStd
  3
"AcAmgDimStd|Product Description: AutoCAD Mechanical 2000|Company: Autodesk"
 90
        0
280
     0
281
     0
  0
CLASS
  1
ACAMGHOLECHARTSTDISO
  2
AcAmgHoleChartStdISO
  3
ACMSYMBB_MODULE_NAME
 90
        0
280
     0
281
     0
  0
CLASS
  1
ACAMGTITLESTD
  2
AcAmgTitleStd
  3
"TITLEAPP"
 90
        0
280
     0
281
     0
  0
CLASS
  1
ACAMGFILTERDAT
  2
AcAmgFilterDat
  3
"AcadM|Product Description: AutoCAD Mechanical 2000|Company: Autodesk"
 90
        0
280
     0
281
     0
  0
CLASS
  1
LAYER_INDEX
  2
AcDbLayerIndex
  3
AutoCAD 2000
 90
        0
280
     0
281
     0
  0
CLASS
  1
IDBUFFER
  2
AcDbIdBuffer
  3
AutoCAD 2000
 90
        0
280
     0
281
     0
  0
ENDSEC
  0
SECTION
  2
TABLES
  0
TABLE
  2
VPORT
  5
8
330
0
100
AcDbSymbolTable
 70
     2
  0
VPORT
  5
8CD
330
8
100
AcDbSymbolTableRecord
100
AcDbViewportTableRecord
  2
*Active
 70
     0
 10
0.0
 20
0.0
 11
1.0
 21
1.0
 12
-42.27536267085264
 22
-1.862817486177334
 13
0.0
 23
0.0
 14
10.0
 24
10.0
 15
10.0
 25
10.0
 16
0.0
 26
0.0
 36
1.0
 17
419.9969037185097
 27
205.1482551519855
 37
0.0
 40
229.8552473333807
 41
1.558709677419354
 42
50.0
 43
0.0
 44
0.0
 50
0.0
 51
0.0
 71
     0
 72
   100
 73
     1
 74
     3
 75
     0
 76
     0
 77
     0
 78
     0
281
     0
 65
     0
110
0.0
120
0.0
130
0.0
111
1.0
121
0.0
131
0.0
112
0.0
122
1.0
132
0.0
 79
     0
146
0.0
  0
ENDTAB
  0
TABLE
  2
LTYPE
  5
5
330
0
100
AcDbSymbolTable
 70
    15
  0
LTYPE
  5
14
330
5
100
AcDbSymbolTableRecord
100
AcDbLinetypeTableRecord
  2
ByBlock
 70
     0
  3

 72
    65
 73
     0
 40
0.0
  0
LTYPE
  5
15
330
5
100
AcDbSymbolTableRecord
100
AcDbLinetypeTableRecord
  2
ByLayer
 70
     0
  3

 72
    65
 73
     0
 40
0.0
  0
LTYPE
  5
16
330
5
100
AcDbSymbolTableRecord
100
AcDbLinetypeTableRecord
  2
Continuous
 70
     0
  3
Solid line
 72
    65
 73
     0
 40
0.0
  0
LTYPE
  5
6E
330
5
100
AcDbSymbolTableRecord
100
AcDbLinetypeTableRecord
  2
AXES2
 70
     0
  3
___ _ ___ _ ___ _ ___ _ ___ _ ___ _ ___ _ ___ _
 72
    65
 73
     4
 40
1.125
 49
0.75
 74
     0
 49
-0.125
 74
     0
 49
0.125
 74
     0
 49
-0.125
 74
     0
  0
LTYPE
  5
396
330
5
100
AcDbSymbolTableRecord
100
AcDbLinetypeTableRecord
  2
HIDDEN
 70
     0
  3
Hidden __ __ __ __ __ __ __ __ __ __ __ __ __ _
 72
    65
 73
     2
 40
9.524999999999998
 49
6.349999999999999
 74
     0
 49
-3.174999999999999
 74
     0
  0
LTYPE
  5
397
330
5
100
AcDbSymbolTableRecord
100
AcDbLinetypeTableRecord
  2
PHANTOM2
 70
     0
  3
Phantom (.5x) ___ _ _ ___ _ _ ___ _ _ ___ _ _
 72
    65
 73
     6
 40
31.75
 49
15.875
 74
     0
 49
-3.174999999999999
 74
     0
 49
3.174999999999999
 74
     0
 49
-3.174999999999999
 74
     0
 49
3.174999999999999
 74
     0
 49
-3.174999999999999
 74
     0
  0
LTYPE
  5
398
330
5
100
AcDbSymbolTableRecord
100
AcDbLinetypeTableRecord
  2
CENTER
 70
     0
  3
Center ____ _ ____ _ ____ _ ____ _ ____ _ ____
 72
    65
 73
     4
 40
50.8
 49
31.75
 74
     0
 49
-6.349999999999999
 74
     0
 49
6.349999999999999
 74
     0
 49
-6.349999999999999
 74
     0
  0
LTYPE
  5
43F
330
5
100
AcDbSymbolTableRecord
100
AcDbLinetypeTableRecord
  2
AM_ISO02W050
 70
     0
  3
__ __ __ __ __ __ __ __ __ __ __ __ __ __ __
 72
    65
 73
     2
 40
7.5
 49
6.0
 74
     0
 49
-1.5
 74
     0
  0
LTYPE
  5
440
330
5
100
AcDbSymbolTableRecord
100
AcDbLinetypeTableRecord
  2
AM_ISO08W050
 70
     0
  3
____ . ____ . ____ . ____ . ____ . ____ . ____
 72
    65
 73
     4
 40
18.0
 49
12.0
 74
     0
 49
-1.5
 74
     0
 49
3.0
 74
     0
 49
-1.5
 74
     0
  0
LTYPE
  5
441
330
5
100
AcDbSymbolTableRecord
100
AcDbLinetypeTableRecord
  2
AM_ISO09W050
 70
     0
  3
_____ . . _____ . . _____ . . ____ .. ____
 72
    65
 73
     6
 40
22.5
 49
12.0
 74
     0
 49
-1.5
 74
     0
 49
3.0
 74
     0
 49
-1.5
 74
     0
 49
3.0
 74
     0
 49
-1.5
 74
     0
  0
LTYPE
  5
442
330
5
100
AcDbSymbolTableRecord
100
AcDbLinetypeTableRecord
  2
Amconstr
 70
     0
  3
_______________________
 72
    65
 73
     2
 40
9999.0
 49
9999.0
 74
     0
 49
0.0
 74
     0
  0
LTYPE
  5
443
330
5
100
AcDbSymbolTableRecord
100
AcDbLinetypeTableRecord
  2
AM_ISO08W050x2
 70
     0
  3
__ . __ . __ . __ . __ . __
 72
    65
 73
     4
 40
9.0
 49
6.0
 74
     0
 49
-0.75
 74
     0
 49
1.5
 74
     0
 49
-0.75
 74
     0
  0
LTYPE
  5
444
330
5
100
AcDbSymbolTableRecord
100
AcDbLinetypeTableRecord
  2
AM_ISO02W050x2
 70
     0
  3
 _ _ _ _ _ _ _ _ _ _ _ _
 72
    65
 73
     2
 40
3.75
 49
3.0
 74
     0
 49
-0.75
 74
     0
  0
LTYPE
  5
447
330
5
100
AcDbSymbolTableRecord
100
AcDbLinetypeTableRecord
  2
Amzigzag
 70
     0
  3
/\/-/\/-/\/-/\/-/\/-/\/
 72
    65
 73
     2
 40
11.00009999999999
 49
0.0001
 74
     4
 75
   135
340
446
 46
0.04
 50
0.0
 44
0.0
 45
0.0
 49
-11.0
 74
     0
  0
LTYPE
  5
456
330
5
100
AcDbSymbolTableRecord
100
AcDbLinetypeTableRecord
  2
ACISOWELD
 70
     0
  3
_ _ _ _ _
 72
    65
 73
     2
 40
2.0
 49
2.0
 74
     0
 49
-1.0
 74
     0
  0
LTYPE
  5
457
330
5
100
AcDbSymbolTableRecord
100
AcDbLinetypeTableRecord
  2
ACISOTGB
 70
     0
  3
__ . . __ . .
 72
    65
 73
     6
 40
9.0
 49
4.0
 74
     0
 49
-1.0
 74
     0
 49
1.0
 74
     0
 49
-1.0
 74
     0
 49
1.0
 74
     0
 49
-1.0
 74
     0
  0
LTYPE
  5
458
330
5
100
AcDbSymbolTableRecord
100
AcDbLinetypeTableRecord
  2
ACISOTGL
 70
     0
  3
_ _ _ _ _
 72
    65
 73
     2
 40
3.0
 49
2.0
 74
     0
 49
-1.0
 74
     0
  0
ENDTAB
  0
TABLE
  2
LAYER
  5
2
330
0
100
AcDbSymbolTable
 70
     5
  0
LAYER
  5
10
330
2
100
AcDbSymbolTableRecord
100
AcDbLayerTableRecord
  2
0
 70
     0
 62
     7
  6
Continuous
370
    -3
390
F
  0
LAYER
  5
6F
330
2
100
AcDbSymbolTableRecord
100
AcDbLayerTableRecord
  2
Defpoints
 70
     0
 62
     7
  6
Continuous
290
     0
370
    -3
390
F
  0
LAYER
  5
70
330
2
100
AcDbSymbolTableRecord
100
AcDbLayerTableRecord
  2
AXE
 70
     0
 62
    80
  6
AXES2
370
    -3
390
F
  0
LAYER
  5
71
330
2
100
AcDbSymbolTableRecord
100
AcDbLayerTableRecord
  2
COTE
 70
     0
 62
     2
  6
Continuous
370
    -3
390
F
  0
LAYER
  5
72
330
2
100
AcDbSymbolTableRecord
100
AcDbLayerTableRecord
  2
GEOMETRIE
 70
     0
 62
     7
  6
Continuous
370
    -3
390
F
  0
ENDTAB
  0
TABLE
  2
STYLE
  5
3
330
0
100
AcDbSymbolTable
 70
     5
  0
STYLE
  5
11
330
3
100
AcDbSymbolTableRecord
100
AcDbTextStyleTableRecord
  2
Standard
 70
     0
 40
0.0
 41
1.0
 50
0.0
 71
     0
 42
2.5
  3
txt
  4

  0
STYLE
  5
73
330
3
100
AcDbSymbolTableRecord
100
AcDbTextStyleTableRecord
  2
style1
 70
     0
 40
3.5
 41
1.0
 50
0.0
 71
     0
 42
0.2
  3
HV______.TTF
  4

1001
ACAD
1000
Helvetica
1071
       34
  0
STYLE
  5
446
330
3
100
AcDbSymbolTableRecord
100
AcDbTextStyleTableRecord
  2

 70
     1
 40
0.0
 41
1.0
 50
0.0
 71
     0
 42
2.5
  3
ltypeshp.shx
  4

  0
STYLE
  5
448
330
3
100
AcDbSymbolTableRecord
100
AcDbTextStyleTableRecord
  2
ACISOTS
 70
     0
 40
1.0
 41
1.0
 50
0.0
 71
     0
 42
2.5
  3
isocp.shx
  4

  0
STYLE
  5
455
330
3
100
AcDbSymbolTableRecord
100
AcDbTextStyleTableRecord
  2
ACISOGDT
 70
     0
 40
0.0
 41
1.0
 50
0.0
 71
     0
 42
2.5
  3
amgdt.shx
  4

  0
ENDTAB
  0
TABLE
  2
VIEW
  5
6
330
0
100
AcDbSymbolTable
 70
     0
  0
ENDTAB
  0
TABLE
  2
UCS
  5
7
330
0
100
AcDbSymbolTable
 70
     0
  0
ENDTAB
  0
TABLE
  2
APPID
  5
9
330
0
100
AcDbSymbolTable
 70
    14
  0
APPID
  5
12
330
9
100
AcDbSymbolTableRecord
100
AcDbRegAppTableRecord
  2
ACAD
 70
     0
  0
APPID
  5
365
330
9
100
AcDbSymbolTableRecord
100
AcDbRegAppTableRecord
  2
DCO15
 70
     0
  0
APPID
  5
372
330
9
100
AcDbSymbolTableRecord
100
AcDbRegAppTableRecord
  2
GENIUS_GENDIM_13
 70
     0
  0
APPID
  5
373
330
9
100
AcDbSymbolTableRecord
100
AcDbRegAppTableRecord
  2
GENIUS_GENDTOL_13
 70
     0
  0
APPID
  5
374
330
9
100
AcDbSymbolTableRecord
100
AcDbRegAppTableRecord
  2
GENIUS_GE3DTOL_13
 70
     0
  0
APPID
  5
377
330
9
100
AcDbSymbolTableRecord
100
AcDbRegAppTableRecord
  2
MCAD_NO_VIS
 70
     0
  0
APPID
  5
378
330
9
100
AcDbSymbolTableRecord
100
AcDbRegAppTableRecord
  2
ACAD_TEMP_GRAPHIC
 70
     0
  0
APPID
  5
3AD
330
9
100
AcDbSymbolTableRecord
100
AcDbRegAppTableRecord
  2
AD_DRAW
 70
     0
  0
APPID
  5
3B0
330
9
100
AcDbSymbolTableRecord
100
AcDbRegAppTableRecord
  2
ACATTRIBSERVICES
 70
     0
  0
APPID
  5
3FC
330
9
100
AcDbSymbolTableRecord
100
AcDbRegAppTableRecord
  2
ASURF_PCURVE_APPNAME
 70
     0
  0
APPID
  5
401
330
9
100
AcDbSymbolTableRecord
100
AcDbRegAppTableRecord
  2
AMG_3D2D_5.0
 70
     0
  0
APPID
  5
42C
330
9
100
AcDbSymbolTableRecord
100
AcDbRegAppTableRecord
  2
DESIGNERASSEMBLIES
 70
     0
  0
APPID
  5
434
330
9
100
AcDbSymbolTableRecord
100
AcDbRegAppTableRecord
  2
ACADM_DIM_EDIT
 70
     0
  0
APPID
  5
435
330
9
100
AcDbSymbolTableRecord
100
AcDbRegAppTableRecord
  2
AMDT_DM_ADJ
 70
     0
  0
ENDTAB
  0
TABLE
  2
DIMSTYLE
  5
A
330
0
100
AcDbSymbolTable
 70
     9
100
AcDbDimStyleTable
 71
     1
340
74
  0
DIMSTYLE
105
74
102
{ACAD_REACTORS
330
32F
330
33C
330
349
330
356
330
4CA
330
53A
330
574
330
5DB
330
639
330
688
102
}
330
A
100
AcDbSymbolTableRecord
100
AcDbDimStyleTableRecord
  2
COTATION1
 70
     0
 41
3.5
 42
1.0
 43
22.572
 44
2.0
 73
     0
 77
     1
140
6.0
141
5.346
147
1.0
171
     0
271
     0
272
     0
274
     0
340
11
  0
DIMSTYLE
105
45C
330
A
100
AcDbSymbolTableRecord
100
AcDbDimStyleTableRecord
  2
AM_ISO
 70
     0
  4
"
 41
2.5
 42
1.0
 43
10.0
 44
1.0
 47
0.1
 48
0.1
 73
     0
 74
     0
 77
     1
 78
     8
 79
     2
140
3.5
141
0.0
143
0.0393701
146
0.71
147
1.5
172
     1
176
   256
177
   256
178
     2
271
     2
272
     3
274
     4
283
     0
284
     8
340
11
371
    -1
372
    -1
  0
DIMSTYLE
105
45D
330
A
100
AcDbSymbolTableRecord
100
AcDbDimStyleTableRecord
  2
AM_ISO$3
 70
     0
  4
"
 41
2.5
 42
1.0
 43
10.0
 44
1.0
 47
0.1
 48
0.1
 73
     0
 77
     1
 78
     8
 79
     2
140
3.5
141
0.0
143
0.0393701
146
0.71
147
1.5
176
   256
177
   256
178
     2
271
     2
272
     3
274
     4
283
     0
284
     8
288
     1
289
     0
340
11
371
    -1
372
    -1
  0
DIMSTYLE
105
45E
330
A
100
AcDbSymbolTableRecord
100
AcDbDimStyleTableRecord
  2
AM_ISO$4
 70
     0
  4
"
 41
2.5
 42
1.0
 43
10.0
 44
1.0
 47
0.1
 48
0.1
 73
     0
 77
     1
 78
     8
 79
     2
140
3.5
141
0.0
143
0.0393701
146
0.71
147
1.5
176
   256
177
   256
178
     2
271
     2
272
     3
274
     4
283
     0
284
     8
288
     1
289
     0
340
11
371
    -1
372
    -1
  0
DIMSTYLE
105
45F
330
A
100
AcDbSymbolTableRecord
100
AcDbDimStyleTableRecord
  2
AM_ISO$6
 70
     0
  4
"
 41
2.5
 42
1.0
 43
10.0
 44
1.0
 47
0.1
 48
0.1
 73
     0
 74
     0
 78
     8
 79
     2
140
3.5
141
0.0
143
0.0393701
146
0.71
147
1.5
172
     1
176
   256
177
   256
178
     2
271
     2
272
     3
274
     4
283
     0
284
     8
340
11
371
    -1
372
    -1
  0
DIMSTYLE
105
460
330
A
100
AcDbSymbolTableRecord
100
AcDbDimStyleTableRecord
  2
AM_ISO$7
 70
     0
  4
"
 41
2.5
 42
1.0
 43
10.0
 44
1.0
 47
0.1
 48
0.1
 73
     0
 74
     0
 77
     1
 78
     8
 79
     2
140
5.0
141
0.0
143
0.0393701
146
0.71
147
1.5
172
     1
176
   256
177
   256
178
     2
271
     2
272
     3
274
     4
283
     0
284
     8
340
11
371
    -1
372
    -1
  0
DIMSTYLE
105
461
330
A
100
AcDbSymbolTableRecord
100
AcDbDimStyleTableRecord
  2
AM_ISO$SF
 70
     0
  4
"
 41
2.5
 42
1.0
 43
10.0
 44
1.0
 47
0.1
 48
0.1
 73
     0
 74
     0
 75
     1
 76
     1
 77
     1
 78
     8
 79
     2
140
3.5
141
0.0
143
0.0393701
146
0.71
147
1.5
172
     1
176
   256
177
   256
178
     2
271
     2
272
     3
274
     4
283
     0
284
     8
340
11
371
    -1
372
    -1
  0
DIMSTYLE
105
466
330
A
100
AcDbSymbolTableRecord
100
AcDbDimStyleTableRecord
  2
AM_ISO$SH
 70
     0
  4
"
 41
2.5
 42
1.0
 43
10.0
 44
1.0
 47
0.1
 48
0.1
 73
     0
 74
     0
 75
     1
 76
     1
 77
     1
 78
     8
 79
     2
140
3.5
141
0.0
143
0.0393701
144
2.0
146
0.71
147
1.5
172
     1
173
     1
176
   256
177
   256
178
     2
271
     2
272
     3
274
     4
283
     0
284
     8
340
11
343
462
371
    -1
372
    -1
  0
DIMSTYLE
105
46D
102
{ACAD_REACTORS
330
47C
330
490
102
}
330
A
100
AcDbSymbolTableRecord
100
AcDbDimStyleTableRecord
  2
COTATION1$3
 70
     0
 41
3.5
 42
1.0
 43
22.572
 44
2.0
 73
     0
 77
     1
140
6.0
141
0.0
147
1.0
171
     0
271
     0
272
     0
274
     0
340
11
  0
ENDTAB
  0
TABLE
  2
BLOCK_RECORD
  5
1
330
0
100
AcDbSymbolTable
 70
    16
  0
BLOCK_RECORD
  5
1F
102
{ACAD_XDICTIONARY
360
4A6
102
}
330
1
100
AcDbSymbolTableRecord
100
AcDbBlockTableRecord
  2
*Model_Space
340
22
  0
BLOCK_RECORD
  5
1B
330
1
100
AcDbSymbolTableRecord
100
AcDbBlockTableRecord
  2
*Paper_Space
340
1E
  0
BLOCK_RECORD
  5
23
330
1
100
AcDbSymbolTableRecord
100
AcDbBlockTableRecord
  2
*Paper_Space0
340
26
  0
BLOCK_RECORD
  5
330
330
1
100
AcDbSymbolTableRecord
100
AcDbBlockTableRecord
  2
*D1
340
0
  0
BLOCK_RECORD
  5
33D
330
1
100
AcDbSymbolTableRecord
100
AcDbBlockTableRecord
  2
*D2
340
0
  0
BLOCK_RECORD
  5
34A
330
1
100
AcDbSymbolTableRecord
100
AcDbBlockTableRecord
  2
*D3
340
0
  0
BLOCK_RECORD
  5
357
330
1
100
AcDbSymbolTableRecord
100
AcDbBlockTableRecord
  2
*D4
340
0
  0
BLOCK_RECORD
  5
423
330
1
100
AcDbSymbolTableRecord
100
AcDbBlockTableRecord
  2
*U5
340
0
  0
BLOCK_RECORD
  5
462
330
1
100
AcDbSymbolTableRecord
100
AcDbBlockTableRecord
  2
GENAXEH
340
0
  0
BLOCK_RECORD
  5
47D
330
1
100
AcDbSymbolTableRecord
100
AcDbBlockTableRecord
  2
*D7
340
0
  0
BLOCK_RECORD
  5
491
330
1
100
AcDbSymbolTableRecord
100
AcDbBlockTableRecord
  2
*D8
340
0
  0
BLOCK_RECORD
  5
4CB
330
1
100
AcDbSymbolTableRecord
100
AcDbBlockTableRecord
  2
*D9
340
0
  0
BLOCK_RECORD
  5
53B
330
1
100
AcDbSymbolTableRecord
100
AcDbBlockTableRecord
  2
*D10
340
0
  0
BLOCK_RECORD
  5
575
330
1
100
AcDbSymbolTableRecord
100
AcDbBlockTableRecord
  2
*D11
340
0
  0
BLOCK_RECORD
  5
5DC
330
1
100
AcDbSymbolTableRecord
100
AcDbBlockTableRecord
  2
*D12
340
0
  0
BLOCK_RECORD
  5
63A
330
1
100
AcDbSymbolTableRecord
100
AcDbBlockTableRecord
  2
*D13
340
0
  0
BLOCK_RECORD
  5
689
330
1
100
AcDbSymbolTableRecord
100
AcDbBlockTableRecord
  2
*D14
340
0
  0
ENDTAB
  0
ENDSEC
  0
SECTION
  2
BLOCKS
  0
BLOCK
  5
20
330
1F
100
AcDbEntity
  8
0
100
AcDbBlockBegin
  2
*Model_Space
 70
     0
 10
0.0
 20
0.0
 30
0.0
  3
*Model_Space
  1

  0
ENDBLK
  5
21
330
1F
100
AcDbEntity
  8
0
100
AcDbBlockEnd
  0
BLOCK
  5
1C
330
1B
100
AcDbEntity
 67
     1
  8
0
100
AcDbBlockBegin
  2
*Paper_Space
 70
     0
 10
0.0
 20
0.0
 30
0.0
  3
*Paper_Space
  1

  0
ENDBLK
  5
1D
330
1B
100
AcDbEntity
 67
     1
  8
0
100
AcDbBlockEnd
  0
BLOCK
  5
24
330
23
100
AcDbEntity
  8
0
100
AcDbBlockBegin
  2
*Paper_Space0
 70
     0
 10
0.0
 20
0.0
 30
0.0
  3
*Paper_Space0
  1

  0
ENDBLK
  5
25
330
23
100
AcDbEntity
  8
0
100
AcDbBlockEnd
  0
BLOCK
  5
33A
330
330
100
AcDbEntity
  8
0
100
AcDbBlockBegin
  2
*D1
 70
     1
 10
0.0
 20
0.0
 30
0.0
  3
*D1
  1

  0
LINE
  5
85E
330
330
100
AcDbEntity
  8
COTE
 62
     0
370
    -2
100
AcDbLine
 10
238.0631501133425
 20
189.797372963234
 30
0.0
 11
204.4920731749023
 21
189.797372963234
 31
0.0
  0
LINE
  5
85F
330
330
100
AcDbEntity
  8
COTE
 62
     0
370
    -2
100
AcDbLine
 10
238.0631501133425
 20
227.797372962574
 30
0.0
 11
204.4920731749023
 21
227.797372962574
 31
0.0
  0
LINE
  5
860
330
330
100
AcDbEntity
  8
COTE
 62
     0
370
    -2
100
AcDbLine
 10
206.4920731749023
 20
193.297372963234
 30
0.0
 11
206.4920731749023
 21
224.2973729625739
 31
0.0
  0
SOLID
  5
861
330
330
100
AcDbEntity
  8
COTE
 62
     0
100
AcDbTrace
 10
205.9087398415689
 20
193.297372963234
 30
0.0
 11
207.0754065082356
 21
193.297372963234
 31
0.0
 12
206.4920731749023
 22
189.797372963234
 32
0.0
 13
206.4920731749023
 23
189.797372963234
 33
0.0
  0
SOLID
  5
862
330
330
100
AcDbEntity
  8
COTE
 62
     0
100
AcDbTrace
 10
205.9087398415689
 20
224.2973729625739
 30
0.0
 11
207.0754065082356
 21
224.2973729625739
 31
0.0
 12
206.4920731749023
 22
227.797372962574
 32
0.0
 13
206.4920731749023
 23
227.797372962574
 33
0.0
  0
MTEXT
  5
863
330
330
100
AcDbEntity
  8
COTE
 62
     0
100
AcDbMText
 10
202.4920731749022
 20
208.797372962904
 30
0.0
 40
6.0
 41
0.0
 71
     5
 72
     1
  1
\A1;38
 11
0.0000000000000001
 21
1.0
 31
0.0
 73
     1
 44
1.0
  0
POINT
  5
864
330
330
100
AcDbEntity
  8
Defpoints
 62
     0
100
AcDbPoint
 10
239.0631501133425
 20
189.797372963234
 30
0.0
  0
POINT
  5
865
330
330
100
AcDbEntity
  8
Defpoints
 62
     0
100
AcDbPoint
 10
239.0631501133425
 20
227.797372962574
 30
0.0
  0
POINT
  5
866
330
330
100
AcDbEntity
  8
Defpoints
 62
     0
100
AcDbPoint
 10
206.4920731749023
 20
227.797372962574
 30
0.0
  0
ENDBLK
  5
33B
330
330
100
AcDbEntity
  8
0
100
AcDbBlockEnd
  0
BLOCK
  5
347
330
33D
100
AcDbEntity
  8
0
100
AcDbBlockBegin
  2
*D2
 70
     1
 10
0.0
 20
0.0
 30
0.0
  3
*D2
  1

  0
LINE
  5
867
330
33D
100
AcDbEntity
  8
COTE
 62
     0
370
    -2
100
AcDbLine
 10
421.1431501141625
 20
228.297372963334
 30
0.0
 11
445.2157589096604
 21
228.297372963334
 31
0.0
  0
LINE
  5
868
330
33D
100
AcDbEntity
  8
COTE
 62
     0
370
    -2
100
AcDbLine
 10
421.1431501141625
 20
189.297372965014
 30
0.0
 11
445.2157589096604
 21
189.297372965014
 31
0.0
  0
LINE
  5
869
330
33D
100
AcDbEntity
  8
COTE
 62
     0
370
    -2
100
AcDbLine
 10
443.2157589096605
 20
224.7973729633339
 30
0.0
 11
443.2157589096605
 21
192.797372965014
 31
0.0
  0
SOLID
  5
86A
330
33D
100
AcDbEntity
  8
COTE
 62
     0
100
AcDbTrace
 10
442.6324255763272
 20
224.7973729633339
 30
0.0
 11
443.7990922429938
 21
224.7973729633339
 31
0.0
 12
443.2157589096605
 22
228.297372963334
 32
0.0
 13
443.2157589096605
 23
228.297372963334
 33
0.0
  0
SOLID
  5
86B
330
33D
100
AcDbEntity
  8
COTE
 62
     0
100
AcDbTrace
 10
442.6324255763272
 20
192.797372965014
 30
0.0
 11
443.7990922429938
 21
192.797372965014
 31
0.0
 12
443.2157589096605
 22
189.297372965014
 32
0.0
 13
443.2157589096605
 23
189.297372965014
 33
0.0
  0
MTEXT
  5
86C
330
33D
100
AcDbEntity
  8
COTE
 62
     0
100
AcDbMText
 10
439.2157589096604
 20
208.797372964174
 30
0.0
 40
6.0
 41
0.0
 71
     5
 72
     1
  1
\A1;39
 11
0.0000000000000001
 21
1.0
 31
0.0
 73
     1
 44
1.0
  0
POINT
  5
86D
330
33D
100
AcDbEntity
  8
Defpoints
 62
     0
100
AcDbPoint
 10
420.1431501141625
 20
228.297372963334
 30
0.0
  0
POINT
  5
86E
330
33D
100
AcDbEntity
  8
Defpoints
 62
     0
100
AcDbPoint
 10
420.1431501141625
 20
189.297372965014
 30
0.0
  0
POINT
  5
86F
330
33D
100
AcDbEntity
  8
Defpoints
 62
     0
100
AcDbPoint
 10
443.2157589096605
 20
189.297372965014
 30
0.0
  0
ENDBLK
  5
348
330
33D
100
AcDbEntity
  8
0
100
AcDbBlockEnd
  0
BLOCK
  5
354
330
34A
100
AcDbEntity
  8
0
100
AcDbBlockBegin
  2
*D3
 70
     1
 10
0.0
 20
0.0
 30
0.0
  3
*D3
  1

  0
LINE
  5
870
330
34A
100
AcDbEntity
  8
COTE
 62
     0
370
    -2
100
AcDbLine
 10
484.236041594937
 20
169.257372962794
 30
0.0
 11
484.236041594937
 21
102.8637642574527
 31
0.0
  0
LINE
  5
871
330
34A
100
AcDbEntity
  8
COTE
 62
     0
370
    -2
100
AcDbLine
 10
520.236041596317
 20
169.257372962794
 30
0.0
 11
520.236041596317
 21
102.8637642574527
 31
0.0
  0
LINE
  5
872
330
34A
100
AcDbEntity
  8
COTE
 62
     0
370
    -2
100
AcDbLine
 10
487.7360415949369
 20
104.8637642574527
 30
0.0
 11
516.736041596317
 21
104.8637642574527
 31
0.0
  0
SOLID
  5
873
330
34A
100
AcDbEntity
  8
COTE
 62
     0
100
AcDbTrace
 10
487.7360415949369
 20
105.447097590786
 30
0.0
 11
487.7360415949369
 21
104.2804309241194
 31
0.0
 12
484.236041594937
 22
104.8637642574527
 32
0.0
 13
484.236041594937
 23
104.8637642574527
 33
0.0
  0
SOLID
  5
874
330
34A
100
AcDbEntity
  8
COTE
 62
     0
100
AcDbTrace
 10
516.736041596317
 20
105.447097590786
 30
0.0
 11
516.736041596317
 21
104.2804309241194
 31
0.0
 12
520.236041596317
 22
104.8637642574527
 32
0.0
 13
520.236041596317
 23
104.8637642574527
 33
0.0
  0
MTEXT
  5
875
330
34A
100
AcDbEntity
  8
COTE
 62
     0
100
AcDbMText
 10
502.236041595627
 20
108.8637642574527
 30
0.0
 40
6.0
 41
0.0
 71
     5
 72
     1
  1
\A1;36
 73
     1
 44
1.0
  0
POINT
  5
876
330
34A
100
AcDbEntity
  8
Defpoints
 62
     0
100
AcDbPoint
 10
484.236041594937
 20
170.257372962794
 30
0.0
  0
POINT
  5
877
330
34A
100
AcDbEntity
  8
Defpoints
 62
     0
100
AcDbPoint
 10
520.236041596317
 20
170.257372962794
 30
0.0
  0
POINT
  5
878
330
34A
100
AcDbEntity
  8
Defpoints
 62
     0
100
AcDbPoint
 10
520.236041596317
 20
104.8637642574527
 30
0.0
  0
ENDBLK
  5
355
330
34A
100
AcDbEntity
  8
0
100
AcDbBlockEnd
  0
BLOCK
  5
361
330
357
100
AcDbEntity
  8
0
100
AcDbBlockBegin
  2
*D4
 70
     1
 10
0.0
 20
0.0
 30
0.0
  3
*D4
  1

  0
LINE
  5
879
330
357
100
AcDbEntity
  8
COTE
 62
     0
370
    -2
100
AcDbLine
 10
526.776041595797
 20
241.797372963534
 30
0.0
 11
549.2028976933323
 21
241.797372963534
 31
0.0
  0
LINE
  5
87A
330
357
100
AcDbEntity
  8
COTE
 62
     0
370
    -2
100
AcDbLine
 10
526.776041595797
 20
175.797372964814
 30
0.0
 11
549.2028976933323
 21
175.797372964814
 31
0.0
  0
LINE
  5
87B
330
357
100
AcDbEntity
  8
COTE
 62
     0
370
    -2
100
AcDbLine
 10
547.2028976933322
 20
238.297372963534
 30
0.0
 11
547.2028976933322
 21
179.297372964814
 31
0.0
  0
SOLID
  5
87C
330
357
100
AcDbEntity
  8
COTE
 62
     0
100
AcDbTrace
 10
546.6195643599989
 20
238.297372963534
 30
0.0
 11
547.7862310266656
 21
238.297372963534
 31
0.0
 12
547.2028976933322
 22
241.797372963534
 32
0.0
 13
547.2028976933322
 23
241.797372963534
 33
0.0
  0
SOLID
  5
87D
330
357
100
AcDbEntity
  8
COTE
 62
     0
100
AcDbTrace
 10
546.6195643599989
 20
179.297372964814
 30
0.0
 11
547.7862310266656
 21
179.297372964814
 31
0.0
 12
547.2028976933322
 22
175.797372964814
 32
0.0
 13
547.2028976933322
 23
175.797372964814
 33
0.0
  0
MTEXT
  5
87E
330
357
100
AcDbEntity
  8
COTE
 62
     0
100
AcDbMText
 10
543.2028976933322
 20
208.7973729641741
 30
0.0
 40
6.0
 41
0.0
 71
     5
 72
     1
  1
\A1;66
 11
0.0000000000000001
 21
1.0
 31
0.0
 73
     1
 44
1.0
  0
POINT
  5
87F
330
357
100
AcDbEntity
  8
Defpoints
 62
     0
100
AcDbPoint
 10
525.7760415957969
 20
241.797372963534
 30
0.0
  0
POINT
  5
880
330
357
100
AcDbEntity
  8
Defpoints
 62
     0
100
AcDbPoint
 10
525.7760415957969
 20
175.797372964814
 30
0.0
  0
POINT
  5
881
330
357
100
AcDbEntity
  8
Defpoints
 62
     0
100
AcDbPoint
 10
547.2028976933322
 20
175.797372964814
 30
0.0
  0
ENDBLK
  5
362
330
357
100
AcDbEntity
  8
0
100
AcDbBlockEnd
  0
BLOCK
  5
424
330
423
100
AcDbEntity
  8
0
100
AcDbBlockBegin
  2
*U5
 70
     1
 10
0.0
 20
0.0
 30
0.0
  3
*U5
  1

  0
ENDBLK
  5
425
330
423
100
AcDbEntity
  8
0
100
AcDbBlockEnd
  0
BLOCK
  5
464
330
462
100
AcDbEntity
  8
0
100
AcDbBlockBegin
  2
GENAXEH
 70
     0
 10
0.0
 20
0.0
 30
0.0
  3
GENAXEH
  1

  0
LINE
  5
463
330
462
100
AcDbEntity
  8
0
100
AcDbLine
 10
-1.0
 20
0.0
 30
0.0
 11
1.0
 21
0.0
 31
0.0
  0
ENDBLK
  5
465
330
462
100
AcDbEntity
  8
0
100
AcDbBlockEnd
  0
BLOCK
  5
484
330
47D
100
AcDbEntity
  8
0
100
AcDbBlockBegin
  2
*D7
 70
     1
 10
0.0
 20
0.0
 30
0.0
  3
*D7
  1

  0
LINE
  5
852
330
47D
100
AcDbEntity
  8
COTE
 62
     0
370
    -2
100
AcDbLine
 10
555.9410618929837
 20
253.0021450498273
 30
0.0
 11
532.9410618929837
 21
253.0021450498273
 31
0.0
  0
LINE
  5
853
330
47D
100
AcDbEntity
  8
COTE
 62
     0
370
    -2
100
AcDbLine
 10
532.9410618929837
 20
253.0021450498273
 30
0.0
 11
525.111042093887
 21
246.0967182790365
 31
0.0
  0
MTEXT
  5
854
330
47D
100
AcDbEntity
  8
COTE
 62
     0
100
AcDbMText
 10
544.9410618929838
 20
257.0021450498273
 30
0.0
 40
6.0
 41
0.0
 71
     5
 72
     1
  1
\A1;4x\U+22056
 73
     1
 44
1.0
  0
SOLID
  5
855
330
47D
100
AcDbEntity
  8
COTE
 62
     0
100
AcDbTrace
 10
524.7252034116956
 20
246.5342183237252
 30
0.0
 11
525.4968807760784
 21
245.6592182343478
 31
0.0
 12
522.4860418257548
 22
243.7816861858884
 32
0.0
 13
522.4860418257548
 23
243.7816861858884
 33
0.0
  0
POINT
  5
856
330
47D
100
AcDbEntity
  8
Defpoints
 62
     0
100
AcDbPoint
 10
522.4860418257548
 20
243.7816861858884
 30
0.0
  0
POINT
  5
857
330
47D
100
AcDbEntity
  8
Defpoints
 62
     0
100
AcDbPoint
 10
517.9860413668794
 20
239.8130597411795
 30
0.0
  0
ENDBLK
  5
485
330
47D
100
AcDbEntity
  8
0
100
AcDbBlockEnd
  0
BLOCK
  5
498
330
491
100
AcDbEntity
  8
0
100
AcDbBlockBegin
  2
*D8
 70
     1
 10
0.0
 20
0.0
 30
0.0
  3
*D8
  1

  0
LINE
  5
858
330
491
100
AcDbEntity
  8
COTE
 62
     0
370
    -2
100
AcDbLine
 10
444.9428909118346
 20
246.4566487923947
 30
0.0
 11
421.942890911834
 21
246.4566487923947
 31
0.0
  0
LINE
  5
859
330
491
100
AcDbEntity
  8
COTE
 62
     0
370
    -2
100
AcDbLine
 10
421.942890911834
 20
246.4566487923947
 30
0.0
 11
415.1998339906271
 21
234.0123138173289
 31
0.0
  0
MTEXT
  5
85A
330
491
100
AcDbEntity
  8
COTE
 62
     0
100
AcDbMText
 10
433.9428909118345
 20
250.4566487923947
 30
0.0
 40
6.0
 41
0.0
 71
     5
 72
     1
  1
\A1;4x\U+22056
 73
     1
 44
1.0
  0
SOLID
  5
85B
330
491
100
AcDbEntity
  8
COTE
 62
     0
100
AcDbTrace
 10
414.6869546832174
 20
234.2902213447703
 30
0.0
 11
415.712713298037
 21
233.7344062898875
 31
0.0
 12
413.5323888259786
 22
230.9350379728701
 32
0.0
 13
413.5323888259786
 23
230.9350379728701
 33
0.0
  0
POINT
  5
85C
330
491
100
AcDbEntity
  8
Defpoints
 62
     0
100
AcDbPoint
 10
413.5323888259786
 20
230.9350379728701
 30
0.0
  0
POINT
  5
85D
330
491
100
AcDbEntity
  8
Defpoints
 62
     0
100
AcDbPoint
 10
410.6739114008666
 20
225.6597079537978
 30
0.0
  0
ENDBLK
  5
499
330
491
100
AcDbEntity
  8
0
100
AcDbBlockEnd
  0
BLOCK
  5
4D5
330
4CB
100
AcDbEntity
  8
0
100
AcDbBlockBegin
  2
*D9
 70
     1
 10
0.0
 20
0.0
 30
0.0
  3
*D9
  1

  0
LINE
  5
882
330
4CB
100
AcDbEntity
  8
COTE
 62
     0
370
    -2
100
AcDbLine
 10
238.0631501133425
 20
189.797372963234
 30
0.0
 11
219.4166026008883
 21
189.797372963234
 31
0.0
  0
LINE
  5
883
330
4CB
100
AcDbEntity
  8
COTE
 62
     0
370
    -2
100
AcDbLine
 10
225.1173476873658
 20
208.797372964174
 30
0.0
 11
219.4166026008883
 21
208.797372964174
 31
0.0
  0
LINE
  5
884
330
4CB
100
AcDbEntity
  8
COTE
 62
     0
370
    -2
100
AcDbLine
 10
221.4166026008884
 20
193.297372963234
 30
0.0
 11
221.4166026008884
 21
205.297372964174
 31
0.0
  0
SOLID
  5
885
330
4CB
100
AcDbEntity
  8
COTE
 62
     0
100
AcDbTrace
 10
220.833269267555
 20
193.297372963234
 30
0.0
 11
221.9999359342217
 21
193.297372963234
 31
0.0
 12
221.4166026008883
 22
189.797372963234
 32
0.0
 13
221.4166026008883
 23
189.797372963234
 33
0.0
  0
SOLID
  5
886
330
4CB
100
AcDbEntity
  8
COTE
 62
     0
100
AcDbTrace
 10
220.833269267555
 20
205.297372964174
 30
0.0
 11
221.9999359342217
 21
205.297372964174
 31
0.0
 12
221.4166026008884
 22
208.797372964174
 32
0.0
 13
221.4166026008884
 23
208.797372964174
 33
0.0
  0
MTEXT
  5
887
330
4CB
100
AcDbEntity
  8
COTE
 62
     0
100
AcDbMText
 10
217.4166026008883
 20
199.297372963704
 30
0.0
 40
6.0
 41
0.0
 71
     5
 72
     1
  1
\A1;19
 11
0.0000000000000001
 21
1.0
 31
0.0
 73
     1
 44
1.0
  0
POINT
  5
888
330
4CB
100
AcDbEntity
  8
Defpoints
 62
     0
100
AcDbPoint
 10
239.0631501133425
 20
189.797372963234
 30
0.0
  0
POINT
  5
889
330
4CB
100
AcDbEntity
  8
Defpoints
 62
     0
100
AcDbPoint
 10
226.1173476873658
 20
208.797372964174
 30
0.0
  0
POINT
  5
88A
330
4CB
100
AcDbEntity
  8
Defpoints
 62
     0
100
AcDbPoint
 10
221.4166026008884
 20
208.797372964174
 30
0.0
  0
ENDBLK
  5
4D6
330
4CB
100
AcDbEntity
  8
0
100
AcDbBlockEnd
  0
BLOCK
  5
545
330
53B
100
AcDbEntity
  8
0
100
AcDbBlockBegin
  2
*D10
 70
     1
 10
0.0
 20
0.0
 30
0.0
  3
*D10
  1

  0
LINE
  5
88B
330
53B
100
AcDbEntity
  8
COTE
 62
     0
370
    -2
100
AcDbLine
 10
247.1031501140824
 20
180.757372965034
 30
0.0
 11
247.1031501140824
 21
102.8637642574527
 31
0.0
  0
LINE
  5
88C
330
53B
100
AcDbEntity
  8
COTE
 62
     0
370
    -2
100
AcDbLine
 10
412.1031501134225
 20
180.2573729642739
 30
0.0
 11
412.1031501134225
 21
102.8637642574527
 31
0.0
  0
LINE
  5
88D
330
53B
100
AcDbEntity
  8
COTE
 62
     0
370
    -2
100
AcDbLine
 10
250.6031501140824
 20
104.8637642574527
 30
0.0
 11
408.6031501134225
 21
104.8637642574527
 31
0.0
  0
SOLID
  5
88E
330
53B
100
AcDbEntity
  8
COTE
 62
     0
100
AcDbTrace
 10
250.6031501140824
 20
105.447097590786
 30
0.0
 11
250.6031501140824
 21
104.2804309241194
 31
0.0
 12
247.1031501140824
 22
104.8637642574527
 32
0.0
 13
247.1031501140824
 23
104.8637642574527
 33
0.0
  0
SOLID
  5
88F
330
53B
100
AcDbEntity
  8
COTE
 62
     0
100
AcDbTrace
 10
408.6031501134225
 20
105.447097590786
 30
0.0
 11
408.6031501134225
 21
104.2804309241194
 31
0.0
 12
412.1031501134225
 22
104.8637642574527
 32
0.0
 13
412.1031501134225
 23
104.8637642574527
 33
0.0
  0
MTEXT
  5
890
330
53B
100
AcDbEntity
  8
COTE
 62
     0
100
AcDbMText
 10
329.6031501137525
 20
108.8637642574527
 30
0.0
 40
6.0
 41
0.0
 71
     5
 72
     1
  1
\A1;165
 73
     1
 44
1.0
  0
POINT
  5
891
330
53B
100
AcDbEntity
  8
Defpoints
 62
     0
100
AcDbPoint
 10
247.1031501140824
 20
181.757372965034
 30
0.0
  0
POINT
  5
892
330
53B
100
AcDbEntity
  8
Defpoints
 62
     0
100
AcDbPoint
 10
412.1031501134225
 20
181.2573729642739
 30
0.0
  0
POINT
  5
893
330
53B
100
AcDbEntity
  8
Defpoints
 62
     0
100
AcDbPoint
 10
412.1031501134225
 20
104.8637642574527
 30
0.0
  0
ENDBLK
  5
546
330
53B
100
AcDbEntity
  8
0
100
AcDbBlockEnd
  0
BLOCK
  5
57F
330
575
100
AcDbEntity
  8
0
100
AcDbBlockBegin
  2
*D11
 70
     1
 10
0.0
 20
0.0
 30
0.0
  3
*D11
  1

  0
LINE
  5
894
330
575
100
AcDbEntity
  8
COTE
 62
     0
370
    -2
100
AcDbLine
 10
247.1031501140824
 20
180.757372965034
 30
0.0
 11
247.1031501140824
 21
112.2293521439119
 31
0.0
  0
LINE
  5
895
330
575
100
AcDbEntity
  8
COTE
 62
     0
370
    -2
100
AcDbLine
 10
325.1031501132624
 20
123.257372963994
 30
0.0
 11
325.1031501132624
 21
112.2293521439119
 31
0.0
  0
LINE
  5
896
330
575
100
AcDbEntity
  8
COTE
 62
     0
370
    -2
100
AcDbLine
 10
250.6031501140824
 20
114.2293521439119
 30
0.0
 11
321.6031501132624
 21
114.2293521439119
 31
0.0
  0
SOLID
  5
897
330
575
100
AcDbEntity
  8
COTE
 62
     0
100
AcDbTrace
 10
250.6031501140824
 20
114.8126854772453
 30
0.0
 11
250.6031501140824
 21
113.6460188105786
 31
0.0
 12
247.1031501140824
 22
114.2293521439119
 32
0.0
 13
247.1031501140824
 23
114.2293521439119
 33
0.0
  0
SOLID
  5
898
330
575
100
AcDbEntity
  8
COTE
 62
     0
100
AcDbTrace
 10
321.6031501132624
 20
114.8126854772453
 30
0.0
 11
321.6031501132624
 21
113.6460188105786
 31
0.0
 12
325.1031501132624
 22
114.2293521439119
 32
0.0
 13
325.1031501132624
 23
114.2293521439119
 33
0.0
  0
MTEXT
  5
899
330
575
100
AcDbEntity
  8
COTE
 62
     0
100
AcDbMText
 10
286.1031501136725
 20
118.2293521439119
 30
0.0
 40
6.0
 41
0.0
 71
     5
 72
     1
  1
\A1;78
 73
     1
 44
1.0
  0
POINT
  5
89A
330
575
100
AcDbEntity
  8
Defpoints
 62
     0
100
AcDbPoint
 10
247.1031501140824
 20
181.757372965034
 30
0.0
  0
POINT
  5
89B
330
575
100
AcDbEntity
  8
Defpoints
 62
     0
100
AcDbPoint
 10
325.1031501132624
 20
124.257372963994
 30
0.0
  0
POINT
  5
89C
330
575
100
AcDbEntity
  8
Defpoints
 62
     0
100
AcDbPoint
 10
325.1031501132624
 20
114.2293521439119
 30
0.0
  0
ENDBLK
  5
580
330
575
100
AcDbEntity
  8
0
100
AcDbBlockEnd
  0
BLOCK
  5
5E6
330
5DC
100
AcDbEntity
  8
0
100
AcDbBlockBegin
  2
*D12
 70
     1
 10
0.0
 20
0.0
 30
0.0
  3
*D12
  1

  0
LINE
  5
89D
330
5DC
100
AcDbEntity
  8
COTE
 62
     0
370
    -2
100
AcDbLine
 10
424.4320324365897
 20
208.797372964174
 30
0.0
 11
433.9004733041744
 21
208.797372964174
 31
0.0
  0
LINE
  5
89E
330
5DC
100
AcDbEntity
  8
COTE
 62
     0
370
    -2
100
AcDbLine
 10
421.1431501141625
 20
189.297372965014
 30
0.0
 11
433.9004733041744
 21
189.297372965014
 31
0.0
  0
LINE
  5
89F
330
5DC
100
AcDbEntity
  8
COTE
 62
     0
370
    -2
100
AcDbLine
 10
431.9004733041744
 20
205.297372964174
 30
0.0
 11
431.9004733041744
 21
192.797372965014
 31
0.0
  0
SOLID
  5
8A0
330
5DC
100
AcDbEntity
  8
COTE
 62
     0
100
AcDbTrace
 10
431.3171399708411
 20
205.297372964174
 30
0.0
 11
432.4838066375077
 21
205.297372964174
 31
0.0
 12
431.9004733041744
 22
208.797372964174
 32
0.0
 13
431.9004733041744
 23
208.797372964174
 33
0.0
  0
SOLID
  5
8A1
330
5DC
100
AcDbEntity
  8
COTE
 62
     0
100
AcDbTrace
 10
431.3171399708411
 20
192.797372965014
 30
0.0
 11
432.4838066375077
 21
192.797372965014
 31
0.0
 12
431.9004733041744
 22
189.297372965014
 32
0.0
 13
431.9004733041744
 23
189.297372965014
 33
0.0
  0
MTEXT
  5
8A2
330
5DC
100
AcDbEntity
  8
COTE
 62
     0
100
AcDbMText
 10
427.9004733041744
 20
199.047372964594
 30
0.0
 40
6.0
 41
0.0
 71
     5
 72
     1
  1
\A1;19.5
 11
0.0000000000000001
 21
1.0
 31
0.0
 73
     1
 44
1.0
  0
POINT
  5
8A3
330
5DC
100
AcDbEntity
  8
Defpoints
 62
     0
100
AcDbPoint
 10
423.4320324365898
 20
208.797372964174
 30
0.0
  0
POINT
  5
8A4
330
5DC
100
AcDbEntity
  8
Defpoints
 62
     0
100
AcDbPoint
 10
420.1431501141625
 20
189.297372965014
 30
0.0
  0
POINT
  5
8A5
330
5DC
100
AcDbEntity
  8
Defpoints
 62
     0
100
AcDbPoint
 10
431.9004733041744
 20
189.297372965014
 30
0.0
  0
ENDBLK
  5
5E7
330
5DC
100
AcDbEntity
  8
0
100
AcDbBlockEnd
  0
BLOCK
  5
644
330
63A
100
AcDbEntity
  8
0
100
AcDbBlockBegin
  2
*D13
 70
     1
 10
0.0
 20
0.0
 30
0.0
  3
*D13
  1

  0
LINE
  5
8A6
330
63A
100
AcDbEntity
  8
COTE
 62
     0
370
    -2
100
AcDbLine
 10
480.236041593937
 20
167.797372964334
 30
0.0
 11
480.236041593937
 21
102.8637642574527
 31
0.0
  0
LINE
  5
8A7
330
63A
100
AcDbEntity
  8
COTE
 62
     0
370
    -2
100
AcDbLine
 10
484.236041594937
 20
169.257372962794
 30
0.0
 11
484.236041594937
 21
102.8637642574527
 31
0.0
  0
LINE
  5
8A8
330
63A
100
AcDbEntity
  8
COTE
 62
     0
370
    -2
100
AcDbLine
 10
487.7360415949369
 20
104.8637642574527
 30
0.0
 11
491.2360415949369
 21
104.8637642574527
 31
0.0
  0
LINE
  5
8A9
330
63A
100
AcDbEntity
  8
COTE
 62
     0
370
    -2
100
AcDbLine
 10
476.736041593937
 20
104.8637642574527
 30
0.0
 11
467.236041593937
 21
104.8637642574527
 31
0.0
  0
SOLID
  5
8AA
330
63A
100
AcDbEntity
  8
COTE
 62
     0
100
AcDbTrace
 10
487.7360415949369
 20
105.447097590786
 30
0.0
 11
487.7360415949369
 21
104.2804309241194
 31
0.0
 12
484.236041594937
 22
104.8637642574527
 32
0.0
 13
484.236041594937
 23
104.8637642574527
 33
0.0
  0
SOLID
  5
8AB
330
63A
100
AcDbEntity
  8
COTE
 62
     0
100
AcDbTrace
 10
476.736041593937
 20
105.447097590786
 30
0.0
 11
476.736041593937
 21
104.2804309241194
 31
0.0
 12
480.236041593937
 22
104.8637642574527
 32
0.0
 13
480.236041593937
 23
104.8637642574527
 33
0.0
  0
MTEXT
  5
8AC
330
63A
100
AcDbEntity
  8
COTE
 62
     0
100
AcDbMText
 10
470.2360415939369
 20
108.8637642574527
 30
0.0
 40
6.0
 41
0.0
 71
     5
 72
     1
  1
\A1;4
 73
     1
 44
1.0
  0
POINT
  5
8AD
330
63A
100
AcDbEntity
  8
Defpoints
 62
     0
100
AcDbPoint
 10
480.236041593937
 20
168.797372964334
 30
0.0
  0
POINT
  5
8AE
330
63A
100
AcDbEntity
  8
Defpoints
 62
     0
100
AcDbPoint
 10
484.236041594937
 20
170.257372962794
 30
0.0
  0
POINT
  5
8AF
330
63A
100
AcDbEntity
  8
Defpoints
 62
     0
100
AcDbPoint
 10
484.236041594937
 20
104.8637642574527
 30
0.0
  0
ENDBLK
  5
645
330
63A
100
AcDbEntity
  8
0
100
AcDbBlockEnd
  0
BLOCK
  5
693
330
689
100
AcDbEntity
  8
0
100
AcDbBlockBegin
  2
*D14
 70
     1
 10
0.0
 20
0.0
 30
0.0
  3
*D14
  1

  0
LINE
  5
8B0
330
689
100
AcDbEntity
  8
COTE
 62
     0
370
    -2
100
AcDbLine
 10
532.1328674959333
 20
208.797372964174
 30
0.0
 11
538.0623028124666
 21
208.797372964174
 31
0.0
  0
LINE
  5
8B1
330
689
100
AcDbEntity
  8
COTE
 62
     0
370
    -2
100
AcDbLine
 10
526.7760413529763
 20
175.7973727631546
 30
0.0
 11
538.0623028124666
 21
175.7973727631546
 31
0.0
  0
LINE
  5
8B2
330
689
100
AcDbEntity
  8
COTE
 62
     0
370
    -2
100
AcDbLine
 10
536.0623028124665
 20
205.297372964174
 30
0.0
 11
536.0623028124665
 21
179.2973727631546
 31
0.0
  0
SOLID
  5
8B3
330
689
100
AcDbEntity
  8
COTE
 62
     0
100
AcDbTrace
 10
535.4789694791332
 20
205.297372964174
 30
0.0
 11
536.6456361457998
 21
205.297372964174
 31
0.0
 12
536.0623028124665
 22
208.797372964174
 32
0.0
 13
536.0623028124665
 23
208.797372964174
 33
0.0
  0
SOLID
  5
8B4
330
689
100
AcDbEntity
  8
COTE
 62
     0
100
AcDbTrace
 10
535.4789694791332
 20
179.2973727631546
 30
0.0
 11
536.6456361457998
 21
179.2973727631546
 31
0.0
 12
536.0623028124665
 22
175.7973727631546
 32
0.0
 13
536.0623028124665
 23
175.7973727631546
 33
0.0
  0
MTEXT
  5
8B5
330
689
100
AcDbEntity
  8
COTE
 62
     0
100
AcDbMText
 10
532.0623028124665
 20
192.2973728636644
 30
0.0
 40
6.0
 41
0.0
 71
     5
 72
     1
  1
\A1;33
 11
0.0000000000000001
 21
1.0
 31
0.0
 73
     1
 44
1.0
  0
POINT
  5
8B6
330
689
100
AcDbEntity
  8
Defpoints
 62
     0
100
AcDbPoint
 10
531.1328674959333
 20
208.797372964174
 30
0.0
  0
POINT
  5
8B7
330
689
100
AcDbEntity
  8
Defpoints
 62
     0
100
AcDbPoint
 10
525.7760413529763
 20
175.7973727631546
 30
0.0
  0
POINT
  5
8B8
330
689
100
AcDbEntity
  8
Defpoints
 62
     0
100
AcDbPoint
 10
536.0623028124665
 20
175.7973727631546
 30
0.0
  0
ENDBLK
  5
694
330
689
100
AcDbEntity
  8
0
100
AcDbBlockEnd
  0
ENDSEC
  0
SECTION
  2
ENTITIES
  0
ARC
  5
109
330
1F
100
AcDbEntity
  8
GEOMETRIE
100
AcDbCircle
 10
325.1031501132624
 20
208.797372964174
 30
0.0
 40
79.99999999967998
100
AcDbArc
 50
77.10359265800059
 51
118.2092153407006
  0
ARC
  5
10A
330
1F
100
AcDbEntity
  8
GEOMETRIE
100
AcDbCircle
 10
325.1031501132624
 20
208.797372964174
 30
0.0
 40
79.99999999967998
100
AcDbArc
 50
242.1035926580002
 51
283.2092153406995
  0
ARC
  5
10B
330
1F
100
AcDbEntity
  8
GEOMETRIE
100
AcDbCircle
 10
325.1031501132624
 20
208.797372964174
 30
0.0
 40
62.00000000026
100
AcDbArc
 50
27.88782023770027
 51
155.2061375369004
  0
ARC
  5
10C
330
1F
100
AcDbEntity
  8
GEOMETRIE
100
AcDbCircle
 10
325.1031501132624
 20
208.797372964174
 30
0.0
 40
62.00000000026
100
AcDbArc
 50
204.793862463101
 51
332.1121797623012
  0
ARC
  5
10D
330
1F
100
AcDbEntity
  8
GEOMETRIE
100
AcDbCircle
 10
325.1031501132624
 20
208.797372964174
 30
0.0
 40
82.00000000017999
100
AcDbArc
 50
242.0034323999006
 51
340.4052131542007
  0
CIRCLE
  5
10E
330
1F
100
AcDbEntity
  8
GEOMETRIE
100
AcDbCircle
 10
325.1031501132624
 20
208.797372964174
 30
0.0
 40
59.99999999976
  0
ARC
  5
10F
330
1F
100
AcDbEntity
  8
GEOMETRIE
100
AcDbCircle
 10
325.1031501132624
 20
208.797372964174
 30
0.0
 40
82.00000000017999
100
AcDbArc
 50
77.00343239990029
 51
150.8035955904005
  0
LINE
  5
110
330
1F
100
AcDbEntity
  8
AXE
 48
25.4
100
AcDbLine
 10
325.1031501132624
 20
208.797372964174
 30
0.0
 11
226.1173476873658
 21
208.797372964174
 31
0.0
  0
CIRCLE
  5
112
330
1F
100
AcDbEntity
  8
GEOMETRIE
100
AcDbCircle
 10
247.1031501140824
 20
189.797372963234
 30
0.0
 40
3.0
  0
ARC
  5
113
330
1F
100
AcDbEntity
  8
GEOMETRIE
100
AcDbCircle
 10
234.1031501121025
 20
191.297372962974
 30
0.0
 40
2.0000000005
100
AcDbArc
 50
0.0
 51
90.0
  0
CIRCLE
  5
114
330
1F
100
AcDbEntity
  8
GEOMETRIE
100
AcDbCircle
 10
247.1031501140824
 20
189.797372963234
 30
0.0
 40
5.50000000074
  0
LINE
  5
115
330
1F
100
AcDbEntity
  8
AXE
 48
25.4
100
AcDbLine
 10
247.1031501140824
 20
189.797372963234
 30
0.0
 11
247.1031501140824
 21
197.837372963974
 31
0.0
  0
LINE
  5
116
330
1F
100
AcDbEntity
  8
GEOMETRIE
100
AcDbLine
 10
237.1031501141225
 20
204.297372964954
 30
0.0
 11
237.1031501141225
 21
191.297372962974
 31
0.0
  0
LINE
  5
117
330
1F
100
AcDbEntity
  8
GEOMETRIE
100
AcDbLine
 10
229.1031501121225
 20
168.797372964334
 30
0.0
 11
229.1031501121225
 21
193.2973729634739
 31
0.0
  0
ARC
  5
118
330
1F
100
AcDbEntity
  8
GEOMETRIE
100
AcDbCircle
 10
325.1031501132624
 20
208.797372964174
 30
0.0
 40
79.99999999967998
100
AcDbArc
 50
208.3593500282008
 51
237.8964073420015
  0
ARC
  5
119
330
1F
100
AcDbEntity
  8
GEOMETRIE
100
AcDbCircle
 10
325.1031501132624
 20
208.797372964174
 30
0.0
 40
82.00000000017999
100
AcDbArc
 50
209.1964044096001
 51
237.9965676000996
  0
LINE
  5
11A
330
1F
100
AcDbEntity
  8
AXE
 48
25.4
100
AcDbLine
 10
247.1031501140824
 20
189.797372963234
 30
0.0
 11
255.1431501122825
 21
189.797372963234
 31
0.0
  0
LINE
  5
11B
330
1F
100
AcDbEntity
  8
GEOMETRIE
100
AcDbLine
 10
269.4614391413825
 20
182.797372962754
 30
0.0
 11
237.1031501141225
 21
182.797372962754
 31
0.0
  0
LINE
  5
11C
330
1F
100
AcDbEntity
  8
GEOMETRIE
100
AcDbLine
 10
237.1031501141225
 20
170.797372964834
 30
0.0
 11
254.7042864865825
 21
170.797372964834
 31
0.0
  0
LINE
  5
11D
330
1F
100
AcDbEntity
  8
GEOMETRIE
100
AcDbLine
 10
229.1031501121225
 20
168.797372964334
 30
0.0
 11
253.5210294398424
 21
168.797372964334
 31
0.0
  0
LINE
  5
11E
330
1F
100
AcDbEntity
  8
GEOMETRIE
100
AcDbLine
 10
237.1031501141225
 20
168.797372964334
 30
0.0
 11
237.1031501141225
 21
182.797372962754
 31
0.0
  0
LINE
  5
11F
330
1F
100
AcDbEntity
  8
GEOMETRIE
100
AcDbLine
 10
233.1031501131225
 20
178.797372964294
 30
0.0
 11
233.1031501131225
 21
172.797372962794
 31
0.0
  0
LINE
  5
120
330
1F
100
AcDbEntity
  8
AXE
 48
25.4
100
AcDbLine
 10
239.6431501141225
 20
175.797372964814
 30
0.0
 11
230.5631501131224
 21
175.797372964814
 31
0.0
  0
LINE
  5
121
330
1F
100
AcDbEntity
  8
GEOMETRIE
100
AcDbLine
 10
233.1031501131225
 20
172.797372962794
 30
0.0
 11
237.1031501141225
 21
172.797372962794
 31
0.0
  0
LINE
  5
122
330
1F
100
AcDbEntity
  8
GEOMETRIE
100
AcDbLine
 10
233.1031501131225
 20
178.797372964294
 30
0.0
 11
237.1031501141225
 21
178.797372964294
 31
0.0
  0
LINE
  5
123
330
1F
100
AcDbEntity
  8
GEOMETRIE
100
AcDbLine
 10
237.1031501141225
 20
191.297372962974
 30
0.0
 11
236.1031501126025
 21
191.297372962974
 31
0.0
  0
LINE
  5
124
330
1F
100
AcDbEntity
  8
AXE
 48
25.4
100
AcDbLine
 10
247.1031501140824
 20
189.797372963234
 30
0.0
 11
247.1031501140824
 21
181.757372965034
 31
0.0
  0
LINE
  5
125
330
1F
100
AcDbEntity
  8
AXE
 48
25.4
100
AcDbLine
 10
247.1031501140824
 20
189.797372963234
 30
0.0
 11
239.0631501133425
 21
189.797372963234
 31
0.0
  0
LINE
  5
126
330
1F
100
AcDbEntity
  8
GEOMETRIE
100
AcDbLine
 10
253.5210294398424
 20
168.797372964334
 30
0.0
 11
254.7042864865825
 21
170.797372964834
 31
0.0
  0
ARC
  5
127
330
1F
100
AcDbEntity
  8
GEOMETRIE
100
AcDbCircle
 10
269.4614391413825
 20
183.797372964274
 30
0.0
 40
0.9999999989799999
100
AcDbArc
 50
270.0
 51
24.1945371142998
  0
ARC
  5
128
330
1F
100
AcDbEntity
  8
GEOMETRIE
100
AcDbCircle
 10
325.1031501132624
 20
208.797372964174
 30
0.0
 40
82.00000000017999
100
AcDbArc
 50
238.252916118001
 51
241.7470623815004
  0
ARC
  5
129
330
1F
100
AcDbEntity
  8
GEOMETRIE
100
AcDbCircle
 10
325.1031501132624
 20
208.797372964174
 30
0.0
 40
81.00000000119999
100
AcDbArc
 50
238.2313308622998
 51
241.7686691377017
  0
LINE
  5
12A
330
1F
100
AcDbEntity
  8
GEOMETRIE
100
AcDbLine
 10
283.1880866029425
 20
141.198353361874
 30
0.0
 11
281.9571459126825
 21
139.066301542674
 31
0.0
  0
LINE
  5
12B
330
1F
100
AcDbEntity
  8
GEOMETRIE
100
AcDbLine
 10
283.0283129931025
 20
141.794636591454
 30
0.0
 11
282.5870144192625
 21
141.030285039134
 31
0.0
  0
SPLINE
  5
12C
330
1F
100
AcDbEntity
  8
GEOMETRIE
100
AcDbSpline
210
0.0
220
0.0
230
1.0
 70
     8
 71
     3
 72
    10
 73
     6
 74
     4
 42
0.0000000001
 43
0.0000000001
 44
0.0000000001
 40
0.0
 40
0.0
 40
0.0
 40
0.0
 40
0.6749533810503951
 40
1.343269310201762
 40
2.005005484203241
 40
2.005005484203241
 40
2.005005484203241
 40
2.005005484203241
 10
281.6456046180625
 20
139.260032351554
 30
0.0
 10
281.7512411854039
 20
139.4586750535074
 30
0.0
 10
281.9614754962893
 20
139.8540070167526
 30
0.0
 10
282.275278759766
 20
140.444091247856
 30
0.0
 10
282.4834457995546
 20
140.8355325942517
 30
0.0
 10
282.5870144192625
 20
141.030285039134
 30
0.0
 11
281.6456046180625
 21
139.260032351554
 31
0.0
 11
281.9625144897025
 21
139.855960367214
 31
0.0
 11
282.2763087287625
 21
140.446027614814
 31
0.0
 11
282.5870144192625
 21
141.030285039134
 31
0.0
  0
LINE
  5
12D
330
1F
100
AcDbEntity
  8
GEOMETRIE
100
AcDbLine
 10
281.6456046180625
 20
139.260032351554
 30
0.0
 11
281.9571459126825
 21
139.066301542674
 31
0.0
  0
SPLINE
  5
12E
330
1F
100
AcDbEntity
  8
GEOMETRIE
100
AcDbSpline
210
0.0
220
0.0
230
1.0
 70
     8
 71
     3
 72
    10
 73
     6
 74
     4
 42
0.0000000001
 43
0.0000000001
 44
0.0000000001
 40
0.0
 40
0.0
 40
0.0
 40
0.0
 40
0.6617093132933626
 40
1.330025029764396
 40
2.005005485797866
 40
2.005005485797866
 40
2.005005485797866
 40
2.005005485797866
 10
287.6731982778625
 20
138.093775420674
 30
0.0
 10
287.556326767385
 20
137.9067137357654
 30
0.0
 10
287.3214169193918
 20
137.5307227710923
 30
0.0
 10
286.9672906149297
 20
136.9639190580096
 30
0.0
 10
286.7300355032873
 20
136.5841772283029
 30
0.0
 10
286.6108193790025
 20
136.393364272354
 30
0.0
 11
287.6731982778625
 21
138.093775420674
 31
0.0
 11
287.3225835841225
 21
137.532590467354
 31
0.0
 11
286.9684675892825
 21
136.965803241774
 31
0.0
 11
286.6108193790025
 21
136.393364272354
 31
0.0
  0
LINE
  5
12F
330
1F
100
AcDbEntity
  8
GEOMETRIE
100
AcDbLine
 10
286.2872729318624
 20
136.566301543954
 30
0.0
 11
287.5182136221225
 21
138.698353363154
 31
0.0
  0
LINE
  5
130
330
1F
100
AcDbEntity
  8
GEOMETRIE
100
AcDbLine
 10
286.6108193790025
 20
136.393364272354
 30
0.0
 11
286.2872729318624
 21
136.566301543954
 31
0.0
  0
LINE
  5
131
330
1F
100
AcDbEntity
  8
GEOMETRIE
100
AcDbLine
 10
288.1144968517024
 20
138.858126972994
 30
0.0
 11
283.0283129931025
 21
141.794636591454
 31
0.0
  0
LINE
  5
132
330
1F
100
AcDbEntity
  8
GEOMETRIE
100
AcDbLine
 10
287.5182136221225
 20
138.698353363154
 30
0.0
 11
283.1880866029425
 21
141.198353361874
 31
0.0
  0
LINE
  5
133
330
1F
100
AcDbEntity
  8
GEOMETRIE
100
AcDbLine
 10
283.0283129931025
 20
141.794636591454
 30
0.0
 11
283.1880866029425
 21
141.198353361874
 31
0.0
  0
LINE
  5
134
330
1F
100
AcDbEntity
  8
GEOMETRIE
100
AcDbLine
 10
287.6731982778625
 20
138.093775420674
 30
0.0
 11
288.1144968517024
 21
138.858126972994
 31
0.0
  0
LINE
  5
135
330
1F
100
AcDbEntity
  8
GEOMETRIE
100
AcDbLine
 10
288.1144968517024
 20
138.858126972994
 30
0.0
 11
287.5182136221225
 21
138.698353363154
 31
0.0
  0
ARC
  5
136
330
1F
100
AcDbEntity
  8
GEOMETRIE
100
AcDbCircle
 10
325.1031501132624
 20
208.797372964174
 30
0.0
 40
79.99999999967998
100
AcDbArc
 50
121.7907846593004
 51
151.6406499718006
  0
CIRCLE
  5
137
330
1F
100
AcDbEntity
  8
GEOMETRIE
100
AcDbCircle
 10
247.1031501140824
 20
227.797372962574
 30
0.0
 40
3.0
  0
CIRCLE
  5
138
330
1F
100
AcDbEntity
  8
GEOMETRIE
100
AcDbCircle
 10
247.1031501140824
 20
227.797372962574
 30
0.0
 40
5.50000000074
  0
LINE
  5
139
330
1F
100
AcDbEntity
  8
AXE
 48
25.4
100
AcDbLine
 10
247.1031501140824
 20
227.797372962574
 30
0.0
 11
247.1031501140824
 21
219.757372964374
 31
0.0
  0
LINE
  5
13A
330
1F
100
AcDbEntity
  8
GEOMETRIE
100
AcDbLine
 10
229.1031501121225
 20
224.297372964874
 30
0.0
 11
229.1031501121225
 21
248.797372964014
 31
0.0
  0
LINE
  5
13B
330
1F
100
AcDbEntity
  8
GEOMETRIE
100
AcDbLine
 10
248.6031501138224
 20
213.797372964154
 30
0.0
 11
248.6031501138224
 21
203.797372964194
 31
0.0
  0
LINE
  5
13C
330
1F
100
AcDbEntity
  8
GEOMETRIE
100
AcDbLine
 10
246.1031501125625
 20
203.797372964194
 30
0.0
 11
246.1031501125625
 21
213.797372964154
 31
0.0
  0
LINE
  5
13D
330
1F
100
AcDbEntity
  8
GEOMETRIE
100
AcDbLine
 10
245.1031501135825
 20
213.297372963394
 30
0.0
 11
245.1031501135825
 21
204.297372964954
 31
0.0
  0
LINE
  5
13E
330
1F
100
AcDbEntity
  8
GEOMETRIE
100
AcDbLine
 10
245.1031501135825
 20
204.297372964954
 30
0.0
 11
237.1031501141225
 21
204.297372964954
 31
0.0
  0
LINE
  5
13F
330
1F
100
AcDbEntity
  8
GEOMETRIE
100
AcDbLine
 10
229.1031501121225
 20
193.2973729634739
 30
0.0
 11
234.1031501121025
 21
193.2973729634739
 31
0.0
  0
LINE
  5
140
330
1F
100
AcDbEntity
  8
GEOMETRIE
100
AcDbLine
 10
248.6031501138224
 20
203.797372964194
 30
0.0
 11
246.1031501125625
 21
203.797372964194
 31
0.0
  0
LINE
  5
141
330
1F
100
AcDbEntity
  8
GEOMETRIE
100
AcDbLine
 10
237.1031501141225
 20
213.297372963394
 30
0.0
 11
245.1031501135825
 21
213.297372963394
 31
0.0
  0
LINE
  5
142
330
1F
100
AcDbEntity
  8
GEOMETRIE
100
AcDbLine
 10
237.1031501141225
 20
226.297372962834
 30
0.0
 11
237.1031501141225
 21
213.297372963394
 31
0.0
  0
LINE
  5
143
330
1F
100
AcDbEntity
  8
GEOMETRIE
100
AcDbLine
 10
229.1031501121225
 20
224.297372964874
 30
0.0
 11
234.1031501121025
 21
224.297372964874
 31
0.0
  0
ARC
  5
144
330
1F
100
AcDbEntity
  8
GEOMETRIE
100
AcDbCircle
 10
234.1031501121025
 20
226.297372962834
 30
0.0
 40
2.0000000005
100
AcDbArc
 50
270.0
 51
0.0000000000008142
  0
LINE
  5
145
330
1F
100
AcDbEntity
  8
GEOMETRIE
100
AcDbLine
 10
236.1031501126025
 20
226.297372962834
 30
0.0
 11
237.1031501141225
 21
226.297372962834
 31
0.0
  0
LINE
  5
146
330
1F
100
AcDbEntity
  8
GEOMETRIE
100
AcDbLine
 10
246.1031501125625
 20
213.797372964154
 30
0.0
 11
248.6031501138224
 21
213.797372964154
 31
0.0
  0
LINE
  5
147
330
1F
100
AcDbEntity
  8
GEOMETRIE
100
AcDbLine
 10
229.1031501121225
 20
248.797372964014
 30
0.0
 11
253.5210294398424
 21
248.797372964014
 31
0.0
  0
LINE
  5
148
330
1F
100
AcDbEntity
  8
GEOMETRIE
100
AcDbLine
 10
254.7042864865825
 20
246.797372963514
 30
0.0
 11
237.1031501141225
 21
246.797372963514
 31
0.0
  0
LINE
  5
149
330
1F
100
AcDbEntity
  8
GEOMETRIE
100
AcDbLine
 10
237.1031501141225
 20
234.797372963054
 30
0.0
 11
269.4614391413825
 21
234.797372963054
 31
0.0
  0
LINE
  5
14A
330
1F
100
AcDbEntity
  8
AXE
 48
25.4
100
AcDbLine
 10
247.1031501140824
 20
227.797372962574
 30
0.0
 11
255.1431501122825
 21
227.797372962574
 31
0.0
  0
LINE
  5
14B
330
1F
100
AcDbEntity
  8
GEOMETRIE
100
AcDbLine
 10
237.1031501141225
 20
234.797372963054
 30
0.0
 11
237.1031501141225
 21
248.797372964014
 31
0.0
  0
LINE
  5
14C
330
1F
100
AcDbEntity
  8
GEOMETRIE
100
AcDbLine
 10
233.1031501131225
 20
244.797372963014
 30
0.0
 11
233.1031501131225
 21
238.797372964054
 31
0.0
  0
LINE
  5
14D
330
1F
100
AcDbEntity
  8
AXE
 48
25.4
100
AcDbLine
 10
239.6431501141225
 20
241.797372963534
 30
0.0
 11
230.5631501131224
 21
241.797372963534
 31
0.0
  0
LINE
  5
14E
330
1F
100
AcDbEntity
  8
GEOMETRIE
100
AcDbLine
 10
233.1031501131225
 20
238.797372964054
 30
0.0
 11
237.1031501141225
 21
238.797372964054
 31
0.0
  0
LINE
  5
14F
330
1F
100
AcDbEntity
  8
AXE
 48
25.4
100
AcDbLine
 10
247.1031501140824
 20
227.797372962574
 30
0.0
 11
247.1031501140824
 21
235.8373729633139
 31
0.0
  0
LINE
  5
150
330
1F
100
AcDbEntity
  8
AXE
 48
25.4
100
AcDbLine
 10
247.1031501140824
 20
227.797372962574
 30
0.0
 11
239.0631501133425
 21
227.797372962574
 31
0.0
  0
LINE
  5
151
330
1F
100
AcDbEntity
  8
GEOMETRIE
100
AcDbLine
 10
233.1031501131225
 20
244.797372963014
 30
0.0
 11
237.1031501141225
 21
244.797372963014
 31
0.0
  0
ARC
  5
152
330
1F
100
AcDbEntity
  8
GEOMETRIE
100
AcDbCircle
 10
269.4614391413825
 20
233.797372964074
 30
0.0
 40
0.9999999989799999
100
AcDbArc
 50
335.8054628857002
 51
90.0
  0
LINE
  5
153
330
1F
100
AcDbEntity
  8
GEOMETRIE
100
AcDbLine
 10
253.5210294398424
 20
248.797372964014
 30
0.0
 11
254.7042864865825
 21
246.797372963514
 31
0.0
  0
LINE
  5
154
330
1F
100
AcDbEntity
  8
GEOMETRIE
100
AcDbLine
 10
283.1880866029425
 20
276.396392563934
 30
0.0
 11
281.9571459126825
 21
278.5284443831339
 31
0.0
  0
LINE
  5
155
330
1F
100
AcDbEntity
  8
GEOMETRIE
100
AcDbLine
 10
283.1880866029425
 20
276.396392563934
 30
0.0
 11
287.5182136221225
 21
278.8963925651939
 31
0.0
  0
LINE
  5
156
330
1F
100
AcDbEntity
  8
GEOMETRIE
100
AcDbLine
 10
286.5402731548424
 20
280.590235143974
 30
0.0
 11
282.2101461356625
 21
278.090235142714
 31
0.0
  0
LINE
  5
157
330
1F
100
AcDbEntity
  8
GEOMETRIE
100
AcDbLine
 10
287.5182136221225
 20
278.8963925651939
 30
0.0
 11
286.2872729318624
 21
281.028444384394
 31
0.0
  0
LINE
  5
158
330
1F
100
AcDbEntity
  8
GEOMETRIE
100
AcDbLine
 10
287.2682136217425
 20
279.329405265334
 30
0.0
 11
282.9380866025625
 21
276.8294052666139
 31
0.0
  0
ARC
  5
15A
330
1F
100
AcDbEntity
  8
GEOMETRIE
100
AcDbCircle
 10
325.1031501132624
 20
208.797372964174
 30
0.0
 40
62.00000000026
100
AcDbArc
 50
333.6694976631008
 51
26.3305023369006
  0
CIRCLE
  5
15B
330
1F
100
AcDbEntity
  8
GEOMETRIE
100
AcDbCircle
 10
412.1031501134225
 20
189.297372965014
 30
0.0
 40
3.0
  0
CIRCLE
  5
15C
330
1F
100
AcDbEntity
  8
GEOMETRIE
100
AcDbCircle
 10
412.1031501134225
 20
189.297372965014
 30
0.0
 40
5.50000000074
  0
LINE
  5
15D
330
1F
100
AcDbEntity
  8
GEOMETRIE
100
AcDbLine
 10
419.1031501139025
 20
181.297372963014
 30
0.0
 11
419.1031501139025
 21
236.297372962794
 31
0.0
  0
LINE
  5
15E
330
1F
100
AcDbEntity
  8
AXE
 48
25.4
100
AcDbLine
 10
412.1031501134225
 20
189.297372965014
 30
0.0
 11
412.1031501134225
 21
197.337372963214
 31
0.0
  0
LINE
  5
15F
330
1F
100
AcDbEntity
  8
AXE
 48
25.4
100
AcDbLine
 10
325.1031501132624
 20
208.797372964174
 30
0.0
 11
325.1031501132624
 21
124.257372963994
 31
0.0
  0
ARC
  5
160
330
1F
100
AcDbEntity
  8
GEOMETRIE
100
AcDbCircle
 10
325.1031501132624
 20
208.797372964174
 30
0.0
 40
79.99999999967998
100
AcDbArc
 50
286.7907846593001
 51
338.7461908146009
  0
LINE
  5
161
330
1F
100
AcDbEntity
  8
AXE
 48
25.4
100
AcDbLine
 10
412.1031501134225
 20
189.297372965014
 30
0.0
 11
404.0631501126824
 21
189.297372965014
 31
0.0
  0
LINE
  5
162
330
1F
100
AcDbEntity
  8
GEOMETRIE
100
AcDbLine
 10
379.5526680161425
 20
181.297372963014
 30
0.0
 11
419.1031501139025
 21
181.297372963014
 31
0.0
  0
LINE
  5
163
330
1F
100
AcDbEntity
  8
GEOMETRIE
100
AcDbLine
 10
359.0230230938025
 20
140.046429574794
 30
0.0
 11
367.6832771321625
 21
145.046429574774
 31
0.0
  0
LINE
  5
164
330
1F
100
AcDbEntity
  8
GEOMETRIE
100
AcDbLine
 10
360.2730230931625
 20
137.881366063934
 30
0.0
 11
359.0230230938025
 21
140.046429574794
 31
0.0
  0
LINE
  5
165
330
1F
100
AcDbEntity
  8
GEOMETRIE
100
AcDbLine
 10
343.9016314214825
 20
128.981227351674
 30
0.0
 11
343.2644496326025
 21
131.359222161334
 31
0.0
  0
LINE
  5
166
330
1F
100
AcDbEntity
  8
GEOMETRIE
100
AcDbLine
 10
348.0940787642824
 20
132.653317386194
 30
0.0
 11
343.2644496326025
 21
131.359222161334
 31
0.0
  0
LINE
  5
167
330
1F
100
AcDbEntity
  8
GEOMETRIE
100
AcDbLine
 10
343.3938591553425
 20
130.876259248674
 30
0.0
 11
348.2234882870225
 21
132.170354473534
 31
0.0
  0
LINE
  5
168
330
1F
100
AcDbEntity
  8
GEOMETRIE
100
AcDbLine
 10
343.7706688690825
 20
129.469986249694
 30
0.0
 11
348.6002980007625
 21
130.764081477094
 31
0.0
  0
LINE
  5
169
330
1F
100
AcDbEntity
  8
GEOMETRIE
100
AcDbLine
 10
348.0940787642824
 20
132.653317386194
 30
0.0
 11
348.7312605531625
 21
130.275322576534
 31
0.0
  0
LINE
  5
16A
330
1F
100
AcDbEntity
  8
GEOMETRIE
100
AcDbLine
 10
368.9332771315225
 20
142.881366063914
 30
0.0
 11
360.2730230931625
 21
137.881366063934
 31
0.0
  0
LINE
  5
16B
330
1F
100
AcDbEntity
  8
GEOMETRIE
100
AcDbLine
 10
367.6832771321625
 20
145.046429574774
 30
0.0
 11
368.9332771315225
 21
142.881366063914
 31
0.0
  0
LINE
  5
16C
330
1F
100
AcDbEntity
  8
GEOMETRIE
100
AcDbLine
 10
378.7687815727425
 20
179.797372963274
 30
0.0
 11
400.7338317167225
 21
179.797372963274
 31
0.0
  0
ARC
  5
16D
330
1F
100
AcDbEntity
  8
GEOMETRIE
100
AcDbCircle
 10
325.1031501132624
 20
208.797372964174
 30
0.0
 40
60.99999999873999
100
AcDbArc
 50
331.6139622342008
 51
333.2037145670007
  0
ARC
  5
16E
330
1F
100
AcDbEntity
  8
GEOMETRIE
100
AcDbCircle
 10
325.1031501132624
 20
208.797372964174
 30
0.0
 40
81.00000000119999
100
AcDbArc
 50
339.0210649855009
 51
340.1532096846004
  0
LINE
  5
16F
330
1F
100
AcDbEntity
  8
AXE
100
AcDbLine
 10
412.1031501134225
 20
189.297372965014
 30
0.0
 11
420.1431501141625
 21
189.297372965014
 31
0.0
  0
LINE
  5
170
330
1F
100
AcDbEntity
  8
AXE
100
AcDbLine
 10
412.1031501134225
 20
189.297372965014
 30
0.0
 11
412.1031501134225
 21
181.2573729642739
 31
0.0
  0
ARC
  5
171
330
1F
100
AcDbEntity
  8
GEOMETRIE
100
AcDbCircle
 10
325.1031501132624
 20
208.797372964174
 30
0.0
 40
79.99999999967998
100
AcDbArc
 50
21.25380918539982
 51
72.89640734200061
  0
ARC
  5
172
330
1F
100
AcDbEntity
  8
GEOMETRIE
100
AcDbCircle
 10
325.1031501132624
 20
208.797372964174
 30
0.0
 40
82.00000000017999
100
AcDbArc
 50
19.59478684580003
 51
72.99656760010072
  0
LINE
  5
173
330
1F
100
AcDbEntity
  8
GEOMETRIE
100
AcDbLine
 10
379.5526680161425
 20
236.297372962794
 30
0.0
 11
419.1031501139025
 21
236.297372962794
 31
0.0
  0
LINE
  5
174
330
1F
100
AcDbEntity
  8
AXE
 48
25.4
100
AcDbLine
 10
412.1031501134225
 20
228.297372963334
 30
0.0
 11
404.0631501126824
 21
228.297372963334
 31
0.0
  0
LINE
  5
175
330
1F
100
AcDbEntity
  8
AXE
 48
25.4
100
AcDbLine
 10
325.1031501132624
 20
208.797372964174
 30
0.0
 11
423.4320324365898
 21
208.797372964174
 31
0.0
  0
LINE
  5
176
330
1F
100
AcDbEntity
  8
AXE
 48
25.4
100
AcDbLine
 10
325.1031501132624
 20
208.797372964174
 30
0.0
 11
325.1031501132624
 21
293.337372964354
 31
0.0
  0
LINE
  5
177
330
1F
100
AcDbEntity
  8
GEOMETRIE
100
AcDbLine
 10
378.7687815727425
 20
237.797372965074
 30
0.0
 11
400.7338317167225
 21
237.797372965074
 31
0.0
  0
ARC
  5
178
330
1F
100
AcDbEntity
  8
GEOMETRIE
100
AcDbCircle
 10
325.1031501132624
 20
208.797372964174
 30
0.0
 40
60.99999999873999
100
AcDbArc
 50
26.79628543299998
 51
28.38603776579991
  0
ARC
  5
179
330
1F
100
AcDbEntity
  8
GEOMETRIE
100
AcDbCircle
 10
325.1031501132624
 20
208.797372964174
 30
0.0
 40
81.00000000119999
100
AcDbArc
 50
19.84679031540037
 51
20.97893501449983
  0
LINE
  5
17A
330
1F
100
AcDbEntity
  8
GEOMETRIE
100
AcDbLine
 10
367.6832771321625
 20
272.548316353574
 30
0.0
 11
359.0230230938025
 21
277.548316353554
 31
0.0
  0
LINE
  5
17B
330
1F
100
AcDbEntity
  8
GEOMETRIE
100
AcDbLine
 10
359.0230230938025
 20
277.548316353554
 30
0.0
 11
360.2730230931625
 21
279.713379861874
 31
0.0
  0
LINE
  5
17C
330
1F
100
AcDbEntity
  8
GEOMETRIE
100
AcDbLine
 10
343.2644496326025
 20
286.235523767014
 30
0.0
 11
348.0940787642824
 21
284.941428542154
 31
0.0
  0
LINE
  5
17D
330
1F
100
AcDbEntity
  8
GEOMETRIE
100
AcDbLine
 10
342.7298367165624
 20
285.9268648542339
 30
0.0
 11
348.4027376770625
 21
284.4068156235739
 31
0.0
  0
LINE
  5
17E
330
1F
100
AcDbEntity
  8
GEOMETRIE
100
AcDbLine
 10
348.4027376770625
 20
284.4068156235739
 30
0.0
 11
348.6311706263425
 21
285.2593390036139
 31
0.0
  0
LINE
  5
17F
330
1F
100
AcDbEntity
  8
GEOMETRIE
100
AcDbLine
 10
348.0940787642824
 20
284.941428542154
 30
0.0
 11
348.7312605531625
 21
287.319423351814
 31
0.0
  0
LINE
  5
180
330
1F
100
AcDbEntity
  8
GEOMETRIE
100
AcDbLine
 10
348.4027376770625
 20
284.4068156235739
 30
0.0
 11
348.0940787642824
 21
284.941428542154
 31
0.0
  0
LINE
  5
181
330
1F
100
AcDbEntity
  8
GEOMETRIE
100
AcDbLine
 10
343.5443500913425
 20
288.696823170034
 30
0.0
 11
343.9016314214825
 21
288.613518576674
 31
0.0
  0
LINE
  5
182
330
1F
100
AcDbEntity
  8
GEOMETRIE
100
AcDbLine
 10
343.9016314214825
 20
288.613518576674
 30
0.0
 11
343.2644496326025
 21
286.235523767014
 31
0.0
  0
SPLINE
  5
183
330
1F
100
AcDbEntity
  8
GEOMETRIE
100
AcDbSpline
210
0.0
220
0.0
230
1.0
 70
     8
 71
     3
 72
    10
 73
     6
 74
     4
 42
0.0000000001
 43
0.0000000001
 44
0.0000000001
 40
0.0
 40
0.0
 40
0.0
 40
0.0
 40
0.6617093101273102
 40
1.330025029117522
 40
2.005005485043683
 40
2.005005485043683
 40
2.005005485043683
 40
2.005005485043683
 10
342.9582696683825
 20
286.779388234274
 30
0.0
 10
343.0227437503164
 20
286.9903245190032
 30
0.0
 10
343.1523356139779
 20
287.4143030454424
 30
0.0
 10
343.3476957643435
 20
288.0534480211633
 30
0.0
 10
343.4785821855613
 20
288.4816566043214
 30
0.0
 10
343.5443500913425
 20
288.696823170034
 30
0.0
 11
342.9582696683825
 21
286.779388234274
 31
0.0
 11
343.1516920984025
 21
287.412197032154
 31
0.0
 11
343.3470465565624
 21
288.051323417094
 31
0.0
 11
343.5443500913425
 21
288.696823170034
 31
0.0
  0
LINE
  5
184
330
1F
100
AcDbEntity
  8
GEOMETRIE
100
AcDbLine
 10
342.9582696683825
 20
286.779388234274
 30
0.0
 11
342.7298367165624
 21
285.9268648542339
 31
0.0
  0
LINE
  5
185
330
1F
100
AcDbEntity
  8
GEOMETRIE
100
AcDbLine
 10
342.7298367165624
 20
285.9268648542339
 30
0.0
 11
343.2644496326025
 21
286.235523767014
 31
0.0
  0
ARC
  5
186
330
1F
100
AcDbEntity
  8
GEOMETRIE
100
AcDbCircle
 10
325.1031501132624
 20
208.797372964174
 30
0.0
 40
82.00000000017999
100
AcDbArc
 50
73.25296977010018
 51
76.74704688299965
  0
ARC
  5
187
330
1F
100
AcDbEntity
  8
GEOMETRIE
100
AcDbCircle
 10
325.1031501132624
 20
208.797372964174
 30
0.0
 40
81.00000000119999
100
AcDbArc
 50
73.23133086230064
 51
76.76866913770033
  0
SPLINE
  5
188
330
1F
100
AcDbEntity
  8
GEOMETRIE
100
AcDbSpline
210
0.0
220
0.0
230
1.0
 70
     8
 71
     3
 72
    10
 73
     6
 74
     4
 42
0.0000000001
 43
0.0000000001
 44
0.0000000001
 40
0.0
 40
0.0
 40
0.0
 40
0.0
 40
0.6749533797930763
 40
1.343269310573564
 40
2.0050054854154
 40
2.0050054854154
 40
2.0050054854154
 40
2.0050054854154
 10
349.0823275599424
 20
287.212926579794
 30
0.0
 10
349.0317029856807
 20
286.9937117087399
 30
0.0
 10
348.9309516760308
 20
286.5574377118623
 30
0.0
 10
348.7805660351103
 20
285.9062418523004
 30
0.0
 10
348.6808045896038
 20
285.4742609512842
 30
0.0
 10
348.6311706263425
 20
285.2593390036139
 30
0.0
 11
349.0823275599424
 21
287.212926579794
 31
0.0
 11
348.9304536498225
 21
286.555282009894
 31
0.0
 11
348.7800723300625
 21
285.904104889594
 31
0.0
 11
348.6311706263425
 21
285.2593390036139
 31
0.0
  0
LINE
  5
189
330
1F
100
AcDbEntity
  8
GEOMETRIE
100
AcDbLine
 10
349.0823275599425
 20
287.212926579794
 30
0.0
 11
348.7312605531625
 21
287.319423351814
 31
0.0
  0
LINE
  5
18A
330
1F
100
AcDbEntity
  8
GEOMETRIE
100
AcDbLine
 10
360.2730230931625
 20
279.713379861874
 30
0.0
 11
368.9332771315225
 21
274.713379861894
 31
0.0
  0
LINE
  5
18B
330
1F
100
AcDbEntity
  8
GEOMETRIE
100
AcDbLine
 10
368.9332771315225
 20
274.713379861894
 30
0.0
 11
367.6832771321625
 21
272.548316353574
 31
0.0
  0
CIRCLE
  5
18C
330
1F
100
AcDbEntity
  8
GEOMETRIE
100
AcDbCircle
 10
412.1031501134225
 20
228.297372963334
 30
0.0
 40
3.0
  0
CIRCLE
  5
18D
330
1F
100
AcDbEntity
  8
GEOMETRIE
100
AcDbCircle
 10
412.1031501134225
 20
228.297372963334
 30
0.0
 40
5.50000000074
  0
LINE
  5
18E
330
1F
100
AcDbEntity
  8
AXE
100
AcDbLine
 10
412.1031501134225
 20
228.297372963334
 30
0.0
 11
412.1031501134225
 21
220.2573729625939
 31
0.0
  0
CIRCLE
  5
18F
330
1F
100
AcDbEntity
  8
GEOMETRIE
100
AcDbCircle
 10
412.1031501134225
 20
208.797372964174
 30
0.0
 40
2.0000000005
  0
CIRCLE
  5
190
330
1F
100
AcDbEntity
  8
GEOMETRIE
100
AcDbCircle
 10
412.1031501134225
 20
203.797372964194
 30
0.0
 40
2.0000000005
  0
CIRCLE
  5
191
330
1F
100
AcDbEntity
  8
GEOMETRIE
100
AcDbCircle
 10
412.1031501134225
 20
213.797372964154
 30
0.0
 40
2.0000000005
  0
LINE
  5
192
330
1F
100
AcDbEntity
  8
AXE
100
AcDbLine
 10
412.1031501134225
 20
228.297372963334
 30
0.0
 11
420.1431501141625
 21
228.297372963334
 31
0.0
  0
LINE
  5
193
330
1F
100
AcDbEntity
  8
AXE
100
AcDbLine
 10
412.1031501134225
 20
228.297372963334
 30
0.0
 11
412.1031501134225
 21
236.3373729640739
 31
0.0
  0
LINE
  5
27A
330
1F
100
AcDbEntity
  8
AXE
 48
25.4
100
AcDbLine
 10
520.236041596317
 20
241.797372963534
 30
0.0
 11
525.7760415957969
 21
241.797372963534
 31
0.0
  0
LINE
  5
27B
330
1F
100
AcDbEntity
  8
AXE
 48
25.4
100
AcDbLine
 10
473.3156174603643
 20
208.797372964174
 30
0.0
 11
531.1328674959333
 21
208.797372964174
 31
0.0
  0
LINE
  5
27C
330
1F
100
AcDbEntity
  8
AXE
 48
25.4
100
AcDbLine
 10
520.236041596317
 20
175.797372964814
 30
0.0
 11
525.7760415957969
 21
175.797372964814
 31
0.0
  0
LINE
  5
27D
330
1F
100
AcDbEntity
  8
GEOMETRIE
  6
Continuous
100
AcDbLine
 10
524.236041594777
 20
168.797372964334
 30
0.0
 11
524.236041594777
 21
248.797372964014
 31
0.0
  0
LINE
  5
27E
330
1F
100
AcDbEntity
  8
GEOMETRIE
  6
Continuous
100
AcDbLine
 10
502.7360415951171
 20
126.797373027494
 30
0.0
 11
502.7360415951171
 21
290.797365580574
 31
0.0
  0
LINE
  5
27F
330
1F
100
AcDbEntity
  8
GEOMETRIE
  6
Continuous
100
AcDbLine
 10
501.736041596137
 20
126.797380347774
 30
0.0
 11
501.736041596137
 21
290.797372900854
 31
0.0
  0
LINE
  5
280
330
1F
100
AcDbEntity
  8
GEOMETRIE
  6
Continuous
100
AcDbLine
 10
480.236041593937
 20
168.797372964334
 30
0.0
 11
480.236041593937
 21
248.797372964014
 31
0.0
  0
LINE
  5
282
330
1F
100
AcDbEntity
  8
GEOMETRIE
  6
Continuous
100
AcDbLine
 10
480.236041593937
 20
193.297372963474
 30
0.0
 11
501.736041596137
 21
193.297372963474
 31
0.0
  0
LINE
  5
283
330
1F
100
AcDbEntity
  8
GEOMETRIE
  6
Continuous
100
AcDbLine
 10
501.736041596137
 20
171.797372963814
 30
0.0
 11
484.236041594937
 21
171.797372963814
 31
0.0
  0
LINE
  5
284
330
1F
100
AcDbEntity
  8
GEOMETRIE
  6
Continuous
100
AcDbLine
 10
480.236041593937
 20
168.797372964334
 30
0.0
 11
501.736041596137
 21
168.797372964334
 31
0.0
  0
LINE
  5
285
330
1F
100
AcDbEntity
  8
GEOMETRIE
  6
Continuous
100
AcDbLine
 10
498.2360415958971
 20
139.066301542674
 30
0.0
 11
491.2360415954169
 21
139.066301542674
 31
0.0
  0
LINE
  5
286
330
1F
100
AcDbEntity
  8
GEOMETRIE
  6
Continuous
100
AcDbLine
 10
489.2360415949171
 20
138.698353363154
 30
0.0
 11
493.2360415959169
 21
138.698353363154
 31
0.0
  0
LINE
  5
287
330
1F
100
AcDbEntity
  8
GEOMETRIE
  6
Continuous
100
AcDbLine
 10
498.2360415958971
 20
136.566301543954
 30
0.0
 11
491.2360415954169
 21
136.566301543954
 31
0.0
  0
LINE
  5
288
330
1F
100
AcDbEntity
  8
GEOMETRIE
  6
Continuous
100
AcDbLine
 10
501.736041596137
 20
126.797372963994
 30
0.0
 11
491.2360415954169
 21
126.797372963994
 31
0.0
  0
LINE
  5
289
330
1F
100
AcDbEntity
  8
GEOMETRIE
  6
Continuous
100
AcDbLine
 10
491.2360415954169
 20
126.797372963994
 30
0.0
 11
491.2360415954169
 21
136.566301543954
 31
0.0
  0
LINE
  5
28A
330
1F
100
AcDbEntity
  8
GEOMETRIE
  6
Continuous
100
AcDbLine
 10
489.2360415949171
 20
128.797381463334
 30
0.0
 11
489.2360415949171
 21
168.797372964334
 31
0.0
  0
LINE
  5
28B
330
1F
100
AcDbEntity
  8
GEOMETRIE
  6
Continuous
100
AcDbLine
 10
491.2360415954169
 20
126.797372963994
 30
0.0
 11
489.2360415949171
 21
128.797372964494
 31
0.0
  0
LINE
  5
28C
330
1F
100
AcDbEntity
  8
GEOMETRIE
  6
Continuous
100
AcDbLine
 10
491.2360415954169
 20
139.066301542674
 30
0.0
 11
491.2360415954169
 21
168.797372964334
 31
0.0
  0
SPLINE
  5
28D
330
1F
100
AcDbEntity
  8
GEOMETRIE
  6
Continuous
100
AcDbSpline
210
0.0
220
0.0
230
1.0
 70
     8
 71
     3
 72
    10
 73
     6
 74
     4
 42
0.0000000001
 43
0.0000000001
 44
0.0000000001
 40
0.0
 40
0.0
 40
0.0
 40
0.0
 40
0.8762837715069128
 40
1.758373783448132
 40
2.646291926781294
 40
2.646291926781294
 40
2.646291926781294
 40
2.646291926781294
 10
489.2360415949169
 20
138.299178042634
 30
0.0
 10
489.456798343441
 20
138.1079041348945
 30
0.0
 10
489.8997745707156
 20
137.7240889419594
 30
0.0
 10
490.5664412592077
 20
137.1464634673834
 30
0.0
 10
491.0123520643665
 20
136.7601128991274
 30
0.0
 10
491.2360415954169
 20
136.566301543954
 30
0.0
 11
489.2360415949169
 21
138.299178042634
 31
0.0
 11
489.898312292217
 21
137.725356840774
 31
0.0
 11
490.564973448097
 21
137.147736124034
 31
0.0
 11
491.2360415954169
 21
136.566301543954
 31
0.0
  0
SPLINE
  5
28E
330
1F
100
AcDbEntity
  8
GEOMETRIE
  6
Continuous
100
AcDbSpline
210
0.0
220
0.0
230
1.0
 70
     8
 71
     3
 72
    10
 73
     6
 74
     4
 42
0.0000000001
 43
0.0000000001
 44
0.0000000001
 40
0.0
 40
0.0
 40
0.0
 40
0.0
 40
0.8878943694057184
 40
1.769984465930642
 40
2.646291926781289
 40
2.646291926781289
 40
2.646291926781289
 40
2.646291926781289
 10
491.2360415954169
 20
139.066301542674
 30
0.0
 10
491.012358053643
 20
139.2601077085771
 30
0.0
 10
490.5664532164613
 20
139.6464531060365
 30
0.0
 10
489.8997865288806
 20
140.2240785816646
 30
0.0
 10
489.4568043116958
 20
140.6078989631381
 30
0.0
 10
489.2360415949169
 20
140.799178041354
 30
0.0
 11
491.2360415954169
 21
139.066301542674
 31
0.0
 11
490.564991416057
 21
139.647720555094
 31
0.0
 11
489.8983301966771
 21
140.225341327714
 31
0.0
 11
489.2360415949169
 21
140.799178041354
 31
0.0
  0
CIRCLE
  5
28F
330
1F
100
AcDbEntity
  8
GEOMETRIE
  6
Continuous
100
AcDbCircle
 10
484.236041594937
 20
175.797372964814
 30
0.0
 40
2.999999999479999
  0
LINE
  5
290
330
1F
100
AcDbEntity
  8
GEOMETRIE
  6
Continuous
100
AcDbLine
 10
488.2360415959369
 20
178.797372964294
 30
0.0
 11
484.236041594937
 21
178.797372964294
 31
0.0
  0
LINE
  5
291
330
1F
100
AcDbEntity
  8
AXE
 48
25.4
100
AcDbLine
 10
484.236041594937
 20
175.797372964814
 30
0.0
 11
489.776041594417
 21
175.797372964814
 31
0.0
  0
LINE
  5
292
330
1F
100
AcDbEntity
  8
AXE
 48
25.4
100
AcDbLine
 10
484.236041594937
 20
175.797372964814
 30
0.0
 11
484.236041594937
 21
181.337372964294
 31
0.0
  0
LINE
  5
293
330
1F
100
AcDbEntity
  8
AXE
 48
25.4
100
AcDbLine
 10
484.236041594937
 20
175.797372964814
 30
0.0
 11
478.696041595457
 21
175.797372964814
 31
0.0
  0
LINE
  5
294
330
1F
100
AcDbEntity
  8
AXE
100
AcDbLine
 10
484.236041594937
 20
171.797372963814
 30
0.0
 11
484.236041594937
 21
170.257372962794
 31
0.0
  0
LINE
  5
295
330
1F
100
AcDbEntity
  8
AXE
 48
25.4
100
AcDbLine
 10
484.236041594937
 20
175.797372964814
 30
0.0
 11
484.236041594937
 21
172.797372962794
 31
0.0
  0
LINE
  5
296
330
1F
100
AcDbEntity
  8
GEOMETRIE
  6
Continuous
100
AcDbLine
 10
484.236041594937
 20
172.797372962794
 30
0.0
 11
484.236041594937
 21
171.797372963814
 31
0.0
  0
LINE
  5
297
330
1F
100
AcDbEntity
  8
GEOMETRIE
  6
Continuous
100
AcDbLine
 10
488.2360415959369
 20
193.297372963474
 30
0.0
 11
488.2360415959369
 21
178.797372964294
 31
0.0
  0
LINE
  5
298
330
1F
100
AcDbEntity
  8
GEOMETRIE
  6
Continuous
100
AcDbLine
 10
515.236041596337
 20
128.797374097334
 30
0.0
 11
515.236041596337
 21
168.797372964334
 31
0.0
  0
LINE
  5
299
330
1F
100
AcDbEntity
  8
GEOMETRIE
  6
Continuous
100
AcDbLine
 10
513.236041595837
 20
136.393364272354
 30
0.0
 11
513.236041595837
 21
126.797372963994
 31
0.0
  0
LINE
  5
29A
330
1F
100
AcDbEntity
  8
GEOMETRIE
  6
Continuous
100
AcDbLine
 10
513.236041595837
 20
126.797372963994
 30
0.0
 11
502.7360415951171
 21
126.797372963994
 31
0.0
  0
LINE
  5
29B
330
1F
100
AcDbEntity
  8
GEOMETRIE
  6
Continuous
100
AcDbLine
 10
501.736041596137
 20
127.797372962974
 30
0.0
 11
502.7360415951171
 21
127.797372962974
 31
0.0
  0
LINE
  5
29C
330
1F
100
AcDbEntity
  8
GEOMETRIE
  6
Continuous
100
AcDbLine
 10
515.236041596337
 20
128.797372964494
 30
0.0
 11
513.236041595837
 21
126.797372963994
 31
0.0
  0
LINE
  5
29D
330
1F
100
AcDbEntity
  8
GEOMETRIE
  6
Continuous
100
AcDbLine
 10
502.7360415951171
 20
193.297372963474
 30
0.0
 11
524.236041594777
 21
193.297372963474
 31
0.0
  0
LINE
  5
29E
330
1F
100
AcDbEntity
  8
GEOMETRIE
  6
Continuous
100
AcDbLine
 10
520.236041596317
 20
171.797372963814
 30
0.0
 11
502.7360415951171
 21
171.797372963814
 31
0.0
  0
LINE
  5
29F
330
1F
100
AcDbEntity
  8
GEOMETRIE
  6
Continuous
100
AcDbLine
 10
502.7360415951171
 20
168.797372964334
 30
0.0
 11
524.236041594777
 21
168.797372964334
 31
0.0
  0
LINE
  5
2A0
330
1F
100
AcDbEntity
  8
GEOMETRIE
  6
Continuous
100
AcDbLine
 10
513.236041595837
 20
136.393364272354
 30
0.0
 11
502.7360415951171
 21
136.566301543954
 31
0.0
  0
LINE
  5
2A1
330
1F
100
AcDbEntity
  8
GEOMETRIE
  6
Continuous
100
AcDbLine
 10
515.236041596337
 20
138.858126972994
 30
0.0
 11
502.7360415951171
 21
138.698353363154
 31
0.0
  0
LINE
  5
2A2
330
1F
100
AcDbEntity
  8
GEOMETRIE
  6
Continuous
100
AcDbLine
 10
513.236041595837
 20
139.260032351554
 30
0.0
 11
502.7360415951171
 21
139.066301542674
 31
0.0
  0
LINE
  5
2A3
330
1F
100
AcDbEntity
  8
GEOMETRIE
  6
Continuous
100
AcDbLine
 10
493.2360415959169
 20
138.265340660474
 30
0.0
 11
497.2360415943771
 21
137.004510784374
 31
0.0
  0
LINE
  5
2A4
330
1F
100
AcDbEntity
  8
GEOMETRIE
  6
Continuous
100
AcDbLine
 10
493.2360415959169
 20
138.265340660474
 30
0.0
 11
493.2360415959169
 21
139.066301542674
 31
0.0
  0
LINE
  5
2A5
330
1F
100
AcDbEntity
  8
GEOMETRIE
  6
Continuous
100
AcDbLine
 10
498.2360415958971
 20
136.566301543954
 30
0.0
 11
498.2360415958971
 21
139.066301542674
 31
0.0
  0
LINE
  5
2A6
330
1F
100
AcDbEntity
  8
GEOMETRIE
  6
Continuous
100
AcDbLine
 10
497.2360415943771
 20
137.004510784374
 30
0.0
 11
497.2360415943771
 21
139.066301542674
 31
0.0
  0
LINE
  5
2A7
330
1F
100
AcDbEntity
  8
GEOMETRIE
  6
Continuous
100
AcDbLine
 10
497.2360415943771
 20
137.004510784374
 30
0.0
 11
498.2360415958971
 21
137.004510784374
 31
0.0
  0
LINE
  5
2A8
330
1F
100
AcDbEntity
  8
GEOMETRIE
  6
Continuous
100
AcDbLine
 10
502.7360415951171
 20
170.797372964834
 30
0.0
 11
501.736041596137
 21
170.797372964834
 31
0.0
  0
LINE
  5
2A9
330
1F
100
AcDbEntity
  8
GEOMETRIE
  6
Continuous
100
AcDbLine
 10
502.7360415951171
 20
169.797372963314
 30
0.0
 11
501.736041596137
 21
169.797372963314
 31
0.0
  0
LINE
  5
2AA
330
1F
100
AcDbEntity
  8
GEOMETRIE
  6
Continuous
100
AcDbLine
 10
502.7360415951171
 20
190.297372963994
 30
0.0
 11
501.736041596137
 21
190.297372963994
 31
0.0
  0
LINE
  5
2AB
330
1F
100
AcDbEntity
  8
GEOMETRIE
  6
Continuous
100
AcDbLine
 10
513.236041595837
 20
168.797372964334
 30
0.0
 11
513.236041595837
 21
139.260032351554
 31
0.0
  0
SPLINE
  5
2AC
330
1F
100
AcDbEntity
  8
GEOMETRIE
  6
Continuous
100
AcDbSpline
210
0.0
220
0.0
230
1.0
 70
     8
 71
     3
 72
    10
 73
     6
 74
     4
 42
0.0000000001
 43
0.0000000001
 44
0.0000000001
 40
0.0
 40
0.0
 40
0.0
 40
0.0
 40
0.8663533266805568
 40
1.741376915117526
 40
2.625147248690779
 40
2.625147248690779
 40
2.625147248690779
 40
2.625147248690779
 10
515.236041596337
 20
138.093775420674
 30
0.0
 10
515.0160323963076
 20
137.9067128483118
 30
0.0
 10
514.5738121955581
 20
137.5307156250517
 30
0.0
 10
513.9071454586674
 20
136.9639119909579
 30
0.0
 10
513.4604833226418
 20
136.584176339279
 30
0.0
 10
513.236041595837
 20
136.393364272354
 30
0.0
 11
515.236041596337
 21
138.093775420674
 31
0.0
 11
514.5760116463971
 21
137.532590467354
 31
0.0
 11
513.9093644224169
 21
136.965803241774
 31
0.0
 11
513.236041595837
 21
136.393364272354
 31
0.0
  0
SPLINE
  5
2AD
330
1F
100
AcDbEntity
  8
GEOMETRIE
  6
Continuous
100
AcDbSpline
210
0.0
220
0.0
230
1.0
 70
     8
 71
     3
 72
    10
 73
     6
 74
     4
 42
0.0000000001
 43
0.0000000001
 44
0.0000000001
 40
0.0
 40
0.0
 40
0.0
 40
0.0
 40
0.8991426246198047
 40
1.789422447148691
 40
2.670916431076588
 40
2.670916431076588
 40
2.670916431076588
 40
2.670916431076588
 10
513.236041595837
 20
139.260032351554
 30
0.0
 10
513.4604743244459
 20
139.4586741319871
 30
0.0
 10
513.9071275599296
 20
139.8539996911541
 30
0.0
 10
514.5737942977109
 20
140.4440838405518
 30
0.0
 10
515.0160234693589
 20
140.8355316743231
 30
0.0
 10
515.236041596337
 20
141.030285039134
 30
0.0
 11
513.236041595837
 21
139.260032351554
 31
0.0
 11
513.9093374145971
 21
139.855960367214
 31
0.0
 11
514.5759848519369
 21
140.446027614814
 31
0.0
 11
515.236041596337
 21
141.030285039134
 31
0.0
  0
LINE
  5
2AE
330
1F
100
AcDbEntity
  8
GEOMETRIE
  6
Continuous
100
AcDbLine
 10
520.236041596317
 20
178.797372964294
 30
0.0
 11
516.236041595317
 21
178.797372964294
 31
0.0
  0
LINE
  5
2AF
330
1F
100
AcDbEntity
  8
AXE
 48
25.4
100
AcDbLine
 10
520.236041596317
 20
175.797372964814
 30
0.0
 11
514.6960415942969
 21
175.797372964814
 31
0.0
  0
LINE
  5
2B0
330
1F
100
AcDbEntity
  8
GEOMETRIE
  6
Continuous
100
AcDbLine
 10
516.236041595317
 20
178.797372964294
 30
0.0
 11
516.236041595317
 21
193.297372963474
 31
0.0
  0
LINE
  5
2B1
330
1F
100
AcDbEntity
  8
AXE
 48
25.4
100
AcDbLine
 10
520.236041596317
 20
175.797372964814
 30
0.0
 11
520.236041596317
 21
181.337372964294
 31
0.0
  0
CIRCLE
  5
2B2
330
1F
100
AcDbEntity
  8
GEOMETRIE
  6
Continuous
100
AcDbCircle
 10
520.236041596317
 20
175.797372964814
 30
0.0
 40
2.999999999479999
  0
LINE
  5
2B3
330
1F
100
AcDbEntity
  8
AXE
100
AcDbLine
 10
520.236041596317
 20
171.797372963814
 30
0.0
 11
520.236041596317
 21
170.257372962794
 31
0.0
  0
LINE
  5
2B4
330
1F
100
AcDbEntity
  8
AXE
 48
25.4
100
AcDbLine
 10
520.236041596317
 20
175.797372964814
 30
0.0
 11
520.236041596317
 21
172.797372962794
 31
0.0
  0
LINE
  5
2B5
330
1F
100
AcDbEntity
  8
GEOMETRIE
  6
Continuous
100
AcDbLine
 10
520.236041596317
 20
171.797372963814
 30
0.0
 11
520.236041596317
 21
172.797372962794
 31
0.0
  0
LINE
  5
2B6
330
1F
100
AcDbEntity
  8
GEOMETRIE
  6
Continuous
100
AcDbLine
 10
501.736041596137
 20
290.797372964354
 30
0.0
 11
491.2360415954169
 21
290.797372964354
 31
0.0
  0
LINE
  5
2B7
330
1F
100
AcDbEntity
  8
GEOMETRIE
  6
Continuous
100
AcDbLine
 10
501.736041596137
 20
281.028444384394
 30
0.0
 11
491.2360415954169
 21
281.201381655994
 31
0.0
  0
LINE
  5
2B8
330
1F
100
AcDbEntity
  8
GEOMETRIE
  6
Continuous
100
AcDbLine
 10
489.2360415949171
 20
278.736618955354
 30
0.0
 11
501.736041596137
 21
278.8963925651939
 31
0.0
  0
LINE
  5
2B9
330
1F
100
AcDbEntity
  8
GEOMETRIE
  6
Continuous
100
AcDbLine
 10
501.736041596137
 20
278.5284443831339
 30
0.0
 11
491.2360415954169
 21
278.334713576794
 31
0.0
  0
LINE
  5
2BA
330
1F
100
AcDbEntity
  8
GEOMETRIE
  6
Continuous
100
AcDbLine
 10
501.736041596137
 20
248.797372964014
 30
0.0
 11
480.236041593937
 21
248.797372964014
 31
0.0
  0
LINE
  5
2BB
330
1F
100
AcDbEntity
  8
GEOMETRIE
  6
Continuous
100
AcDbLine
 10
484.236041594937
 20
245.797372964534
 30
0.0
 11
501.736041596137
 21
245.797372964534
 31
0.0
  0
LINE
  5
2BC
330
1F
100
AcDbEntity
  8
GEOMETRIE
  6
Continuous
100
AcDbLine
 10
480.236041593937
 20
224.297372964874
 30
0.0
 11
501.736041596137
 21
224.297372964874
 31
0.0
  0
LINE
  5
2BD
330
1F
100
AcDbEntity
  8
GEOMETRIE
  6
Continuous
100
AcDbLine
 10
480.236041593937
 20
213.297372963394
 30
0.0
 11
501.736041596137
 21
213.297372963394
 31
0.0
  0
LINE
  5
2BE
330
1F
100
AcDbEntity
  8
GEOMETRIE
  6
Continuous
100
AcDbLine
 10
480.236041593937
 20
204.297372964954
 30
0.0
 11
501.736041596137
 21
204.297372964954
 31
0.0
  0
LINE
  5
2BF
330
1F
100
AcDbEntity
  8
GEOMETRIE
  6
Continuous
100
AcDbLine
 10
491.2360415954169
 20
248.797372964014
 30
0.0
 11
491.2360415954169
 21
278.334713576794
 31
0.0
  0
LINE
  5
2C0
330
1F
100
AcDbEntity
  8
GEOMETRIE
  6
Continuous
100
AcDbLine
 10
489.2360415949171
 20
248.797372964014
 30
0.0
 11
489.2360415949171
 21
288.7973718310139
 31
0.0
  0
LINE
  5
2C1
330
1F
100
AcDbEntity
  8
GEOMETRIE
  6
Continuous
100
AcDbLine
 10
488.2360415959369
 20
238.797372964054
 30
0.0
 11
488.2360415959369
 21
224.297372964874
 31
0.0
  0
CIRCLE
  5
2C2
330
1F
100
AcDbEntity
  8
GEOMETRIE
  6
Continuous
100
AcDbCircle
 10
484.236041594937
 20
241.797372963534
 30
0.0
 40
2.999999999479999
  0
LINE
  5
2C3
330
1F
100
AcDbEntity
  8
AXE
 48
25.4
100
AcDbLine
 10
484.236041594937
 20
241.797372963534
 30
0.0
 11
489.776041594417
 21
241.797372963534
 31
0.0
  0
LINE
  5
2C4
330
1F
100
AcDbEntity
  8
GEOMETRIE
  6
Continuous
100
AcDbLine
 10
484.236041594937
 20
238.797372964054
 30
0.0
 11
488.2360415959369
 21
238.797372964054
 31
0.0
  0
LINE
  5
2C5
330
1F
100
AcDbEntity
  8
AXE
 48
25.4
100
AcDbLine
 10
484.236041594937
 20
243.297372963274
 30
0.0
 11
484.236041594937
 21
236.257372964054
 31
0.0
  0
LINE
  5
2C6
330
1F
100
AcDbEntity
  8
AXE
 48
25.4
100
AcDbLine
 10
484.236041594937
 20
241.797372963534
 30
0.0
 11
478.696041595457
 21
241.797372963534
 31
0.0
  0
LINE
  5
2C7
330
1F
100
AcDbEntity
  8
AXE
100
AcDbLine
 10
484.236041594937
 20
245.797372964534
 30
0.0
 11
484.236041594937
 21
247.337372963014
 31
0.0
  0
LINE
  5
2C8
330
1F
100
AcDbEntity
  8
AXE
100
AcDbLine
 10
484.236041594937
 20
241.797372963534
 30
0.0
 11
484.236041594937
 21
244.797372963014
 31
0.0
  0
LINE
  5
2C9
330
1F
100
AcDbEntity
  8
GEOMETRIE
  6
Continuous
100
AcDbLine
 10
484.236041594937
 20
245.797372964534
 30
0.0
 11
484.236041594937
 21
244.797372963014
 31
0.0
  0
LINE
  5
2CA
330
1F
100
AcDbEntity
  8
GEOMETRIE
  6
Continuous
100
AcDbLine
 10
491.2360415954169
 20
281.201381655994
 30
0.0
 11
491.2360415954169
 21
290.797372964354
 31
0.0
  0
SPLINE
  5
2CB
330
1F
100
AcDbEntity
  8
GEOMETRIE
  6
Continuous
100
AcDbSpline
210
0.0
220
0.0
230
1.0
 70
     8
 71
     3
 72
    10
 73
     6
 74
     4
 42
0.0000000001
 43
0.0000000001
 44
0.0000000001
 40
0.0
 40
0.0
 40
0.0
 40
0.0
 40
0.8814581996957029
 40
1.771737737881483
 40
2.670916431076597
 40
2.670916431076597
 40
2.670916431076597
 40
2.670916431076597
 10
489.2360415949169
 20
276.5644608892139
 30
0.0
 10
489.4560507905238
 20
276.7592063477209
 30
0.0
 10
489.8982709600931
 20
277.1506462120695
 30
0.0
 10
490.5649376974284
 20
277.7407303619706
 30
0.0
 10
491.0115998641903
 20
278.1360638275464
 30
0.0
 10
491.2360415954169
 20
278.334713576794
 30
0.0
 11
489.2360415949169
 21
276.5644608892139
 31
0.0
 11
489.896071544857
 21
277.148694595014
 31
0.0
 11
490.5627187688369
 21
277.738761654654
 31
0.0
 11
491.2360415954169
 21
278.334713576794
 31
0.0
  0
SPLINE
  5
2CC
330
1F
100
AcDbEntity
  8
GEOMETRIE
  6
Continuous
100
AcDbSpline
210
0.0
220
0.0
230
1.0
 70
     8
 71
     3
 72
    10
 73
     6
 74
     4
 42
0.0000000001
 43
0.0000000001
 44
0.0000000001
 40
0.0
 40
0.0
 40
0.0
 40
0.0
 40
0.8837348842091888
 40
1.75875875201036
 40
2.62514724869085
 40
2.62514724869085
 40
2.62514724869085
 40
2.62514724869085
 10
491.2360415954169
 20
281.201381655994
 30
0.0
 10
491.0116088712983
 20
281.0105772428423
 30
0.0
 10
490.564955667001
 20
280.6308491846326
 30
0.0
 10
489.8982889295073
 20
280.0640455512476
 30
0.0
 10
489.4560597263591
 20
279.6880406738762
 30
0.0
 10
489.2360415949169
 20
279.5009705076739
 30
0.0
 11
491.2360415954169
 21
281.201381655994
 31
0.0
 11
490.562745776657
 21
280.628965648174
 31
0.0
 11
489.8960983393169
 21
280.0621782422539
 31
0.0
 11
489.2360415949169
 21
279.5009705076739
 31
0.0
  0
LINE
  5
2CD
330
1F
100
AcDbEntity
  8
GEOMETRIE
  6
Continuous
100
AcDbLine
 10
491.2360415954169
 20
290.797372964354
 30
0.0
 11
489.2360415949171
 21
288.797372963854
 31
0.0
  0
LINE
  5
2CE
330
1F
100
AcDbEntity
  8
GEOMETRIE
  6
Continuous
100
AcDbLine
 10
515.236041596337
 20
248.797372964014
 30
0.0
 11
515.236041596337
 21
288.7973644650139
 31
0.0
  0
LINE
  5
2CF
330
1F
100
AcDbEntity
  8
GEOMETRIE
  6
Continuous
100
AcDbLine
 10
513.236041595837
 20
278.5284443831339
 30
0.0
 11
513.236041595837
 21
248.797372964014
 31
0.0
  0
LINE
  5
2D0
330
1F
100
AcDbEntity
  8
GEOMETRIE
  6
Continuous
100
AcDbLine
 10
524.236041594777
 20
248.797372964014
 30
0.0
 11
502.7360415951171
 21
248.797372964014
 31
0.0
  0
LINE
  5
2D1
330
1F
100
AcDbEntity
  8
GEOMETRIE
  6
Continuous
100
AcDbLine
 10
502.7360415951171
 20
245.797372964534
 30
0.0
 11
520.236041596317
 21
245.797372964534
 31
0.0
  0
LINE
  5
2D2
330
1F
100
AcDbEntity
  8
GEOMETRIE
  6
Continuous
100
AcDbLine
 10
502.7360415951171
 20
224.297372964874
 30
0.0
 11
524.236041594777
 21
224.297372964874
 31
0.0
  0
LINE
  5
2D3
330
1F
100
AcDbEntity
  8
GEOMETRIE
  6
Continuous
100
AcDbLine
 10
502.7360415951171
 20
213.297372963394
 30
0.0
 11
524.236041594777
 21
213.297372963394
 31
0.0
  0
LINE
  5
2D4
330
1F
100
AcDbEntity
  8
GEOMETRIE
  6
Continuous
100
AcDbLine
 10
502.7360415951171
 20
204.297372964954
 30
0.0
 11
524.236041594777
 21
204.297372964954
 31
0.0
  0
LINE
  5
2D5
330
1F
100
AcDbEntity
  8
GEOMETRIE
  6
Continuous
100
AcDbLine
 10
501.736041596137
 20
203.797372964194
 30
0.0
 11
502.7360415951171
 21
203.797372964194
 31
0.0
  0
LINE
  5
2D6
330
1F
100
AcDbEntity
  8
GEOMETRIE
  6
Continuous
100
AcDbLine
 10
502.7360415951171
 20
203.297372963434
 30
0.0
 11
501.736041596137
 21
203.297372963434
 31
0.0
  0
LINE
  5
2D7
330
1F
100
AcDbEntity
  8
GEOMETRIE
  6
Continuous
100
AcDbLine
 10
502.7360415951171
 20
214.297372964914
 30
0.0
 11
501.736041596137
 21
214.297372964914
 31
0.0
  0
LINE
  5
2D8
330
1F
100
AcDbEntity
  8
GEOMETRIE
  6
Continuous
100
AcDbLine
 10
501.736041596137
 20
213.797372964154
 30
0.0
 11
502.7360415951171
 21
213.797372964154
 31
0.0
  0
LINE
  5
2D9
330
1F
100
AcDbEntity
  8
GEOMETRIE
  6
Continuous
100
AcDbLine
 10
502.7360415951171
 20
227.297372964354
 30
0.0
 11
501.736041596137
 21
227.297372964354
 31
0.0
  0
LINE
  5
2DA
330
1F
100
AcDbEntity
  8
GEOMETRIE
  6
Continuous
100
AcDbLine
 10
502.7360415951171
 20
246.797372963514
 30
0.0
 11
501.736041596137
 21
246.797372963514
 31
0.0
  0
LINE
  5
2DB
330
1F
100
AcDbEntity
  8
GEOMETRIE
  6
Continuous
100
AcDbLine
 10
502.7360415951171
 20
247.797372965034
 30
0.0
 11
501.736041596137
 21
247.797372965034
 31
0.0
  0
LINE
  5
2DC
330
1F
100
AcDbEntity
  8
GEOMETRIE
  6
Continuous
100
AcDbLine
 10
516.236041595317
 20
224.297372964874
 30
0.0
 11
516.236041595317
 21
238.797372964054
 31
0.0
  0
LINE
  5
2DD
330
1F
100
AcDbEntity
  8
AXE
 48
25.4
100
AcDbLine
 10
520.236041596317
 20
241.797372963534
 30
0.0
 11
514.6960415942969
 21
241.797372963534
 31
0.0
  0
LINE
  5
2DE
330
1F
100
AcDbEntity
  8
GEOMETRIE
  6
Continuous
100
AcDbLine
 10
516.236041595317
 20
238.797372964054
 30
0.0
 11
520.236041596317
 21
238.797372964054
 31
0.0
  0
CIRCLE
  5
2DF
330
1F
100
AcDbEntity
  8
GEOMETRIE
  6
Continuous
100
AcDbCircle
 10
520.236041596317
 20
241.797372963534
 30
0.0
 40
2.999999999479999
  0
LINE
  5
2E0
330
1F
100
AcDbEntity
  8
AXE
 48
25.4
100
AcDbLine
 10
520.236041596317
 20
241.797372963534
 30
0.0
 11
520.236041596317
 21
236.257372964054
 31
0.0
  0
LINE
  5
2E1
330
1F
100
AcDbEntity
  8
AXE
100
AcDbLine
 10
520.236041596317
 20
245.797372964534
 30
0.0
 11
520.236041596317
 21
247.337372963014
 31
0.0
  0
LINE
  5
2E2
330
1F
100
AcDbEntity
  8
AXE
 48
25.4
100
AcDbLine
 10
520.236041596317
 20
241.797372963534
 30
0.0
 11
520.236041596317
 21
244.797372963014
 31
0.0
  0
LINE
  5
2E3
330
1F
100
AcDbEntity
  8
GEOMETRIE
  6
Continuous
100
AcDbLine
 10
520.236041596317
 20
244.797372963014
 30
0.0
 11
520.236041596317
 21
245.797372964534
 31
0.0
  0
LINE
  5
2E4
330
1F
100
AcDbEntity
  8
GEOMETRIE
  6
Continuous
100
AcDbLine
 10
513.236041595837
 20
290.797372964354
 30
0.0
 11
502.7360415951171
 21
290.797372964354
 31
0.0
  0
LINE
  5
2E5
330
1F
100
AcDbEntity
  8
GEOMETRIE
  6
Continuous
100
AcDbLine
 10
511.236041595337
 20
279.329405265334
 30
0.0
 11
507.2360415943369
 21
280.590235143974
 31
0.0
  0
LINE
  5
2E6
330
1F
100
AcDbEntity
  8
GEOMETRIE
  6
Continuous
100
AcDbLine
 10
513.236041595837
 20
281.028444384394
 30
0.0
 11
506.236041595357
 21
281.028444384394
 31
0.0
  0
LINE
  5
2E7
330
1F
100
AcDbEntity
  8
GEOMETRIE
  6
Continuous
100
AcDbLine
 10
513.236041595837
 20
278.5284443831339
 30
0.0
 11
506.236041595357
 21
278.5284443831339
 31
0.0
  0
LINE
  5
2E8
330
1F
100
AcDbEntity
  8
GEOMETRIE
  6
Continuous
100
AcDbLine
 10
507.2360415943369
 20
280.590235143974
 30
0.0
 11
506.236041595357
 21
280.590235143974
 31
0.0
  0
LINE
  5
2E9
330
1F
100
AcDbEntity
  8
GEOMETRIE
  6
Continuous
100
AcDbLine
 10
506.236041595357
 20
281.028444384394
 30
0.0
 11
506.236041595357
 21
278.5284443831339
 31
0.0
  0
LINE
  5
2EA
330
1F
100
AcDbEntity
  8
GEOMETRIE
  6
Continuous
100
AcDbLine
 10
507.2360415943369
 20
280.590235143974
 30
0.0
 11
507.2360415943369
 21
278.5284443831339
 31
0.0
  0
LINE
  5
2EB
330
1F
100
AcDbEntity
  8
GEOMETRIE
  6
Continuous
100
AcDbLine
 10
501.736041596137
 20
289.797372962834
 30
0.0
 11
502.7360415951171
 21
289.797372962834
 31
0.0
  0
LINE
  5
2EC
330
1F
100
AcDbEntity
  8
GEOMETRIE
  6
Continuous
100
AcDbLine
 10
513.236041595837
 20
290.797372964354
 30
0.0
 11
513.236041595837
 21
281.028444384394
 31
0.0
  0
LINE
  5
2ED
330
1F
100
AcDbEntity
  8
GEOMETRIE
  6
Continuous
100
AcDbLine
 10
515.236041596337
 20
278.8963925651939
 30
0.0
 11
511.236041595337
 21
278.8963925651939
 31
0.0
  0
LINE
  5
2EE
330
1F
100
AcDbEntity
  8
GEOMETRIE
  6
Continuous
100
AcDbLine
 10
511.236041595337
 20
279.329405265334
 30
0.0
 11
511.236041595337
 21
278.5284443831339
 31
0.0
  0
SPLINE
  5
2EF
330
1F
100
AcDbEntity
  8
GEOMETRIE
  6
Continuous
100
AcDbSpline
210
0.0
220
0.0
230
1.0
 70
     8
 71
     3
 72
    10
 73
     6
 74
     4
 42
0.0000000001
 43
0.0000000001
 44
0.0000000001
 40
0.0
 40
0.0
 40
0.0
 40
0.0
 40
0.8762837734264996
 40
1.758373781784839
 40
2.646291925118001
 40
2.646291925118001
 40
2.646291925118001
 40
2.646291925118001
 10
515.236041596337
 20
276.795567886994
 30
0.0
 10
515.0152848468882
 20
276.9868417946434
 30
0.0
 10
514.5723086191476
 20
277.3706569861939
 30
0.0
 10
513.9056419311612
 20
277.9482824605067
 30
0.0
 10
513.4597311268932
 20
278.3346330279673
 30
0.0
 10
513.236041595837
 20
278.5284443831339
 30
0.0
 11
515.236041596337
 21
276.795567886994
 31
0.0
 11
514.573770896497
 21
277.369389088854
 31
0.0
 11
513.9071097431569
 21
277.947009803054
 31
0.0
 11
513.236041595837
 21
278.5284443831339
 31
0.0
  0
SPLINE
  5
2F0
330
1F
100
AcDbEntity
  8
GEOMETRIE
  6
Continuous
100
AcDbSpline
210
0.0
220
0.0
230
1.0
 70
     8
 71
     3
 72
    10
 73
     6
 74
     4
 42
0.0000000001
 43
0.0000000001
 44
0.0000000001
 40
0.0
 40
0.0
 40
0.0
 40
0.0
 40
0.8878943694058417
 40
1.769984465930746
 40
2.64629192678127
 40
2.64629192678127
 40
2.64629192678127
 40
2.64629192678127
 10
513.236041595837
 20
281.028444384394
 30
0.0
 10
513.459725137611
 20
280.8346382184909
 30
0.0
 10
513.9056299747926
 20
280.4482928210314
 30
0.0
 10
514.5722966623734
 20
279.8706673454034
 30
0.0
 10
515.0152788795582
 20
279.4868469639298
 30
0.0
 10
515.236041596337
 20
279.295567885714
 30
0.0
 11
513.236041595837
 21
281.028444384394
 31
0.0
 11
513.907091775197
 21
280.4470253719739
 31
0.0
 11
514.573752994577
 21
279.8694045993539
 31
0.0
 11
515.236041596337
 21
279.295567885714
 31
0.0
  0
LINE
  5
2F1
330
1F
100
AcDbEntity
  8
GEOMETRIE
  6
Continuous
100
AcDbLine
 10
515.236041596337
 20
288.797372963854
 30
0.0
 11
513.236041595837
 21
290.797372964354
 31
0.0
  0
DIMENSION
  5
32F
330
1F
100
AcDbEntity
  8
COTE
100
AcDbDimension
  2
*D1
 10
206.4920731749023
 20
227.797372962574
 30
0.0
 11
202.4920731749022
 21
208.797372962904
 31
0.0
 70
    32
 71
     5
 42
37.99999999933999
  3
COTATION1
100
AcDbAlignedDimension
 13
239.0631501133425
 23
189.797372963234
 33
0.0
 14
239.0631501133425
 24
227.797372962574
 34
0.0
 50
90.0
100
AcDbRotatedDimension
  0
DIMENSION
  5
33C
330
1F
100
AcDbEntity
  8
COTE
100
AcDbDimension
  2
*D2
 10
443.2157589096605
 20
189.297372965014
 30
0.0
 11
439.2157589096604
 21
208.797372964174
 31
0.0
 70
    32
 71
     5
 42
38.99999999831999
  3
COTATION1
100
AcDbAlignedDimension
 13
420.1431501141625
 23
228.297372963334
 33
0.0
 14
420.1431501141625
 24
189.297372965014
 34
0.0
 50
90.0
100
AcDbRotatedDimension
  0
DIMENSION
  5
349
330
1F
100
AcDbEntity
  8
COTE
100
AcDbDimension
  2
*D3
 10
520.236041596317
 20
104.8637642574527
 30
0.0
 11
502.236041595627
 21
108.8637642574527
 31
0.0
 70
    32
 71
     5
 42
36.00000000138004
  3
COTATION1
100
AcDbAlignedDimension
 13
484.236041594937
 23
170.257372962794
 33
0.0
 14
520.236041596317
 24
170.257372962794
 34
0.0
100
AcDbRotatedDimension
  0
DIMENSION
  5
356
330
1F
100
AcDbEntity
  8
COTE
100
AcDbDimension
  2
*D4
 10
547.2028976933322
 20
175.797372964814
 30
0.0
 11
543.2028976933322
 21
208.7973729641741
 31
0.0
 70
    32
 71
     5
 42
65.99999999872
  3
COTATION1
100
AcDbAlignedDimension
 13
525.7760415957969
 23
241.797372963534
 33
0.0
 14
525.7760415957969
 24
175.797372964814
 34
0.0
 50
90.0
100
AcDbRotatedDimension
  0
DIMENSION
  5
47C
330
1F
100
AcDbEntity
  8
COTE
100
AcDbDimension
  2
*D7
 10
517.9860413668794
 20
239.8130597411795
 30
0.0
 11
544.9410618929838
 21
253.0021450498273
 31
0.0
 70
   163
  1
4x<>
 71
     5
 42
5.99999999896022
  3
COTATION1$3
100
AcDbDiametricDimension
 15
522.4860418257548
 25
243.7816861858884
 35
0.0
 40
0.0
1001
ACAD
1000
DSTYLE
1002
{
1070
   288
1070
     1
1002
}
  0
DIMENSION
  5
490
330
1F
100
AcDbEntity
  8
COTE
100
AcDbDimension
  2
*D8
 10
410.6739114008666
 20
225.6597079537978
 30
0.0
 11
433.9428909118345
 21
246.4566487923947
 31
0.0
 70
   163
  1
4x<>
 71
     5
 42
6.0
  3
COTATION1$3
100
AcDbDiametricDimension
 15
413.5323888259786
 25
230.9350379728701
 35
0.0
 40
0.0
1001
ACAD
1000
DSTYLE
1002
{
1070
   288
1070
     1
1002
}
  0
DIMENSION
  5
4CA
330
1F
100
AcDbEntity
  8
COTE
100
AcDbDimension
  2
*D9
 10
221.4166026008884
 20
208.797372964174
 30
0.0
 11
217.4166026008883
 21
199.297372963704
 31
0.0
 70
    32
 71
     5
 42
19.00000000094001
  3
COTATION1
100
AcDbAlignedDimension
 13
239.0631501133425
 23
189.797372963234
 33
0.0
 14
226.1173476873658
 24
208.797372964174
 34
0.0
 50
90.0
100
AcDbRotatedDimension
  0
DIMENSION
  5
53A
330
1F
100
AcDbEntity
  8
COTE
100
AcDbDimension
  2
*D10
 10
412.1031501134225
 20
104.8637642574527
 30
0.0
 11
329.6031501137525
 21
108.8637642574527
 31
0.0
 70
    32
 71
     5
 42
164.99999999934
  3
COTATION1
100
AcDbAlignedDimension
 13
247.1031501140824
 23
181.757372965034
 33
0.0
 14
412.1031501134225
 24
181.2573729642739
 34
0.0
100
AcDbRotatedDimension
  0
DIMENSION
  5
574
330
1F
100
AcDbEntity
  8
COTE
100
AcDbDimension
  2
*D11
 10
325.1031501132624
 20
114.2293521439119
 30
0.0
 11
286.1031501136725
 21
118.2293521439119
 31
0.0
 70
    32
 71
     5
 42
77.99999999917997
  3
COTATION1
100
AcDbAlignedDimension
 13
247.1031501140824
 23
181.757372965034
 33
0.0
 14
325.1031501132624
 24
124.257372963994
 34
0.0
100
AcDbRotatedDimension
  0
DIMENSION
  5
5DB
330
1F
100
AcDbEntity
  8
COTE
100
AcDbDimension
  2
*D12
 10
431.9004733041744
 20
189.297372965014
 30
0.0
 11
427.9004733041744
 21
199.047372964594
 31
0.0
 70
    32
 71
     5
 42
19.49999999916002
  3
COTATION1
100
AcDbAlignedDimension
 13
423.4320324365898
 23
208.797372964174
 33
0.0
 14
420.1431501141625
 24
189.297372965014
 34
0.0
 50
90.0
100
AcDbRotatedDimension
1001
ACAD
1000
DSTYLE
1002
{
1070
   271
1070
     1
1070
   147
1040
1.0
1070
    72
1070
     0
1070
    71
1070
     0
1002
}
  0
DIMENSION
  5
639
330
1F
100
AcDbEntity
  8
COTE
100
AcDbDimension
  2
*D13
 10
484.236041594937
 20
104.8637642574527
 30
0.0
 11
470.2360415939369
 21
104.8637642574527
 31
0.0
 70
   160
 71
     5
 42
4.000000000999989
  3
COTATION1
100
AcDbAlignedDimension
 13
480.236041593937
 23
168.797372964334
 33
0.0
 14
484.236041594937
 24
170.257372962794
 34
0.0
100
AcDbRotatedDimension
  0
DIMENSION
  5
688
330
1F
100
AcDbEntity
  8
COTE
100
AcDbDimension
  2
*D14
 10
536.0623028124665
 20
175.7973727631546
 30
0.0
 11
532.0623028124665
 21
192.2973728636644
 31
0.0
 70
    32
 71
     5
 42
33.00000020101939
  3
COTATION1
100
AcDbAlignedDimension
 13
531.1328674959333
 23
208.797372964174
 33
0.0
 14
525.7760413529763
 24
175.7973727631546
 34
0.0
 50
90.0
100
AcDbRotatedDimension
  0
ENDSEC
  0
SECTION
  2
OBJECTS
  0
DICTIONARY
  5
C
330
0
100
AcDbDictionary
281
     1
  3
ACAD_GROUP
350
D
  3
ACAD_LAYOUT
350
1A
  3
ACAD_MLINESTYLE
350
17
  3
ACAD_PLOTSETTINGS
350
19
  3
ACAD_PLOTSTYLENAME
350
E
  3
AcAmCatalogState
350
431
  3
AcAsAppObject
350
3B5
  3
ACASGREF_MASTER
350
3FD
  3
AcDbVariableDictionary
350
368
  3
ACDMSYSVARMGR
350
38E
  3
ACGREF_MASTER
350
386
  3
ACGREFACAD_MASTER
350
3B1
  3
AcmDictionary
350
42D
  3
ACME_BOM_MANAGER_NAME
350
37F
  3
ACME_COMMAND_HISTORY
350
37A
  3
ACME_SCOPE_NAME
350
379
  3
ACMESTATEMGR
350
384
  3
AcmeSysVarManager
350
37B
  3
AcmSystemVariableManager
350
43A
  3
AD_APPL
350
415
  3
AD_GREF_MODULE
350
3FE
  3
AD_MAPI_MODULE
350
417
  3
ADSYSVARMGR
350
407
  3
AmdtNamedDwgMgr
350
3AC
  3
AMG
350
36F
  3
AMGSNAPSETTINGS
350
46A
  3
AMI_MASTER
350
3B4
  3
ASE_INDEX_DICTIONARY
350
7C1
  3
ASURF_STATIC_VARS
350
3B6
  3
AUTOCAD_ASSEMBLIES_PROJECT
350
422
  3
AutoSurf_SysVars
350
3B7
  3
Designer_Assemblies_SysVars
350
419
  3
DWGPROPS
350
430
  3
GREFAM_MODULE
350
400
  3
MAPISURF_MODULE
350
3FF
  0
DICTIONARY
  5
4A6
330
1F
100
AcDbDictionary
280
     1
281
     1
  3
ACAD_INDEX
360
6C4
  0
DICTIONARY
  5
D
102
{ACAD_REACTORS
330
C
102
}
330
C
100
AcDbDictionary
281
     1
  0
DICTIONARY
  5
1A
102
{ACAD_REACTORS
330
C
102
}
330
C
100
AcDbDictionary
281
     1
  3
Layout1
350
1E
  3
Layout2
350
26
  3
Model
350
22
  0
DICTIONARY
  5
17
102
{ACAD_REACTORS
330
C
102
}
330
C
100
AcDbDictionary
281
     1
  3
Standard
350
18
  0
DICTIONARY
  5
19
102
{ACAD_REACTORS
330
C
102
}
330
C
100
AcDbDictionary
281
     1
  0
ACDBDICTIONARYWDFLT
  5
E
102
{ACAD_REACTORS
330
C
102
}
330
C
100
AcDbDictionary
281
     1
  3
Normal
350
F
100
AcDbDictionaryWithDefault
340
F
  0
ACAD_PROXY_OBJECT
  5
431
102
{ACAD_REACTORS
330
C
102
}
330
C
100
AcDbProxyObject
 90
      499
 91
      557
 95
   851991
 70
     0
 93
      568
310
3FFFFFFFE00A02844029B221D2E3CB0B7372E3B34B3B4B932BC2E2932BA37BAB91034B6B0B3B2B9902330B134B2B72E3334B1B434B2B9399037B5AE26A0989918400A80063344001
 94
        0
  0
ACAD_PROXY_OBJECT
  5
3B5
102
{ACAD_REACTORS
330
C
102
}
330
C
100
AcDbProxyObject
 90
      499
 91
      529
 95
   851991
 70
     0
 93
       10
310
404F
 94
        0
  0
ACAD_PROXY_OBJECT
  5
3FD
102
{ACAD_REACTORS
330
C
102
}
330
C
100
AcDbProxyObject
 90
      499
 91
      535
 95
   851991
 70
     0
 93
       34
310
0100004049
 94
        0
  0
DICTIONARY
  5
368
102
{ACAD_REACTORS
330
C
102
}
330
C
100
AcDbDictionary
281
     1
  3
DIMASSOC
350
369
  3
INDEXCTL
350
4AE
  0
ACAD_PROXY_OBJECT
  5
38E
102
{ACAD_REACTORS
330
C
102
}
330
C
100
AcDbProxyObject
 90
      499
 91
      508
 95
   851991
 70
     0
 93
      240
310
4C51A4820000000000000000000000000000000000000000000000000000CC
330
38F
330
390
330
391
330
392
330
393
330
394
330
395
330
399
330
39A
330
39B
330
39C
330
39D
330
39E
330
39F
330
3A0
330
3A1
330
3A2
330
3A3
330
3A4
330
3A5
330
3A6
330
3A7
330
3A8
330
3A9
330
3AA
330
3AB
 94
        0
  0
ACAD_PROXY_OBJECT
  5
386
102
{ACAD_REACTORS
330
C
102
}
330
C
100
AcDbProxyObject
 90
      499
 91
      517
 95
   851991
 70
     0
 93
       34
310
0400004289
 94
        0
  0
ACAD_PROXY_OBJECT
  5
3B1
102
{ACAD_REACTORS
330
C
102
}
330
C
100
AcDbProxyObject
 90
      499
 91
      525
 95
   851991
 70
     0
 93
      114
310
04000041C000000000000000000012
 94
        0
  0
DICTIONARY
  5
42D
102
{ACAD_REACTORS
330
C
102
}
330
C
100
AcDbDictionary
281
     1
  3
AcmBOMDATA
350
42E
  3
AcmStdDictionary
350
43C
  0
ACAD_PROXY_OBJECT
  5
37F
102
{ACAD_REACTORS
330
C
102
}
330
C
100
AcDbProxyObject
 90
      499
 91
      511
 95
   851991
 70
     0
 93
       50
310
00000040400013
330
0
330
0
330
380
 94
        0
  0
ACAD_PROXY_OBJECT
  5
37A
102
{ACAD_REACTORS
330
C
102
}
330
C
100
AcDbProxyObject
 90
      499
 91
      507
 95
   851991
 70
     0
 93
     2084
310
47805045A4F4F4D805045A4F4F4D8050844494D5354594C45805045A4F4F4D8050944494D43454E544552805015580501558050B44494D4449414D45544552805045A4F4F4D805045A4F4F4D8050944494D43454E544552805015580501558050B44494D4449414D45544552805045A4F4F4D8050A70726F70657274696573
310
805045A4F4F4D8050545524153458050B44494D4449414D455445528050545524153458050B44494D4449414D45544552805045A4F4F4D8050A70726F70657274696573805045A4F4F4D805064558504F525440405084E202D205A4F4F4D01411693D3D36014191561413D4952014194D055915054E014194D055915054E01
310
4154155491D160
 94
        0
  0
ACAD_PROXY_OBJECT
  5
379
102
{ACAD_REACTORS
330
C
102
}
330
C
100
AcDbProxyObject
 90
      499
 91
      506
 95
   851991
 70
     0
 93
     1258
310
06000044400000000000000000001860000400020000000000000000000000000000000000000000000000000000000000000000000000000000000000000000000000000000000000000000000000000000000000000000000000000000000000000000000000000000000000000000000000000000000000000000000000
310
000000000000000000000000000000000000000000000000000000AAAAAA83
360
37C
360
37D
360
37E
360
380
360
387
360
388
360
389
360
38A
360
38B
360
38C
360
38F
360
390
360
391
360
392
360
393
360
394
360
395
360
399
360
39A
360
39B
360
39C
360
39D
360
39E
360
39F
360
3A0
360
3A1
360
3A2
360
3A3
360
3A4
360
3A5
360
3A6
360
3A7
360
3A8
360
3A9
360
3AA
360
3AB
360
3B8
360
3B9
360
3BA
360
3BB
360
3BC
360
3BD
360
3BE
360
3BF
360
3C0
360
3C1
360
3C2
360
3C3
360
3C4
360
3C5
360
3C6
360
3C7
360
3C8
360
3C9
360
3CA
360
3CB
360
3CC
360
3CD
360
3CE
360
3CF
360
3D0
360
3D1
360
3D2
360
3D3
360
3D4
360
3D5
360
3D6
360
3D7
360
3D8
360
3D9
360
3DA
360
3DB
360
3DC
360
3DD
360
3DE
360
3DF
360
3E0
360
3E1
360
3E2
360
3E3
360
3E4
360
3E5
360
3E6
360
3E7
360
3E8
360
3E9
360
3EA
360
3EB
360
3EC
360
3ED
360
3EE
360
3EF
360
3F0
360
3F1
360
3F2
360
3F3
360
3F4
360
3F5
360
3F6
360
3F7
360
3F8
360
3F9
360
403
360
404
360
405
360
406
360
408
360
409
360
40A
360
40B
360
40C
360
40D
360
40E
360
40F
360
410
360
411
360
412
360
413
360
414
360
41A
360
41B
360
41C
360
41D
360
41E
360
41F
360
420
360
421
360
426
360
427
360
428
360
429
360
42A
360
42B
360
43B
 94
        0
  0
ACAD_PROXY_OBJECT
  5
384
102
{ACAD_REACTORS
330
C
102
}
330
C
100
AcDbProxyObject
 90
      499
 91
      516
 95
   851991
 70
     0
 93
       50
310
06000041641280
 94
        0
  0
ACAD_PROXY_OBJECT
  5
37B
102
{ACAD_REACTORS
330
C
102
}
330
C
100
AcDbProxyObject
 90
      499
 91
      508
 95
   851991
 70
     0
 93
       48
310
90342200000011
330
37C
330
37D
330
37E
 94
        0
  0
ACAD_PROXY_OBJECT
  5
43A
102
{ACAD_REACTORS
330
C
102
}
330
C
100
AcDbProxyObject
 90
      499
 91
      508
 95
   851991
 70
     0
 93
       32
310
9014220000
330
43B
 94
        0
  0
ACAD_PROXY_OBJECT
  5
415
102
{ACAD_REACTORS
330
C
102
}
330
C
100
AcDbProxyObject
 90
      499
 91
      544
 95
   851991
 70
     0
 93
       42
310
0006000043C5
330
403
 94
        0
  0
ACAD_PROXY_OBJECT
  5
3FE
102
{ACAD_REACTORS
330
C
102
}
330
C
100
AcDbProxyObject
 90
      499
 91
      536
 95
   851991
 70
     0
 93
      114
310
000000438000000000000000000026
 94
        0
  0
ACAD_PROXY_OBJECT
  5
417
102
{ACAD_REACTORS
330
C
102
}
330
C
100
AcDbProxyObject
 90
      499
 91
      546
 95
   851991
 70
     0
 93
       34
310
05000044C9
 94
        0
  0
ACAD_PROXY_OBJECT
  5
407
102
{ACAD_REACTORS
330
C
102
}
330
C
100
AcDbProxyObject
 90
      499
 91
      508
 95
   851991
 70
     0
 93
      128
310
90D4420000000000000000000000000000
330
408
330
409
330
40A
330
40B
330
40C
330
40D
330
40E
330
40F
330
410
330
411
330
412
330
413
330
414
 94
        0
  0
ACAD_PROXY_OBJECT
  5
3AC
102
{ACAD_REACTORS
330
C
102
}
330
C
100
AcDbProxyObject
 90
      499
 91
      522
 95
   851991
 70
     0
 93
       42
310
000100005AC5
330
387
 94
        0
  0
DICTIONARY
  5
36F
102
{ACAD_REACTORS
330
C
102
}
330
C
100
AcDbDictionary
281
     1
  3
AcMgSettings
350
370
  3
AMGLAYCFG
350
43E
  0
DICTIONARY
  5
46A
102
{ACAD_REACTORS
330
C
102
}
330
C
100
AcDbDictionary
281
     1
  3
HATCH (1)
350
46B
  3
HATCH (2)
350
46C
  0
ACAD_PROXY_OBJECT
  5
3B4
102
{ACAD_REACTORS
330
C
102
}
330
C
100
AcDbProxyObject
 90
      499
 91
      528
 95
   851991
 70
     0
 93
       34
310
0500004289
 94
        0
  0
DICTIONARY
  5
7C1
102
{ACAD_REACTORS
330
C
102
}
330
C
100
AcDbDictionary
281
     1
  3
ASEBlockHierarchyIndexRecord
350
7C2
1001
DCO15
1040
1463901321.39
  0
ACAD_PROXY_OBJECT
  5
3B6
102
{ACAD_REACTORS
330
C
102
}
330
C
100
AcDbProxyObject
 90
      499
 91
      530
 95
   851991
 70
     0
 93
      424
310
585315020000000000000000000000000000000000000000000000000000000000000000000000000000000000000000000000000000
330
3C9
330
3CA
330
3CB
330
3CC
330
3CD
330
3CE
330
3CF
330
3D0
330
3D1
330
3D2
330
3D3
330
3D4
330
3D5
330
3D6
330
3D7
330
3D8
330
3D9
330
3DA
330
3DB
330
3DC
330
3DD
330
3DE
330
3DF
330
3E0
330
3E1
330
3E2
330
3E3
330
3E4
330
3E5
330
3E6
330
3E7
330
3E8
330
3E9
330
3EA
330
3EB
330
3EC
330
3ED
330
3EE
330
3EF
330
3F0
330
3F1
330
3F2
330
3F3
330
3F4
330
3F5
330
3F6
330
3F7
330
3F8
330
3F9
 94
        0
  0
ACAD_PROXY_OBJECT
  5
422
102
{ACAD_REACTORS
330
C
102
}
330
C
100
AcDbProxyObject
 90
      499
 91
      548
 95
   851991
 70
     0
 93
       74
310
0600004A400000000013
330
429
330
0
330
42A
330
0
330
0
 94
        0
  0
ACAD_PROXY_OBJECT
  5
3B7
102
{ACAD_REACTORS
330
C
102
}
330
C
100
AcDbProxyObject
 90
      499
 91
      508
 95
   851991
 70
     0
 93
      168
310
4C511482000000000000000000000000000000000040
330
3B8
330
3B9
330
3BA
330
3BB
330
3BC
330
3BD
330
3BE
330
3BF
330
3C0
330
3C1
330
3C2
330
3C3
330
3C4
330
3C5
330
3C6
330
3C7
330
3C8
 94
        0
  0
ACAD_PROXY_OBJECT
  5
419
102
{ACAD_REACTORS
330
C
102
}
330
C
100
AcDbProxyObject
 90
      499
 91
      508
 95
   851991
 70
     0
 93
       88
310
908422000000000000000000
330
41A
330
41B
330
41C
330
41D
330
41E
330
41F
330
420
330
421
 94
        0
  0
XRECORD
  5
430
102
{ACAD_REACTORS
330
C
102
}
330
C
100
AcDbXrecord
280
     1
  1
DWGPROPS COOKIE
  2

  3

  4

  6

  7

  8

  9

300
AmdtFileType=84
301
=
302
=
303
=
304
=
305
=
306
=
307
=
308
=
309
=
 40
0.0018845833333333
 41
2452660.680494421
 42
2452660.682375208
  1

 90
        1
  0
ACAD_PROXY_OBJECT
  5
400
102
{ACAD_REACTORS
330
C
102
}
330
C
100
AcDbProxyObject
 90
      499
 91
      538
 95
   851991
 70
     0
 93
        8
310
0503
 94
        0
  0
ACAD_PROXY_OBJECT
  5
3FF
102
{ACAD_REACTORS
330
C
102
}
330
C
100
AcDbProxyObject
 90
      499
 91
      537
 95
   851991
 70
     0
 93
        8
310
0403
 94
        0
  0
DICTIONARY
  5
6C4
102
{ACAD_REACTORS
330
4A6
102
}
330
4A6
100
AcDbDictionary
281
     1
  3
*A1
350
6C5
  0
LAYOUT
  5
1E
102
{ACAD_REACTORS
330
1A
102
}
330
1A
100
AcDbPlotSettings
  1

  2

  4

  6

 40
0.0
 41
0.0
 42
0.0
 43
0.0
 44
0.0
 45
0.0
 46
0.0
 47
0.0
 48
0.0
 49
0.0
140
0.0
141
0.0
142
1.0
143
1.0
 70
   688
 72
     0
 73
     0
 74
     5
  7

 75
    16
147
1.0
148
0.0
149
0.0
100
AcDbLayout
  1
Layout1
 70
     1
 71
     1
 10
0.0
 20
0.0
 11
420.0
 21
297.0
 12
0.0
 22
0.0
 32
0.0
 14
1.000000000000000E+20
 24
1.000000000000000E+20
 34
1.000000000000000E+20
 15
-1.000000000000000E+20
 25
-1.000000000000000E+20
 35
-1.000000000000000E+20
146
0.0
 13
0.0
 23
0.0
 33
0.0
 16
1.0
 26
0.0
 36
0.0
 17
0.0
 27
1.0
 37
0.0
 76
     0
330
1B
  0
LAYOUT
  5
26
102
{ACAD_REACTORS
330
1A
102
}
330
1A
100
AcDbPlotSettings
  1

  2

  4

  6

 40
0.0
 41
0.0
 42
0.0
 43
0.0
 44
0.0
 45
0.0
 46
0.0
 47
0.0
 48
0.0
 49
0.0
140
0.0
141
0.0
142
1.0
143
1.0
 70
   688
 72
     0
 73
     0
 74
     5
  7

 75
    16
147
1.0
148
0.0
149
0.0
100
AcDbLayout
  1
Layout2
 70
     1
 71
     2
 10
0.0
 20
0.0
 11
12.0
 21
9.0
 12
0.0
 22
0.0
 32
0.0
 14
0.0
 24
0.0
 34
0.0
 15
0.0
 25
0.0
 35
0.0
146
0.0
 13
0.0
 23
0.0
 33
0.0
 16
1.0
 26
0.0
 36
0.0
 17
0.0
 27
1.0
 37
0.0
 76
     0
330
23
  0
LAYOUT
  5
22
102
{ACAD_REACTORS
330
1A
102
}
330
1A
100
AcDbPlotSettings
  1

  2

  4

  6

 40
0.0
 41
0.0
 42
0.0
 43
0.0
 44
0.0
 45
0.0
 46
0.0
 47
0.0
 48
0.0
 49
0.0
140
0.0
141
0.0
142
1.0
143
1.0
 70
  1712
 72
     0
 73
     0
 74
     0
  7

 75
     0
147
1.0
148
0.0
149
0.0
100
AcDbLayout
  1
Model
 70
     1
 71
     0
 10
0.0
 20
0.0
 11
12.0
 21
9.0
 12
0.0
 22
0.0
 32
0.0
 14
0.0
 24
0.0
 34
0.0
 15
0.0
 25
0.0
 35
0.0
146
0.0
 13
0.0
 23
0.0
 33
0.0
 16
1.0
 26
0.0
 36
0.0
 17
0.0
 27
1.0
 37
0.0
 76
     0
330
1F
  0
MLINESTYLE
  5
18
102
{ACAD_REACTORS
330
17
102
}
330
17
100
AcDbMlineStyle
  2
STANDARD
 70
     0
  3

 62
   256
 51
90.0
 52
90.0
 71
     2
 49
0.5
 62
   256
  6
BYLAYER
 49
-0.5
 62
   256
  6
BYLAYER
  0
ACDBPLACEHOLDER
  5
F
102
{ACAD_REACTORS
330
E
102
}
330
E
  0
DICTIONARYVAR
  5
369
102
{ACAD_REACTORS
330
368
102
}
330
368
100
DictionaryVariables
280
     0
  1
1
  0
DICTIONARYVAR
  5
4AE
102
{ACAD_REACTORS
330
368
102
}
330
368
100
DictionaryVariables
280
     0
  1
1
  0
ACAD_PROXY_OBJECT
  5
42E
102
{ACAD_REACTORS
330
42D
102
}
330
42D
100
AcDbProxyObject
 90
      499
 91
      555
 95
   851991
 70
     0
 93
      118
310
405010040CA904C415CD5B07571028
350
42F
 94
        0
  0
DICTIONARY
  5
43C
102
{ACAD_REACTORS
330
42D
102
}
330
42D
100
AcDbDictionary
281
     1
  3
ISO
350
43D
  0
ACAD_PROXY_OBJECT
  5
37C
330
0
100
AcDbProxyObject
 90
      499
 91
      509
 95
   851991
 70
     0
 93
      156
310
00010143D050D351505391D5531054925390D495
330
379
 94
        0
  0
ACAD_PROXY_OBJECT
  5
37D
330
0
100
AcDbProxyObject
 90
      499
 91
      509
 95
   851991
 70
     0
 93
      148
310
000101439050D351531253915054925390D490
330
379
 94
        0
  0
ACAD_PROXY_OBJECT
  5
37E
330
0
100
AcDbProxyObject
 90
      499
 91
      510
 95
   851991
 70
     0
 93
      156
310
000101439050D35154D6535093D314D256915085
330
379
 94
        0
  0
ACAD_PROXY_OBJECT
  5
380
330
0
100
AcDbProxyObject
 90
      499
 91
      512
 95
   851991
 70
     0
 93
       88
310
000101411093D34C402B0000
330
379
330
0
330
0
 94
        0
  0
ACAD_PROXY_OBJECT
  5
387
330
0
100
AcDbProxyObject
 90
      499
 91
      518
 95
   851991
 70
     0
 93
      374
310
0001014119185D1940508362E302E31382E30014119185D1940508362E302E31382E3040501000041505391D311658
330
379
330
388
330
38E
 94
        0
  0
ACAD_PROXY_OBJECT
  5
388
330
0
100
AcDbProxyObject
 90
      499
 91
      519
 95
   851991
 70
     0
 93
       56
310
0001902422000000
330
379
330
389
330
38B
 94
        0
  0
ACAD_PROXY_OBJECT
  5
389
330
0
100
AcDbProxyObject
 90
      499
 91
      520
 95
   851991
 70
     0
 93
       48
310
0001AA00000011
330
379
330
1E
330
38A
330
0
 94
        0
  0
ACAD_PROXY_OBJECT
  5
38A
330
0
100
AcDbProxyObject
 90
      499
 91
      521
 95
   851991
 70
     0
 93
       28
310
0001AAAF
330
379
 94
        0
  0
ACAD_PROXY_OBJECT
  5
38B
330
0
100
AcDbProxyObject
 90
      499
 91
      520
 95
   851991
 70
     0
 93
       48
310
0001AA00000011
330
379
330
26
330
38C
330
0
 94
        0
  0
ACAD_PROXY_OBJECT
  5
38C
330
0
100
AcDbProxyObject
 90
      499
 91
      521
 95
   851991
 70
     0
 93
       28
310
0001AAAF
330
379
 94
        0
  0
ACAD_PROXY_OBJECT
  5
38F
330
0
100
AcDbProxyObject
 90
      499
 91
      510
 95
   851991
 70
     0
 93
      108
310
000101421053521310D05310D01D
330
379
 94
        0
  0
ACAD_PROXY_OBJECT
  5
390
330
0
100
AcDbProxyObject
 90
      499
 91
      510
 95
   851991
 70
     0
 93
      124
310
00010142905354915554D15112535010
330
379
 94
        0
  0
ACAD_PROXY_OBJECT
  5
391
330
0
100
AcDbProxyObject
 90
      499
 91
      510
 95
   851991
 70
     0
 93
      132
310
00010143105354D150D51253D391125360
330
379
 94
        0
  0
ACAD_PROXY_OBJECT
  5
392
330
0
100
AcDbProxyObject
 90
      499
 91
      510
 95
   851991
 70
     0
 93
      124
310
00010142905355941093D49111549010
330
379
 94
        0
  0
ACAD_PROXY_OBJECT
  5
393
330
0
100
AcDbProxyObject
 90
      499
 91
      510
 95
   851991
 70
     0
 93
      116
310
0001014290535115D1D0D3D313D4A2
330
379
 94
        0
  0
ACAD_PROXY_OBJECT
  5
394
330
0
100
AcDbProxyObject
 90
      499
 91
      510
 95
   851991
 70
     0
 93
      148
310
00010143505355925155D49151949154D21010
330
379
 94
        0
  0
ACAD_PROXY_OBJECT
  5
395
330
0
100
AcDbProxyObject
 90
      499
 91
      510
 95
   851991
 70
     0
 93
      172
310
00010144105350539393D51154149154D15495915018
330
379
 94
        0
  0
ACAD_PROXY_OBJECT
  5
399
330
0
100
AcDbProxyObject
 90
      499
 91
      510
 95
   851991
 70
     0
 93
      172
310
00010144105350555513D11253505494905391D15010
330
379
 94
        0
  0
ACAD_PROXY_OBJECT
  5
39A
330
0
100
AcDbProxyObject
 90
      499
 91
      510
 95
   851991
 70
     0
 93
      124
310
00010142D05351561514915191125364
330
379
 94
        0
  0
ACAD_PROXY_OBJECT
  5
39B
330
0
100
AcDbProxyObject
 90
      499
 91
      510
 95
   851991
 70
     0
 93
      132
310
00010142D05355105410539393D5115010
330
379
 94
        0
  0
ACAD_PROXY_OBJECT
  5
39C
330
0
100
AcDbProxyObject
 90
      499
 91
      510
 95
   851991
 70
     0
 93
      108
310
00010142105350555513D0D31012
330
379
 94
        0
  0
ACAD_PROXY_OBJECT
  5
39D
330
0
100
AcDbProxyObject
 90
      499
 91
      510
 95
   851991
 70
     0
 93
      108
310
00010142105350D3119150551055
330
379
 94
        0
  0
ACAD_PROXY_OBJECT
  5
39E
330
0
100
AcDbProxyObject
 90
      499
 91
      510
 95
   851991
 70
     0
 93
      108
310
00010142105350D315925155D3F2
330
379
 94
        0
  0
ACAD_PROXY_OBJECT
  5
39F
330
0
100
AcDbProxyObject
 90
      499
 91
      510
 95
   851991
 70
     0
 93
      148
310
0001014350535212511156915493D112535011
330
379
 94
        0
  0
ACAD_PROXY_OBJECT
  5
3A0
330
0
100
AcDbProxyObject
 90
      499
 91
      510
 95
   851991
 70
     0
 93
      124
310
00010142905352105510D21254D3D014
330
379
 94
        0
  0
ACAD_PROXY_OBJECT
  5
3A1
330
0
100
AcDbProxyObject
 90
      499
 91
      510
 95
   851991
 70
     0
 93
      148
310
00010143905354D25391D31152105513105661
330
379
 94
        0
  0
ACAD_PROXY_OBJECT
  5
3A2
330
0
100
AcDbProxyObject
 90
      499
 91
      510
 95
   851991
 70
     0
 93
      124
310
00010142D0535115D1D193111254D424
330
379
 94
        0
  0
ACAD_PROXY_OBJECT
  5
3A3
330
0
100
AcDbProxyObject
 90
      499
 91
      510
 95
   851991
 70
     0
 93
      100
310
00010142105350555513D213A2
330
379
 94
        0
  0
ACAD_PROXY_OBJECT
  5
3A4
330
0
100
AcDbProxyObject
 90
      499
 91
      510
 95
   851991
 70
     0
 93
      116
310
000101425053521390D3D553951014
330
379
 94
        0
  0
ACAD_PROXY_OBJECT
  5
3A5
330
0
100
AcDbProxyObject
 90
      499
 91
      510
 95
   851991
 70
     0
 93
      108
310
0001014210535213941493D29010
330
379
 94
        0
  0
ACAD_PROXY_OBJECT
  5
3A6
330
0
100
AcDbProxyObject
 90
      499
 91
      510
 95
   851991
 70
     0
 93
      108
310
0001014210535213951654115070
330
379
 94
        0
  0
ACAD_PROXY_OBJECT
  5
3A7
330
0
100
AcDbProxyObject
 90
      499
 91
      510
 95
   851991
 70
     0
 93
      108
310
000101421053521395925155D0F0
330
379
 94
        0
  0
ACAD_PROXY_OBJECT
  5
3A8
330
0
100
AcDbProxyObject
 90
      499
 91
      510
 95
   851991
 70
     0
 93
      140
310
00010143505354D150D51253D390D3D41664
330
379
 94
        0
  0
ACAD_PROXY_OBJECT
  5
3A9
330
0
100
AcDbProxyObject
 90
      499
 91
      510
 95
   851991
 70
     0
 93
      108
310
00010142105350D3141493D29030
330
379
 94
        0
  0
ACAD_PROXY_OBJECT
  5
3AA
330
0
100
AcDbProxyObject
 90
      499
 91
      509
 95
   851991
 70
     0
 93
      212
310
00010143905350555513D2105510D21493D500000000000002E400
330
379
 94
        0
  0
ACAD_PROXY_OBJECT
  5
3AB
330
0
100
AcDbProxyObject
 90
      499
 91
      510
 95
   851991
 70
     0
 93
      156
310
00010143905350555513D2105510D21111551011
330
379
 94
        0
  0
ACAD_PROXY_OBJECT
  5
3B8
330
0
100
AcDbProxyObject
 90
      499
 91
      510
 95
   851991
 70
     0
 93
      116
310
000101425053541051D15311539190
330
379
 94
        0
  0
ACAD_PROXY_OBJECT
  5
3B9
330
0
100
AcDbProxyObject
 90
      499
 91
      510
 95
   851991
 70
     0
 93
      108
310
000101421053555312539154D050
330
379
 94
        0
  0
ACAD_PROXY_OBJECT
  5
3BA
330
0
100
AcDbProxyObject
 90
      499
 91
      510
 95
   851991
 70
     0
 93
      108
310
000101421053559312539154D031
330
379
 94
        0
  0
ACAD_PROXY_OBJECT
  5
3BB
330
0
100
AcDbProxyObject
 90
      499
 91
      510
 95
   851991
 70
     0
 93
      140
310
00010143105354D1911254D41353D1115010
330
379
 94
        0
  0
ACAD_PROXY_OBJECT
  5
3BC
330
0
100
AcDbProxyObject
 90
      499
 91
      509
 95
   851991
 70
     0
 93
      172
310
00010142505354119255105391C1C052DC9A6F104400
330
379
 94
        0
  0
ACAD_PROXY_OBJECT
  5
3BD
330
0
100
AcDbProxyObject
 90
      499
 91
      509
 95
   851991
 70
     0
 93
      164
310
000101421053559150D05551C000000000000E03F0
330
379
 94
        0
  0
ACAD_PROXY_OBJECT
  5
3BE
330
0
100
AcDbProxyObject
 90
      499
 91
      509
 95
   851991
 70
     0
 93
      180
310
00010142905350931153911513D307B14AE47E17A843FB
330
379
 94
        0
  0
ACAD_PROXY_OBJECT
  5
3BF
330
0
100
AcDbProxyObject
 90
      499
 91
      509
 95
   851991
 70
     0
 93
      172
310
0001014250535293D25391D05407B14AE47E17A843F8
330
379
 94
        0
  0
ACAD_PROXY_OBJECT
  5
3C0
330
0
100
AcDbProxyObject
 90
      499
 91
      509
 95
   851991
 70
     0
 93
      172
310
000101425053541192551311538000000FC83D797413
330
379
 94
        0
  0
ACAD_PROXY_OBJECT
  5
3C1
330
0
100
AcDbProxyObject
 90
      499
 91
      509
 95
   851991
 70
     0
 93
      156
310
00010141D053559150D4D18000000000000E03F8
330
379
 94
        0
  0
ACAD_PROXY_OBJECT
  5
3C2
330
0
100
AcDbProxyObject
 90
      499
 91
      509
 95
   851991
 70
     0
 93
      156
310
00010141D05354D19513D309A9999999999993F9
330
379
 94
        0
  0
ACAD_PROXY_OBJECT
  5
3C3
330
0
100
AcDbProxyObject
 90
      499
 91
      509
 95
   851991
 70
     0
 93
      172
310
000101425053541192551513D307B14AE47E17A843F8
330
379
 94
        0
  0
ACAD_PROXY_OBJECT
  5
3C4
330
0
100
AcDbProxyObject
 90
      499
 91
      509
 95
   851991
 70
     0
 93
      188
310
00010142D05354D151D192551513D307B14AE47E17A843FD
330
379
 94
        0
  0
ACAD_PROXY_OBJECT
  5
3C5
330
0
100
AcDbProxyObject
 90
      499
 91
      509
 95
   851991
 70
     0
 93
      148
310
000101419053541311538000000FC83D797417
330
379
 94
        0
  0
ACAD_PROXY_OBJECT
  5
3C6
330
0
100
AcDbProxyObject
 90
      499
 91
      509
 95
   851991
 70
     0
 93
      172
310
00010142505354105391D513D301C052DC9A6F104408
330
379
 94
        0
  0
ACAD_PROXY_OBJECT
  5
3C7
330
0
100
AcDbProxyObject
 90
      499
 91
      509
 95
   851991
 70
     0
 93
      132
310
0001014114D25691400000000000024409
330
379
 94
        0
  0
ACAD_PROXY_OBJECT
  5
3C8
330
0
100
AcDbProxyObject
 90
      499
 91
      531
 95
   851991
 70
     0
 93
      156
310
00010142905351D4941491519256005034153470
330
379
 94
        0
  0
ACAD_PROXY_OBJECT
  5
3C9
330
0
100
AcDbProxyObject
 90
      499
 91
      532
 95
   851991
 70
     0
 93
      314
310
00014080509646973745363616C650000000000003C2FC000000000000F0BF0000003F20F5E5D040
330
379
 94
        0
  0
ACAD_PROXY_OBJECT
  5
3CA
330
0
100
AcDbProxyObject
 90
      499
 91
      532
 95
   851991
 70
     0
 93
      322
310
0001408050A65646175526F74617465060B51153EC87E4FC182D4454FB2119C0060B51153EC8465000
330
379
 94
        0
  0
ACAD_PROXY_OBJECT
  5
3CB
330
0
100
AcDbProxyObject
 90
      499
 91
      532
 95
   851991
 70
     0
 93
      314
310
00014080509656461755477697374060B51153EC846500000000FC83D797C10000003F20F5E5D040
330
379
 94
        0
  0
ACAD_PROXY_OBJECT
  5
3CC
330
0
100
AcDbProxyObject
 90
      499
 91
      533
 95
   851991
 70
     0
 93
      286
310
000140C050A656467654F75747075740144941BDB1E5B1A5B994817D41BDB1E5B1A5B995
330
379
 94
        0
  0
ACAD_PROXY_OBJECT
  5
3CD
330
0
100
AcDbProxyObject
 90
      499
 91
      534
 95
   851991
 70
     0
 93
      154
310
0001404050B6564697450726576696577406406C
330
379
 94
        0
  0
ACAD_PROXY_OBJECT
  5
3CE
330
0
100
AcDbProxyObject
 90
      499
 91
      534
 95
   851991
 70
     0
 93
      170
310
0001404050A666C6F77556C696E657342A3A00C00025
330
379
 94
        0
  0
ACAD_PROXY_OBJECT
  5
3CF
330
0
100
AcDbProxyObject
 90
      499
 91
      534
 95
   851991
 70
     0
 93
      170
310
0001404050A666C6F77566C696E657342A3A00C00025
330
379
 94
        0
  0
ACAD_PROXY_OBJECT
  5
3D0
330
0
100
AcDbProxyObject
 90
      499
 91
      532
 95
   851991
 70
     0
 93
      322
310
0001408050A666C7366456E645261640000000000003C2FC000000000000F0BF0000003F20F5E5D040
330
379
 94
        0
  0
ACAD_PROXY_OBJECT
  5
3D1
330
0
100
AcDbProxyObject
 90
      499
 91
      533
 95
   851991
 70
     0
 93
      238
310
000140C05086A6E33644D6F6465014393585B9D585B0817D3585B9D585B3
330
379
 94
        0
  0
ACAD_PROXY_OBJECT
  5
3D2
330
0
100
AcDbProxyObject
 90
      499
 91
      533
 95
   851991
 70
     0
 93
      286
310
000140C050A6A6E33644F75747075740144941BDB1E5B1A5B994817D41BDB1E5B1A5B997
330
379
 94
        0
  0
ACAD_PROXY_OBJECT
  5
3D3
330
0
100
AcDbProxyObject
 90
      499
 91
      532
 95
   851991
 70
     0
 93
      306
310
000140805086C656E675065726300000000002016D002D431CEBE2361A3F0000003F20F5E5D050
330
379
 94
        0
  0
ACAD_PROXY_OBJECT
  5
3D4
330
0
100
AcDbProxyObject
 90
      499
 91
      532
 95
   851991
 70
     0
 93
      266
310
0001408050B6D61737344656E7369747942D431CEBE2361A3F0000003F20F5E5D065
330
379
 94
        0
  0
ACAD_PROXY_OBJECT
  5
3D5
330
0
100
AcDbProxyObject
 90
      499
 91
      532
 95
   851991
 70
     0
 93
      186
310
000140805096D617373546869636BA0000003F20F5E5D043
330
379
 94
        0
  0
ACAD_PROXY_OBJECT
  5
3D6
330
0
100
AcDbProxyObject
 90
      499
 91
      533
 95
   851991
 70
     0
 93
      222
310
000140C05086D61737354797065014314DA195B1B0817D4DA195B1B0
330
379
 94
        0
  0
ACAD_PROXY_OBJECT
  5
3D7
330
0
100
AcDbProxyObject
 90
      499
 91
      532
 95
   851991
 70
     0
 93
      242
310
000140805086F667366446973744000000FC83D797C10000003F20F5E5D040
330
379
 94
        0
  0
ACAD_PROXY_OBJECT
  5
3D8
330
0
100
AcDbProxyObject
 90
      499
 91
      532
 95
   851991
 70
     0
 93
      258
310
0001408050A7072696D52616469757342D431CEBE2361A3F0000003F20F5E5D050
330
379
 94
        0
  0
ACAD_PROXY_OBJECT
  5
3D9
330
0
100
AcDbProxyObject
 90
      499
 91
      532
 95
   851991
 70
     0
 93
      194
310
0001408050A7072696D546F70526164A0000003F20F5E5D040
330
379
 94
        0
  0
ACAD_PROXY_OBJECT
  5
3DA
330
0
100
AcDbProxyObject
 90
      499
 91
      532
 95
   851991
 70
     0
 93
      266
310
0001408050B7072696D5475626552616442D431CEBE2361A3F0000003F20F5E5D065
330
379
 94
        0
  0
ACAD_PROXY_OBJECT
  5
3DB
330
0
100
AcDbProxyObject
 90
      499
 91
      532
 95
   851991
 70
     0
 93
      258
310
0001408050A7072696D4865696768744000000FC83D797C10000003F20F5E5D040
330
379
 94
        0
  0
ACAD_PROXY_OBJECT
  5
3DC
330
0
100
AcDbProxyObject
 90
      499
 91
      532
 95
   851991
 70
     0
 93
      250
310
000140805097072696D5374416E678182D4454FB2119C0060B51153EC8465025
330
379
 94
        0
  0
ACAD_PROXY_OBJECT
  5
3DD
330
0
100
AcDbProxyObject
 90
      499
 91
      532
 95
   851991
 70
     0
 93
      322
310
0001408050A7072696D456E64416E67060B51153EC846500182D4454FB2119C0060B51153EC8465000
330
379
 94
        0
  0
ACAD_PROXY_OBJECT
  5
3DE
330
0
100
AcDbProxyObject
 90
      499
 91
      532
 95
   851991
 70
     0
 93
      242
310
000140805087265765374416E678182D4454FB2119C0060B51153EC8465010
330
379
 94
        0
  0
ACAD_PROXY_OBJECT
  5
3DF
330
0
100
AcDbProxyObject
 90
      499
 91
      532
 95
   851991
 70
     0
 93
      314
310
00014080509726576456E64416E67060B51153EC846500182D4454FB2119C0060B51153EC8465010
330
379
 94
        0
  0
ACAD_PROXY_OBJECT
  5
3E0
330
0
100
AcDbProxyObject
 90
      499
 91
      534
 95
   851991
 70
     0
 93
      194
310
0001404050C7266736655706174636865734290139C0C00011
330
379
 94
        0
  0
ACAD_PROXY_OBJECT
  5
3E1
330
0
100
AcDbProxyObject
 90
      499
 91
      534
 95
   851991
 70
     0
 93
      194
310
0001404050C7266736656706174636865734290139C0C0002D
330
379
 94
        0
  0
ACAD_PROXY_OBJECT
  5
3E2
330
0
100
AcDbProxyObject
 90
      499
 91
      533
 95
   851991
 70
     0
 93
      238
310
000140C0508747562654D6F6465014393585B9D585B0817D3585B9D585B0
330
379
 94
        0
  0
ACAD_PROXY_OBJECT
  5
3E3
330
0
100
AcDbProxyObject
 90
      499
 91
      532
 95
   851991
 70
     0
 93
      274
310
0001408050C747562654469616D6574657242D431CEBE2361A3F0000003F20F5E5D055
330
379
 94
        0
  0
ACAD_PROXY_OBJECT
  5
3E4
330
0
100
AcDbProxyObject
 90
      499
 91
      534
 95
   851991
 70
     0
 93
      130
310
00014040509696E746572506F6C79A4075
330
379
 94
        0
  0
ACAD_PROXY_OBJECT
  5
3E5
330
0
100
AcDbProxyObject
 90
      499
 91
      534
 95
   851991
 70
     0
 93
      162
310
0001404050D696E746572417567506F696E74A405C
330
379
 94
        0
  0
ACAD_PROXY_OBJECT
  5
3E6
330
0
100
AcDbProxyObject
 90
      499
 91
      533
 95
   851991
 70
     0
 93
      214
310
000140C0509696E7465727472696D0142909BDD1A0817D09BDD1A1
330
379
 94
        0
  0
ACAD_PROXY_OBJECT
  5
3E7
330
0
100
AcDbProxyObject
 90
      499
 91
      533
 95
   851991
 70
     0
 93
      214
310
000140C0509696E746572747970650142951C9A5B4817D51C9A5B4
330
379
 94
        0
  0
ACAD_PROXY_OBJECT
  5
3E8
330
0
100
AcDbProxyObject
 90
      499
 91
      534
 95
   851991
 70
     0
 93
      146
310
0001404050A636F726E65727472696D406407D
330
379
 94
        0
  0
ACAD_PROXY_OBJECT
  5
3E9
330
0
100
AcDbProxyObject
 90
      499
 91
      534
 95
   851991
 70
     0
 93
      130
310
000140405086F6673666B6565704064069
330
379
 94
        0
  0
ACAD_PROXY_OBJECT
  5
3EA
330
0
100
AcDbProxyObject
 90
      499
 91
      534
 95
   851991
 70
     0
 93
      146
310
0001404050A70726F6A4F757470757440A40FD
330
379
 94
        0
  0
ACAD_PROXY_OBJECT
  5
3EB
330
0
100
AcDbProxyObject
 90
      499
 91
      533
 95
   851991
 70
     0
 93
      246
310
000140C050D70726F6A446972656374696F6E01429D92595DC817DD92595DC
330
379
 94
        0
  0
ACAD_PROXY_OBJECT
  5
3EC
330
0
100
AcDbProxyObject
 90
      499
 91
      534
 95
   851991
 70
     0
 93
      130
310
0001404050870726F6A4B656570406404A
330
379
 94
        0
  0
ACAD_PROXY_OBJECT
  5
3ED
330
0
100
AcDbProxyObject
 90
      499
 91
      533
 95
   851991
 70
     0
 93
      278
310
000140C050B70726F6A53706163696E67014413DC1D1A5B585B0817D3DC1D1A5B585B1
330
379
 94
        0
  0
ACAD_PROXY_OBJECT
  5
3EE
330
0
100
AcDbProxyObject
 90
      499
 91
      532
 95
   851991
 70
     0
 93
      250
310
0001408050970726F6A54617065728182D4454FB21F9BF060B51153EC87E4FE5
330
379
 94
        0
  0
ACAD_PROXY_OBJECT
  5
3EF
330
0
100
AcDbProxyObject
 90
      499
 91
      534
 95
   851991
 70
     0
 93
      130
310
00014040508647261674B6565704064070
330
379
 94
        0
  0
ACAD_PROXY_OBJECT
  5
3F0
330
0
100
AcDbProxyObject
 90
      499
 91
      533
 95
   851991
 70
     0
 93
      294
310
000140C050F647261674F7269656E746174696F6E0143939BDC9B585B0817D39BDC9B585B0
330
379
 94
        0
  0
ACAD_PROXY_OBJECT
  5
3F1
330
0
100
AcDbProxyObject
 90
      499
 91
      533
 95
   851991
 70
     0
 93
      270
310
000140C050E647261675472616E736974696F6E01431CD0D85B194817DCD0D85B195
330
379
 94
        0
  0
ACAD_PROXY_OBJECT
  5
3F2
330
0
100
AcDbProxyObject
 90
      499
 91
      533
 95
   851991
 70
     0
 93
      302
310
000140C051061646A757374436F6E74696E75697479014394DB5BDBDD1A0817D4DB5BDBDD1A1
330
379
 94
        0
  0
ACAD_PROXY_OBJECT
  5
3F3
330
0
100
AcDbProxyObject
 90
      499
 91
      534
 95
   851991
 70
     0
 93
      138
310
0001404050A61646A7573744B656570A4056
330
379
 94
        0
  0
ACAD_PROXY_OBJECT
  5
3F4
330
0
100
AcDbProxyObject
 90
      499
 91
      532
 95
   851991
 70
     0
 93
      250
310
0001408050972756C65576964746842D431CEBE2361A3F0000003F20F5E5D07D
330
379
 94
        0
  0
ACAD_PROXY_OBJECT
  5
3F5
330
0
100
AcDbProxyObject
 90
      499
 91
      532
 95
   851991
 70
     0
 93
      274
310
0001408050C616E616C797A65447261667421D139D28615ED8FE060B51153EC8425031
330
379
 94
        0
  0
ACAD_PROXY_OBJECT
  5
3F6
330
0
100
AcDbProxyObject
 90
      499
 91
      534
 95
   851991
 70
     0
 93
      210
310
0001404050F616E616C797A654E756D4C696E65734163FDFC0003F
330
379
 94
        0
  0
ACAD_PROXY_OBJECT
  5
3F7
330
0
100
AcDbProxyObject
 90
      499
 91
      534
 95
   851991
 70
     0
 93
      202
310
00014040512616E616C797A65526F746174654C696E6573A407E
330
379
 94
        0
  0
ACAD_PROXY_OBJECT
  5
3F8
330
0
100
AcDbProxyObject
 90
      499
 91
      534
 95
   851991
 70
     0
 93
      210
310
00014040513616E616C797A65446973706C61794C696E6573A407F
330
379
 94
        0
  0
ACAD_PROXY_OBJECT
  5
3F9
330
0
100
AcDbProxyObject
 90
      499
 91
      534
 95
   851991
 70
     0
 93
      258
310
00014040519616E616C797A655472616E736C7563656E7453757266616365A4042
330
379
 94
        0
  0
ACAD_PROXY_OBJECT
  5
403
330
0
100
AcDbProxyObject
 90
      499
 91
      540
 95
   851991
 70
     0
 93
      714
310
0001000000009AA6A9AA4051E576564204A616E2032322031343A30363A3535203230303320285554432901420D8B8C0B8C4E0B8D00518576564204A616E2032322031353A31353A3032203230303301420D8B8C0B8C4E0B8D00
330
379
330
404
330
405
330
407
330
0
 94
        0
  0
ACAD_PROXY_OBJECT
  5
404
330
0
100
AcDbProxyObject
 90
      499
 91
      541
 95
   851991
 70
     0
 93
       70
310
0001AAA80820000001
330
379
330
404
330
404
 94
        0
  0
ACAD_PROXY_OBJECT
  5
405
330
0
100
AcDbProxyObject
 90
      499
 91
      542
 95
   851991
 70
     0
 93
       48
310
00010000000011
330
379
330
0
330
406
330
0
330
0
 94
        0
  0
ACAD_PROXY_OBJECT
  5
406
330
0
100
AcDbProxyObject
 90
      499
 91
      543
 95
   851991
 70
     0
 93
       40
310
000100AAAA04
330
379
330
0
 94
        0
  0
ACAD_PROXY_OBJECT
  5
408
330
0
100
AcDbProxyObject
 90
      499
 91
      510
 95
   851991
 70
     0
 93
      124
310
00010142905350D3D39114D414D69050
330
379
 94
        0
  0
ACAD_PROXY_OBJECT
  5
409
330
0
100
AcDbProxyObject
 90
      499
 91
      510
 95
   851991
 70
     0
 93
      124
310
000101429053549553115353D1115010
330
379
 94
        0
  0
ACAD_PROXY_OBJECT
  5
40A
330
0
100
AcDbProxyObject
 90
      499
 91
      510
 95
   851991
 70
     0
 93
      108
310
00010142105354D2D353D1115016
330
379
 94
        0
  0
ACAD_PROXY_OBJECT
  5
40B
330
0
100
AcDbProxyObject
 90
      499
 91
      510
 95
   851991
 70
     0
 93
      140
310
000101435053511253511254D41353D11166
330
379
 94
        0
  0
ACAD_PROXY_OBJECT
  5
40C
330
0
100
AcDbProxyObject
 90
      499
 91
      509
 95
   851991
 70
     0
 93
      180
310
00010142905354D2D05391D513D300000000000001040E
330
379
 94
        0
  0
ACAD_PROXY_OBJECT
  5
40D
330
0
100
AcDbProxyObject
 90
      499
 91
      531
 95
   851991
 70
     0
 93
      164
310
00010142505354D2D4D516531140505434F4E542A3
330
379
 94
        0
  0
ACAD_PROXY_OBJECT
  5
40E
330
0
100
AcDbProxyObject
 90
      499
 91
      510
 95
   851991
 70
     0
 93
      108
310
00010142105350D3511112535013
330
379
 94
        0
  0
ACAD_PROXY_OBJECT
  5
40F
330
0
100
AcDbProxyObject
 90
      499
 91
      510
 95
   851991
 70
     0
 93
      108
310
00010142105350D3D35414D59010
330
379
 94
        0
  0
ACAD_PROXY_OBJECT
  5
410
330
0
100
AcDbProxyObject
 90
      499
 91
      531
 95
   851991
 70
     0
 93
      164
310
0001014290535410549514D4119600504504152541
330
379
 94
        0
  0
ACAD_PROXY_OBJECT
  5
411
330
0
100
AcDbProxyObject
 90
      499
 91
      531
 95
   851991
 70
     0
 93
      220
310
0001014350535513D3D31093D11654119600508544F4F4C424F44593
330
379
 94
        0
  0
ACAD_PROXY_OBJECT
  5
412
330
0
100
AcDbProxyObject
 90
      499
 91
      510
 95
   851991
 70
     0
 93
      116
310
000101425053511254D410D3D39010
330
379
 94
        0
  0
ACAD_PROXY_OBJECT
  5
413
330
0
100
AcDbProxyObject
 90
      499
 91
      510
 95
   851991
 70
     0
 93
      108
310
00010142105350D3D39114D41016
330
379
 94
        0
  0
ACAD_PROXY_OBJECT
  5
414
330
0
100
AcDbProxyObject
 90
      499
 91
      510
 95
   851991
 70
     0
 93
      124
310
0001014290535490511114D414D69190
330
379
 94
        0
  0
ACAD_PROXY_OBJECT
  5
41A
330
0
100
AcDbProxyObject
 90
      499
 91
      510
 95
   851991
 70
     0
 93
      132
310
00010142D05050555513D4D3D315915018
330
379
 94
        0
  0
ACAD_PROXY_OBJECT
  5
41B
330
0
100
AcDbProxyObject
 90
      499
 91
      510
 95
   851991
 70
     0
 93
      156
310
00010143905050555513D054D4D1535093115015
330
379
 94
        0
  0
ACAD_PROXY_OBJECT
  5
41C
330
0
100
AcDbProxyObject
 90
      499
 91
      510
 95
   851991
 70
     0
 93
      148
310
00010143505055925155D49154D513D491501D
330
379
 94
        0
  0
ACAD_PROXY_OBJECT
  5
41D
330
0
100
AcDbProxyObject
 90
      499
 91
      510
 95
   851991
 70
     0
 93
      124
310
00010142D050525394D15495105094E0
330
379
 94
        0
  0
ACAD_PROXY_OBJECT
  5
41E
330
0
100
AcDbProxyObject
 90
      499
 91
      510
 95
   851991
 70
     0
 93
      148
310
00010143505054D0D15391555411105511501D
330
379
 94
        0
  0
ACAD_PROXY_OBJECT
  5
41F
330
0
100
AcDbProxyObject
 90
      499
 91
      531
 95
   851991
 70
     0
 93
      172
310
00010143105054D5509054D4D3541196005035355424
330
379
 94
        0
  0
ACAD_PROXY_OBJECT
  5
420
330
0
100
AcDbProxyObject
 90
      499
 91
      531
 95
   851991
 70
     0
 93
      172
310
00010142905054D0D15391541196005055343454E450
330
379
 94
        0
  0
ACAD_PROXY_OBJECT
  5
421
330
0
100
AcDbProxyObject
 90
      499
 91
      510
 95
   851991
 70
     0
 93
      148
310
00010143505350555513D313D0D2D4D0D39015
330
379
 94
        0
  0
ACAD_PROXY_OBJECT
  5
426
330
0
100
AcDbProxyObject
 90
      499
 91
      549
 95
   851991
 70
     0
 93
       32
310
0001000000
330
379
340
423
330
428
330
423
 94
        0
  0
ACAD_PROXY_OBJECT
  5
427
330
0
100
AcDbProxyObject
 90
      499
 91
      550
 95
   851991
 70
     0
 93
       18
310
000190
330
379
 94
        0
  0
ACAD_PROXY_OBJECT
  5
428
330
0
100
AcDbProxyObject
 90
      499
 91
      551
 95
   851991
 70
     0
 93
      135
310
0001014213504C4C8C160C549050055400
330
379
330
426
330
427
 94
        0
  0
ACAD_PROXY_OBJECT
  5
429
330
0
100
AcDbProxyObject
 90
      499
 91
      552
 95
   851991
 70
     0
 93
       40
310
000100AAAA00
330
379
330
428
 94
        0
  0
ACAD_PROXY_OBJECT
  5
42A
330
0
100
AcDbProxyObject
 90
      499
 91
      553
 95
   851991
 70
     0
 93
      108
310
0001901422000000000000AAAAA0
330
379
330
42B
330
42B
330
42B
330
42B
330
42B
330
0
 94
        0
  0
ACAD_PROXY_OBJECT
  5
42B
330
0
100
AcDbProxyObject
 90
      499
 91
      554
 95
   851991
 70
     0
 93
       51
310
00010000AAAA98
330
379
330
42A
330
428
 94
        0
  0
ACAD_PROXY_OBJECT
  5
43B
330
0
100
AcDbProxyObject
 90
      499
 91
      531
 95
   851991
 70
     0
 93
      140
310
00010142105350D55494D5110050349534F2
330
379
 94
        0
  0
DICTIONARY
  5
370
102
{ACAD_REACTORS
330
36F
102
}
330
36F
100
AcDbDictionary
281
     1
  3
DWGSETTINGS
350
371
  3
TRANSSETTINGS
350
375
  0
ACAD_PROXY_OBJECT
  5
43E
102
{ACAD_REACTORS
330
36F
102
}
330
36F
100
AcDbProxyObject
 90
      499
 91
      563
 95
   851991
 70
     0
 93
    12938
310
41102491013041105357CC1074CA404C504414D5F31439329013241105357CC9054CA404CD04414D5F33419199013441105357CD103466404D504414D5F3540D199013641105357CD90248E404DD04414D5F37411199013841105357CE101466404E504414D5F397F641102324141505357CC4C1074CA408D10505414D5F31
310
3140D19902495041505357CC4C9074C902408C13905414D5F304E41D32902314E41505357CC5390E4CA408C93905414D5F324E41532902334E41505357CCD3906466408D13905414D5F344E40D19902354E41505357CD53903466408D93905414D5F364E40923902374E41505357CDD3904466408E13905414D5F384E40519
310
902394E41505357CE539FD90440CC9053906414D5F31304E41D3290334414E41905357CC4C5390346640D25413906414D5F31324E41D32409044B4C494E41505357D0D3101465094112539193D08414D5F50415245464111942D055241484D3541905357D093D49074C9094115925155D08414D5F56494557534051942D064
310
24548494E4441905357D253959FD90D415514905253105414D5F545240D194250348494441905357D212511074650940D59254D06414D5F56495341D324250650415244494D42505357D410549112535034650941949151911253509414D5F52454644494D4111942553411092139590139CFFFFFFFF415092139594D06424
310
548494E44CFFFFFFFF411093D48C9055241484D3540519411093D48CD055241484D3540923411093D48D5055241484D35CFFFFFFFF4110D0530C90134CFFFFFFFF4110D0530CD0134409234110D0530D5013441D324110D0530DD0134479464110D1539390137CFFFFFFFF4110D15395D0137CFFFFFFFF4110D312539044B4
310
C494ECFFFFFFFF4110D3D38C50130CFFFFFFFF4110D3D38C90131CFFFFFFFF4110D3D38CD0132CFFFFFFFF4110D3D38D10132CFFFFFFFF411111551050134CFFFFFFFF4111125051D0135CFFFFFFFF411112531250135CFFFFFFFF411112535410650415244494DCFFFFFFFF411112535490652454644494DCFFFFFFFF4111
310
91535390138CFFFFFFFF4151915354139013840CFFFFFFFF4151915354D41023441CFFFFFFFF4151915354D5102344140D1941519153559390132CFFFFFFFF4151915355951013240D194112105510D0138CFFFFFFFF411212511390133CFFFFFFFF4112125115D0133CFFFFFFFF411213125390134CFFFFFFFF411213D0D3
310
90137CFFFFFFFF411213D0D5D0137CFFFFFFFF4112539193D04494E464FCFFFFFFFF411311505110135CFFFFFFFF419397D0921395902394ECFFFFFFFF419397D0D3D38C502304ECFFFFFFFF419397D0D3D38C902314ECFFFFFFFF419397D0D3D38CD02324ECFFFFFFFF419397D0D3D38D102324ECFFFFFFFF419397D0D153
310
93902374ECFFFFFFFF419397D0D15395D02374ECFFFFFFFF419397D1125312502354ECFFFFFFFF419397D2105510D02384ECFFFFFFFF419397D2125113902334ECFFFFFFFF419397D2125115D02334ECFFFFFFFF419397D3115051102354ECFFFFFFFF419397D391D25410349504ECFFFFFFFF419397D412105390334414EC
310
FFFFFFFF419397D510D3D3902304ECFFFFFFFF419397D5121312502344ECFFFFFFFF419397D5131153902304ECFFFFFFFF419397D594131250332414ECFFFFFFFF411391D2541024950CFFFFFFFF411410530C9055241484D3540519411410530CD055241484D3540923411410530D5055241484D35CFFFFFFFF4114121053
310
9023441CFFFFFFFF411413D4D390135CFFFFFFFF411490D1D390137CFFFFFFFF411490D1D5D0137CFFFFFFFF4114D09492D0134CFFFFFFFF4114D150D510134CFFFFFFFF4114D6508CD013540923411354D6535013540923411510D3D390130CFFFFFFFF411512131250134CFFFFFFFF411512550C9055241484D354051941
310
1512550CD055241484D3540923411512550D5055241484D35CFFFFFFFF411513115390130CFFFFFFFF415514905253105545241494CCFFFFFFFF411514931250134CFFFFFFFF411516150C5013640D19411516150C9013640D19411516150CD0136CFFFFFFFF411516150D5013641D32411516150DD0136479464115925155
310
D0456494557CFFFFFFFF4115915112103484944CFFFFFFFF4115915115903564953CFFFFFFFF41159413125023241CFFFFFFFF411692569050134CFFFFFFFFAA9FD404FE4290E4C9074C906465054C904465034650248D014651E519FD80
340
16
340
16
340
16
340
43F
340
16
340
16
340
16
340
440
340
16
340
16
340
440
340
441
340
16
340
16
340
16
340
16
340
43F
340
16
340
16
340
16
340
440
340
16
340
16
340
440
340
441
340
16
340
442
340
16
340
16
340
16
340
16
340
16
340
43F
340
16
340
16
340
16
340
15
340
15
340
15
340
15
340
15
340
15
340
15
340
15
340
15
340
443
340
15
340
15
340
15
340
15
340
15
340
15
340
15
340
15
340
15
340
15
340
15
340
15
340
15
340
16
340
15
340
15
340
15
340
15
340
444
340
15
340
15
340
443
340
15
340
15
340
15
340
15
340
15
340
15
340
15
340
15
340
443
340
15
340
15
340
15
340
444
340
15
340
15
340
15
340
15
340
15
340
15
340
15
340
15
340
15
340
15
340
15
340
15
340
15
340
15
340
443
340
15
340
15
340
15
340
15
340
15
340
15
340
15
340
15
340
15
340
15
340
15
340
15
340
15
340
15
340
15
340
15
340
15
340
15
340
15
340
15
340
15
340
15
340
447
 94
        0
  0
ACAD_PROXY_OBJECT
  5
46B
102
{ACAD_REACTORS
330
46A
102
}
330
46A
100
AcDbProxyObject
 90
      499
 91
      580
 95
   851991
 70
     0
 93
      133
310
43D054841544348404A9012A404A9012A8
 94
        0
  0
ACAD_PROXY_OBJECT
  5
46C
102
{ACAD_REACTORS
330
46A
102
}
330
46A
100
AcDbProxyObject
 90
      499
 91
      580
 95
   851991
 70
     0
 93
      549
310
43D044C494E4549CE0B0E138B0A8B4E0B0A8B4E138B105357CE0B105357CE138B0A8B505357CE0B0A8B505357CE139012A404A910494E534552542C535444504152543244B
 94
        0
  0
XRECORD
  5
7C2
102
{ACAD_REACTORS
330
7C1
102
}
330
7C1
100
AcDbXrecord
280
     1
  0
LAYER_INDEX
  5
6C5
102
{ACAD_REACTORS
330
6C4
102
}
330
6C4
100
AcDbIndex
 40
2452746.514182754
100
AcDbLayerIndex
  8
0
360
6C6
 90
        0
  8
Defpoints
360
6C7
 90
        0
  8
AXE
360
6C8
 90
       43
  8
COTE
360
6C9
 90
       12
  8
GEOMETRIE
360
6CA
 90
      213
  0
ACAD_PROXY_OBJECT
  5
42F
102
{ACAD_REACTORS
330
42E
102
}
330
42E
100
AcDbProxyObject
 90
      499
 91
      556
 95
   851991
 70
     0
 93
      211
310
057356C1D5C406406AA8FFFFFFFF0AE5084D413132305831524058
330
1F
330
0
330
428
 94
        0
  0
ACAD_PROXY_OBJECT
  5
43D
102
{ACAD_REACTORS
330
43C
102
}
330
43C
100
AcDbProxyObject
 90
      499
 91
      562
 95
   851991
 70
     0
 93
     2377
310
5700000000000000C40D0349534F40590140902000000000000031032228821682DAC8E88AC8CECAA6E8C8812028720B1B6A9BAB9332A32BC3A29BA3220480A1282C6DA8C868CA6E8C88120286A0B1B6ABB2B63234B733A9BA3220480A1082C6DA92C8A6E8C88120285A0B1B6A230BA3AB6A9BA3220480A1282C6DA849E9AA
310
6E8C8812028820B6B23A2232BA30B4B629BCB6A9BA3220480A2282DAC8E8A6CAC6E8D2DEDCA6F2DAA6E8C88120288A0B6B23A21B2B73A32B92634B732A9BA3220480A2282DAC8E8A8D0E4CAC2C898D2DCCAA6E8C88120285A0B6B23A2737BA32A9BA3220480A1682C682DACE98C2F2A6E8C88120285A0B1A0B6B3A234B6A9B
310
A3220480A2282C682DACE90DED8CA86D0C2E4E8A6E8C88120286A0B1A0B6B3AA34BA3632A9BA3220480C8164
340
448
360
449
360
44A
360
44B
360
44C
360
44D
360
44E
360
44F
360
450
360
451
360
452
360
453
360
454
360
45A
360
45B
360
467
360
468
 94
        0
  0
ACAD_PROXY_OBJECT
  5
371
102
{ACAD_REACTORS
330
370
102
}
330
370
100
AcDbProxyObject
 90
      499
 91
      505
 95
   851991
 70
     0
 93
     2396
310
4050B44574753455454494E4753A1286829C8E82A4A482B282A106660F8686AF86C608321A2A720A723A0A849A1ABE1C983E18999AA0C868A9C889282940000000000000488083A1A2A72224A0A9A0A8418983E19183E199820E868A9C8892A6A894000000000000010808321A2A72622A7250000000000000122020C868A9
310
C9E8C8C940000000000000488084A1A624A720A92920ACA0A8418983E19183E19982108698929C8AA8B2A082A0AB098929C8A84A22BA3AAA9A1A0A622A50A0E9882A6A89E849482A02608426A0A5A2AB24A2ABA7E8120CA0A68682988A0C00800010652455649534941501304154D0D0531150540CC4E8C50954494D455354
310
414D504A0381569A22A1A734141D5915494D253D3905414C4D4B8C0C1107B44574753455454494E4753454E447D0
 94
        0
  0
ACAD_PROXY_OBJECT
  5
375
102
{ACAD_REACTORS
330
370
102
}
330
370
100
AcDbProxyObject
 90
      499
 91
      505
 95
   851991
 70
     0
 93
      852
310
4050D5452414E5353455454494E4753A2488A482AE929C8EA8A4829CA69882A8929E9C0C00800050D4F524947494E414C4C595F4F4E0600400008529A7AAA921A2A620A723A0A81A2A72AA12AAA0A48AA68AA4AC8A0C0080001107B44574753455454494E4753454E447D0
 94
        0
  0
IDBUFFER
  5
6C6
330
0
100
AcDbIdBuffer
  0
IDBUFFER
  5
6C7
330
0
100
AcDbIdBuffer
  0
IDBUFFER
  5
6C8
330
0
100
AcDbIdBuffer
330
110
330
115
330
11A
330
120
330
124
330
125
330
139
330
14A
330
14D
330
14F
330
150
330
15E
330
15F
330
161
330
16F
330
170
330
174
330
175
330
176
330
18E
330
192
330
193
330
27A
330
27B
330
27C
330
291
330
292
330
293
330
294
330
295
330
2AF
330
2B1
330
2B3
330
2B4
330
2C3
330
2C5
330
2C6
330
2C7
330
2C8
330
2DD
330
2E0
330
2E1
330
2E2
  0
IDBUFFER
  5
6C9
330
0
100
AcDbIdBuffer
330
32F
330
33C
330
349
330
356
330
47C
330
490
330
4CA
330
53A
330
574
330
5DB
330
639
330
688
  0
IDBUFFER
  5
6CA
330
0
100
AcDbIdBuffer
330
109
330
10A
330
10B
330
10C
330
10D
330
10E
330
10F
330
112
330
113
330
114
330
116
330
117
330
118
330
119
330
11B
330
11C
330
11D
330
11E
330
11F
330
121
330
122
330
123
330
126
330
127
330
128
330
129
330
12A
330
12B
330
12C
330
12D
330
12E
330
12F
330
130
330
131
330
132
330
133
330
134
330
135
330
136
330
137
330
138
330
13A
330
13B
330
13C
330
13D
330
13E
330
13F
330
140
330
141
330
142
330
143
330
144
330
145
330
146
330
147
330
148
330
149
330
14B
330
14C
330
14E
330
151
330
152
330
153
330
154
330
155
330
156
330
157
330
158
330
15A
330
15B
330
15C
330
15D
330
160
330
162
330
163
330
164
330
165
330
166
330
167
330
168
330
169
330
16A
330
16B
330
16C
330
16D
330
16E
330
171
330
172
330
173
330
177
330
178
330
179
330
17A
330
17B
330
17C
330
17D
330
17E
330
17F
330
180
330
181
330
182
330
183
330
184
330
185
330
186
330
187
330
188
330
189
330
18A
330
18B
330
18C
330
18D
330
18F
330
190
330
191
330
27D
330
27E
330
27F
330
280
330
282
330
283
330
284
330
285
330
286
330
287
330
288
330
289
330
28A
330
28B
330
28C
330
28D
330
28E
330
28F
330
290
330
296
330
297
330
298
330
299
330
29A
330
29B
330
29C
330
29D
330
29E
330
29F
330
2A0
330
2A1
330
2A2
330
2A3
330
2A4
330
2A5
330
2A6
330
2A7
330
2A8
330
2A9
330
2AA
330
2AB
330
2AC
330
2AD
330
2AE
330
2B0
330
2B2
330
2B5
330
2B6
330
2B7
330
2B8
330
2B9
330
2BA
330
2BB
330
2BC
330
2BD
330
2BE
330
2BF
330
2C0
330
2C1
330
2C2
330
2C4
330
2C9
330
2CA
330
2CB
330
2CC
330
2CD
330
2CE
330
2CF
330
2D0
330
2D1
330
2D2
330
2D3
330
2D4
330
2D5
330
2D6
330
2D7
330
2D8
330
2D9
330
2DA
330
2DB
330
2DC
330
2DE
330
2DF
330
2E3
330
2E4
330
2E5
330
2E6
330
2E7
330
2E8
330
2E9
330
2EA
330
2EB
330
2EC
330
2ED
330
2EE
330
2EF
330
2F0
330
2F1
  0
ACAD_PROXY_OBJECT
  5
449
330
43D
100
AcDbProxyObject
 90
      499
 91
      564
 95
   851991
 70
     0
 93
       12
310
571F
 94
        0
  0
ACAD_PROXY_OBJECT
  5
44A
330
43D
100
AcDbProxyObject
 90
      499
 91
      565
 95
   851991
 70
     0
 93
       96
310
572A0E80A0280A0280A0280F00
 94
        0
  0
ACAD_PROXY_OBJECT
  5
44B
330
43D
100
AcDbProxyObject
 90
      499
 91
      566
 95
   851991
 70
     0
 93
      272
310
5710E4050140501405014050140501405014050140D01405012C000000000000004000
340
455
 94
        0
  0
ACAD_PROXY_OBJECT
  5
44C
330
43D
100
AcDbProxyObject
 90
      499
 91
      567
 95
   851991
 70
     0
 93
      496
310
5728666666666667A67E199999999999E99FD22405014050140501405014050140501405014050140501405014050140501405014050140501405014050100
340
456
 94
        0
  0
ACAD_PROXY_OBJECT
  5
44D
330
43D
100
AcDbProxyObject
 90
      499
 91
      568
 95
   851991
 70
     0
 93
       10
310
570F
 94
        0
  0
ACAD_PROXY_OBJECT
  5
44E
330
43D
100
AcDbProxyObject
 90
      499
 91
      569
 95
   851991
 70
     0
 93
      223
310
572290EA22A7D90F49F8000000000000108140000000000000420204
340
457
340
458
 94
        0
  0
ACAD_PROXY_OBJECT
  5
44F
330
43D
100
AcDbProxyObject
 90
      499
 91
      570
 95
   851991
 70
     0
 93
    12949
310
5710E411255115350141125D195B50140501406901000000000000091013347454E545241434F2C454E552C302C4974656D2C47454E54524154582C25732C2847454E4D53472067656E647767203232322940690120281A8AA2CA0281A8BA3CA028120280A0320200000000000012202648E8A9CA8A482869E588A9CAA5860
310
58A2E8F2588E8A9CA8A482A8B0584AE658508E8A9C9AA68E40CECADCC8EECE406464665280D202405044E414D45405044E616D654051C40640A80000000000004E404CD1D15395149050D3CB1153954B0C0B13985B594B11D15395149055160B095CCB0A11D1539354D1C819D95B991DD9C80C8C8D8A50190A3D504152543A
310
4E414D4540480A0A888AA686A480A1688CAE6C6E4D2E0E8D2DEDC80A3A80C81D0000000000100A2809D23A2A72A2920A1A79622A72A9618162232B9B1B934B83A34B7B71623A2A72A2920AA2C1612B9961423A2A726A9A39033B2B7323BB39019189B94A034809014214D51053911054911014214DD185B99185C991014750
310
1904A000000000000125013747454E545241434F2C454E552C302C5374616E646172642C47454E54524154582C25732C2847454E4D53472067656E64776720323138294069012028426A0AA22A924A0A62028426B0BA32B934B0B62028EA0320B40000000000001CA026E8E8A9CA8A482869E588A9CAA5860589AC2E8CAE4D
310
2C2D8588E8A9CA8A482A8B0584AE658508E8A9C9AA68E40CECADCC8EECE406464625280D202405044E4F5445405044E6F74654051D40641A80000000000003E404CD1D15395149050D3CB1153954B0C0B139BDD194B11D15395149055160B095CCB0A11D1539354D1C819D95B991DD9C80C8C8D4A501240480A0CAC8A9C889
310
EA480A0CACCADCC8DEE480A3A80C83D00000000000007C809AA3A2A72A2920A1A79622A72A9618162B32B73237B91623A2A72A2920AA2C1612B9961423A2A726A9A39033B2B7323BB39019191A14A0248090141911154D0D48C9014351195CD8DC9A5C1D1A5BDB880C90147501908A000000000020145013B47454E5452414
310
34F2C454E552C302C4465736372697074696F6E20322C47454E54524154582C25732C2847454E4D53472067656E6477672033362940490120284A9AA20A72220A922192028529BA30B73230B93210192028EA03213400000000000024A02728E8A9CA8A482869E588A9CAA586058A6E8C2DCC8C2E4C84064588E8A9CA8A482
310
A8B0584AE658508E8A9C9AA68E40CECADCC8EECE4064646052809202405094D4154455249414C324050A4D6174657269616C20324051D40642A8713D0AD7A37045404E11D15395149050D3CB1153954B0C0B13585D195C9A585B080C8B11D15395149055160B095CCB0A11D1539354D1C819D95B991DD9C80D0C0A50124048
310
0A089A82A6A680A089AC2E6E680A3A80A0485A068100000000000007C809923A2A72A2920A1A79622A72A96181626B0B9B99623A2A72A2920AA2C1612B9961423A2A726A9A39033B2B7323BB3901A1914A0221C7AA2A8B254A082A4A8749A82A6A6809014154149250D150141541C9A58D9501475014090C40902000000000
310
0000F9013347454E545241434F2C454E552C302C50726963652C47454E54524154582C25732C2847454E4D53472067656E6477672034332940490120281A224A6A0285A6B2B0B9BAB932B6B2B73A2028EA028121A81A040000000000001F202728E8A9CA8A482869E588A9CAA5860589ACAC2E6EAE4CADACADCE8588E8A9CA
310
8A482A8B0584AE658508E8A9C9AA68E40CECADCC8EECE406868528092024050E445020000000000000510107004060000000000000F9000000000000003E4041CF4F125511534F9014060000000000000F9000000000000003E4041CF4F125511534F9014060000000000000D100000000000000344041CF4F125511534F90
310
14060000000000000D100000000000000344041CF4F125511534F90140A4040000000000003E400000000000000F901073D3C4954454D3E405063D3C5154593E4050180000000000003E400000000000000F901073D3C4954454D3E406404000000000000003E400000000000000F90000000000000008202068220681A048
310
120280C882148448820348520348452028521485214814000000000000F0BF0000000000003C2FD01409073373333333333B0FCCDCCCCCCCCCCEC3F000000000000031012034164050341105901A0000000000000620204812028098A02808
340
0
340
0
 94
        0
  0
ACAD_PROXY_OBJECT
  5
450
330
43D
100
AcDbProxyObject
 90
      499
 91
      571
 95
   851991
 70
     0
 93
      864
310
5704000000000000144048CF4F11115510525317D3105091530F880A0F11115510525317D05094D4D0D053114F8A51141C9A9999999999B93F26A666666666724FC000000000000E03F4000000000000004000000000000005100000000000000244041C00000000000014403D
340
16
340
448
 94
        0
  0
ACAD_PROXY_OBJECT
  5
451
330
43D
100
AcDbProxyObject
 90
      499
 91
      572
 95
   851991
 70
     0
 93
      745
310
5700B00000000000002880959E9E29A2A1AA24A7A72FA620A122A62FA324A929AA1F169E29A2A1AA24A7A72FA620A122A62FA620A9AA1F00000000000004880FF41C88A0E0000000000001220000000000000028800000000000000A200B
340
398
340
448
 94
        0
  0
ACAD_PROXY_OBJECT
  5
452
330
43D
100
AcDbProxyObject
 90
      499
 91
      573
 95
   851991
 70
     0
 93
      151
310
57280000000000000840A3D0A5723F0BD1F201
 94
        0
  0
ACAD_PROXY_OBJECT
  5
453
330
43D
100
AcDbProxyObject
 90
      499
 91
      574
 95
   851991
 70
     0
 93
       14
310
5723
340
0
 94
        0
  0
ACAD_PROXY_OBJECT
  5
454
330
43D
100
AcDbProxyObject
 90
      499
 91
      575
 95
   851991
 70
     0
 93
     5794
310
571084050B90142A405024050A54656D706C6174652031405DC3D2525633C486F6C653A63746469613E2078203C486F6C653A637464657074683E20555C503C696628657175616C28486F6C653A7461707065642C223022292C222525632220486F6C653A6469612C20486F6C653A6E6F6D696E616C20222078202220486F6
310
C653A70697463686465736320696628657175616C28486F6C653A7461707065642C223122292C222078202220486F6C653A74617064657074682C222229293E203C696628657175616C28486F6C653A7465726D696E6174696F6E2C223022292C22202F202220486F6C653A64657074682C222022293E406405034050A5465
310
6D706C6174652031405DD3D2525633C486F6C653A63746469613E2078203C486F6C653A6374616E676C653E2525645C503C696628657175616C28486F6C653A7461707065642C223022292C222525632220486F6C653A6469612C20486F6C653A6E6F6D696E616C20222078202220486F6C653A70697463686465736320696
310
628657175616C28486F6C653A7461707065642C223122292C222078202220486F6C653A74617064657074682C222229293E203C696628657175616C28486F6C653A7465726D696E6174696F6E2C223022292C22202F202220486F6C653A64657074682C222022293E406405014050A54656D706C6174652031405B83D3C696
310
628657175616C28486F6C653A7461707065642C223022292C222525632220486F6C653A6469612C20486F6C653A6E6F6D696E616C20222078202220486F6C653A70697463686465736320696628657175616C28486F6C653A7461707065642C223122292C222078202220486F6C653A74617064657074682C222229293E203
310
C696628657175616C28486F6C653A7465726D696E6174696F6E2C223022292C22202F202220486F6C653A64657074682C222022293E4064051E4050A54656D706C61746520314050C3D3C535444503A444553433E40640515ABF
 94
        0
  0
ACAD_PROXY_OBJECT
  5
45A
330
43D
100
AcDbProxyObject
 90
      499
 91
      576
 95
   851991
 70
     0
 93
       20
310
571010
340
43E
 94
        0
  0
ACAD_PROXY_OBJECT
  5
45B
330
43D
100
AcDbProxyObject
 90
      499
 91
      577
 95
   851991
 70
     0
 93
      250
310
571020000000000000A1000000000000002440408F0F9023C3E409A0DCFFFF86
340
45C
340
0
340
0
340
45D
340
45E
340
45F
340
460
340
461
340
466
340
0
 94
        0
  0
ACAD_PROXY_OBJECT
  5
467
330
43D
100
AcDbProxyObject
 90
      499
 91
      578
 95
   851991
 70
     0
 93
    13675
310
5711A00903030003000000000000031000903030003000000000000031000805134C697374206F6620436F6F7264696E61746573015091D15395149050D3CB1153954B0C0B131A5CDD081BD98810DBDBDC991A5B985D195CCB11D15395149055160B095CCB0A11D1539354D1C819D95B991A5B5E880CCC0A78000C00000000
310
000000000000000000000001000000000000031010240000000000000C4040A0142921BDB19481518589B194053947454E545241434F2C454E552C302C486F6C65205461626C652C47454E54524154582C25732C2847454E4D53472067656E64696D7A20333129E00030000000000000000000000000000000040000000000
310
000C40409000000000000031010290D44111409034110541D0C4350F4050E44D03449074510F00014193DC9A59DA5B8053447454E545241434F2C454E552C302C4F726967696E2C47454E54524154582C25732C2847454E4D53472067656E64696D7A203129000101050022140002822437B63280A648E8A9CA8A482869E58
310
8A9CAA58605890DED8CA588E8A9CA8A482A8B0584AE658508E8A9C9AA68E40CECADCC8D2DAF4406452029F9E9E27B934B3B4B71F1E24A31427A91424A9A12620A7259427B934B3B4B7149624A9A12620A7259424B73232BC149496111116111711149F1E24B73232BC1F00808200111A000140560052F47454E545241434F2
310
C454E552C302C582C47454E54524154582C25732C2847454E4D53472067656E64696D7A20332900010100002054000280AC80A5E8E8A9CA8A482869E588A9CAA586058B2588E8A9CA8A482A8B0584AE658508E8A9C9AA68E40CECADCC8D2DAF4406852000202000040E800050172014BD1D15395149050D3CB1153954B0C0B
310
1C8B11D15395149055160B095CCB0A11D1539354D1C819D95B991A5B5E880D8A400040400008250000A0EB8AA5660686868029AA3A2A72A2920A1A79622A72A9618162E2A95981A1A1A1623A2A72A2920AA2C1612B9961423A2A726A9A39033B2B73234B6BD101B948000808180105A000140C94958C053147454E54524143
310
4F2C454E552C302C2525632C47454E54524154582C25732C2847454E4D53472067656E64696D7A203829000101010020F4000285A232B9B1B934B83A34B7B700A748E8A9CA8A482869E588A9CAA58605888CAE6C6E4D2E0E8D2DEDC588E8A9CA8A482A8B0584AE658508E8A9C9AA68E40CECADCC8D2DAF4406460520002000
310
80043280005085374616E64617264014DD1D15395149050D3CB1153954B0C0B14DD185B99185C990B11D15395149055160B095CCB0A11D1539354D1C819D95B991A5B5E880C8C4A4000400100086D0000A0C9EE4D2CED2DC029A23A2A72A2920A1A79622A72A96181627B934B3B4B71623A2A72A2920AA2C1612B9961423A2
310
A726A9A39033B2B73234B6BD10189480A026202020A0043E80005044974656D014CD1D15395149050D3CB1153954B0C0B125D195B4B11D15395149055160B095CCB0A11D1539354D1C819D95B991A5B5E880C4D0A4000404140080D0000A0A92DCC8CAF0029A23A2A72A2920A1A79622A72A96181624B73232BC1623A2A72A
310
2920AA2C1612B9961423A2A726A9A39033B2B73234B6BD10189A94800080828010EA000142921BDB1948125B99195E0053947454E545241434F2C454E552C302C486F6C6520496E6465782C47454E54524154582C25732C2847454E4D53472067656E64696D7A20313729000101050022740002822437B63280A668E8A9CA8
310
A482869E588A9CAA58605890DED8CA588E8A9CA8A482A8B0584AE658508E8A9C9AA68E40CECADCC8D2DAF440626C52000202080044A8000503517479014C91D15395149050D3CB1153954B0C0B145D1E4B11D15395149055160B095CCB0A11D1539354D1C819D95B991A5B5E880C4E4A400040418008A521E0000000000000
310
01CA040C00000000000034408080000000000006881010000000000000D102040000000000001A204080000000000003440818000000000000728103000000000000125020600000000004028A040000000000000034408000000000000004881000000000000000D102000000000000001A20400000000000000344081800
310
0000000000508143C0000000000000039408180000000000006881030000000000000D102060000000000001A2040C00000000000034408180000000000006881030000000000000E5020600000000000024A040C000000000080514080000000000000068810000000000000009102000000000000001A204000000000000
310
0034408180000000000006881030000000000000A10283A2000000087800000204000000818000002080000008280000020E00000080A240000000
340
0
340
0
340
0
340
0
 94
        0
  0
ACAD_PROXY_OBJECT
  5
468
330
43D
100
AcDbProxyObject
 90
      499
 91
      579
 95
   851991
 70
     0
 93
     7162
310
5719740D254D3D0649534F5F4133429254D3D7D5125513115051349534F5F42525F5265766973696F6E6C69737446111413478342028323937783834316D6D2920421254D3D7D04D1E0D11141327835202835393478323130326D6D29421254D3D7D04C9E0D51141347839202832393778313839326D6D29421254D3D7D04D
310
1E0E51141337837202834323078323038306D6D29421254D3D7D04CDE0DD1141347838202832393778313638326D6D29421254D3D7D04D1E0E11141327834202835393478313638326D6D29421254D3D7D04C9E0D10E41312028353934783834316D6D29419254D3D7D04C51141347837202832393778313437316D6D29421
310
254D3D7D04D1E0DD1141347836202832393778313236316D6D29421254D3D7D04D1E0D91141347835202832393778313035316D6D29421254D3D7D04D1E0D5104130202838343078313138396D6D2920419254D3D7D04C10E41332028323937783432306D6D29419254D3D7D04CD1141327833202835393478313236316D6D
310
29421254D3D7D04C9E0CD10413478332028323937783633306D6D29421254D3D7D04D1E0CD1141337834202834323078313138396D6D29421254D3D7D04CDE0D11141337836202834323078313738336D6D29421254D3D7D04CDE0D91141337835202834323078313438366D6D29421254D3D7D04CDE0D50E4132202834323
310
0783539346D6D29419254D3D7D04C910413378332028343230783839316D6D29421254D3D7D04CDE0CD0E41342028323937783231306D6D29419254D3D7D04D1124130783220283131383978313638326D6D29421254D3D7D04C1E0C9124130783320283131383978323532336D6D29421254D3D7D04C1E0CD114131783420
310
2838343178323337386D6D29421254D3D7D04C5E0D11141317833202838343178313738336D6D29421254D3D7D04C5E0CD02445254D3C8151A5D1B1948109B1BD8DAC81050A49534F5F5449544C4541445254D3C8151A5D1B1948109B1BD8DAC81090A49534F5F5449544C4542411105265766973696F6E6C6973745F424C5
310
F44D254D3D7D09317D4995D9A5CDA5BDB9B1A5CDD1105265766973696F6E6C6973745F544C5F44D254D3D7D51317D4995D9A5CDA5BDB9B1A5CDD1105265766973696F6E6C6973745F42525F44D254D3D7D09497D4995D9A5CDA5BDB9B1A5CDD1105265766973696F6E6C6973745F54525F44D254D3D7D51497D4995D9A5CDA
310
5BDB9B1A5CDD3F
 94
        0
  0
ENDSEC
  0
EOF
