  0
SECTION
  2
HEADER
  9
$ACADVER
  1
AC1009
  9
$INSBASE
 10
402.590624
 20
-1.041018
 30
0.0
  9
$EXTMIN
 10
113.492488
 20
-2.383609
 30
0.0
  9
$EXTMAX
 10
151.884092
 20
201.116391
 30
0.0
  9
$LIMMIN
 10
-407.970438
 20
-367.832444
  9
$LIMMAX
 10
429.804077
 20
234.370848
  9
$ORTHOMODE
 70
     0
  9
$REGENMODE
 70
     1
  9
$FILLMODE
 70
     1
  9
$QTEXTMODE
 70
     0
  9
$MIRRTEXT
 70
     1
  9
$DRAGMODE
 70
     2
  9
$LTSCALE
 40
10.0
  9
$OSMODE
 70
    35
  9
$ATTMODE
 70
     1
  9
$TEXTSIZE
 40
6.0
  9
$TRACEWID
 40
1.0
  9
$TEXTSTYLE
  7
ROMANS
  9
$CLAYER
  8
ALPHA
  9
$CELTYPE
  6
BYLAYER
  9
$CECOLOR
 62
   256
  9
$DIMSCALE
 40
1.0
  9
$DIMASZ
 40
5.0
  9
$DIMEXO
 40
2.0
  9
$DIMDLI
 40
0.38
  9
$DIMRND
 40
0.0
  9
$DIMDLE
 40
0.0
  9
$DIMEXE
 40
2.5
  9
$DIMTP
 40
0.0
  9
$DIMTM
 40
0.0
  9
$DIMTXT
 40
2.5
  9
$DIMCEN
 40
0.0
  9
$DIMTSZ
 40
0.0
  9
$DIMTOL
 70
     0
  9
$DIMLIM
 70
     0
  9
$DIMTIH
 70
     1
  9
$DIMTOH
 70
     1
  9
$DIMSE1
 70
     0
  9
$DIMSE2
 70
     0
  9
$DIMTAD
 70
     1
  9
$DIMZIN
 70
    12
  9
$DIMBLK
  1
OPEN30
  9
$DIMASO
 70
     1
  9
$DIMSHO
 70
     1
  9
$DIMPOST
  1

  9
$DIMAPOST
  1

  9
$DIMALT
 70
     0
  9
$DIMALTD
 70
     2
  9
$DIMALTF
 40
25.4
  9
$DIMLFAC
 40
1.0
  9
$DIMTOFL
 70
     0
  9
$DIMTVP
 40
0.0
  9
$DIMTIX
 70
     0
  9
$DIMSOXD
 70
     0
  9
$DIMSAH
 70
     0
  9
$DIMBLK1
  1

  9
$DIMBLK2
  1

  9
$DIMSTYLE
  2
SC_DEFAUT
  9
$DIMCLRD
 70
     0
  9
$DIMCLRE
 70
     0
  9
$DIMCLRT
 70
     0
  9
$DIMTFAC
 40
1.0
  9
$DIMGAP
 40
2.0
  9
$LUNITS
 70
     2
  9
$LUPREC
 70
     1
  9
$SKETCHINC
 40
0.1
  9
$FILLETRAD
 40
0.0
  9
$AUNITS
 70
     0
  9
$AUPREC
 70
     0
  9
$MENU
  1
acad
  9
$ELEVATION
 40
0.0
  9
$PELEVATION
 40
0.0
  9
$THICKNESS
 40
0.0
  9
$LIMCHECK
 70
     0
  9
$BLIPMODE
 70
     0
  9
$CHAMFERA
 40
0.0
  9
$CHAMFERB
 40
0.0
  9
$SKPOLY
 70
     0
  9
$TDCREATE
 40
2450373.687919
  9
$TDUPDATE
 40
2453032.668908
  9
$TDINDWG
 40
1.06745
  9
$TDUSRTIMER
 40
1.06745
  9
$USRTIMER
 70
     1
  9
$ANGBASE
 50
0.0
  9
$ANGDIR
 70
     0
  9
$PDMODE
 70
    32
  9
$PDSIZE
 40
0.0
  9
$PLINEWID
 40
0.0
  9
$COORDS
 70
     1
  9
$SPLFRAME
 70
     0
  9
$SPLINETYPE
 70
     6
  9
$SPLINESEGS
 70
     8
  9
$ATTDIA
 70
     0
  9
$ATTREQ
 70
     1
  9
$HANDLING
 70
     1
  9
$HANDSEED
  5
B0E9
  9
$SURFTAB1
 70
     6
  9
$SURFTAB2
 70
     6
  9
$SURFTYPE
 70
     6
  9
$SURFU
 70
     6
  9
$SURFV
 70
     6
  9
$UCSNAME
  2

  9
$UCSORG
 10
0.0
 20
0.0
 30
0.0
  9
$UCSXDIR
 10
1.0
 20
0.0
 30
0.0
  9
$UCSYDIR
 10
0.0
 20
1.0
 30
0.0
  9
$PUCSNAME
  2

  9
$PUCSORG
 10
0.0
 20
0.0
 30
0.0
  9
$PUCSXDIR
 10
1.0
 20
0.0
 30
0.0
  9
$PUCSYDIR
 10
0.0
 20
1.0
 30
0.0
  9
$USERI1
 70
     0
  9
$USERI2
 70
     0
  9
$USERI3
 70
     0
  9
$USERI4
 70
     0
  9
$USERI5
 70
     0
  9
$USERR1
 40
0.0
  9
$USERR2
 40
0.0
  9
$USERR3
 40
0.0
  9
$USERR4
 40
0.0
  9
$USERR5
 40
0.0
  9
$WORLDVIEW
 70
     1
  9
$SHADEDGE
 70
     3
  9
$SHADEDIF
 70
    70
  9
$TILEMODE
 70
     1
  9
$MAXACTVP
 70
    16
  9
$PLIMCHECK
 70
     0
  9
$PEXTMIN
 10
-1.452248
 20
-0.437698
 30
0.0
  9
$PEXTMAX
 10
12.749749
 20
8.310198
 30
0.0
  9
$PLIMMIN
 10
0.0
 20
0.0
  9
$PLIMMAX
 10
12.0
 20
9.0
  9
$UNITMODE
 70
     0
  9
$VISRETAIN
 70
     0
  9
$PLINEGEN
 70
     0
  9
$PSLTSCALE
 70
     0
  0
ENDSEC
  0
SECTION
  2
TABLES
  0
TABLE
  2
VPORT
 70
     2
  0
VPORT
  2
*ACTIVE
 70
     0
 10
0.0
 20
0.0
 11
1.0
 21
1.0
 12
132.678941
 22
99.358445
 13
0.0
 23
0.0
 14
1.0
 24
1.0
 15
10.0
 25
10.0
 16
0.0
 26
0.0
 36
1.0
 17
0.0
 27
0.0
 37
0.0
 40
205.000011
 41
1.466346
 42
50.0
 43
0.0
 44
0.0
 50
0.0
 51
0.0
 71
     0
 72
   100
 73
     1
 74
     0
 75
     0
 76
     0
 77
     0
 78
     0
  0
ENDTAB
  0
TABLE
  2
LTYPE
 70
     2
  0
LTYPE
  2
CONTINUOUS
 70
     0
  3
Solid line
 72
    65
 73
     0
 40
0.0
  0
LTYPE
  2
AXES2
 70
     0
  3
___ _ ___ _ ___ _ ___ _ ___ _ ___ _ ___ _ ___ _
 72
    65
 73
     4
 40
1.125
 49
0.75
 49
-0.125
 49
0.125
 49
-0.125
  0
ENDTAB
  0
TABLE
  2
LAYER
 70
     5
  0
LAYER
  2
0
 70
     0
 62
   255
  6
CONTINUOUS
  0
LAYER
  2
COTATION1
 70
     0
 62
     2
  6
CONTINUOUS
  0
LAYER
  2
AXE
 70
     0
 62
    80
  6
AXES2
  0
LAYER
  2
DEFPOINTS
 70
     0
 62
     7
  6
CONTINUOUS
  0
LAYER
  2
ALPHA
 70
     0
 62
   254
  6
CONTINUOUS
  0
ENDTAB
  0
TABLE
  2
STYLE
 70
     2
  0
STYLE
  2
ROMANS
 70
     0
 40
0.0
 41
1.0
 50
0.0
 71
     0
 42
6.0
  3
romans
  4

  0
STYLE
  2
STANDARD
 70
     0
 40
0.0
 41
1.0
 50
0.0
 71
     0
 42
0.2
  3
txt
  4

  0
ENDTAB
  0
TABLE
  2
VIEW
 70
     0
  0
ENDTAB
  0
TABLE
  2
UCS
 70
     0
  0
ENDTAB
  0
TABLE
  2
APPID
 70
     1
  0
APPID
  2
ACAD
 70
     0
  0
ENDTAB
  0
TABLE
  2
DIMSTYLE
 70
     2
  0
DIMSTYLE
  2
SC_DEFAUT
 70
     0
  3

  4

  5
OPEN30
  6

  7

 40
1.0
 41
5.0
 42
2.0
 43
0.38
 44
2.5
 45
0.0
 46
0.0
 47
0.0
 48
0.0
140
2.5
141
0.0
142
0.0
143
25.4
144
1.0
145
0.0
146
1.0
147
2.0
 71
     0
 72
     0
 73
     1
 74
     1
 75
     0
 76
     0
 77
     1
 78
    12
170
     0
171
     2
172
     0
173
     0
174
     0
175
     0
176
     0
177
     0
178
     0
  0
DIMSTYLE
  2
STANDARD
 70
     0
  3

  4

  5

  6

  7

 40
1.0
 41
0.18
 42
0.0625
 43
0.38
 44
0.18
 45
0.0
 46
0.0
 47
0.0
 48
0.0
140
0.18
141
0.09
142
0.0
143
25.4
144
1.0
145
0.0
146
1.0
147
0.09
 71
     0
 72
     0
 73
     1
 74
     1
 75
     0
 76
     0
 77
     0
 78
     0
170
     0
171
     2
172
     0
173
     0
174
     0
175
     0
176
     0
177
     0
178
     0
  0
ENDTAB
  0
ENDSEC
  0
SECTION
  2
BLOCKS
  0
BLOCK
  8
0
  2
$MODEL_SPACE
 70
     0
 10
0.0
 20
0.0
 30
0.0
  3
$MODEL_SPACE
  1

  0
ENDBLK
  5
B0E2
  8
0
  0
BLOCK
 67
     1
  8
0
  2
$PAPER_SPACE
 70
     0
 10
0.0
 20
0.0
 30
0.0
  3
$PAPER_SPACE
  1

  0
ENDBLK
  5
B0E0
 67
     1
  8
0
  0
BLOCK
  8
0
  2
COTE
 70
     0
 10
0.0
 20
0.0
 30
0.0
  3
COTE
  1

  0
ENDBLK
  5
F
  8
0
  0
BLOCK
  8
0
  2
FOND
 70
     0
 10
0.0
 20
0.0
 30
0.0
  3
FOND
  1

  0
ENDBLK
  5
75
  8
0
  0
BLOCK
  8
0
  2
_OPEN30
 70
     0
 10
0.0
 20
0.0
 30
0.0
  3
_OPEN30
  1

  0
LINE
  5
4B05
  8
COTATION1
 62
     0
 10
-1.0
 20
0.267949
 30
0.0
 11
0.0
 21
0.0
 31
0.0
1001
ACAD
1000
RTLwPs
1070
   158
  0
LINE
  5
4B06
  8
COTATION1
 62
     0
 10
0.0
 20
0.0
 30
0.0
 11
-1.0
 21
-0.267949
 31
0.0
1001
ACAD
1000
RTLwPs
1070
   158
  0
LINE
  5
4B07
  8
COTATION1
 62
     0
 10
0.0
 20
0.0
 30
0.0
 11
-1.0
 21
0.0
 31
0.0
1001
ACAD
1000
RTLwPs
1070
   158
  0
ENDBLK
  5
4B09
  8
0
  0
BLOCK
  8
0
  2
*D3
 70
     1
 10
0.0
 20
0.0
 30
0.0
  3
*D3
  1

  0
LINE
  5
AFF9
  8
COTATION1
 62
     0
 10
115.668378
 20
26.116391
 30
0.0
 11
115.668378
 21
-2.383609
 31
0.0
1001
ACAD
1000
RTLwPs
1070
   158
  0
LINE
  5
AFFA
  8
COTATION1
 62
     0
 10
131.668378
 20
26.116391
 30
0.0
 11
131.668378
 21
-2.383609
 31
0.0
1001
ACAD
1000
RTLwPs
1070
   158
  0
LINE
  5
AFFB
  8
COTATION1
 62
     0
 10
120.668378
 20
0.116391
 30
0.0
 11
126.668378
 21
0.116391
 31
0.0
1001
ACAD
1000
RTLwPs
1070
   158
  0
INSERT
  5
AFFC
  8
COTATION1
 62
     0
  2
_OPEN30
 10
115.668378
 20
0.116391
 30
0.0
 41
5.0
 42
5.0
 43
5.0
 50
180.0
1001
ACAD
1000
RTLwPs
1070
   158
  0
INSERT
  5
AFFD
  8
COTATION1
 62
     0
  2
_OPEN30
 10
131.668378
 20
0.116391
 30
0.0
 41
5.0
 42
5.0
 43
5.0
1001
ACAD
1000
RTLwPs
1070
   158
  0
TEXT
  5
AFFE
  8
COTATION1
 62
     0
 10
121.108854
 20
2.116391
 30
0.0
 40
2.5
  1
16
1001
ACAD
1000
MTEXTBEGIN
1070
    73
1070
     1
1070
    44
1040
1.0
1070
    74
1070
     0
1000
MTEXTEND
  0
POINT
  5
AFFF
  8
DEFPOINTS
 62
     0
 10
115.668378
 20
28.116391
 30
0.0
  0
POINT
  5
B000
  8
DEFPOINTS
 62
     0
 10
131.668378
 20
28.116391
 30
0.0
  0
POINT
  5
B001
  8
DEFPOINTS
 62
     0
 10
131.668378
 20
0.116391
 30
0.0
  0
ENDBLK
  5
AF39
  8
0
  0
BLOCK
  8
0
  2
*D4
 70
     1
 10
0.0
 20
0.0
 30
0.0
  3
*D4
  1

  0
LINE
  5
AFE6
  8
COTATION1
 62
     0
 10
127.168378
 20
196.116391
 30
0.0
 11
151.348378
 21
196.116391
 31
0.0
1001
ACAD
1000
RTLwPs
1070
   158
  0
LINE
  5
AFE7
  8
COTATION1
 62
     0
 10
125.668378
 20
20.116391
 30
0.0
 11
151.348378
 21
20.116391
 31
0.0
1001
ACAD
1000
RTLwPs
1070
   158
  0
LINE
  5
AFE8
  8
COTATION1
 62
     0
 10
148.848378
 20
191.116391
 30
0.0
 11
148.848378
 21
111.366391
 31
0.0
1001
ACAD
1000
RTLwPs
1070
   158
  0
LINE
  5
AFE9
  8
COTATION1
 62
     0
 10
148.848378
 20
25.116391
 30
0.0
 11
148.848378
 21
104.866391
 31
0.0
1001
ACAD
1000
RTLwPs
1070
   158
  0
INSERT
  5
AFEA
  8
COTATION1
 62
     0
  2
_OPEN30
 10
148.848378
 20
196.116391
 30
0.0
 41
5.0
 42
5.0
 43
5.0
 50
90.0
1001
ACAD
1000
RTLwPs
1070
   158
  0
INSERT
  5
AFEB
  8
COTATION1
 62
     0
  2
_OPEN30
 10
148.848378
 20
20.116391
 30
0.0
 41
5.0
 42
5.0
 43
5.0
 50
270.0
1001
ACAD
1000
RTLwPs
1070
   158
  0
TEXT
  5
AFEC
  8
COTATION1
 62
     0
 10
145.098378
 20
106.866391
 30
0.0
 40
2.5
  1
176
1001
ACAD
1000
MTEXTBEGIN
1070
    73
1070
     1
1070
    44
1040
1.0
1070
    74
1070
     0
1000
MTEXTEND
  0
POINT
  5
AFED
  8
DEFPOINTS
 62
     0
 10
125.168378
 20
196.116391
 30
0.0
  0
POINT
  5
AFEE
  8
DEFPOINTS
 62
     0
 10
123.668378
 20
20.116391
 30
0.0
  0
POINT
  5
AFEF
  8
DEFPOINTS
 62
     0
 10
148.848378
 20
20.116391
 30
0.0
  0
ENDBLK
  5
AF46
  8
0
  0
ENDSEC
  0
SECTION
  2
ENTITIES
  0
INSERT
  5
A
  8
0
  2
COTE
 10
0.0
 20
0.0
 30
0.0
  0
INSERT
  5
17
  8
0
  2
COTE
 10
284.010391
 20
6.373258
 30
0.0
  0
INSERT
  5
72
  8
0
  2
FOND
 10
0.0
 20
0.0
 30
0.0
  0
ARC
  5
AD2A
  8
ALPHA
 10
117.168378
 20
34.616391
 30
0.0
 40
1.5
 50
90.0
 51
180.0
  0
ARC
  5
AD77
  8
ALPHA
 10
123.668378
 20
28.116391
 30
0.0
 40
8.0
 50
180.0
 51
0.0
  0
LINE
  5
AD7A
  8
ALPHA
 10
131.668378
 20
28.116391
 30
0.0
 11
131.668378
 21
34.616391
 31
0.0
  0
LINE
  5
AD7B
  8
ALPHA
 10
115.668378
 20
28.116391
 30
0.0
 11
115.668378
 21
34.616391
 31
0.0
  0
ARC
  5
AD7C
  8
ALPHA
 10
123.668378
 20
23.596391
 30
0.0
 40
0.22
 50
13.0
 51
167.0
  0
ARC
  5
AD7D
  8
ALPHA
 10
123.668378
 20
32.636391
 30
0.0
 40
0.22
 50
193.0
 51
347.0
  0
LINE
  5
AD7E
  8
ALPHA
 10
119.197867
 20
27.90203
 30
0.0
 11
118.763815
 21
27.801821
 31
0.0
  0
ARC
  5
AD7F
  8
ALPHA
 10
123.668378
 20
28.116391
 30
0.0
 40
5.175
 50
217.151216
 51
232.848784
  0
LINE
  5
AD80
  8
ALPHA
 10
119.263617
 20
25.936536
 30
0.0
 11
119.689621
 21
26.066778
 31
0.0
  0
LINE
  5
AD81
  8
ALPHA
 10
119.903983
 20
25.695493
 30
0.0
 11
119.578187
 21
25.391684
 31
0.0
  0
ARC
  5
AD82
  8
ALPHA
 10
119.782786
 20
25.172278
 30
0.0
 40
0.3
 50
133.0
 51
217.151216
  0
ARC
  5
AD83
  8
ALPHA
 10
119.175905
 20
26.223427
 30
0.0
 40
0.3
 50
202.848784
 51
287.0
  0
ARC
  5
AD84
  8
ALPHA
 10
118.8313
 20
27.50951
 30
0.0
 40
0.3
 50
103.0
 51
187.151216
  0
ARC
  5
AD85
  8
ALPHA
 10
123.668378
 20
28.116391
 30
0.0
 40
5.175
 50
187.151216
 51
202.848784
  0
ARC
  5
AD86
  8
ALPHA
 10
123.061497
 20
23.279314
 30
0.0
 40
0.3
 50
262.848784
 51
347.0
  0
ARC
  5
AD87
  8
ALPHA
 10
121.775414
 20
23.623919
 30
0.0
 40
0.3
 50
163.0
 51
247.151216
  0
ARC
  5
AD88
  8
ALPHA
 10
121.408378
 20
24.201956
 30
0.0
 40
0.22
 50
343.0
 51
137.0
  0
ARC
  5
AD89
  8
ALPHA
 10
120.724264
 20
24.2308
 30
0.0
 40
0.3
 50
232.848784
 51
317.0
  0
ARC
  5
AD8A
  8
ALPHA
 10
119.753943
 20
25.856391
 30
0.0
 40
0.22
 50
313.0
 51
107.0
  0
ARC
  5
AD8B
  8
ALPHA
 10
123.668378
 20
28.116391
 30
0.0
 40
5.175
 50
247.151216
 51
262.848784
  0
LINE
  5
AD8C
  8
ALPHA
 10
120.943671
 20
24.0262
 30
0.0
 11
121.24748
 21
24.351996
 31
0.0
  0
LINE
  5
AD8D
  8
ALPHA
 10
121.618765
 20
24.137635
 30
0.0
 11
121.488522
 21
23.71163
 31
0.0
  0
LINE
  5
AD8E
  8
ALPHA
 10
123.353808
 20
23.211828
 30
0.0
 11
123.454016
 21
23.645881
 31
0.0
  0
ARC
  5
AD8F
  8
ALPHA
 10
123.668378
 20
28.116391
 30
0.0
 40
5.175
 50
127.151216
 51
142.848784
  0
LINE
  5
AD90
  8
ALPHA
 10
119.578187
 20
30.841099
 30
0.0
 11
119.903983
 21
30.537289
 31
0.0
  0
LINE
  5
AD91
  8
ALPHA
 10
119.689621
 20
30.166004
 30
0.0
 11
119.263617
 21
30.296247
 31
0.0
  0
ARC
  5
AD92
  8
ALPHA
 10
119.148378
 20
28.116391
 30
0.0
 40
0.22
 50
283.0
 51
77.0
  0
ARC
  5
AD93
  8
ALPHA
 10
118.8313
 20
28.723273
 30
0.0
 40
0.3
 50
172.848784
 51
257.0
  0
ARC
  5
AD94
  8
ALPHA
 10
119.175905
 20
30.009356
 30
0.0
 40
0.3
 50
73.0
 51
157.151216
  0
ARC
  5
AD95
  8
ALPHA
 10
119.782786
 20
31.060505
 30
0.0
 40
0.3
 50
142.848784
 51
227.0
  0
ARC
  5
AD96
  8
ALPHA
 10
123.668378
 20
28.116391
 30
0.0
 40
5.175
 50
157.151216
 51
172.848784
  0
LINE
  5
AD97
  8
ALPHA
 10
118.763815
 20
28.430962
 30
0.0
 11
119.197867
 21
28.330753
 31
0.0
  0
ARC
  5
AD98
  8
ALPHA
 10
119.753943
 20
30.376391
 30
0.0
 40
0.22
 50
253.0
 51
47.0
  0
ARC
  5
AD99
  8
ALPHA
 10
120.724264
 20
32.001983
 30
0.0
 40
0.3
 50
43.0
 51
127.151216
  0
ARC
  5
AD9A
  8
ALPHA
 10
121.408378
 20
32.030826
 30
0.0
 40
0.22
 50
223.0
 51
17.0
  0
ARC
  5
AD9B
  8
ALPHA
 10
121.775414
 20
32.608864
 30
0.0
 40
0.3
 50
112.848784
 51
197.0
  0
ARC
  5
AD9C
  8
ALPHA
 10
123.061497
 20
32.953469
 30
0.0
 40
0.3
 50
13.0
 51
97.151216
  0
ARC
  5
AD9D
  8
ALPHA
 10
123.668378
 20
28.116391
 30
0.0
 40
5.175
 50
97.151216
 51
112.848784
  0
LINE
  5
AD9E
  8
ALPHA
 10
123.454016
 20
32.586902
 30
0.0
 11
123.353808
 21
33.020954
 31
0.0
  0
LINE
  5
AD9F
  8
ALPHA
 10
121.488522
 20
32.521153
 30
0.0
 11
121.618765
 21
32.095148
 31
0.0
  0
LINE
  5
ADA0
  8
ALPHA
 10
121.24748
 20
31.880786
 30
0.0
 11
120.943671
 21
32.206582
 31
0.0
  0
LINE
  5
ADA1
  8
ALPHA
 10
128.572941
 20
27.801821
 30
0.0
 11
128.138889
 21
27.90203
 31
0.0
  0
LINE
  5
ADA2
  8
ALPHA
 10
127.647134
 20
26.066778
 30
0.0
 11
128.073139
 21
25.936536
 31
0.0
  0
ARC
  5
ADA3
  8
ALPHA
 10
125.561342
 20
23.623919
 30
0.0
 40
0.3
 50
292.848784
 51
17.0
  0
ARC
  5
ADA4
  8
ALPHA
 10
124.275259
 20
23.279314
 30
0.0
 40
0.3
 50
193.0
 51
277.151216
  0
ARC
  5
ADA5
  8
ALPHA
 10
125.928378
 20
24.201956
 30
0.0
 40
0.22
 50
43.0
 51
197.0
  0
ARC
  5
ADA6
  8
ALPHA
 10
126.612491
 20
24.2308
 30
0.0
 40
0.3
 50
223.0
 51
307.151216
  0
ARC
  5
ADA7
  8
ALPHA
 10
127.553969
 20
25.172278
 30
0.0
 40
0.3
 50
322.848784
 51
47.0
  0
ARC
  5
ADA8
  8
ALPHA
 10
127.582813
 20
25.856391
 30
0.0
 40
0.22
 50
73.0
 51
227.0
  0
ARC
  5
ADA9
  8
ALPHA
 10
123.668378
 20
28.116391
 30
0.0
 40
5.175
 50
307.151216
 51
322.848784
  0
ARC
  5
ADAA
  8
ALPHA
 10
123.668378
 20
28.116391
 30
0.0
 40
5.175
 50
277.151216
 51
292.848784
  0
LINE
  5
ADAB
  8
ALPHA
 10
123.882739
 20
23.645881
 30
0.0
 11
123.982948
 21
23.211828
 31
0.0
  0
LINE
  5
ADAC
  8
ALPHA
 10
125.848234
 20
23.71163
 30
0.0
 11
125.717991
 21
24.137635
 31
0.0
  0
LINE
  5
ADAD
  8
ALPHA
 10
126.089276
 20
24.351996
 30
0.0
 11
126.393085
 21
24.0262
 31
0.0
  0
LINE
  5
ADAE
  8
ALPHA
 10
127.758569
 20
25.391684
 30
0.0
 11
127.432773
 21
25.695493
 31
0.0
  0
ARC
  5
ADAF
  8
ALPHA
 10
128.160851
 20
26.223427
 30
0.0
 40
0.3
 50
253.0
 51
337.151216
  0
ARC
  5
ADB0
  8
ALPHA
 10
128.505456
 20
27.50951
 30
0.0
 40
0.3
 50
352.848784
 51
77.0
  0
ARC
  5
ADB1
  8
ALPHA
 10
123.668378
 20
28.116391
 30
0.0
 40
5.175
 50
337.151216
 51
352.848784
  0
LINE
  5
ADB2
  8
ALPHA
 10
128.073139
 20
30.296247
 30
0.0
 11
127.647134
 21
30.166004
 31
0.0
  0
ARC
  5
ADB3
  8
ALPHA
 10
124.275259
 20
32.953469
 30
0.0
 40
0.3
 50
82.848784
 51
167.0
  0
ARC
  5
ADB4
  8
ALPHA
 10
125.561342
 20
32.608864
 30
0.0
 40
0.3
 50
343.0
 51
67.151216
  0
ARC
  5
ADB5
  8
ALPHA
 10
125.928378
 20
32.030826
 30
0.0
 40
0.22
 50
163.0
 51
317.0
  0
ARC
  5
ADB6
  8
ALPHA
 10
126.612491
 20
32.001983
 30
0.0
 40
0.3
 50
52.848784
 51
137.0
  0
ARC
  5
ADB7
  8
ALPHA
 10
127.553969
 20
31.060505
 30
0.0
 40
0.3
 50
313.0
 51
37.151216
  0
ARC
  5
ADB8
  8
ALPHA
 10
127.582813
 20
30.376391
 30
0.0
 40
0.22
 50
133.0
 51
287.0
  0
ARC
  5
ADB9
  8
ALPHA
 10
123.668378
 20
28.116391
 30
0.0
 40
5.175
 50
67.151216
 51
82.848784
  0
ARC
  5
ADBA
  8
ALPHA
 10
123.668378
 20
28.116391
 30
0.0
 40
5.175
 50
37.151216
 51
52.848784
  0
LINE
  5
ADBB
  8
ALPHA
 10
127.432773
 20
30.537289
 30
0.0
 11
127.758569
 21
30.841099
 31
0.0
  0
LINE
  5
ADBC
  8
ALPHA
 10
126.393085
 20
32.206582
 30
0.0
 11
126.089276
 21
31.880786
 31
0.0
  0
LINE
  5
ADBD
  8
ALPHA
 10
125.717991
 20
32.095148
 30
0.0
 11
125.848234
 21
32.521153
 31
0.0
  0
LINE
  5
ADBE
  8
ALPHA
 10
123.982948
 20
33.020954
 30
0.0
 11
123.882739
 21
32.586902
 31
0.0
  0
ARC
  5
ADBF
  8
ALPHA
 10
128.160851
 20
30.009356
 30
0.0
 40
0.3
 50
22.848784
 51
107.0
  0
ARC
  5
ADC0
  8
ALPHA
 10
128.188378
 20
28.116391
 30
0.0
 40
0.22
 50
103.0
 51
257.0
  0
ARC
  5
ADC1
  8
ALPHA
 10
128.505456
 20
28.723273
 30
0.0
 40
0.3
 50
283.0
 51
7.151216
  0
ARC
  5
ADC2
  8
ALPHA
 10
123.668378
 20
28.116391
 30
0.0
 40
5.175
 50
7.151216
 51
22.848784
  0
LINE
  5
ADC3
  8
ALPHA
 10
128.138889
 20
28.330753
 30
0.0
 11
128.572941
 21
28.430962
 31
0.0
  0
LINE
  5
ADC4
  8
ALPHA
 10
117.668378
 20
39.116391
 30
0.0
 11
129.668378
 21
39.116391
 31
0.0
  0
LINE
  5
ADC5
  8
ALPHA
 10
129.668378
 20
37.116391
 30
0.0
 11
117.668378
 21
37.116391
 31
0.0
  0
LINE
  5
ADC6
  8
ALPHA
 10
119.699751
 20
35.616391
 30
0.0
 11
127.637005
 21
35.616391
 31
0.0
  0
LINE
  5
ADC7
  8
ALPHA
 10
120.204276
 20
35.116391
 30
0.0
 11
127.13248
 21
35.116391
 31
0.0
  0
LINE
  5
ADC8
  8
ALPHA
 10
123.495173
 20
34.116391
 30
0.0
 11
123.841583
 21
34.116391
 31
0.0
  0
LINE
  5
ADCA
  8
ALPHA
 10
119.668378
 20
36.116391
 30
0.0
 11
119.699751
 21
36.116391
 31
0.0
  0
LINE
  5
ADCB
  8
ALPHA
 10
115.754164
 20
35.116391
 30
0.0
 11
120.204276
 21
35.116391
 31
0.0
  0
ARC
  5
ADCC
  8
ALPHA
 10
118.468378
 20
36.316391
 30
0.0
 40
0.2
 50
270.0
 51
0.0
  0
LINE
  5
ADCD
  8
ALPHA
 10
119.668378
 20
36.116391
 30
0.0
 11
119.668378
 21
37.116391
 31
0.0
  0
LINE
  5
ADCE
  8
ALPHA
 10
118.668378
 20
36.316391
 30
0.0
 11
118.668378
 21
37.116391
 31
0.0
  0
LINE
  5
ADCF
  8
ALPHA
 10
117.668378
 20
37.116391
 30
0.0
 11
117.668378
 21
39.116391
 31
0.0
  0
LINE
  5
ADD0
  8
ALPHA
 10
118.468378
 20
36.116391
 30
0.0
 11
117.168378
 21
36.116391
 31
0.0
  0
LINE
  5
ADD1
  8
ALPHA
 10
120.204276
 20
35.116391
 30
0.0
 11
119.699751
 21
35.616391
 31
0.0
  0
LINE
  5
ADD2
  8
ALPHA
 10
123.668378
 20
34.116391
 30
0.0
 11
123.668378
 21
35.116391
 31
0.0
  0
LINE
  5
ADD3
  8
ALPHA
 10
123.495173
 20
35.116391
 30
0.0
 11
123.495173
 21
34.116391
 31
0.0
  0
LINE
  5
ADD4
  8
ALPHA
 10
119.699751
 20
35.616391
 30
0.0
 11
119.699751
 21
36.116391
 31
0.0
  0
LINE
  5
ADE0
  8
ALPHA
 10
127.13248
 20
35.116391
 30
0.0
 11
131.582591
 21
35.116391
 31
0.0
  0
LINE
  5
ADE1
  8
ALPHA
 10
127.13248
 20
35.116391
 30
0.0
 11
127.637005
 21
35.616391
 31
0.0
  0
LINE
  5
ADE2
  8
ALPHA
 10
127.668378
 20
36.116391
 30
0.0
 11
127.668378
 21
37.116391
 31
0.0
  0
LINE
  5
ADE3
  8
ALPHA
 10
127.637005
 20
35.616391
 30
0.0
 11
127.637005
 21
36.116391
 31
0.0
  0
LINE
  5
ADE4
  8
ALPHA
 10
123.841583
 20
35.116391
 30
0.0
 11
123.841583
 21
34.116391
 31
0.0
  0
LINE
  5
ADE5
  8
ALPHA
 10
127.637005
 20
36.116391
 30
0.0
 11
127.668378
 21
36.116391
 31
0.0
  0
ARC
  5
ADE6
  8
ALPHA
 10
130.168378
 20
34.616391
 30
0.0
 40
1.5
 50
0.0
 51
90.0
  0
ARC
  5
ADE7
  8
ALPHA
 10
128.868378
 20
36.316391
 30
0.0
 40
0.2
 50
180.0
 51
270.0
  0
LINE
  5
ADE8
  8
ALPHA
 10
129.668378
 20
37.116391
 30
0.0
 11
129.668378
 21
39.116391
 31
0.0
  0
LINE
  5
ADE9
  8
ALPHA
 10
128.668378
 20
36.316391
 30
0.0
 11
128.668378
 21
37.116391
 31
0.0
  0
LINE
  5
ADEA
  8
ALPHA
 10
130.168378
 20
36.116391
 30
0.0
 11
128.868378
 21
36.116391
 31
0.0
  0
LINE
  5
AE8A
  8
ALPHA
 10
125.168378
 20
196.116391
 30
0.0
 11
125.168378
 21
89.116391
 31
0.0
  0
LINE
  5
AE8B
  8
ALPHA
 10
122.168378
 20
196.116391
 30
0.0
 11
122.168378
 21
89.116391
 31
0.0
  0
LINE
  5
AEAD
  8
ALPHA
 10
127.668378
 20
87.616391
 30
0.0
 11
127.668378
 21
79.116391
 31
0.0
  0
LINE
  5
AEAE
  8
ALPHA
 10
123.668378
 20
83.116391
 30
0.0
 11
123.668378
 21
79.116391
 31
0.0
  0
LINE
  5
AEAF
  8
ALPHA
 10
119.668378
 20
87.616391
 30
0.0
 11
119.668378
 21
79.116391
 31
0.0
  0
LINE
  5
AEB0
  8
ALPHA
 10
127.668378
 20
79.116391
 30
0.0
 11
119.668378
 21
79.116391
 31
0.0
  0
LINE
  5
AEE7
  8
ALPHA
 10
121.16849
 20
89.116391
 30
0.0
 11
126.168266
 21
89.116391
 31
0.0
  0
LINE
  5
AEE8
  8
ALPHA
 10
119.668378
 20
87.616391
 30
0.0
 11
127.668378
 21
87.616391
 31
0.0
  0
LINE
  5
AEE9
  8
ALPHA
 10
127.668378
 20
83.116391
 30
0.0
 11
119.668378
 21
83.116391
 31
0.0
  0
LINE
  5
AEEA
  8
ALPHA
 10
121.168378
 20
89.116391
 30
0.0
 11
119.668378
 21
87.616391
 31
0.0
  0
LINE
  5
AEEB
  8
ALPHA
 10
126.168378
 20
89.116391
 30
0.0
 11
127.668378
 21
87.616391
 31
0.0
  0
LINE
  5
AEEC
  8
ALPHA
 10
125.168378
 20
196.116391
 30
0.0
 11
122.168378
 21
196.116391
 31
0.0
  0
LINE
  5
AF27
  8
AXE
 10
123.668378
 20
10.116391
 30
0.0
 11
123.668378
 21
201.116391
 31
0.0
  0
DIMENSION
  5
AF28
  8
COTATION1
  2
*D3
 10
131.668378
 20
0.116391
 30
0.0
 11
123.668378
 21
3.366391
 31
0.0
 13
115.668378
 23
28.116391
 33
0.0
 14
131.668378
 24
28.116391
 34
0.0
  0
TEXT
  5
AF29
  8
AXE
 10
118.620759
 20
10.116391
 30
0.0
 40
5.0
  1
Y
 72
     2
 11
122.668378
 21
10.116391
 31
0.0
  0
DIMENSION
  5
AF2A
  8
COTATION1
  2
*D4
 10
148.848378
 20
20.116391
 30
0.0
 11
148.848378
 21
108.116391
 31
0.0
 13
125.168378
 23
196.116391
 33
0.0
 14
123.668378
 24
20.116391
 34
0.0
 50
90.0
  0
LINE
  5
AF2B
  8
AXE
 10
113.492488
 20
28.116391
 30
0.0
 11
133.844267
 21
28.116391
 31
0.0
  0
LINE
  5
AF2C
  8
AXE
 10
114.168378
 20
68.416391
 30
0.0
 11
138.848378
 21
68.416391
 31
0.0
  0
TEXT
  5
AF2D
  8
AXE
 10
134.800759
 20
69.416391
 30
0.0
 40
5.0
  1
X
 72
     2
 11
138.848378
 21
69.416391
 31
0.0
  0
LINE
  5
AF5A
  8
ALPHA
 62
   255
 10
120.226957
 20
35.116391
 30
0.0
 11
120.226957
 21
37.116391
 31
0.0
  0
LINE
  5
AF5B
  8
ALPHA
 10
119.768318
 20
39.117038
 30
0.0
 11
119.768318
 21
79.116391
 31
0.0
  0
LINE
  5
AF5C
  8
ALPHA
 10
127.568438
 20
39.117038
 30
0.0
 11
127.568438
 21
79.116391
 31
0.0
  0
LINE
  5
AF5D
  8
ALPHA
 62
   255
 10
127.109799
 20
35.116391
 30
0.0
 11
127.109799
 21
37.116391
 31
0.0
  0
LINE
  5
AFE1
  8
ALPHA
 62
   255
 10
120.226957
 20
39.116391
 30
0.0
 11
120.226957
 21
79.116391
 31
0.0
  0
LINE
  5
AFE2
  8
ALPHA
 62
   255
 10
127.109799
 20
39.116391
 30
0.0
 11
127.109799
 21
79.116391
 31
0.0
  0
VIEWPORT
  5
494D
 67
     1
  8
0
 10
4.995325
 20
6.556512
 30
0.0
 40
22.70986
 41
13.988421
 68
    -1
 69
     1
1001
ACAD
1000
MVIEW
1002
{
1070
    16
1010
0.0
1020
0.0
1030
0.0
1010
0.0
1020
0.0
1030
1.0
1040
0.0
1040
13.988421
1040
4.995325
1040
6.556512
1040
50.0
1040
0.0
1040
0.0
1070
     0
1070
   100
1070
     1
1070
     1
1070
     0
1070
     0
1070
     0
1070
     0
1040
0.0
1040
0.0
1040
0.0
1040
10.0
1040
10.0
1040
10.0
1040
10.0
1070
     0
1002
{
1002
}
1002
}
  0
ENDSEC
  0
EOF
