  0
SECTION
  2
HEADER
  9
$ACADVER
  1
AC1009
  9
$INSBASE
 10
402.590624
 20
-1.041018
 30
0.0
  9
$EXTMIN
 10
10.844168
 20
2.616391
 30
0.0
  9
$EXTMAX
 10
66.082572
 20
201.116391
 30
0.0
  9
$LIMMIN
 10
-407.970438
 20
-367.832444
  9
$LIMMAX
 10
429.804077
 20
234.370848
  9
$ORTHOMODE
 70
     0
  9
$REGENMODE
 70
     1
  9
$FILLMODE
 70
     1
  9
$QTEXTMODE
 70
     0
  9
$MIRRTEXT
 70
     1
  9
$DRAGMODE
 70
     2
  9
$LTSCALE
 40
10.0
  9
$OSMODE
 70
    35
  9
$ATTMODE
 70
     1
  9
$TEXTSIZE
 40
6.0
  9
$TRACEWID
 40
1.0
  9
$TEXTSTYLE
  7
ROMANS
  9
$CLAYER
  8
ALPHA
  9
$CELTYPE
  6
BYLAYER
  9
$CECOLOR
 62
   256
  9
$DIMSCALE
 40
1.0
  9
$DIMASZ
 40
5.0
  9
$DIMEXO
 40
2.0
  9
$DIMDLI
 40
0.38
  9
$DIMRND
 40
0.0
  9
$DIMDLE
 40
0.0
  9
$DIMEXE
 40
2.5
  9
$DIMTP
 40
0.0
  9
$DIMTM
 40
0.0
  9
$DIMTXT
 40
2.5
  9
$DIMCEN
 40
0.0
  9
$DIMTSZ
 40
0.0
  9
$DIMTOL
 70
     0
  9
$DIMLIM
 70
     0
  9
$DIMTIH
 70
     1
  9
$DIMTOH
 70
     1
  9
$DIMSE1
 70
     0
  9
$DIMSE2
 70
     0
  9
$DIMTAD
 70
     1
  9
$DIMZIN
 70
    12
  9
$DIMBLK
  1
OPEN30
  9
$DIMASO
 70
     1
  9
$DIMSHO
 70
     1
  9
$DIMPOST
  1

  9
$DIMAPOST
  1

  9
$DIMALT
 70
     0
  9
$DIMALTD
 70
     2
  9
$DIMALTF
 40
25.4
  9
$DIMLFAC
 40
1.0
  9
$DIMTOFL
 70
     0
  9
$DIMTVP
 40
0.0
  9
$DIMTIX
 70
     0
  9
$DIMSOXD
 70
     0
  9
$DIMSAH
 70
     0
  9
$DIMBLK1
  1

  9
$DIMBLK2
  1

  9
$DIMSTYLE
  2
SC_DEFAUT
  9
$DIMCLRD
 70
     0
  9
$DIMCLRE
 70
     0
  9
$DIMCLRT
 70
     0
  9
$DIMTFAC
 40
1.0
  9
$DIMGAP
 40
2.0
  9
$LUNITS
 70
     2
  9
$LUPREC
 70
     1
  9
$SKETCHINC
 40
0.1
  9
$FILLETRAD
 40
0.0
  9
$AUNITS
 70
     0
  9
$AUPREC
 70
     0
  9
$MENU
  1
acad
  9
$ELEVATION
 40
0.0
  9
$PELEVATION
 40
0.0
  9
$THICKNESS
 40
0.0
  9
$LIMCHECK
 70
     0
  9
$BLIPMODE
 70
     0
  9
$CHAMFERA
 40
0.0
  9
$CHAMFERB
 40
0.0
  9
$SKPOLY
 70
     0
  9
$TDCREATE
 40
2450373.687919
  9
$TDUPDATE
 40
2453032.669131
  9
$TDINDWG
 40
1.067307
  9
$TDUSRTIMER
 40
1.067307
  9
$USRTIMER
 70
     1
  9
$ANGBASE
 50
0.0
  9
$ANGDIR
 70
     0
  9
$PDMODE
 70
    32
  9
$PDSIZE
 40
0.0
  9
$PLINEWID
 40
0.0
  9
$COORDS
 70
     1
  9
$SPLFRAME
 70
     0
  9
$SPLINETYPE
 70
     6
  9
$SPLINESEGS
 70
     8
  9
$ATTDIA
 70
     0
  9
$ATTREQ
 70
     1
  9
$HANDLING
 70
     1
  9
$HANDSEED
  5
B0B2
  9
$SURFTAB1
 70
     6
  9
$SURFTAB2
 70
     6
  9
$SURFTYPE
 70
     6
  9
$SURFU
 70
     6
  9
$SURFV
 70
     6
  9
$UCSNAME
  2

  9
$UCSORG
 10
0.0
 20
0.0
 30
0.0
  9
$UCSXDIR
 10
1.0
 20
0.0
 30
0.0
  9
$UCSYDIR
 10
0.0
 20
1.0
 30
0.0
  9
$PUCSNAME
  2

  9
$PUCSORG
 10
0.0
 20
0.0
 30
0.0
  9
$PUCSXDIR
 10
1.0
 20
0.0
 30
0.0
  9
$PUCSYDIR
 10
0.0
 20
1.0
 30
0.0
  9
$USERI1
 70
     0
  9
$USERI2
 70
     0
  9
$USERI3
 70
     0
  9
$USERI4
 70
     0
  9
$USERI5
 70
     0
  9
$USERR1
 40
0.0
  9
$USERR2
 40
0.0
  9
$USERR3
 40
0.0
  9
$USERR4
 40
0.0
  9
$USERR5
 40
0.0
  9
$WORLDVIEW
 70
     1
  9
$SHADEDGE
 70
     3
  9
$SHADEDIF
 70
    70
  9
$TILEMODE
 70
     1
  9
$MAXACTVP
 70
    16
  9
$PLIMCHECK
 70
     0
  9
$PEXTMIN
 10
-1.452248
 20
-0.437698
 30
0.0
  9
$PEXTMAX
 10
12.749749
 20
8.310198
 30
0.0
  9
$PLIMMIN
 10
0.0
 20
0.0
  9
$PLIMMAX
 10
12.0
 20
9.0
  9
$UNITMODE
 70
     0
  9
$VISRETAIN
 70
     0
  9
$PLINEGEN
 70
     0
  9
$PSLTSCALE
 70
     0
  0
ENDSEC
  0
SECTION
  2
TABLES
  0
TABLE
  2
VPORT
 70
     2
  0
VPORT
  2
*ACTIVE
 70
     0
 10
0.0
 20
0.0
 11
1.0
 21
1.0
 12
38.465102
 22
101.862418
 13
0.0
 23
0.0
 14
1.0
 24
1.0
 15
10.0
 25
10.0
 16
0.0
 26
0.0
 36
1.0
 17
0.0
 27
0.0
 37
0.0
 40
199.955992
 41
1.466346
 42
50.0
 43
0.0
 44
0.0
 50
0.0
 51
0.0
 71
     0
 72
   100
 73
     1
 74
     0
 75
     0
 76
     0
 77
     0
 78
     0
  0
ENDTAB
  0
TABLE
  2
LTYPE
 70
     2
  0
LTYPE
  2
CONTINUOUS
 70
     0
  3
Solid line
 72
    65
 73
     0
 40
0.0
  0
LTYPE
  2
AXES2
 70
     0
  3
___ _ ___ _ ___ _ ___ _ ___ _ ___ _ ___ _ ___ _
 72
    65
 73
     4
 40
1.125
 49
0.75
 49
-0.125
 49
0.125
 49
-0.125
  0
ENDTAB
  0
TABLE
  2
LAYER
 70
     5
  0
LAYER
  2
0
 70
     0
 62
   255
  6
CONTINUOUS
  0
LAYER
  2
COTATION1
 70
     0
 62
     2
  6
CONTINUOUS
  0
LAYER
  2
AXE
 70
     0
 62
    80
  6
AXES2
  0
LAYER
  2
DEFPOINTS
 70
     0
 62
     7
  6
CONTINUOUS
  0
LAYER
  2
ALPHA
 70
     0
 62
   254
  6
CONTINUOUS
  0
ENDTAB
  0
TABLE
  2
STYLE
 70
     2
  0
STYLE
  2
ROMANS
 70
     0
 40
0.0
 41
1.0
 50
0.0
 71
     0
 42
6.0
  3
romans
  4

  0
STYLE
  2
STANDARD
 70
     0
 40
0.0
 41
1.0
 50
0.0
 71
     0
 42
0.2
  3
txt
  4

  0
ENDTAB
  0
TABLE
  2
VIEW
 70
     0
  0
ENDTAB
  0
TABLE
  2
UCS
 70
     0
  0
ENDTAB
  0
TABLE
  2
APPID
 70
     1
  0
APPID
  2
ACAD
 70
     0
  0
ENDTAB
  0
TABLE
  2
DIMSTYLE
 70
     2
  0
DIMSTYLE
  2
SC_DEFAUT
 70
     0
  3

  4

  5
OPEN30
  6

  7

 40
1.0
 41
5.0
 42
2.0
 43
0.38
 44
2.5
 45
0.0
 46
0.0
 47
0.0
 48
0.0
140
2.5
141
0.0
142
0.0
143
25.4
144
1.0
145
0.0
146
1.0
147
2.0
 71
     0
 72
     0
 73
     1
 74
     1
 75
     0
 76
     0
 77
     1
 78
    12
170
     0
171
     2
172
     0
173
     0
174
     0
175
     0
176
     0
177
     0
178
     0
  0
DIMSTYLE
  2
STANDARD
 70
     0
  3

  4

  5

  6

  7

 40
1.0
 41
0.18
 42
0.0625
 43
0.38
 44
0.18
 45
0.0
 46
0.0
 47
0.0
 48
0.0
140
0.18
141
0.09
142
0.0
143
25.4
144
1.0
145
0.0
146
1.0
147
0.09
 71
     0
 72
     0
 73
     1
 74
     1
 75
     0
 76
     0
 77
     0
 78
     0
170
     0
171
     2
172
     0
173
     0
174
     0
175
     0
176
     0
177
     0
178
     0
  0
ENDTAB
  0
ENDSEC
  0
SECTION
  2
BLOCKS
  0
BLOCK
  8
0
  2
$MODEL_SPACE
 70
     0
 10
0.0
 20
0.0
 30
0.0
  3
$MODEL_SPACE
  1

  0
ENDBLK
  5
B0AB
  8
0
  0
BLOCK
 67
     1
  8
0
  2
$PAPER_SPACE
 70
     0
 10
0.0
 20
0.0
 30
0.0
  3
$PAPER_SPACE
  1

  0
ENDBLK
  5
B0A9
 67
     1
  8
0
  0
BLOCK
  8
0
  2
COTE
 70
     0
 10
0.0
 20
0.0
 30
0.0
  3
COTE
  1

  0
ENDBLK
  5
F
  8
0
  0
BLOCK
  8
0
  2
FOND
 70
     0
 10
0.0
 20
0.0
 30
0.0
  3
FOND
  1

  0
ENDBLK
  5
75
  8
0
  0
BLOCK
  8
0
  2
_OPEN30
 70
     0
 10
0.0
 20
0.0
 30
0.0
  3
_OPEN30
  1

  0
LINE
  5
4B05
  8
COTATION1
 62
     0
 10
-1.0
 20
0.267949
 30
0.0
 11
0.0
 21
0.0
 31
0.0
1001
ACAD
1000
RTLwPs
1070
   158
  0
LINE
  5
4B06
  8
COTATION1
 62
     0
 10
0.0
 20
0.0
 30
0.0
 11
-1.0
 21
-0.267949
 31
0.0
1001
ACAD
1000
RTLwPs
1070
   158
  0
LINE
  5
4B07
  8
COTATION1
 62
     0
 10
0.0
 20
0.0
 30
0.0
 11
-1.0
 21
0.0
 31
0.0
1001
ACAD
1000
RTLwPs
1070
   158
  0
ENDBLK
  5
4B09
  8
0
  0
BLOCK
  8
0
  2
*D3
 70
     1
 10
0.0
 20
0.0
 30
0.0
  3
*D3
  1

  0
LINE
  5
AFF0
  8
COTATION1
 62
     0
 10
14.844168
 20
35.116391
 30
0.0
 11
14.844168
 21
2.616391
 31
0.0
1001
ACAD
1000
RTLwPs
1070
   158
  0
LINE
  5
AFF1
  8
COTATION1
 62
     0
 10
29.844168
 20
18.116391
 30
0.0
 11
29.844168
 21
2.616391
 31
0.0
1001
ACAD
1000
RTLwPs
1070
   158
  0
LINE
  5
AFF2
  8
COTATION1
 62
     0
 10
19.844168
 20
5.116391
 30
0.0
 11
24.844168
 21
5.116391
 31
0.0
1001
ACAD
1000
RTLwPs
1070
   158
  0
INSERT
  5
AFF3
  8
COTATION1
 62
     0
  2
_OPEN30
 10
14.844168
 20
5.116391
 30
0.0
 41
5.0
 42
5.0
 43
5.0
 50
180.0
1001
ACAD
1000
RTLwPs
1070
   158
  0
INSERT
  5
AFF4
  8
COTATION1
 62
     0
  2
_OPEN30
 10
29.844168
 20
5.116391
 30
0.0
 41
5.0
 42
5.0
 43
5.0
1001
ACAD
1000
RTLwPs
1070
   158
  0
TEXT
  5
AFF5
  8
COTATION1
 62
     0
 10
19.784644
 20
7.116391
 30
0.0
 40
2.5
  1
15
1001
ACAD
1000
MTEXTBEGIN
1070
    73
1070
     1
1070
    44
1040
1.0
1070
    74
1070
     0
1000
MTEXTEND
  0
POINT
  5
AFF6
  8
DEFPOINTS
 62
     0
 10
14.844168
 20
37.116391
 30
0.0
  0
POINT
  5
AFF7
  8
DEFPOINTS
 62
     0
 10
29.844168
 20
20.116391
 30
0.0
  0
POINT
  5
AFF8
  8
DEFPOINTS
 62
     0
 10
29.844168
 20
5.116391
 30
0.0
  0
ENDBLK
  5
AF87
  8
0
  0
ENDSEC
  0
SECTION
  2
ENTITIES
  0
INSERT
  5
A
  8
0
  2
COTE
 10
0.0
 20
0.0
 30
0.0
  0
INSERT
  5
17
  8
0
  2
COTE
 10
284.010391
 20
6.373258
 30
0.0
  0
INSERT
  5
72
  8
0
  2
FOND
 10
0.0
 20
0.0
 30
0.0
  0
LINE
  5
ACD0
  8
ALPHA
 10
14.844168
 20
39.116391
 30
0.0
 11
25.844168
 21
39.116391
 31
0.0
  0
LINE
  5
ACD1
  8
ALPHA
 10
14.844168
 20
37.116391
 30
0.0
 11
25.844168
 21
37.116391
 31
0.0
  0
LINE
  5
ACD2
  8
ALPHA
 10
24.344168
 20
35.616391
 30
0.0
 11
20.844168
 21
35.616391
 31
0.0
  0
LINE
  5
ACD3
  8
ALPHA
 10
23.844168
 20
35.116391
 30
0.0
 11
20.844168
 21
35.116391
 31
0.0
  0
LINE
  5
ACD6
  8
ALPHA
 10
16.344168
 20
35.616391
 30
0.0
 11
19.844168
 21
35.616391
 31
0.0
  0
LINE
  5
ACD7
  8
ALPHA
 10
16.844168
 20
35.116391
 30
0.0
 11
19.844168
 21
35.116391
 31
0.0
  0
LINE
  5
ACD9
  8
ALPHA
 10
16.344168
 20
35.616391
 30
0.0
 11
16.344168
 21
37.116391
 31
0.0
  0
LINE
  5
ACDA
  8
ALPHA
 10
14.844168
 20
37.116391
 30
0.0
 11
14.844168
 21
39.116391
 31
0.0
  0
LINE
  5
ACDB
  8
ALPHA
 10
16.844168
 20
35.116391
 30
0.0
 11
16.344168
 21
35.616391
 31
0.0
  0
LINE
  5
ACDE
  8
ALPHA
 10
20.844168
 20
37.116391
 30
0.0
 11
20.844168
 21
39.116391
 31
0.0
  0
LINE
  5
ACDF
  8
ALPHA
 10
20.844168
 20
35.116391
 30
0.0
 11
20.844168
 21
36.116391
 31
0.0
  0
LINE
  5
ACE0
  8
ALPHA
 10
19.844168
 20
35.116391
 30
0.0
 11
19.844168
 21
36.116391
 31
0.0
  0
LINE
  5
ACE1
  8
ALPHA
 10
19.844168
 20
36.116391
 30
0.0
 11
20.844168
 21
36.116391
 31
0.0
  0
LINE
  5
AD2B
  8
ALPHA
 10
29.844168
 20
20.116391
 30
0.0
 11
29.844168
 21
35.116391
 31
0.0
  0
LINE
  5
AD2C
  8
ALPHA
 10
27.844168
 20
20.116391
 30
0.0
 11
27.844168
 21
35.116391
 31
0.0
  0
LINE
  5
AD2D
  8
ALPHA
 10
27.844168
 20
20.116391
 30
0.0
 11
29.844168
 21
20.116391
 31
0.0
  0
LINE
  5
AD2F
  8
ALPHA
 10
27.844168
 20
28.116391
 30
0.0
 11
29.844168
 21
28.116391
 31
0.0
  0
ARC
  5
AD30
  8
ALPHA
 10
25.844168
 20
35.116391
 30
0.0
 40
4.0
 50
0.0
 51
90.0
  0
LINE
  5
AD31
  8
ALPHA
 10
29.659925
 20
36.316391
 30
0.0
 11
27.444193
 21
36.316391
 31
0.0
  0
LINE
  5
AD32
  8
ALPHA
 10
29.717151
 20
36.116391
 30
0.0
 11
27.576219
 21
36.116391
 31
0.0
  0
LINE
  5
AD33
  8
ALPHA
 10
29.844168
 20
34.616391
 30
0.0
 11
27.844168
 21
34.616391
 31
0.0
  0
LINE
  5
AD34
  8
ALPHA
 10
23.844168
 20
35.116391
 30
0.0
 11
24.344168
 21
35.616391
 31
0.0
  0
LINE
  5
AD35
  8
ALPHA
 10
25.144168
 20
37.116391
 30
0.0
 11
25.144168
 21
39.116391
 31
0.0
  0
LINE
  5
AD36
  8
ALPHA
 10
24.644168
 20
37.116391
 30
0.0
 11
24.644168
 21
39.116391
 31
0.0
  0
LINE
  5
AD37
  8
ALPHA
 10
24.344168
 20
35.616391
 30
0.0
 11
24.344168
 21
37.116391
 31
0.0
  0
ARC
  5
AD39
  8
ALPHA
 10
25.844168
 20
35.116391
 30
0.0
 40
2.0
 50
0.0
 51
90.0
  0
LINE
  5
AD3A
  8
ALPHA
 10
25.344168
 20
39.116391
 30
0.0
 11
25.344168
 21
37.116391
 31
0.0
  0
LINE
  5
AE62
  8
ALPHA
 10
21.844168
 20
196.116391
 30
0.0
 11
18.844168
 21
196.116391
 31
0.0
  0
LINE
  5
AE63
  8
ALPHA
 10
17.844168
 20
89.116391
 30
0.0
 11
22.844168
 21
89.116391
 31
0.0
  0
LINE
  5
AE64
  8
ALPHA
 10
16.344168
 20
87.616391
 30
0.0
 11
24.344168
 21
87.616391
 31
0.0
  0
LINE
  5
AE65
  8
ALPHA
 10
24.972429
 20
83.116391
 30
0.0
 11
15.715907
 21
83.116391
 31
0.0
  0
LINE
  5
AE66
  8
ALPHA
 10
24.972429
 20
79.116391
 30
0.0
 11
15.715907
 21
79.116391
 31
0.0
  0
LINE
  5
AE67
  8
ALPHA
 10
18.844168
 20
196.116391
 30
0.0
 11
18.844168
 21
89.116391
 31
0.0
  0
LINE
  5
AE68
  8
ALPHA
 10
18.044168
 20
83.116391
 30
0.0
 11
18.044168
 21
79.116391
 31
0.0
  0
LINE
  5
AE69
  8
ALPHA
 10
15.715907
 20
83.116391
 30
0.0
 11
15.715907
 21
79.116391
 31
0.0
  0
LINE
  5
AE87
  8
ALPHA
 10
16.344168
 20
87.616391
 30
0.0
 11
16.344168
 21
83.116391
 31
0.0
  0
LINE
  5
AE88
  8
ALPHA
 10
17.844168
 20
89.116391
 30
0.0
 11
16.344168
 21
87.616391
 31
0.0
  0
LINE
  5
AE89
  8
ALPHA
 10
21.844168
 20
196.116391
 30
0.0
 11
21.844168
 21
89.116391
 31
0.0
  0
LINE
  5
AE8C
  8
ALPHA
 10
24.972429
 20
83.116391
 30
0.0
 11
24.972429
 21
79.116391
 31
0.0
  0
LINE
  5
AE8D
  8
ALPHA
 10
22.644168
 20
83.116391
 30
0.0
 11
22.644168
 21
79.116391
 31
0.0
  0
LINE
  5
AEAB
  8
ALPHA
 10
24.344168
 20
87.616391
 30
0.0
 11
24.344168
 21
83.116391
 31
0.0
  0
LINE
  5
AEAC
  8
ALPHA
 10
22.844168
 20
89.116391
 30
0.0
 11
24.344168
 21
87.616391
 31
0.0
  0
LINE
  5
AF6B
  8
ALPHA
 62
   255
 10
23.785589
 20
35.116391
 30
0.0
 11
23.785589
 21
37.116391
 31
0.0
  0
LINE
  5
AF6C
  8
ALPHA
 10
24.244228
 20
39.117038
 30
0.0
 11
24.244228
 21
79.116391
 31
0.0
  0
LINE
  5
AF6D
  8
ALPHA
 10
16.444108
 20
39.117038
 30
0.0
 11
16.444108
 21
79.116391
 31
0.0
  0
LINE
  5
AF6E
  8
ALPHA
 62
   255
 10
16.902747
 20
35.116391
 30
0.0
 11
16.902747
 21
37.116391
 31
0.0
  0
LINE
  5
AF6F
  8
AXE
 10
10.844168
 20
68.416391
 30
0.0
 11
35.524168
 21
68.416391
 31
0.0
  0
LINE
  5
AF70
  8
AXE
 10
20.344168
 20
25.116391
 30
0.0
 11
20.344168
 21
201.116391
 31
0.0
  0
TEXT
  5
AF71
  8
AXE
 10
15.296549
 20
25.116391
 30
0.0
 40
5.0
  1
Y
 72
     2
 11
19.344168
 21
25.116391
 31
0.0
  0
TEXT
  5
AF72
  8
AXE
 10
31.476549
 20
69.416391
 30
0.0
 40
5.0
  1
Z
 72
     2
 11
35.524168
 21
69.416391
 31
0.0
  0
DIMENSION
  5
AF73
  8
COTATION1
  2
*D3
 10
29.844168
 20
5.116391
 30
0.0
 11
22.344168
 21
8.366391
 31
0.0
 13
14.844168
 23
37.116391
 33
0.0
 14
29.844168
 24
20.116391
 34
0.0
  0
TEXT
  5
AF74
  8
COTATION1
 10
40.832572
 20
9.766039
 30
0.0
 40
2.5
  1
PLANE_TO_LINE_UP
 41
0.626087
  7
STANDARD
 72
     5
 11
64.832572
 21
9.766039
 31
0.0
  0
LINE
  5
AF75
  8
COTATION1
 10
66.082572
 20
8.516039
 30
0.0
 11
39.582572
 21
8.516039
 31
0.0
  0
LINE
  5
AF76
  8
COTATION1
 10
39.582572
 20
13.516039
 30
0.0
 11
66.082572
 21
13.516039
 31
0.0
  0
LINE
  5
AF77
  8
COTATION1
 10
29.844168
 20
19.116391
 30
0.0
 11
29.844168
 21
4.864764
 31
0.0
  0
SOLID
  5
AF78
  8
COTATION1
 10
29.844168
 20
9.572663
 30
0.0
 11
29.844168
 21
12.459414
 31
0.0
 12
32.344168
 22
11.016039
 32
0.0
 13
32.344168
 23
11.016039
 33
0.0
  0
LINE
  5
AF79
  8
COTATION1
 10
39.582572
 20
8.516039
 30
0.0
 11
39.582572
 21
13.516039
 31
0.0
  0
LINE
  5
AF7A
  8
COTATION1
 10
32.344168
 20
11.016039
 30
0.0
 11
39.582572
 21
11.016039
 31
0.0
  0
LINE
  5
AF7B
  8
COTATION1
 10
66.082572
 20
13.516039
 30
0.0
 11
66.082572
 21
8.516039
 31
0.0
  0
LINE
  5
AFE3
  8
ALPHA
 62
   255
 10
16.902747
 20
39.116391
 30
0.0
 11
16.902747
 21
79.116391
 31
0.0
  0
LINE
  5
AFE4
  8
ALPHA
 62
   255
 10
23.785589
 20
39.116391
 30
0.0
 11
23.785589
 21
79.116391
 31
0.0
  0
VIEWPORT
  5
494D
 67
     1
  8
0
 10
4.995325
 20
6.556512
 30
0.0
 40
22.70986
 41
13.988421
 68
    -1
 69
     1
1001
ACAD
1000
MVIEW
1002
{
1070
    16
1010
0.0
1020
0.0
1030
0.0
1010
0.0
1020
0.0
1030
1.0
1040
0.0
1040
13.988421
1040
4.995325
1040
6.556512
1040
50.0
1040
0.0
1040
0.0
1070
     0
1070
   100
1070
     1
1070
     1
1070
     0
1070
     0
1070
     0
1070
     0
1040
0.0
1040
0.0
1040
0.0
1040
10.0
1040
10.0
1040
10.0
1040
10.0
1070
     0
1002
{
1002
}
1002
}
  0
ENDSEC
  0
EOF
