  0
SECTION
  2
HEADER
  9
$ACADVER
  1
AC1009
  9
$INSBASE
 10
402.590624
 20
-1.041018
 30
0.0
  9
$EXTMIN
 10
-42.960992
 20
-1.667221
 30
0.0
  9
$EXTMAX
 10
109.685621
 20
203.832779
 30
0.0
  9
$LIMMIN
 10
-407.970438
 20
-367.832444
  9
$LIMMAX
 10
429.804077
 20
234.370848
  9
$ORTHOMODE
 70
     1
  9
$REGENMODE
 70
     1
  9
$FILLMODE
 70
     1
  9
$QTEXTMODE
 70
     0
  9
$MIRRTEXT
 70
     1
  9
$DRAGMODE
 70
     2
  9
$LTSCALE
 40
10.0
  9
$OSMODE
 70
    37
  9
$ATTMODE
 70
     1
  9
$TEXTSIZE
 40
6.0
  9
$TRACEWID
 40
1.0
  9
$TEXTSTYLE
  7
ROMANS
  9
$CLAYER
  8
ALPHA
  9
$CELTYPE
  6
BYLAYER
  9
$CECOLOR
 62
   256
  9
$DIMSCALE
 40
1.0
  9
$DIMASZ
 40
5.0
  9
$DIMEXO
 40
2.0
  9
$DIMDLI
 40
0.38
  9
$DIMRND
 40
0.0
  9
$DIMDLE
 40
0.0
  9
$DIMEXE
 40
2.5
  9
$DIMTP
 40
0.0
  9
$DIMTM
 40
0.0
  9
$DIMTXT
 40
2.5
  9
$DIMCEN
 40
0.0
  9
$DIMTSZ
 40
0.0
  9
$DIMTOL
 70
     0
  9
$DIMLIM
 70
     0
  9
$DIMTIH
 70
     1
  9
$DIMTOH
 70
     1
  9
$DIMSE1
 70
     0
  9
$DIMSE2
 70
     0
  9
$DIMTAD
 70
     1
  9
$DIMZIN
 70
    12
  9
$DIMBLK
  1
OPEN30
  9
$DIMASO
 70
     1
  9
$DIMSHO
 70
     1
  9
$DIMPOST
  1

  9
$DIMAPOST
  1

  9
$DIMALT
 70
     0
  9
$DIMALTD
 70
     2
  9
$DIMALTF
 40
25.4
  9
$DIMLFAC
 40
1.0
  9
$DIMTOFL
 70
     0
  9
$DIMTVP
 40
0.0
  9
$DIMTIX
 70
     0
  9
$DIMSOXD
 70
     0
  9
$DIMSAH
 70
     0
  9
$DIMBLK1
  1

  9
$DIMBLK2
  1

  9
$DIMSTYLE
  2
SC_DEFAUT
  9
$DIMCLRD
 70
     0
  9
$DIMCLRE
 70
     0
  9
$DIMCLRT
 70
     0
  9
$DIMTFAC
 40
1.0
  9
$DIMGAP
 40
2.0
  9
$LUNITS
 70
     2
  9
$LUPREC
 70
     1
  9
$SKETCHINC
 40
0.1
  9
$FILLETRAD
 40
5.0
  9
$AUNITS
 70
     0
  9
$AUPREC
 70
     0
  9
$MENU
  1
acad
  9
$ELEVATION
 40
0.0
  9
$PELEVATION
 40
0.0
  9
$THICKNESS
 40
0.0
  9
$LIMCHECK
 70
     0
  9
$BLIPMODE
 70
     0
  9
$CHAMFERA
 40
0.0
  9
$CHAMFERB
 40
0.0
  9
$SKPOLY
 70
     0
  9
$TDCREATE
 40
2450373.687919
  9
$TDUPDATE
 40
2452852.573652
  9
$TDINDWG
 40
1.586749
  9
$TDUSRTIMER
 40
1.586749
  9
$USRTIMER
 70
     1
  9
$ANGBASE
 50
0.0
  9
$ANGDIR
 70
     0
  9
$PDMODE
 70
    32
  9
$PDSIZE
 40
0.0
  9
$PLINEWID
 40
0.0
  9
$COORDS
 70
     1
  9
$SPLFRAME
 70
     0
  9
$SPLINETYPE
 70
     6
  9
$SPLINESEGS
 70
     8
  9
$ATTDIA
 70
     0
  9
$ATTREQ
 70
     1
  9
$HANDLING
 70
     1
  9
$HANDSEED
  5
11DB5
  9
$SURFTAB1
 70
     6
  9
$SURFTAB2
 70
     6
  9
$SURFTYPE
 70
     6
  9
$SURFU
 70
     6
  9
$SURFV
 70
     6
  9
$UCSNAME
  2

  9
$UCSORG
 10
0.0
 20
0.0
 30
0.0
  9
$UCSXDIR
 10
1.0
 20
0.0
 30
0.0
  9
$UCSYDIR
 10
0.0
 20
1.0
 30
0.0
  9
$PUCSNAME
  2

  9
$PUCSORG
 10
0.0
 20
0.0
 30
0.0
  9
$PUCSXDIR
 10
1.0
 20
0.0
 30
0.0
  9
$PUCSYDIR
 10
0.0
 20
1.0
 30
0.0
  9
$USERI1
 70
     0
  9
$USERI2
 70
     0
  9
$USERI3
 70
     0
  9
$USERI4
 70
     0
  9
$USERI5
 70
     0
  9
$USERR1
 40
0.0
  9
$USERR2
 40
0.0
  9
$USERR3
 40
0.0
  9
$USERR4
 40
0.0
  9
$USERR5
 40
0.0
  9
$WORLDVIEW
 70
     1
  9
$SHADEDGE
 70
     3
  9
$SHADEDIF
 70
    70
  9
$TILEMODE
 70
     1
  9
$MAXACTVP
 70
    16
  9
$PLIMCHECK
 70
     0
  9
$PEXTMIN
 10
-1.452248
 20
-0.437698
 30
0.0
  9
$PEXTMAX
 10
12.749749
 20
8.310198
 30
0.0
  9
$PLIMMIN
 10
0.0
 20
0.0
  9
$PLIMMAX
 10
12.0
 20
9.0
  9
$UNITMODE
 70
     0
  9
$VISRETAIN
 70
     0
  9
$PLINEGEN
 70
     0
  9
$PSLTSCALE
 70
     0
  0
ENDSEC
  0
SECTION
  2
TABLES
  0
TABLE
  2
VPORT
 70
     2
  0
VPORT
  2
*ACTIVE
 70
     0
 10
0.0
 20
0.0
 11
1.0
 21
1.0
 12
33.38369
 22
101.081362
 13
0.0
 23
0.0
 14
1.0
 24
1.0
 15
10.0
 25
10.0
 16
0.0
 26
0.0
 36
1.0
 17
0.0
 27
0.0
 37
0.0
 40
207.26859
 41
1.56
 42
50.0
 43
0.0
 44
0.0
 50
0.0
 51
0.0
 71
     0
 72
   100
 73
     1
 74
     0
 75
     0
 76
     0
 77
     0
 78
     0
  0
ENDTAB
  0
TABLE
  2
LTYPE
 70
     3
  0
LTYPE
  2
CONTINUOUS
 70
     0
  3
Solid line
 72
    65
 73
     0
 40
0.0
  0
LTYPE
  2
AXES2
 70
     0
  3
___ _ ___ _ ___ _ ___ _ ___ _ ___ _ ___ _ ___ _
 72
    65
 73
     4
 40
1.125
 49
0.75
 49
-0.125
 49
0.125
 49
-0.125
  0
LTYPE
  2
CACHE2
 70
     0
  3
Caché (x.5) _ _ _ _ _ _ _ _ _ _ _ _ _ _ _ _ _
 72
    65
 73
     2
 40
0.1875
 49
0.125
 49
-0.0625
  0
ENDTAB
  0
TABLE
  2
LAYER
 70
     7
  0
LAYER
  2
0
 70
     0
 62
   255
  6
CONTINUOUS
  0
LAYER
  2
COTATION1
 70
     0
 62
     2
  6
CONTINUOUS
  0
LAYER
  2
AXE
 70
     0
 62
    80
  6
AXES2
  0
LAYER
  2
DEFPOINTS
 70
     0
 62
     7
  6
CONTINUOUS
  0
LAYER
  2
ALPHA
 70
     0
 62
   254
  6
CONTINUOUS
  0
LAYER
  2
ALPHA_FIN
 70
     0
 62
   255
  6
CONTINUOUS
  0
LAYER
  2
POINTILLE_COURT
 70
     0
 62
    41
  6
CACHE2
  0
ENDTAB
  0
TABLE
  2
STYLE
 70
     2
  0
STYLE
  2
ROMANS
 70
     0
 40
0.0
 41
1.0
 50
0.0
 71
     0
 42
6.0
  3
romans
  4

  0
STYLE
  2
STANDARD
 70
     0
 40
0.2
 41
1.0
 50
0.0
 71
     0
 42
0.2
  3
txt
  4

  0
ENDTAB
  0
TABLE
  2
VIEW
 70
     0
  0
ENDTAB
  0
TABLE
  2
UCS
 70
     0
  0
ENDTAB
  0
TABLE
  2
APPID
 70
     1
  0
APPID
  2
ACAD
 70
     0
  0
ENDTAB
  0
TABLE
  2
DIMSTYLE
 70
     1
  0
DIMSTYLE
  2
SC_DEFAUT
 70
     0
  3

  4

  5
OPEN30
  6

  7

 40
1.0
 41
5.0
 42
2.0
 43
0.38
 44
2.5
 45
0.0
 46
0.0
 47
0.0
 48
0.0
140
2.5
141
0.0
142
0.0
143
25.4
144
1.0
145
0.0
146
1.0
147
2.0
 71
     0
 72
     0
 73
     1
 74
     1
 75
     0
 76
     0
 77
     1
 78
    12
170
     0
171
     2
172
     0
173
     0
174
     0
175
     0
176
     0
177
     0
178
     0
  0
ENDTAB
  0
ENDSEC
  0
SECTION
  2
BLOCKS
  0
BLOCK
  8
0
  2
$MODEL_SPACE
 70
     0
 10
0.0
 20
0.0
 30
0.0
  3
$MODEL_SPACE
  1

  0
ENDBLK
  5
11DA2
  8
0
  0
BLOCK
 67
     1
  8
0
  2
$PAPER_SPACE
 70
     0
 10
0.0
 20
0.0
 30
0.0
  3
$PAPER_SPACE
  1

  0
ENDBLK
  5
11DA0
 67
     1
  8
0
  0
BLOCK
  8
0
  2
COTE
 70
     0
 10
0.0
 20
0.0
 30
0.0
  3
COTE
  1

  0
ENDBLK
  5
F
  8
0
  0
BLOCK
  8
0
  2
FOND
 70
     0
 10
0.0
 20
0.0
 30
0.0
  3
FOND
  1

  0
ENDBLK
  5
75
  8
0
  0
BLOCK
  8
0
  2
_OPEN30
 70
     0
 10
0.0
 20
0.0
 30
0.0
  3
_OPEN30
  1

  0
LINE
  5
4B05
  8
COTATION1
 62
     0
 10
-1.0
 20
0.267949
 30
0.0
 11
0.0
 21
0.0
 31
0.0
1001
ACAD
1000
RTLwPs
1070
   158
  0
LINE
  5
4B06
  8
COTATION1
 62
     0
 10
0.0
 20
0.0
 30
0.0
 11
-1.0
 21
-0.267949
 31
0.0
1001
ACAD
1000
RTLwPs
1070
   158
  0
LINE
  5
4B07
  8
COTATION1
 62
     0
 10
0.0
 20
0.0
 30
0.0
 11
-1.0
 21
0.0
 31
0.0
1001
ACAD
1000
RTLwPs
1070
   158
  0
ENDBLK
  5
4B09
  8
0
  0
BLOCK
  8
0
  2
*D3
 70
     1
 10
0.0
 20
0.0
 30
0.0
  3
*D3
  1

  0
LINE
  5
119B0
  8
COTATION1
 62
     0
 10
1.292764
 20
64.832779
 30
0.0
 11
1.292764
 21
-1.667221
 31
0.0
1001
ACAD
1000
RTLwPs
1070
   158
  0
LINE
  5
119B1
  8
COTATION1
 62
     0
 10
53.292764
 20
67.56483
 30
0.0
 11
53.292764
 21
-1.667221
 31
0.0
1001
ACAD
1000
RTLwPs
1070
   158
  0
LINE
  5
119B2
  8
COTATION1
 62
     0
 10
6.292764
 20
0.832779
 30
0.0
 11
48.292764
 21
0.832779
 31
0.0
1001
ACAD
1000
RTLwPs
1070
   158
  0
INSERT
  5
119B3
  8
COTATION1
 62
     0
  2
_OPEN30
 10
1.292764
 20
0.832779
 30
0.0
 41
5.0
 42
5.0
 43
5.0
 50
180.0
1001
ACAD
1000
RTLwPs
1070
   158
  0
INSERT
  5
119B4
  8
COTATION1
 62
     0
  2
_OPEN30
 10
53.292764
 20
0.832779
 30
0.0
 41
5.0
 42
5.0
 43
5.0
1001
ACAD
1000
RTLwPs
1070
   158
  0
TEXT
  5
119B5
  8
COTATION1
 62
     0
 10
24.911812
 20
2.832779
 30
0.0
 40
2.5
  1
52
1001
ACAD
1000
MTEXTBEGIN
1070
    73
1070
     1
1070
    44
1040
1.0
1070
    74
1070
     0
1000
MTEXTEND
1000
MTEXTBEGIN
1070
    73
1070
     1
1070
    44
1040
1.0
1070
    74
1070
     0
1000
MTEXTEND
1000
MTEXTBEGIN
1070
    73
1070
     1
1070
    44
1040
1.0
1070
    74
1070
     0
1000
MTEXTEND
  0
POINT
  5
119B6
  8
DEFPOINTS
 62
     0
 10
1.292764
 20
66.832779
 30
0.0
  0
POINT
  5
119B7
  8
DEFPOINTS
 62
     0
 10
53.292764
 20
69.56483
 30
0.0
  0
POINT
  5
119B8
  8
DEFPOINTS
 62
     0
 10
53.292764
 20
0.832779
 30
0.0
  0
ENDBLK
  5
1127F
  8
0
  0
BLOCK
  8
0
  2
*D4
 70
     1
 10
0.0
 20
0.0
 30
0.0
  3
*D4
  1

  0
LINE
  5
119B9
  8
COTATION1
 62
     0
 10
18.292764
 20
43.832779
 30
0.0
 11
18.292764
 21
28.332779
 31
0.0
1001
ACAD
1000
RTLwPs
1070
   158
  0
LINE
  5
119BA
  8
COTATION1
 62
     0
 10
30.292764
 20
43.832779
 30
0.0
 11
30.292764
 21
28.332779
 31
0.0
1001
ACAD
1000
RTLwPs
1070
   158
  0
LINE
  5
119BB
  8
COTATION1
 62
     0
 10
13.292764
 20
30.832779
 30
0.0
 11
8.292764
 21
30.832779
 31
0.0
1001
ACAD
1000
RTLwPs
1070
   158
  0
LINE
  5
119BC
  8
COTATION1
 62
     0
 10
35.292764
 20
30.832779
 30
0.0
 11
51.31116
 21
30.832779
 31
0.0
1001
ACAD
1000
RTLwPs
1070
   158
  0
INSERT
  5
119BD
  8
COTATION1
 62
     0
  2
_OPEN30
 10
18.292764
 20
30.832779
 30
0.0
 41
5.0
 42
5.0
 43
5.0
1001
ACAD
1000
RTLwPs
1070
   158
  0
INSERT
  5
119BE
  8
COTATION1
 62
     0
  2
_OPEN30
 10
30.292764
 20
30.832779
 30
0.0
 41
5.0
 42
5.0
 43
5.0
 50
180.0
1001
ACAD
1000
RTLwPs
1070
   158
  0
TEXT
  5
119BF
  8
COTATION1
 62
     0
 10
42.049255
 20
32.832779
 30
0.0
 40
2.5
  1
M12
1001
ACAD
1000
MTEXTBEGIN
1070
    73
1070
     1
1070
    44
1040
1.0
1070
    74
1070
     0
1000
MTEXTEND
1000
MTEXTBEGIN
1070
    73
1070
     1
1070
    44
1040
1.0
1070
    74
1070
     0
1000
MTEXTEND
1000
MTEXTBEGIN
1070
    73
1070
     1
1070
    44
1040
1.0
1070
    74
1070
     0
1000
MTEXTEND
  0
POINT
  5
119C0
  8
DEFPOINTS
 62
     0
 10
18.292764
 20
45.832779
 30
0.0
  0
POINT
  5
119C1
  8
DEFPOINTS
 62
     0
 10
30.292764
 20
45.832779
 30
0.0
  0
POINT
  5
119C2
  8
DEFPOINTS
 62
     0
 10
30.292764
 20
30.832779
 30
0.0
  0
ENDBLK
  5
1128C
  8
0
  0
BLOCK
  8
0
  2
*D5
 70
     1
 10
0.0
 20
0.0
 30
0.0
  3
*D5
  1

  0
LINE
  5
119CF
  8
COTATION1
 62
     0
 10
34.672433
 20
106.832779
 30
0.0
 11
63.792764
 21
106.832779
 31
0.0
1001
ACAD
1000
RTLwPs
1070
   158
  0
LINE
  5
119D0
  8
COTATION1
 62
     0
 10
42.292764
 20
66.832779
 30
0.0
 11
63.792764
 21
66.832779
 31
0.0
1001
ACAD
1000
RTLwPs
1070
   158
  0
LINE
  5
119D1
  8
COTATION1
 62
     0
 10
61.292764
 20
101.832779
 30
0.0
 11
61.292764
 21
90.082779
 31
0.0
1001
ACAD
1000
RTLwPs
1070
   158
  0
LINE
  5
119D2
  8
COTATION1
 62
     0
 10
61.292764
 20
71.832779
 30
0.0
 11
61.292764
 21
83.582779
 31
0.0
1001
ACAD
1000
RTLwPs
1070
   158
  0
INSERT
  5
119D3
  8
COTATION1
 62
     0
  2
_OPEN30
 10
61.292764
 20
106.832779
 30
0.0
 41
5.0
 42
5.0
 43
5.0
 50
90.0
1001
ACAD
1000
RTLwPs
1070
   158
  0
INSERT
  5
119D4
  8
COTATION1
 62
     0
  2
_OPEN30
 10
61.292764
 20
66.832779
 30
0.0
 41
5.0
 42
5.0
 43
5.0
 50
270.0
1001
ACAD
1000
RTLwPs
1070
   158
  0
TEXT
  5
119D5
  8
COTATION1
 62
     0
 10
58.911812
 20
85.582779
 30
0.0
 40
2.5
  1
40
1001
ACAD
1000
MTEXTBEGIN
1070
    73
1070
     1
1070
    44
1040
1.0
1070
    74
1070
     0
1000
MTEXTEND
1000
MTEXTBEGIN
1070
    73
1070
     1
1070
    44
1040
1.0
1070
    74
1070
     0
1000
MTEXTEND
1000
MTEXTBEGIN
1070
    73
1070
     1
1070
    44
1040
1.0
1070
    74
1070
     0
1000
MTEXTEND
  0
POINT
  5
119D6
  8
DEFPOINTS
 62
     0
 10
32.672433
 20
106.832779
 30
0.0
  0
POINT
  5
119D7
  8
DEFPOINTS
 62
     0
 10
40.292764
 20
66.832779
 30
0.0
  0
POINT
  5
119D8
  8
DEFPOINTS
 62
     0
 10
61.292764
 20
66.832779
 30
0.0
  0
ENDBLK
  5
11299
  8
0
  0
BLOCK
  8
0
  2
*D6
 70
     1
 10
0.0
 20
0.0
 30
0.0
  3
*D6
  1

  0
LINE
  5
119A7
  8
COTATION1
 62
     0
 10
1.292764
 20
64.832779
 30
0.0
 11
1.292764
 21
8.332779
 31
0.0
1001
ACAD
1000
RTLwPs
1070
   158
  0
LINE
  5
119A8
  8
COTATION1
 62
     0
 10
31.292764
 20
55.832779
 30
0.0
 11
31.292764
 21
8.332779
 31
0.0
1001
ACAD
1000
RTLwPs
1070
   158
  0
LINE
  5
119A9
  8
COTATION1
 62
     0
 10
6.292764
 20
10.832779
 30
0.0
 11
26.292764
 21
10.832779
 31
0.0
1001
ACAD
1000
RTLwPs
1070
   158
  0
INSERT
  5
119AA
  8
COTATION1
 62
     0
  2
_OPEN30
 10
1.292764
 20
10.832779
 30
0.0
 41
5.0
 42
5.0
 43
5.0
 50
180.0
1001
ACAD
1000
RTLwPs
1070
   158
  0
INSERT
  5
119AB
  8
COTATION1
 62
     0
  2
_OPEN30
 10
31.292764
 20
10.832779
 30
0.0
 41
5.0
 42
5.0
 43
5.0
1001
ACAD
1000
RTLwPs
1070
   158
  0
TEXT
  5
119AC
  8
COTATION1
 62
     0
 10
13.911812
 20
12.832779
 30
0.0
 40
2.5
  1
30
1001
ACAD
1000
MTEXTBEGIN
1070
    73
1070
     1
1070
    44
1040
1.0
1070
    74
1070
     0
1000
MTEXTEND
1000
MTEXTBEGIN
1070
    73
1070
     1
1070
    44
1040
1.0
1070
    74
1070
     0
1000
MTEXTEND
1000
MTEXTBEGIN
1070
    73
1070
     1
1070
    44
1040
1.0
1070
    74
1070
     0
1000
MTEXTEND
  0
POINT
  5
119AD
  8
DEFPOINTS
 62
     0
 10
1.292764
 20
66.832779
 30
0.0
  0
POINT
  5
119AE
  8
DEFPOINTS
 62
     0
 10
31.292764
 20
57.832779
 30
0.0
  0
POINT
  5
119AF
  8
DEFPOINTS
 62
     0
 10
31.292764
 20
10.832779
 30
0.0
  0
ENDBLK
  5
112A5
  8
0
  0
BLOCK
  8
0
  2
*D7
 70
     1
 10
0.0
 20
0.0
 30
0.0
  3
*D7
  1

  0
LINE
  5
1199E
  8
COTATION1
 62
     0
 10
6.172433
 20
98.332779
 30
0.0
 11
6.172433
 21
18.332779
 31
0.0
1001
ACAD
1000
RTLwPs
1070
   158
  0
LINE
  5
1199F
  8
COTATION1
 62
     0
 10
26.172433
 20
98.332779
 30
0.0
 11
26.172433
 21
18.332779
 31
0.0
1001
ACAD
1000
RTLwPs
1070
   158
  0
LINE
  5
119A0
  8
COTATION1
 62
     0
 10
11.172433
 20
20.832779
 30
0.0
 11
21.172433
 21
20.832779
 31
0.0
1001
ACAD
1000
RTLwPs
1070
   158
  0
INSERT
  5
119A1
  8
COTATION1
 62
     0
  2
_OPEN30
 10
6.172433
 20
20.832779
 30
0.0
 41
5.0
 42
5.0
 43
5.0
 50
180.0
1001
ACAD
1000
RTLwPs
1070
   158
  0
INSERT
  5
119A2
  8
COTATION1
 62
     0
  2
_OPEN30
 10
26.172433
 20
20.832779
 30
0.0
 41
5.0
 42
5.0
 43
5.0
1001
ACAD
1000
RTLwPs
1070
   158
  0
TEXT
  5
119A3
  8
COTATION1
 62
     0
 10
13.791481
 20
22.832779
 30
0.0
 40
2.5
  1
20
1001
ACAD
1000
MTEXTBEGIN
1070
    73
1070
     1
1070
    44
1040
1.0
1070
    74
1070
     0
1000
MTEXTEND
1000
MTEXTBEGIN
1070
    73
1070
     1
1070
    44
1040
1.0
1070
    74
1070
     0
1000
MTEXTEND
1000
MTEXTBEGIN
1070
    73
1070
     1
1070
    44
1040
1.0
1070
    74
1070
     0
1000
MTEXTEND
  0
POINT
  5
119A4
  8
DEFPOINTS
 62
     0
 10
6.172433
 20
100.332779
 30
0.0
  0
POINT
  5
119A5
  8
DEFPOINTS
 62
     0
 10
26.172433
 20
100.332779
 30
0.0
  0
POINT
  5
119A6
  8
DEFPOINTS
 62
     0
 10
26.172433
 20
20.832779
 30
0.0
  0
ENDBLK
  5
112B1
  8
0
  0
BLOCK
  8
0
  2
*D8
 70
     1
 10
0.0
 20
0.0
 30
0.0
  3
*D8
  1

  0
LINE
  5
119C9
  8
COTATION1
 62
     0
 10
-21.852429
 20
93.482114
 30
0.0
 11
-15.923857
 21
93.482114
 31
0.0
1001
ACAD
1000
RTLwPs
1070
   158
  0
LINE
  5
119CA
  8
COTATION1
 62
     0
 10
-15.923857
 20
93.482114
 30
0.0
 11
-1.53068
 21
102.178528
 31
0.0
1001
ACAD
1000
RTLwPs
1070
   158
  0
TEXT
  5
119CB
  8
COTATION1
 62
     0
 10
-22.090524
 20
95.482114
 30
0.0
 40
2.5
  1
%%c8
1001
ACAD
1000
MTEXTBEGIN
1070
    73
1070
     1
1070
    44
1040
1.0
1070
    74
1070
     0
1000
MTEXTEND
1000
MTEXTBEGIN
1070
    73
1070
     1
1070
    44
1040
1.0
1070
    74
1070
     0
1000
MTEXTEND
1000
MTEXTBEGIN
1070
    73
1070
     1
1070
    44
1040
1.0
1070
    74
1070
     0
1000
MTEXTEND
  0
INSERT
  5
119CC
  8
COTATION1
 62
     0
  2
_OPEN30
 10
2.748827
 20
104.764223
 30
0.0
 41
5.0
 42
5.0
 43
5.0
 50
31.140535
1001
ACAD
1000
RTLwPs
1070
   158
  0
POINT
  5
119CD
  8
DEFPOINTS
 62
     0
 10
2.748827
 20
104.764223
 30
0.0
  0
POINT
  5
119CE
  8
DEFPOINTS
 62
     0
 10
9.596039
 20
108.901335
 30
0.0
  0
ENDBLK
  5
112BA
  8
0
  0
BLOCK
  8
0
  2
*D9
 70
     1
 10
0.0
 20
0.0
 30
0.0
  3
*D9
  1

  0
LINE
  5
119C3
  8
COTATION1
 62
     0
 10
-12.115968
 20
116.592548
 30
0.0
 11
-2.615968
 21
116.592548
 31
0.0
1001
ACAD
1000
RTLwPs
1070
   158
  0
LINE
  5
119C4
  8
COTATION1
 62
     0
 10
-2.615968
 20
116.592548
 30
0.0
 11
1.421407
 21
112.108928
 31
0.0
1001
ACAD
1000
RTLwPs
1070
   158
  0
TEXT
  5
119C5
  8
COTATION1
 62
     0
 10
-12.354063
 20
118.592548
 30
0.0
 40
2.5
  1
%%c4.2
1001
ACAD
1000
MTEXTBEGIN
1070
    73
1070
     1
1070
    44
1040
1.0
1070
    74
1070
     0
1000
MTEXTEND
1000
MTEXTBEGIN
1070
    73
1070
     1
1070
    44
1040
1.0
1070
    74
1070
     0
1000
MTEXTEND
1000
MTEXTBEGIN
1070
    73
1070
     1
1070
    44
1040
1.0
1070
    74
1070
     0
1000
MTEXTEND
  0
INSERT
  5
119C6
  8
COTATION1
 62
     0
  2
_OPEN30
 10
4.7672
 20
108.39333
 30
0.0
 41
5.0
 42
5.0
 43
5.0
 50
312.002156
1001
ACAD
1000
RTLwPs
1070
   158
  0
POINT
  5
119C7
  8
DEFPOINTS
 62
     0
 10
4.7672
 20
108.39333
 30
0.0
  0
POINT
  5
119C8
  8
DEFPOINTS
 62
     0
 10
7.577666
 20
105.272227
 30
0.0
  0
ENDBLK
  5
112C3
  8
0
  0
BLOCK
  8
0
  2
*D10
 70
     1
 10
0.0
 20
0.0
 30
0.0
  3
*D10
  1

  0
LINE
  5
11CF1
  8
COTATION1
 62
     0
 10
18.172433
 20
184.332779
 30
0.0
 11
83.792764
 21
184.332779
 31
0.0
1001
ACAD
1000
RTLwPs
1070
   158
  0
LINE
  5
11CF2
  8
COTATION1
 62
     0
 10
28.292764
 20
66.832779
 30
0.0
 11
83.792764
 21
66.832779
 31
0.0
1001
ACAD
1000
RTLwPs
1070
   158
  0
LINE
  5
11CF3
  8
COTATION1
 62
     0
 10
81.292764
 20
179.332779
 30
0.0
 11
81.292764
 21
128.832779
 31
0.0
1001
ACAD
1000
RTLwPs
1070
   158
  0
LINE
  5
11CF4
  8
COTATION1
 62
     0
 10
81.292764
 20
71.832779
 30
0.0
 11
81.292764
 21
122.332779
 31
0.0
1001
ACAD
1000
RTLwPs
1070
   158
  0
INSERT
  5
11CF5
  8
COTATION1
 62
     0
  2
_OPEN30
 10
81.292764
 20
184.332779
 30
0.0
 41
5.0
 42
5.0
 43
5.0
 50
90.0
1001
ACAD
1000
RTLwPs
1070
   158
  0
INSERT
  5
11CF6
  8
COTATION1
 62
     0
  2
_OPEN30
 10
81.292764
 20
66.832779
 30
0.0
 41
5.0
 42
5.0
 43
5.0
 50
270.0
1001
ACAD
1000
RTLwPs
1070
   158
  0
TEXT
  5
11CF7
  8
COTATION1
 62
     0
 10
73.554669
 20
124.332779
 30
0.0
 40
2.5
  1
93...143
1001
ACAD
1000
MTEXTBEGIN
1070
    73
1070
     1
1070
    44
1040
1.0
1070
    74
1070
     0
1000
MTEXTEND
  0
POINT
  5
11CF8
  8
DEFPOINTS
 62
     0
 10
16.172433
 20
184.332779
 30
0.0
  0
POINT
  5
11CF9
  8
DEFPOINTS
 62
     0
 10
26.292764
 20
66.832779
 30
0.0
  0
POINT
  5
11CFA
  8
DEFPOINTS
 62
     0
 10
81.292764
 20
66.832779
 30
0.0
  0
ENDBLK
  5
11AF7
  8
0
  0
BLOCK
  8
0
  2
*D11
 70
     1
 10
0.0
 20
0.0
 30
0.0
  3
*D11
  1

  0
LINE
  5
11B31
  8
COTATION1
 62
     0
 10
14.172433
 20
184.332779
 30
0.0
 11
-38.08004
 21
184.332779
 31
0.0
1001
ACAD
1000
RTLwPs
1070
   158
  0
LINE
  5
11B32
  8
COTATION1
 62
     0
 10
-2.327567
 20
106.832779
 30
0.0
 11
-38.08004
 21
106.832779
 31
0.0
1001
ACAD
1000
RTLwPs
1070
   158
  0
LINE
  5
11B33
  8
COTATION1
 62
     0
 10
-35.58004
 20
179.332779
 30
0.0
 11
-35.58004
 21
148.832779
 31
0.0
1001
ACAD
1000
RTLwPs
1070
   158
  0
LINE
  5
11B34
  8
COTATION1
 62
     0
 10
-35.58004
 20
111.832779
 30
0.0
 11
-35.58004
 21
142.332779
 31
0.0
1001
ACAD
1000
RTLwPs
1070
   158
  0
INSERT
  5
11B35
  8
COTATION1
 62
     0
  2
_OPEN30
 10
-35.58004
 20
184.332779
 30
0.0
 41
5.0
 42
5.0
 43
5.0
 50
90.0
1001
ACAD
1000
RTLwPs
1070
   158
  0
INSERT
  5
11B36
  8
COTATION1
 62
     0
  2
_OPEN30
 10
-35.58004
 20
106.832779
 30
0.0
 41
5.0
 42
5.0
 43
5.0
 50
270.0
1001
ACAD
1000
RTLwPs
1070
   158
  0
TEXT
  5
11B37
  8
COTATION1
 62
     0
 10
-43.318135
 20
144.332779
 30
0.0
 40
2.5
  1
53...103
1001
ACAD
1000
MTEXTBEGIN
1070
    73
1070
     1
1070
    44
1040
1.0
1070
    74
1070
     0
1000
MTEXTEND
1000
MTEXTBEGIN
1070
    73
1070
     1
1070
    44
1040
1.0
1070
    74
1070
     0
1000
MTEXTEND
1000
MTEXTBEGIN
1070
    73
1070
     1
1070
    44
1040
1.0
1070
    74
1070
     0
1000
MTEXTEND
  0
POINT
  5
11B38
  8
DEFPOINTS
 62
     0
 10
16.172433
 20
184.332779
 30
0.0
  0
POINT
  5
11B39
  8
DEFPOINTS
 62
     0
 10
-0.327567
 20
106.832779
 30
0.0
  0
POINT
  5
11B3A
  8
DEFPOINTS
 62
     0
 10
-35.58004
 20
106.832779
 30
0.0
  0
ENDBLK
  5
11B04
  8
0
  0
BLOCK
  8
0
  2
*D12
 70
     1
 10
0.0
 20
0.0
 30
0.0
  3
*D12
  1

  0
LINE
  5
11B3B
  8
COTATION1
 62
     0
 10
43.121041
 20
166.102223
 30
0.0
 11
34.811518
 21
166.102223
 31
0.0
1001
ACAD
1000
RTLwPs
1070
   158
  0
LINE
  5
11B3C
  8
COTATION1
 62
     0
 10
34.811518
 20
166.102223
 30
0.0
 11
27.568642
 21
170.077667
 31
0.0
1001
ACAD
1000
RTLwPs
1070
   158
  0
TEXT
  5
11B3D
  8
COTATION1
 62
     0
 10
36.573422
 20
168.102223
 30
0.0
 40
2.5
  1
%%c16
1001
ACAD
1000
MTEXTBEGIN
1070
    73
1070
     1
1070
    44
1040
1.0
1070
    74
1070
     0
1000
MTEXTEND
1000
MTEXTBEGIN
1070
    73
1070
     1
1070
    44
1040
1.0
1070
    74
1070
     0
1000
MTEXTEND
1000
MTEXTBEGIN
1070
    73
1070
     1
1070
    44
1040
1.0
1070
    74
1070
     0
1000
MTEXTEND
  0
INSERT
  5
11B3E
  8
COTATION1
 62
     0
  2
_OPEN30
 10
23.185485
 20
172.483479
 30
0.0
 41
5.0
 42
5.0
 43
5.0
 50
151.238651
1001
ACAD
1000
RTLwPs
1070
   158
  0
POINT
  5
11B3F
  8
DEFPOINTS
 62
     0
 10
23.185485
 20
172.483479
 30
0.0
  0
POINT
  5
11B40
  8
DEFPOINTS
 62
     0
 10
9.159381
 20
180.182078
 30
0.0
  0
ENDBLK
  5
11B0D
  8
0
  0
BLOCK
  8
0
  2
*D13
 70
     1
 10
0.0
 20
0.0
 30
0.0
  3
*D13
  1

  0
LINE
  5
11B41
  8
COTATION1
 62
     0
 10
14.172433
 20
184.332779
 30
0.0
 11
-22.021902
 21
184.332779
 31
0.0
1001
ACAD
1000
RTLwPs
1070
   158
  0
LINE
  5
11B42
  8
COTATION1
 62
     0
 10
3.172433
 20
126.332779
 30
0.0
 11
-22.021902
 21
126.332779
 31
0.0
1001
ACAD
1000
RTLwPs
1070
   158
  0
LINE
  5
11B43
  8
COTATION1
 62
     0
 10
-19.521902
 20
179.332779
 30
0.0
 11
-19.521902
 21
161.843698
 31
0.0
1001
ACAD
1000
RTLwPs
1070
   158
  0
LINE
  5
11B44
  8
COTATION1
 62
     0
 10
-19.521902
 20
131.332779
 30
0.0
 11
-19.521902
 21
155.343698
 31
0.0
1001
ACAD
1000
RTLwPs
1070
   158
  0
INSERT
  5
11B45
  8
COTATION1
 62
     0
  2
_OPEN30
 10
-19.521902
 20
184.332779
 30
0.0
 41
5.0
 42
5.0
 43
5.0
 50
90.0
1001
ACAD
1000
RTLwPs
1070
   158
  0
INSERT
  5
11B46
  8
COTATION1
 62
     0
  2
_OPEN30
 10
-19.521902
 20
126.332779
 30
0.0
 41
5.0
 42
5.0
 43
5.0
 50
270.0
1001
ACAD
1000
RTLwPs
1070
   158
  0
TEXT
  5
11B47
  8
COTATION1
 62
     0
 10
-29.640949
 20
157.343698
 30
0.0
 40
2.5
  1
33.5...83.5
1001
ACAD
1000
MTEXTBEGIN
1070
    73
1070
     1
1070
    44
1040
1.0
1070
    74
1070
     0
1000
MTEXTEND
1000
MTEXTBEGIN
1070
    73
1070
     1
1070
    44
1040
1.0
1070
    74
1070
     0
1000
MTEXTEND
1000
MTEXTBEGIN
1070
    73
1070
     1
1070
    44
1040
1.0
1070
    74
1070
     0
1000
MTEXTEND
  0
POINT
  5
11B48
  8
DEFPOINTS
 62
     0
 10
16.172433
 20
184.332779
 30
0.0
  0
POINT
  5
11B49
  8
DEFPOINTS
 62
     0
 10
5.172433
 20
126.332779
 30
0.0
  0
POINT
  5
11B4A
  8
DEFPOINTS
 62
     0
 10
-19.521902
 20
126.332779
 30
0.0
  0
ENDBLK
  5
11B1A
  8
0
  0
BLOCK
  8
0
  2
*D14
 70
     1
 10
0.0
 20
0.0
 30
0.0
  3
*D14
  1

  0
LINE
  5
11B4B
  8
COTATION1
 62
     0
 10
8.172433
 20
171.89923
 30
0.0
 11
8.172433
 21
201.832779
 31
0.0
1001
ACAD
1000
RTLwPs
1070
   158
  0
LINE
  5
11B4C
  8
COTATION1
 62
     0
 10
24.172433
 20
172.332779
 30
0.0
 11
24.172433
 21
201.832779
 31
0.0
1001
ACAD
1000
RTLwPs
1070
   158
  0
LINE
  5
11B4D
  8
COTATION1
 62
     0
 10
13.172433
 20
199.332779
 30
0.0
 11
19.172433
 21
199.332779
 31
0.0
1001
ACAD
1000
RTLwPs
1070
   158
  0
INSERT
  5
11B4E
  8
COTATION1
 62
     0
  2
_OPEN30
 10
8.172433
 20
199.332779
 30
0.0
 41
5.0
 42
5.0
 43
5.0
 50
180.0
1001
ACAD
1000
RTLwPs
1070
   158
  0
INSERT
  5
11B4F
  8
COTATION1
 62
     0
  2
_OPEN30
 10
24.172433
 20
199.332779
 30
0.0
 41
5.0
 42
5.0
 43
5.0
1001
ACAD
1000
RTLwPs
1070
   158
  0
TEXT
  5
11B50
  8
COTATION1
 62
     0
 10
13.612909
 20
201.332779
 30
0.0
 40
2.5
  1
16
1001
ACAD
1000
MTEXTBEGIN
1070
    73
1070
     1
1070
    44
1040
1.0
1070
    74
1070
     0
1000
MTEXTEND
1000
MTEXTBEGIN
1070
    73
1070
     1
1070
    44
1040
1.0
1070
    74
1070
     0
1000
MTEXTEND
1000
MTEXTBEGIN
1070
    73
1070
     1
1070
    44
1040
1.0
1070
    74
1070
     0
1000
MTEXTEND
  0
POINT
  5
11B51
  8
DEFPOINTS
 62
     0
 10
8.172433
 20
169.89923
 30
0.0
  0
POINT
  5
11B52
  8
DEFPOINTS
 62
     0
 10
24.172433
 20
170.332779
 30
0.0
  0
POINT
  5
11B53
  8
DEFPOINTS
 62
     0
 10
24.172433
 20
199.332779
 30
0.0
  0
ENDBLK
  5
11B26
  8
0
  0
BLOCK
  8
0
  2
*D15
 70
     1
 10
0.0
 20
0.0
 30
0.0
  3
*D15
  1

  0
LINE
  5
11CE7
  8
COTATION1
 62
     0
 10
18.172433
 20
184.332779
 30
0.0
 11
103.792764
 21
184.332779
 31
0.0
1001
ACAD
1000
RTLwPs
1070
   158
  0
LINE
  5
11CE8
  8
COTATION1
 62
     0
 10
30.560713
 20
44.832779
 30
0.0
 11
103.792764
 21
44.832779
 31
0.0
1001
ACAD
1000
RTLwPs
1070
   158
  0
LINE
  5
11CE9
  8
COTATION1
 62
     0
 10
101.292764
 20
179.332779
 30
0.0
 11
101.292764
 21
117.832779
 31
0.0
1001
ACAD
1000
RTLwPs
1070
   158
  0
LINE
  5
11CEA
  8
COTATION1
 62
     0
 10
101.292764
 20
49.832779
 30
0.0
 11
101.292764
 21
111.332779
 31
0.0
1001
ACAD
1000
RTLwPs
1070
   158
  0
INSERT
  5
11CEB
  8
COTATION1
 62
     0
  2
_OPEN30
 10
101.292764
 20
184.332779
 30
0.0
 41
5.0
 42
5.0
 43
5.0
 50
90.0
1001
ACAD
1000
RTLwPs
1070
   158
  0
INSERT
  5
11CEC
  8
COTATION1
 62
     0
  2
_OPEN30
 10
101.292764
 20
44.832779
 30
0.0
 41
5.0
 42
5.0
 43
5.0
 50
270.0
1001
ACAD
1000
RTLwPs
1070
   158
  0
TEXT
  5
11CED
  8
COTATION1
 62
     0
 10
92.185621
 20
113.332779
 30
0.0
 40
2.5
  1
115...165
1001
ACAD
1000
MTEXTBEGIN
1070
    73
1070
     1
1070
    44
1040
1.0
1070
    74
1070
     0
1000
MTEXTEND
  0
POINT
  5
11CEE
  8
DEFPOINTS
 62
     0
 10
16.172433
 20
184.332779
 30
0.0
  0
POINT
  5
11CEF
  8
DEFPOINTS
 62
     0
 10
28.560713
 20
44.832779
 30
0.0
  0
POINT
  5
11CF0
  8
DEFPOINTS
 62
     0
 10
101.292764
 20
44.832779
 30
0.0
  0
ENDBLK
  5
11BC0
  8
0
  0
BLOCK
  8
0
  2
*D16
 70
     1
 10
0.0
 20
0.0
 30
0.0
  3
*D16
  1

  0
LINE
  5
11D13
  8
COTATION1
 62
     0
 10
18.172433
 20
116.832779
 30
0.0
 11
73.792764
 21
116.832779
 31
0.0
1001
ACAD
1000
RTLwPs
1070
   158
  0
LINE
  5
11D14
  8
COTATION1
 62
     0
 10
52.292764
 20
66.832779
 30
0.0
 11
73.792764
 21
66.832779
 31
0.0
1001
ACAD
1000
RTLwPs
1070
   158
  0
LINE
  5
11D15
  8
COTATION1
 62
     0
 10
71.292764
 20
111.832779
 30
0.0
 11
71.292764
 21
95.082779
 31
0.0
1001
ACAD
1000
RTLwPs
1070
   158
  0
LINE
  5
11D16
  8
COTATION1
 62
     0
 10
71.292764
 20
71.832779
 30
0.0
 11
71.292764
 21
88.582779
 31
0.0
1001
ACAD
1000
RTLwPs
1070
   158
  0
INSERT
  5
11D17
  8
COTATION1
 62
     0
  2
_OPEN30
 10
71.292764
 20
116.832779
 30
0.0
 41
5.0
 42
5.0
 43
5.0
 50
90.0
1001
ACAD
1000
RTLwPs
1070
   158
  0
INSERT
  5
11D18
  8
COTATION1
 62
     0
  2
_OPEN30
 10
71.292764
 20
66.832779
 30
0.0
 41
5.0
 42
5.0
 43
5.0
 50
270.0
1001
ACAD
1000
RTLwPs
1070
   158
  0
TEXT
  5
11D19
  8
COTATION1
 62
     0
 10
68.911812
 20
90.582779
 30
0.0
 40
2.5
  1
50
1001
ACAD
1000
MTEXTBEGIN
1070
    73
1070
     1
1070
    44
1040
1.0
1070
    74
1070
     0
1000
MTEXTEND
  0
POINT
  5
11D1A
  8
DEFPOINTS
 62
     0
 10
16.172433
 20
116.832779
 30
0.0
  0
POINT
  5
11D1B
  8
DEFPOINTS
 62
     0
 10
50.292764
 20
66.832779
 30
0.0
  0
POINT
  5
11D1C
  8
DEFPOINTS
 62
     0
 10
71.292764
 20
66.832779
 30
0.0
  0
ENDBLK
  5
11D08
  8
0
  0
ENDSEC
  0
SECTION
  2
ENTITIES
  0
INSERT
  5
A
  8
0
  2
COTE
 10
0.0
 20
0.0
 30
0.0
  0
INSERT
  5
17
  8
0
  2
COTE
 10
284.010391
 20
6.373258
 30
0.0
  0
INSERT
  5
72
  8
0
  2
FOND
 10
0.0
 20
0.0
 30
0.0
  0
POLYLINE
  5
111B4
  8
ALPHA
 66
     1
 10
0.0
 20
0.0
 30
0.0
 70
   128
210
0.0
220
0.0
230
-1.0
  0
VERTEX
  5
11DA8
  8
ALPHA
 10
-19.618278
 20
111.949789
 30
0.0
  0
VERTEX
  5
11DA9
  8
ALPHA
 10
-19.028771
 20
109.586374
 30
0.0
  0
VERTEX
  5
11DAA
  8
ALPHA
 10
-18.254462
 20
107.017873
 30
0.0
  0
VERTEX
  5
11DAB
  8
ALPHA
 10
-17.299943
 20
104.955335
 30
0.0
  0
VERTEX
  5
11DAC
  8
ALPHA
 10
-16.756541
 20
104.336006
 30
0.0
  0
VERTEX
  5
11DAD
  8
ALPHA
 10
-16.169808
 20
104.109812
 30
0.0
  0
VERTEX
  5
11DAE
  8
ALPHA
 10
-15.583077
 20
104.336006
 30
0.0
  0
VERTEX
  5
11DAF
  8
ALPHA
 10
-15.039682
 20
104.955335
 30
0.0
  0
VERTEX
  5
11DB0
  8
ALPHA
 10
-14.085227
 20
107.017873
 30
0.0
  0
VERTEX
  5
11DB1
  8
ALPHA
 10
-13.311091
 20
109.586374
 30
0.0
  0
VERTEX
  5
11DB2
  8
ALPHA
 10
-12.721921
 20
111.949789
 30
0.0
  0
SEQEND
  5
11DB3
  8
ALPHA
  0
LINE
  5
111BD
  8
AXE
 10
16.172433
 20
189.332779
 30
0.0
 11
16.172433
 21
40.832779
 31
0.0
  0
DIMENSION
  5
111BF
  8
COTATION1
  2
*D3
 10
53.292764
 20
0.832779
 30
0.0
 11
27.292764
 21
4.082779
 31
0.0
 13
1.292764
 23
66.832779
 33
0.0
 14
53.292764
 24
69.56483
 34
0.0
  0
DIMENSION
  5
111C0
  8
COTATION1
  2
*D4
 10
30.292764
 20
30.832779
 30
0.0
 11
45.918303
 21
30.832779
 31
0.0
 70
   128
  1
M<>
 13
18.292764
 23
45.832779
 33
0.0
 14
30.292764
 24
45.832779
 34
0.0
  0
LINE
  5
111C1
  8
POINTILLE_COURT
 10
41.292764
 20
78.75927
 30
0.0
 11
52.912555
 21
78.75927
 31
0.0
  0
LINE
  5
111C2
  8
POINTILLE_COURT
 10
52.292764
 20
79.832779
 30
0.0
 11
41.292764
 21
79.832779
 31
0.0
  0
LINE
  5
111C3
  8
POINTILLE_COURT
 10
41.292764
 20
68.906288
 30
0.0
 11
52.912555
 21
68.906288
 31
0.0
  0
LINE
  5
111C4
  8
POINTILLE_COURT
 10
52.292764
 20
67.832779
 30
0.0
 11
41.292764
 21
67.832779
 31
0.0
  0
TEXT
  5
111C5
  8
AXE
 10
37.316574
 20
92.832779
 30
0.0
 40
8.0
  1
X
 72
     2
 11
43.792764
 21
92.832779
 31
0.0
  0
LINE
  5
111C6
  8
AXE
 10
-3.707236
 20
91.832779
 30
0.0
 11
43.792764
 21
91.832779
 31
0.0
  0
DIMENSION
  5
111C7
  8
COTATION1
  2
*D5
 10
61.292764
 20
66.832779
 30
0.0
 11
61.292764
 21
86.832779
 31
0.0
 13
32.672433
 23
106.832779
 33
0.0
 14
40.292764
 24
66.832779
 34
0.0
 50
90.0
  0
DIMENSION
  5
111C8
  8
COTATION1
  2
*D6
 10
31.292764
 20
10.832779
 30
0.0
 11
16.292764
 21
14.082779
 31
0.0
 13
1.292764
 23
66.832779
 33
0.0
 14
31.292764
 24
57.832779
 34
0.0
  0
DIMENSION
  5
111C9
  8
COTATION1
  2
*D7
 10
26.172433
 20
20.832779
 30
0.0
 11
16.172433
 21
24.082779
 31
0.0
 13
6.172433
 23
100.332779
 33
0.0
 14
26.172433
 24
100.332779
 34
0.0
  0
LINE
  5
111CA
  8
ALPHA
 10
31.292764
 20
80.832779
 30
0.0
 11
17.292764
 21
66.832779
 31
0.0
  0
LINE
  5
111CB
  8
POINTILLE_COURT
 10
40.292764
 20
80.832779
 30
0.0
 11
40.292764
 21
73.832779
 31
0.0
  0
LINE
  5
111CC
  8
POINTILLE_COURT
 10
41.292764
 20
79.832779
 30
0.0
 11
41.292764
 21
73.832779
 31
0.0
  0
LINE
  5
111CD
  8
ALPHA
 10
1.292764
 20
66.832779
 30
0.0
 11
1.292764
 21
114.832779
 31
0.0
  0
LINE
  5
111CE
  8
ALPHA
 10
31.292764
 20
57.832779
 30
0.0
 11
31.292764
 21
114.832779
 31
0.0
  0
LINE
  5
111CF
  8
ALPHA
 10
1.292764
 20
68.832779
 30
0.0
 11
19.292764
 21
68.832779
 31
0.0
  0
TEXT
  5
111D0
  8
AXE
 10
8.696242
 20
40.832779
 30
0.0
 40
8.0
  1
Y
 72
     2
 11
15.172433
 21
40.832779
 31
0.0
  0
LINE
  5
111D1
  8
ALPHA
 10
1.292764
 20
66.832779
 30
0.0
 11
31.292764
 21
66.832779
 31
0.0
  0
LINE
  5
111D2
  8
ALPHA
 10
18.292764
 20
45.832779
 30
0.0
 11
18.292764
 21
56.832779
 31
0.0
  0
LINE
  5
111D3
  8
ALPHA_FIN
 10
19.366273
 20
56.832779
 30
0.0
 11
19.366273
 21
45.212988
 31
0.0
  0
LINE
  5
111D4
  8
ALPHA
 10
30.292764
 20
45.832779
 30
0.0
 11
30.292764
 21
56.832779
 31
0.0
  0
LINE
  5
111D5
  8
ALPHA_FIN
 10
29.219255
 20
56.832779
 30
0.0
 11
29.219255
 21
45.212988
 31
0.0
  0
LINE
  5
111D6
  8
ALPHA
 10
24.292764
 20
45.832779
 30
0.0
 11
30.292764
 21
45.832779
 31
0.0
  0
LINE
  5
111D7
  8
ALPHA
 10
24.292764
 20
44.832779
 30
0.0
 11
28.560713
 21
44.832779
 31
0.0
  0
LINE
  5
111D8
  8
ALPHA
 10
18.292764
 20
45.832779
 30
0.0
 11
20.024815
 21
44.832779
 31
0.0
  0
LINE
  5
111D9
  8
ALPHA
 10
24.292764
 20
45.832779
 30
0.0
 11
18.292764
 21
45.832779
 31
0.0
  0
LINE
  5
111DA
  8
ALPHA
 10
24.292764
 20
44.832779
 30
0.0
 11
20.024815
 21
44.832779
 31
0.0
  0
LINE
  5
111DB
  8
ALPHA
 10
30.292764
 20
45.832779
 30
0.0
 11
28.560713
 21
44.832779
 31
0.0
  0
LINE
  5
111DC
  8
ALPHA
 10
30.292764
 20
56.832779
 30
0.0
 11
24.292764
 21
56.832779
 31
0.0
  0
LINE
  5
111DD
  8
ALPHA
 10
31.292764
 20
57.832779
 30
0.0
 11
24.292764
 21
57.832779
 31
0.0
  0
LINE
  5
111DE
  8
ALPHA
 10
17.292764
 20
66.832779
 30
0.0
 11
17.292764
 21
57.832779
 31
0.0
  0
LINE
  5
111DF
  8
ALPHA
 10
18.292764
 20
56.832779
 30
0.0
 11
17.292764
 21
57.832779
 31
0.0
  0
LINE
  5
111E0
  8
ALPHA
 10
17.292764
 20
57.832779
 30
0.0
 11
24.292764
 21
57.832779
 31
0.0
  0
LINE
  5
111E1
  8
ALPHA
 10
18.292764
 20
56.832779
 30
0.0
 11
24.292764
 21
56.832779
 31
0.0
  0
LINE
  5
111E2
  8
ALPHA
 10
30.292764
 20
56.832779
 30
0.0
 11
31.292764
 21
57.832779
 31
0.0
  0
LINE
  5
111E3
  8
POINTILLE_COURT
 10
31.292764
 20
66.832779
 30
0.0
 11
40.292764
 21
66.832779
 31
0.0
  0
LINE
  5
111E4
  8
POINTILLE_COURT
 10
41.292764
 20
67.832779
 30
0.0
 11
41.292764
 21
73.832779
 31
0.0
  0
LINE
  5
111E5
  8
POINTILLE_COURT
 10
40.292764
 20
66.832779
 30
0.0
 11
40.292764
 21
73.832779
 31
0.0
  0
LINE
  5
111E6
  8
POINTILLE_COURT
 10
41.292764
 20
67.832779
 30
0.0
 11
40.292764
 21
66.832779
 31
0.0
  0
LINE
  5
111E7
  8
ALPHA
 10
6.810592
 20
111.94979
 30
0.0
 11
8.172433
 21
111.94979
 31
0.0
  0
LINE
  5
111E8
  8
ALPHA
 10
25.53019
 20
114.116382
 30
0.0
 11
24.172433
 21
114.116382
 31
0.0
  0
DIMENSION
  5
111E9
  8
COTATION1
  2
*D8
 10
9.596039
 20
108.901335
 30
0.0
 11
-19.888143
 21
93.482114
 31
0.0
 70
   131
 15
2.748827
 25
104.764223
 35
0.0
 40
0.0
  0
LINE
  5
111EA
  8
AXE
 10
-0.327567
 20
106.832779
 30
0.0
 11
12.672433
 21
106.832779
 31
0.0
  0
ARC
  5
111EB
  8
ALPHA
 10
6.172433
 20
106.832779
 30
0.0
 40
4.0
 50
60.0
 51
300.0
  0
ARC
  5
111EC
  8
ALPHA
 10
16.292764
 20
59.586399
 30
0.0
 40
57.246507
 50
74.809764
 51
82.088431
  0
DIMENSION
  5
111EF
  8
COTATION1
  2
*D9
 10
7.577666
 20
105.272227
 30
0.0
 11
-8.365968
 21
116.592548
 31
0.0
 70
   131
 15
4.7672
 25
108.39333
 35
0.0
 40
0.0
  0
LINE
  5
111F0
  8
AXE
 10
6.172433
 20
100.332779
 30
0.0
 11
6.172433
 21
113.332779
 31
0.0
  0
CIRCLE
  5
111F1
  8
ALPHA
 10
6.172433
 20
106.832779
 30
0.0
 40
2.1
  0
LINE
  5
111F2
  8
ALPHA
 10
6.810592
 20
114.116382
 30
0.0
 11
6.810592
 21
111.94979
 31
0.0
  0
LINE
  5
111F5
  8
POINTILLE_COURT
 10
40.292764
 20
80.832779
 30
0.0
 11
31.292764
 21
80.832779
 31
0.0
  0
LINE
  5
111F6
  8
POINTILLE_COURT
 10
41.292764
 20
79.832779
 30
0.0
 11
40.292764
 21
80.832779
 31
0.0
  0
LINE
  5
111F7
  8
AXE
 10
32.672433
 20
106.832779
 30
0.0
 11
19.672433
 21
106.832779
 31
0.0
  0
CIRCLE
  5
111F8
  8
ALPHA
 10
26.172433
 20
106.832779
 30
0.0
 40
2.1
  0
ARC
  5
111F9
  8
ALPHA
 10
26.172433
 20
106.832779
 30
0.0
 40
4.0
 50
240.0
 51
120.0
  0
LINE
  5
111FA
  8
ALPHA
 10
16.663197
 20
111.94979
 30
0.0
 11
19.672433
 21
111.94979
 31
0.0
  0
LINE
  5
111FE
  8
ALPHA
 10
16.663197
 20
112.934817
 30
0.0
 11
16.663197
 21
111.94979
 31
0.0
  0
LINE
  5
111FF
  8
ALPHA
 10
15.678168
 20
112.934817
 30
0.0
 11
16.663197
 21
112.934817
 31
0.0
  0
LINE
  5
11200
  8
ALPHA
 10
15.678168
 20
111.94979
 30
0.0
 11
15.678168
 21
112.934817
 31
0.0
  0
LINE
  5
11203
  8
ALPHA
 10
25.53019
 20
111.94979
 30
0.0
 11
25.53019
 21
114.116382
 31
0.0
  0
LINE
  5
11207
  8
AXE
 10
26.172433
 20
100.332779
 30
0.0
 11
26.172433
 21
113.332779
 31
0.0
  0
LINE
  5
1120A
  8
POINTILLE_COURT
 10
53.292764
 20
73.832779
 30
0.0
 11
53.292764
 21
78.100728
 31
0.0
  0
LINE
  5
1120B
  8
POINTILLE_COURT
 10
52.292764
 20
73.832779
 30
0.0
 11
52.292764
 21
79.832779
 31
0.0
  0
LINE
  5
1120C
  8
POINTILLE_COURT
 10
53.292764
 20
73.832779
 30
0.0
 11
53.292764
 21
69.56483
 31
0.0
  0
LINE
  5
1120D
  8
POINTILLE_COURT
 10
52.292764
 20
73.832779
 30
0.0
 11
52.292764
 21
67.832779
 31
0.0
  0
LINE
  5
1120E
  8
POINTILLE_COURT
 10
52.292764
 20
67.832779
 30
0.0
 11
53.292764
 21
69.56483
 31
0.0
  0
LINE
  5
1120F
  8
POINTILLE_COURT
 10
52.292764
 20
79.832779
 30
0.0
 11
53.292764
 21
78.100728
 31
0.0
  0
LINE
  5
11AC7
  8
ALPHA
 10
24.172433
 20
170.332779
 30
0.0
 11
24.172433
 21
84.332779
 31
0.0
  0
LINE
  5
11AC8
  8
ALPHA
 10
8.172433
 20
170.332779
 30
0.0
 11
8.172433
 21
84.332779
 31
0.0
  0
DIMENSION
  5
11AC9
  8
COTATION1
  2
*D10
 10
81.292764
 20
66.832779
 30
0.0
 11
81.292764
 21
125.582779
 31
0.0
  1
93...143
 13
16.172433
 23
184.332779
 33
0.0
 14
26.292764
 24
66.832779
 34
0.0
 50
90.0
  0
DIMENSION
  5
11ACA
  8
COTATION1
  2
*D11
 10
-35.58004
 20
106.832779
 30
0.0
 11
-35.58004
 21
145.582779
 31
0.0
 70
   128
  1
53...103
 13
16.172433
 23
184.332779
 33
0.0
 14
-0.327567
 24
106.832779
 34
0.0
 50
90.0
  0
DIMENSION
  5
11ACB
  8
COTATION1
  2
*D13
 10
-19.521902
 20
126.332779
 30
0.0
 11
-19.521902
 21
158.593698
 31
0.0
 70
   128
  1
33.5...83.5
 13
16.172433
 23
184.332779
 33
0.0
 14
5.172433
 24
126.332779
 34
0.0
 50
90.0
  0
CIRCLE
  5
11ACC
  8
ALPHA
 10
16.172433
 20
176.332779
 30
0.0
 40
8.0
  0
DIMENSION
  5
11ACD
  8
COTATION1
  2
*D12
 10
9.159381
 20
180.182078
 30
0.0
 11
39.966279
 21
166.102223
 31
0.0
 70
   131
 15
23.185485
 25
172.483479
 35
0.0
 40
0.0
1001
ACAD
1000
DSTYLE
1002
{
1070
   288
1070
     1
1002
}
  0
ARC
  5
11ACE
  8
ALPHA
 10
16.172433
 20
159.332779
 30
0.0
 40
3.5
 50
0.0
 51
180.0
  0
LINE
  5
11ACF
  8
ALPHA
 10
12.672433
 20
159.332779
 30
0.0
 11
12.672433
 21
131.810004
 31
0.0
  0
LINE
  5
11AD0
  8
ALPHA
 10
19.672433
 20
159.332779
 30
0.0
 11
19.672433
 21
131.810004
 31
0.0
  0
CIRCLE
  5
11AD1
  8
ALPHA
 10
16.172433
 20
176.332779
 30
0.0
 40
4.0
  0
DIMENSION
  5
11AD2
  8
COTATION1
  2
*D14
 10
24.172433
 20
199.332779
 30
0.0
 11
16.172433
 21
202.582779
 31
0.0
 13
8.172433
 23
169.89923
 33
0.0
 14
24.172433
 24
170.332779
 34
0.0
  0
LINE
  5
11AD3
  8
AXE
 10
27.172433
 20
176.332779
 30
0.0
 11
5.172433
 21
176.332779
 31
0.0
  0
LINE
  5
11AD4
  8
ALPHA
 10
9.03853
 20
172.712361
 30
0.0
 11
8.172433
 21
170.332779
 31
0.0
  0
LINE
  5
11AD5
  8
ALPHA
 10
23.306336
 20
172.712361
 30
0.0
 11
24.172433
 21
170.332779
 31
0.0
  0
CIRCLE
  5
11AD6
  8
ALPHA
 10
16.172433
 20
126.332779
 30
0.0
 40
6.5
  0
CIRCLE
  5
11AD7
  8
ALPHA
 10
16.172433
 20
126.332779
 30
0.0
 40
5.026506
  0
ARC
  5
11AD8
  8
ALPHA
 10
16.172433
 20
126.332779
 30
0.0
 40
10.0
 50
69.512685
 51
110.487315
  0
LINE
  5
11AD9
  8
ALPHA
 10
18.518988
 20
129.673966
 30
0.0
 11
16.172433
 21
127.328521
 31
0.0
  0
LINE
  5
11ADA
  8
ALPHA
 10
17.168178
 20
126.332779
 30
0.0
 11
19.513065
 21
128.679334
 31
0.0
  0
CIRCLE
  5
11ADB
  8
ALPHA
 10
16.172433
 20
126.332779
 30
0.0
 40
4.021871
  0
LINE
  5
11ADC
  8
AXE
 10
5.172433
 20
126.332779
 30
0.0
 11
27.172433
 21
126.332779
 31
0.0
  0
LINE
  5
11ADD
  8
ALPHA
 10
16.172433
 20
125.338146
 30
0.0
 11
17.273752
 21
124.235714
 31
0.0
  0
LINE
  5
11ADE
  8
ALPHA
 10
17.273752
 20
124.235714
 30
0.0
 11
18.269494
 21
125.231459
 31
0.0
  0
LINE
  5
11ADF
  8
ALPHA
 10
18.269494
 20
125.231459
 30
0.0
 11
17.168178
 21
126.332779
 31
0.0
  0
LINE
  5
11AE0
  8
ALPHA
 10
15.070559
 20
128.42984
 30
0.0
 11
14.074814
 21
127.434098
 31
0.0
  0
LINE
  5
11AE1
  8
ALPHA
 10
14.074814
 20
127.434098
 30
0.0
 11
15.177801
 21
126.332779
 31
0.0
  0
LINE
  5
11AE2
  8
ALPHA
 10
15.177801
 20
126.332779
 30
0.0
 11
12.831246
 21
123.987334
 31
0.0
  0
LINE
  5
11AE3
  8
ALPHA
 10
16.172433
 20
127.328521
 30
0.0
 11
15.070559
 21
128.42984
 31
0.0
  0
LINE
  5
11AE4
  8
ALPHA
 10
13.826991
 20
122.991592
 30
0.0
 11
16.172433
 21
125.338146
 31
0.0
  0
LINE
  5
11AE5
  8
ALPHA
 10
19.672433
 20
120.855553
 30
0.0
 11
19.672433
 21
92.332779
 31
0.0
  0
LINE
  5
11AE6
  8
ALPHA
 10
12.672433
 20
120.855553
 30
0.0
 11
12.672433
 21
92.332779
 31
0.0
  0
ARC
  5
11AE7
  8
ALPHA
 10
16.172433
 20
92.332779
 30
0.0
 40
3.5
 50
180.0
 51
0.0
  0
ARC
  5
11AE8
  8
ALPHA
 10
20.172433
 20
84.332779
 30
0.0
 40
4.0
 50
270.0
 51
0.0
  0
LINE
  5
11AE9
  8
ALPHA
 10
20.172433
 20
80.332779
 30
0.0
 11
12.172433
 21
80.332779
 31
0.0
  0
ARC
  5
11AEA
  8
ALPHA
 10
12.172433
 20
84.332779
 30
0.0
 40
4.0
 50
180.0
 51
270.0
  0
DIMENSION
  5
11BB3
  8
COTATION1
  2
*D15
 10
101.292764
 20
44.832779
 30
0.0
 11
101.292764
 21
114.582779
 31
0.0
  1
115...165
 13
16.172433
 23
184.332779
 33
0.0
 14
28.560713
 24
44.832779
 34
0.0
 50
90.0
  0
LINE
  5
11CA4
  8
ALPHA
 10
12.672433
 20
111.94979
 30
0.0
 11
15.678168
 21
111.94979
 31
0.0
  0
LINE
  5
11CA5
  8
ALPHA
 10
8.172433
 20
114.116382
 30
0.0
 11
6.810592
 21
114.116382
 31
0.0
  0
ARC
  5
11CA6
  8
ALPHA
 10
16.292764
 20
59.586399
 30
0.0
 40
57.246507
 50
98.154825
 51
105.190236
  0
ARC
  5
11CA7
  8
ALPHA
 10
16.292764
 20
59.586399
 30
0.0
 40
57.246507
 50
86.615454
 51
93.625867
  0
LINE
  5
11CA8
  8
ALPHA
 10
19.672433
 20
114.116382
 30
0.0
 11
12.672433
 21
114.116382
 31
0.0
  0
LINE
  5
11CA9
  8
ALPHA
 10
24.172433
 20
111.94979
 30
0.0
 11
25.53019
 21
111.94979
 31
0.0
  0
DIMENSION
  5
11CFB
  8
COTATION1
  2
*D16
 10
71.292764
 20
66.832779
 30
0.0
 11
71.292764
 21
91.832779
 31
0.0
 13
16.172433
 23
116.832779
 33
0.0
 14
50.292764
 24
66.832779
 34
0.0
 50
90.0
  0
VIEWPORT
  5
494D
 67
     1
  8
0
 10
4.995325
 20
6.556512
 30
0.0
 40
22.70986
 41
13.988421
 68
    -1
 69
     1
1001
ACAD
1000
MVIEW
1002
{
1070
    16
1010
0.0
1020
0.0
1030
0.0
1010
0.0
1020
0.0
1030
1.0
1040
0.0
1040
13.988421
1040
4.995325
1040
6.556512
1040
50.0
1040
0.0
1040
0.0
1070
     0
1070
   100
1070
     1
1070
     1
1070
     0
1070
     0
1070
     0
1070
     0
1040
0.0
1040
0.0
1040
0.0
1040
10.0
1040
10.0
1040
10.0
1040
10.0
1070
     0
1002
{
1002
}
1002
}
  0
ENDSEC
  0
EOF
