  0
SECTION
  2
HEADER
  9
$ACADVER
  1
AC1009
  9
$INSBASE
 10
402.590624
 20
-1.041018
 30
0.0
  9
$EXTMIN
 10
-5.374874
 20
-7.147143
 30
0.0
  9
$EXTMAX
 10
87.987442
 20
57.209981
 30
0.0
  9
$LIMMIN
 10
-407.970438
 20
-367.832444
  9
$LIMMAX
 10
429.804077
 20
234.370848
  9
$ORTHOMODE
 70
     1
  9
$REGENMODE
 70
     1
  9
$FILLMODE
 70
     1
  9
$QTEXTMODE
 70
     0
  9
$MIRRTEXT
 70
     1
  9
$DRAGMODE
 70
     2
  9
$LTSCALE
 40
10.0
  9
$OSMODE
 70
    35
  9
$ATTMODE
 70
     1
  9
$TEXTSIZE
 40
6.0
  9
$TRACEWID
 40
1.0
  9
$TEXTSTYLE
  7
ROMANS
  9
$CLAYER
  8
ALPHA
  9
$CELTYPE
  6
BYLAYER
  9
$CECOLOR
 62
   256
  9
$DIMSCALE
 40
1.0
  9
$DIMASZ
 40
5.0
  9
$DIMEXO
 40
2.0
  9
$DIMDLI
 40
0.38
  9
$DIMRND
 40
0.0
  9
$DIMDLE
 40
0.0
  9
$DIMEXE
 40
2.5
  9
$DIMTP
 40
0.0
  9
$DIMTM
 40
0.0
  9
$DIMTXT
 40
2.5
  9
$DIMCEN
 40
0.0
  9
$DIMTSZ
 40
0.0
  9
$DIMTOL
 70
     0
  9
$DIMLIM
 70
     0
  9
$DIMTIH
 70
     1
  9
$DIMTOH
 70
     1
  9
$DIMSE1
 70
     0
  9
$DIMSE2
 70
     0
  9
$DIMTAD
 70
     1
  9
$DIMZIN
 70
    12
  9
$DIMBLK
  1
OPEN30
  9
$DIMASO
 70
     1
  9
$DIMSHO
 70
     1
  9
$DIMPOST
  1

  9
$DIMAPOST
  1

  9
$DIMALT
 70
     0
  9
$DIMALTD
 70
     2
  9
$DIMALTF
 40
25.4
  9
$DIMLFAC
 40
1.0
  9
$DIMTOFL
 70
     0
  9
$DIMTVP
 40
0.0
  9
$DIMTIX
 70
     0
  9
$DIMSOXD
 70
     0
  9
$DIMSAH
 70
     0
  9
$DIMBLK1
  1

  9
$DIMBLK2
  1

  9
$DIMSTYLE
  2
SC_DEFAUT
  9
$DIMCLRD
 70
     0
  9
$DIMCLRE
 70
     0
  9
$DIMCLRT
 70
     0
  9
$DIMTFAC
 40
1.0
  9
$DIMGAP
 40
2.0
  9
$LUNITS
 70
     2
  9
$LUPREC
 70
     1
  9
$SKETCHINC
 40
0.1
  9
$FILLETRAD
 40
0.0
  9
$AUNITS
 70
     0
  9
$AUPREC
 70
     0
  9
$MENU
  1
acad
  9
$ELEVATION
 40
0.0
  9
$PELEVATION
 40
0.0
  9
$THICKNESS
 40
0.0
  9
$LIMCHECK
 70
     0
  9
$BLIPMODE
 70
     0
  9
$CHAMFERA
 40
0.0
  9
$CHAMFERB
 40
0.0
  9
$SKPOLY
 70
     0
  9
$TDCREATE
 40
2450373.687919
  9
$TDUPDATE
 40
2453034.402574
  9
$TDINDWG
 40
1.022667
  9
$TDUSRTIMER
 40
1.022667
  9
$USRTIMER
 70
     1
  9
$ANGBASE
 50
0.0
  9
$ANGDIR
 70
     0
  9
$PDMODE
 70
    32
  9
$PDSIZE
 40
0.0
  9
$PLINEWID
 40
0.0
  9
$COORDS
 70
     1
  9
$SPLFRAME
 70
     0
  9
$SPLINETYPE
 70
     6
  9
$SPLINESEGS
 70
     8
  9
$ATTDIA
 70
     0
  9
$ATTREQ
 70
     1
  9
$HANDLING
 70
     1
  9
$HANDSEED
  5
A5AC
  9
$SURFTAB1
 70
     6
  9
$SURFTAB2
 70
     6
  9
$SURFTYPE
 70
     6
  9
$SURFU
 70
     6
  9
$SURFV
 70
     6
  9
$UCSNAME
  2

  9
$UCSORG
 10
0.0
 20
0.0
 30
0.0
  9
$UCSXDIR
 10
1.0
 20
0.0
 30
0.0
  9
$UCSYDIR
 10
0.0
 20
1.0
 30
0.0
  9
$PUCSNAME
  2

  9
$PUCSORG
 10
0.0
 20
0.0
 30
0.0
  9
$PUCSXDIR
 10
1.0
 20
0.0
 30
0.0
  9
$PUCSYDIR
 10
0.0
 20
1.0
 30
0.0
  9
$USERI1
 70
     0
  9
$USERI2
 70
     0
  9
$USERI3
 70
     0
  9
$USERI4
 70
     0
  9
$USERI5
 70
     0
  9
$USERR1
 40
0.0
  9
$USERR2
 40
0.0
  9
$USERR3
 40
0.0
  9
$USERR4
 40
0.0
  9
$USERR5
 40
0.0
  9
$WORLDVIEW
 70
     1
  9
$SHADEDGE
 70
     3
  9
$SHADEDIF
 70
    70
  9
$TILEMODE
 70
     1
  9
$MAXACTVP
 70
    16
  9
$PLIMCHECK
 70
     0
  9
$PEXTMIN
 10
-1.452248
 20
-0.437698
 30
0.0
  9
$PEXTMAX
 10
12.749749
 20
8.310198
 30
0.0
  9
$PLIMMIN
 10
0.0
 20
0.0
  9
$PLIMMAX
 10
12.0
 20
9.0
  9
$UNITMODE
 70
     0
  9
$VISRETAIN
 70
     0
  9
$PLINEGEN
 70
     0
  9
$PSLTSCALE
 70
     0
  0
ENDSEC
  0
SECTION
  2
TABLES
  0
TABLE
  2
VPORT
 70
     2
  0
VPORT
  2
*ACTIVE
 70
     0
 10
0.0
 20
0.0
 11
1.0
 21
1.0
 12
41.309413
 22
25.0203
 13
0.0
 23
0.0
 14
1.0
 24
1.0
 15
10.0
 25
10.0
 16
0.0
 26
0.0
 36
1.0
 17
0.0
 27
0.0
 37
0.0
 40
64.878107
 41
1.466346
 42
50.0
 43
0.0
 44
0.0
 50
0.0
 51
0.0
 71
     0
 72
   100
 73
     1
 74
     0
 75
     0
 76
     0
 77
     0
 78
     0
  0
ENDTAB
  0
TABLE
  2
LTYPE
 70
     2
  0
LTYPE
  2
CONTINUOUS
 70
     0
  3
Solid line
 72
    65
 73
     0
 40
0.0
  0
LTYPE
  2
AXES2
 70
     0
  3
___ _ ___ _ ___ _ ___ _ ___ _ ___ _ ___ _ ___ _
 72
    65
 73
     4
 40
1.125
 49
0.75
 49
-0.125
 49
0.125
 49
-0.125
  0
ENDTAB
  0
TABLE
  2
LAYER
 70
     5
  0
LAYER
  2
0
 70
     0
 62
   255
  6
CONTINUOUS
  0
LAYER
  2
COTATION1
 70
     0
 62
     2
  6
CONTINUOUS
  0
LAYER
  2
AXE
 70
     0
 62
    80
  6
AXES2
  0
LAYER
  2
DEFPOINTS
 70
     0
 62
     7
  6
CONTINUOUS
  0
LAYER
  2
ALPHA
 70
     0
 62
   254
  6
CONTINUOUS
  0
ENDTAB
  0
TABLE
  2
STYLE
 70
     2
  0
STYLE
  2
ROMANS
 70
     0
 40
0.0
 41
1.0
 50
0.0
 71
     0
 42
6.0
  3
romans
  4

  0
STYLE
  2
STANDARD
 70
     0
 40
0.0
 41
1.0
 50
0.0
 71
     0
 42
0.2
  3
txt
  4

  0
ENDTAB
  0
TABLE
  2
VIEW
 70
     0
  0
ENDTAB
  0
TABLE
  2
UCS
 70
     0
  0
ENDTAB
  0
TABLE
  2
APPID
 70
     1
  0
APPID
  2
ACAD
 70
     0
  0
ENDTAB
  0
TABLE
  2
DIMSTYLE
 70
     2
  0
DIMSTYLE
  2
SC_DEFAUT
 70
     0
  3

  4

  5
OPEN30
  6

  7

 40
1.0
 41
5.0
 42
2.0
 43
0.38
 44
2.5
 45
0.0
 46
0.0
 47
0.0
 48
0.0
140
2.5
141
0.0
142
0.0
143
25.4
144
1.0
145
0.0
146
1.0
147
2.0
 71
     0
 72
     0
 73
     1
 74
     1
 75
     0
 76
     0
 77
     1
 78
    12
170
     0
171
     2
172
     0
173
     0
174
     0
175
     0
176
     0
177
     0
178
     0
  0
DIMSTYLE
  2
STANDARD
 70
     0
  3

  4

  5

  6

  7

 40
1.0
 41
0.18
 42
0.0625
 43
0.38
 44
0.18
 45
0.0
 46
0.0
 47
0.0
 48
0.0
140
0.18
141
0.09
142
0.0
143
25.4
144
1.0
145
0.0
146
1.0
147
0.09
 71
     0
 72
     0
 73
     1
 74
     1
 75
     0
 76
     0
 77
     0
 78
     0
170
     0
171
     2
172
     0
173
     0
174
     0
175
     0
176
     0
177
     0
178
     0
  0
ENDTAB
  0
ENDSEC
  0
SECTION
  2
BLOCKS
  0
BLOCK
  8
0
  2
$MODEL_SPACE
 70
     0
 10
0.0
 20
0.0
 30
0.0
  3
$MODEL_SPACE
  1

  0
ENDBLK
  5
A575
  8
0
  0
BLOCK
 67
     1
  8
0
  2
$PAPER_SPACE
 70
     0
 10
0.0
 20
0.0
 30
0.0
  3
$PAPER_SPACE
  1

  0
ENDBLK
  5
A573
 67
     1
  8
0
  0
BLOCK
  8
0
  2
COTE
 70
     0
 10
0.0
 20
0.0
 30
0.0
  3
COTE
  1

  0
ENDBLK
  5
F
  8
0
  0
BLOCK
  8
0
  2
FOND
 70
     0
 10
0.0
 20
0.0
 30
0.0
  3
FOND
  1

  0
ENDBLK
  5
75
  8
0
  0
BLOCK
  8
0
  2
_OPEN30
 70
     0
 10
0.0
 20
0.0
 30
0.0
  3
_OPEN30
  1

  0
LINE
  5
4B05
  8
COTATION1
 62
     0
 10
-1.0
 20
0.267949
 30
0.0
 11
0.0
 21
0.0
 31
0.0
1001
ACAD
1000
RTLwPs
1070
   158
  0
LINE
  5
4B06
  8
COTATION1
 62
     0
 10
0.0
 20
0.0
 30
0.0
 11
-1.0
 21
-0.267949
 31
0.0
1001
ACAD
1000
RTLwPs
1070
   158
  0
LINE
  5
4B07
  8
COTATION1
 62
     0
 10
0.0
 20
0.0
 30
0.0
 11
-1.0
 21
0.0
 31
0.0
1001
ACAD
1000
RTLwPs
1070
   158
  0
ENDBLK
  5
4B09
  8
0
  0
BLOCK
  8
0
  2
*D3
 70
     1
 10
0.0
 20
0.0
 30
0.0
  3
*D3
  1

  0
LINE
  5
A4CE
  8
COTATION1
 62
     0
 10
47.927918
 20
23.451058
 30
0.0
 11
47.927918
 21
-7.147143
 31
0.0
1001
ACAD
1000
RTLwPs
1070
   158
  0
LINE
  5
A4CF
  8
COTATION1
 62
     0
 10
64.427918
 20
23.451058
 30
0.0
 11
64.427918
 21
-7.147143
 31
0.0
1001
ACAD
1000
RTLwPs
1070
   158
  0
LINE
  5
A4D0
  8
COTATION1
 62
     0
 10
52.927918
 20
-4.647143
 30
0.0
 11
59.427918
 21
-4.647143
 31
0.0
1001
ACAD
1000
RTLwPs
1070
   158
  0
INSERT
  5
A4D1
  8
COTATION1
 62
     0
  2
_OPEN30
 10
47.927918
 20
-4.647143
 30
0.0
 41
5.0
 42
5.0
 43
5.0
 50
180.0
1001
ACAD
1000
RTLwPs
1070
   158
  0
INSERT
  5
A4D2
  8
COTATION1
 62
     0
  2
_OPEN30
 10
64.427918
 20
-4.647143
 30
0.0
 41
5.0
 42
5.0
 43
5.0
1001
ACAD
1000
RTLwPs
1070
   158
  0
TEXT
  5
A4D3
  8
COTATION1
 62
     0
 10
50.999346
 20
-2.647143
 30
0.0
 40
2.5
  1
%%c
1001
ACAD
1000
MTEXTBEGIN
1070
    73
1070
     1
1070
    44
1040
1.0
1070
    74
1070
     0
1000
MTEXTEND
  0
TEXT
  5
A545
  8
COTATION1
 62
     0
 10
53.261251
 20
-2.647143
 30
0.0
 40
2.5
  1
16.5
1001
ACAD
1000
R13OBJECT
1002
{
1005
A4D3
1002
}
  0
POINT
  5
A4D4
  8
DEFPOINTS
 62
     0
 10
47.927918
 20
25.451058
 30
0.0
  0
POINT
  5
A4D5
  8
DEFPOINTS
 62
     0
 10
64.427918
 20
25.451058
 30
0.0
  0
POINT
  5
A4D6
  8
DEFPOINTS
 62
     0
 10
64.427918
 20
-4.647143
 30
0.0
  0
ENDBLK
  5
A0F8
  8
0
  0
BLOCK
  8
0
  2
*D4
 70
     1
 10
0.0
 20
0.0
 30
0.0
  3
*D4
  1

  0
LINE
  5
A486
  8
COTATION1
 62
     0
 10
54.177918
 20
46.551058
 30
0.0
 11
28.695289
 21
46.551058
 31
0.0
1001
ACAD
1000
RTLwPs
1070
   158
  0
LINE
  5
A487
  8
COTATION1
 62
     0
 10
46.177935
 20
24.751058
 30
0.0
 11
28.695289
 21
24.751058
 31
0.0
1001
ACAD
1000
RTLwPs
1070
   158
  0
LINE
  5
A488
  8
COTATION1
 62
     0
 10
31.195289
 20
41.551058
 30
0.0
 11
31.195289
 21
38.901058
 31
0.0
1001
ACAD
1000
RTLwPs
1070
   158
  0
LINE
  5
A489
  8
COTATION1
 62
     0
 10
31.195289
 20
29.751058
 30
0.0
 11
31.195289
 21
32.401058
 31
0.0
1001
ACAD
1000
RTLwPs
1070
   158
  0
TEXT
  5
A48A
  8
COTATION1
 62
     0
 10
27.028622
 20
34.401058
 30
0.0
 40
2.5
  1
21.8
1001
ACAD
1000
MTEXTBEGIN
1070
    73
1070
     1
1070
    44
1040
1.0
1070
    74
1070
     0
1000
MTEXTEND
  0
INSERT
  5
A48B
  8
COTATION1
 62
     0
  2
_OPEN30
 10
31.195289
 20
46.551058
 30
0.0
 41
5.0
 42
5.0
 43
5.0
 50
90.0
1001
ACAD
1000
RTLwPs
1070
   158
  0
INSERT
  5
A48C
  8
COTATION1
 62
     0
  2
_OPEN30
 10
31.195289
 20
24.751058
 30
0.0
 41
5.0
 42
5.0
 43
5.0
 50
270.0
1001
ACAD
1000
RTLwPs
1070
   158
  0
POINT
  5
A48D
  8
DEFPOINTS
 62
     0
 10
56.177918
 20
46.551058
 30
0.0
  0
POINT
  5
A48E
  8
DEFPOINTS
 62
     0
 10
48.177935
 20
24.751058
 30
0.0
  0
POINT
  5
A48F
  8
DEFPOINTS
 62
     0
 10
31.195289
 20
24.751058
 30
0.0
  0
ENDBLK
  5
A105
  8
0
  0
BLOCK
  8
0
  2
*D5
 70
     1
 10
0.0
 20
0.0
 30
0.0
  3
*D5
  1

  0
LINE
  5
A460
  8
COTATION1
 62
     0
 10
58.177918
 20
46.551058
 30
0.0
 11
86.677918
 21
46.551058
 31
0.0
1001
ACAD
1000
RTLwPs
1070
   158
  0
LINE
  5
A461
  8
COTATION1
 62
     0
 10
64.177869
 20
14.851058
 30
0.0
 11
86.677918
 21
14.851058
 31
0.0
1001
ACAD
1000
RTLwPs
1070
   158
  0
LINE
  5
A462
  8
COTATION1
 62
     0
 10
84.177918
 20
41.551058
 30
0.0
 11
84.177918
 21
33.951058
 31
0.0
1001
ACAD
1000
RTLwPs
1070
   158
  0
LINE
  5
A463
  8
COTATION1
 62
     0
 10
84.177918
 20
19.851058
 30
0.0
 11
84.177918
 21
27.451058
 31
0.0
1001
ACAD
1000
RTLwPs
1070
   158
  0
INSERT
  5
A464
  8
COTATION1
 62
     0
  2
_OPEN30
 10
84.177918
 20
46.551058
 30
0.0
 41
5.0
 42
5.0
 43
5.0
 50
90.0
1001
ACAD
1000
RTLwPs
1070
   158
  0
INSERT
  5
A465
  8
COTATION1
 62
     0
  2
_OPEN30
 10
84.177918
 20
14.851058
 30
0.0
 41
5.0
 42
5.0
 43
5.0
 50
270.0
1001
ACAD
1000
RTLwPs
1070
   158
  0
TEXT
  5
A466
  8
COTATION1
 62
     0
 10
80.011251
 20
29.451058
 30
0.0
 40
2.5
  1
31.7
1001
ACAD
1000
MTEXTBEGIN
1070
    73
1070
     1
1070
    44
1040
1.0
1070
    74
1070
     0
1000
MTEXTEND
  0
POINT
  5
A467
  8
DEFPOINTS
 62
     0
 10
56.177918
 20
46.551058
 30
0.0
  0
POINT
  5
A468
  8
DEFPOINTS
 62
     0
 10
62.177869
 20
14.851058
 30
0.0
  0
POINT
  5
A469
  8
DEFPOINTS
 62
     0
 10
84.177918
 20
14.851058
 30
0.0
  0
ENDBLK
  5
A125
  8
0
  0
ENDSEC
  0
SECTION
  2
ENTITIES
  0
INSERT
  5
A
  8
0
  2
COTE
 10
0.0
 20
0.0
 30
0.0
  0
INSERT
  5
17
  8
0
  2
COTE
 10
284.010391
 20
6.373258
 30
0.0
  0
INSERT
  5
72
  8
0
  2
FOND
 10
0.0
 20
0.0
 30
0.0
  0
LINE
  5
93E6
  8
ALPHA
 10
63.427918
 20
24.751058
 30
0.0
 11
63.427918
 21
16.101058
 31
0.0
  0
LINE
  5
93E7
  8
ALPHA
 10
48.927918
 20
24.751058
 30
0.0
 11
48.927918
 21
16.101058
 31
0.0
  0
LINE
  5
94A0
  8
ALPHA
 10
48.927918
 20
16.101058
 30
0.0
 11
63.427918
 21
16.101058
 31
0.0
  0
LINE
  5
94A1
  8
ALPHA
 10
50.177967
 20
14.851058
 30
0.0
 11
62.177869
 21
14.851058
 31
0.0
  0
LINE
  5
94A5
  8
ALPHA
 10
48.927918
 20
16.101058
 30
0.0
 11
50.177918
 21
14.851058
 31
0.0
  0
LINE
  5
94A7
  8
ALPHA
 10
63.427918
 20
16.101058
 30
0.0
 11
62.177918
 21
14.851058
 31
0.0
  0
CIRCLE
  5
94A8
  8
ALPHA
 10
56.177918
 20
37.551058
 30
0.0
 40
7.899999
  0
CIRCLE
  5
94A9
  8
ALPHA
 10
56.177918
 20
37.551058
 30
0.0
 40
7.5
  0
ARC
  5
94AA
  8
ALPHA
 10
56.177918
 20
14.851058
 30
0.0
 40
31.7
 50
78.34488
 51
101.65512
  0
ARC
  5
94AB
  8
ALPHA
 10
56.177918
 20
37.551058
 30
0.0
 40
9.0
 50
211.002719
 51
328.997281
  0
CIRCLE
  5
94AC
  8
ALPHA
 10
56.177918
 20
37.551058
 30
0.0
 40
6.85
  0
ARC
  5
94AD
  8
ALPHA
 10
56.177918
 20
37.551058
 30
0.0
 40
7.15
 50
285.0
 51
315.0
  0
ARC
  5
94AE
  8
ALPHA
 10
56.177918
 20
37.551058
 30
0.0
 40
7.15
 50
45.0
 51
75.0
  0
CIRCLE
  5
94AF
  8
ALPHA
 10
56.177918
 20
37.551058
 30
0.0
 40
6.050671
  0
CIRCLE
  5
94B0
  8
ALPHA
 10
56.177918
 20
37.551058
 30
0.0
 40
6.254728
  0
CIRCLE
  5
94B1
  8
ALPHA
 10
56.177918
 20
37.551058
 30
0.0
 40
6.547181
  0
CIRCLE
  5
94B2
  8
ALPHA
 10
56.177918
 20
37.551058
 30
0.0
 40
6.6
  0
ARC
  5
94B3
  8
ALPHA
 10
56.177918
 20
37.551058
 30
0.0
 40
7.4
 50
285.0
 51
315.0
  0
ARC
  5
94B4
  8
ALPHA
 10
56.177918
 20
37.551058
 30
0.0
 40
7.4
 50
45.0
 51
75.0
  0
ARC
  5
94B5
  8
ALPHA
 10
59.342964
 20
40.607605
 30
0.0
 40
0.399993
 50
224.000911
 51
302.0
  0
ARC
  5
94B6
  8
ALPHA
 10
59.342964
 20
34.494511
 30
0.0
 40
0.399993
 50
58.0
 51
135.999089
  0
ARC
  5
94B7
  8
ALPHA
 10
59.056063
 20
33.709668
 30
0.0
 40
0.2
 50
223.0
 51
306.842227
  0
ARC
  5
94B8
  8
ALPHA
 10
56.177918
 20
37.551058
 30
0.0
 40
4.2
 50
314.000911
 51
315.999089
  0
ARC
  5
94B9
  8
ALPHA
 10
56.177918
 20
37.551058
 30
0.0
 40
4.2
 50
44.000911
 51
45.999089
  0
ARC
  5
94BA
  8
ALPHA
 10
59.056063
 20
41.392449
 30
0.0
 40
0.2
 50
53.157773
 51
137.0
  0
CIRCLE
  5
94BB
  8
ALPHA
 10
56.177918
 20
37.551058
 30
0.0
 40
5.5
  0
LINE
  5
94BC
  8
ALPHA
 10
59.313107
 20
41.219374
 30
0.0
 11
59.143497
 21
41.325358
 31
0.0
  0
LINE
  5
94BD
  8
ALPHA
 10
59.199099
 20
40.468672
 30
0.0
 11
59.095531
 21
40.572239
 31
0.0
  0
LINE
  5
94BE
  8
ALPHA
 10
59.199099
 20
34.633445
 30
0.0
 11
59.055233
 21
34.772379
 31
0.0
  0
LINE
  5
94BF
  8
ALPHA
 10
59.064855
 20
34.280028
 30
0.0
 11
59.313107
 21
33.882742
 31
0.0
  0
LINE
  5
94C0
  8
ALPHA
 10
59.056063
 20
33.709668
 30
0.0
 11
59.175986
 21
33.54961
 31
0.0
  0
LINE
  5
94C1
  8
ALPHA
 10
59.267063
 20
33.619496
 30
0.0
 11
59.143497
 21
33.776759
 31
0.0
  0
LINE
  5
94C2
  8
ALPHA
 10
59.095531
 20
34.529878
 30
0.0
 11
59.199099
 21
34.633445
 31
0.0
  0
LINE
  5
94C3
  8
ALPHA
 10
59.313107
 20
33.882742
 30
0.0
 11
59.143497
 21
33.776759
 31
0.0
  0
LINE
  5
94C4
  8
ALPHA
 10
64.177899
 20
28.051058
 30
0.0
 11
48.177935
 21
28.051058
 31
0.0
  0
LINE
  5
94C6
  8
ALPHA
 10
59.313107
 20
41.219374
 30
0.0
 11
59.064855
 21
40.822089
 31
0.0
  0
LINE
  5
94C7
  8
ALPHA
 10
59.220899
 20
26.551058
 30
0.0
 11
58.795915
 21
26.551058
 31
0.0
  0
LINE
  5
94C8
  8
ALPHA
 10
59.355522
 20
26.251058
 30
0.0
 11
58.101913
 21
26.251058
 31
0.0
  0
LINE
  5
94C9
  8
ALPHA
 10
59.143497
 20
41.325358
 30
0.0
 11
59.267063
 21
41.482621
 31
0.0
  0
LINE
  5
94CA
  8
ALPHA
 10
59.175986
 20
41.552507
 30
0.0
 11
59.056063
 21
41.392449
 31
0.0
  0
LINE
  5
94CB
  8
ALPHA
 10
62.877801
 20
25.901058
 30
0.0
 11
49.478035
 21
25.901058
 31
0.0
  0
LINE
  5
94CC
  8
ALPHA
 10
47.927953
 20
25.451058
 30
0.0
 11
64.427882
 21
25.451058
 31
0.0
  0
LINE
  5
94CD
  8
ALPHA
 10
59.199099
 20
40.468672
 30
0.0
 11
59.055233
 21
40.329738
 31
0.0
  0
LINE
  5
94CE
  8
ALPHA
 10
47.927953
 20
24.751058
 30
0.0
 11
64.427882
 21
24.751058
 31
0.0
  0
ARC
  5
94CF
  8
ALPHA
 10
56.177918
 20
37.551058
 30
0.0
 40
6.935285
 50
135.0
 51
165.0
  0
ARC
  5
94D0
  8
ALPHA
 10
56.177918
 20
37.551058
 30
0.0
 40
6.935285
 50
195.0
 51
225.0
  0
ARC
  5
94D1
  8
ALPHA
 10
56.177918
 20
37.551058
 30
0.0
 40
7.4
 50
225.0
 51
255.0
  0
ARC
  5
94D2
  8
ALPHA
 10
56.177918
 20
37.551058
 30
0.0
 40
7.4
 50
105.0
 51
135.0
  0
LINE
  5
94D3
  8
ALPHA
 10
50.891021
 20
42.837956
 30
0.0
 11
51.334236
 21
42.39474
 31
0.0
  0
LINE
  5
94D4
  8
ALPHA
 10
50.891278
 20
32.264418
 30
0.0
 11
51.334236
 21
32.707377
 31
0.0
  0
LINE
  5
94D5
  8
ALPHA
 10
48.177918
 20
28.051058
 30
0.0
 11
48.177918
 21
43.938685
 31
0.0
  0
LINE
  5
94D6
  8
ALPHA
 10
47.927918
 20
25.451058
 30
0.0
 11
47.927918
 21
24.751058
 31
0.0
  0
LINE
  5
94D7
  8
ALPHA
 10
50.677918
 20
25.451058
 30
0.0
 11
50.677918
 21
25.901058
 31
0.0
  0
LINE
  5
94D8
  8
ALPHA
 10
49.477918
 20
28.051058
 30
0.0
 11
49.477918
 21
25.901058
 31
0.0
  0
ARC
  5
94D9
  8
ALPHA
 10
50.177918
 20
33.945507
 30
0.0
 40
2.0
 50
180.0
 51
211.002719
  0
ARC
  5
94DA
  8
ALPHA
 10
56.177918
 20
37.551058
 30
0.0
 40
7.4
 50
165.0
 51
195.0
  0
ARC
  5
94DB
  8
ALPHA
 10
56.177918
 20
37.551058
 30
0.0
 40
7.15
 50
165.0
 51
195.0
  0
LINE
  5
94DC
  8
ALPHA
 10
48.94418
 20
39.489332
 30
0.0
 11
49.561326
 21
39.323969
 31
0.0
  0
LINE
  5
94DD
  8
ALPHA
 10
48.945915
 20
35.613249
 30
0.0
 11
49.561326
 21
35.778148
 31
0.0
  0
ARC
  5
94DE
  8
ALPHA
 10
50.177918
 20
43.938685
 30
0.0
 40
2.0
 50
101.65512
 51
180.0
  0
ARC
  5
94DF
  8
ALPHA
 10
52.406346
 20
35.284951
 30
0.0
 40
0.399993
 50
313.0
 51
30.999089
  0
ARC
  5
94E0
  8
ALPHA
 10
52.406346
 20
35.284951
 30
0.0
 40
0.2
 50
313.0
 51
30.999089
  0
ARC
  5
94E1
  8
ALPHA
 10
56.177918
 20
37.551058
 30
0.0
 40
6.935285
 50
255.0
 51
285.0
  0
ARC
  5
94E2
  8
ALPHA
 10
54.965181
 20
33.321488
 30
0.0
 40
0.399993
 50
74.000911
 51
152.0
  0
ARC
  5
94E3
  8
ALPHA
 10
56.177918
 20
37.551058
 30
0.0
 40
4.2
 50
254.000911
 51
255.999089
  0
LINE
  5
94E4
  8
ALPHA
 10
55.020305
 20
33.513741
 30
0.0
 11
55.07543
 21
33.705994
 31
0.0
  0
LINE
  5
94E5
  8
ALPHA
 10
55.452205
 20
26.551058
 30
0.0
 11
54.972874
 21
26.551058
 31
0.0
  0
LINE
  5
94E6
  8
ALPHA
 10
55.980669
 20
26.251058
 30
0.0
 11
54.635111
 21
26.251058
 31
0.0
  0
LINE
  5
94E7
  8
ALPHA
 10
54.253923
 20
26.251058
 30
0.0
 11
53.000313
 21
26.251058
 31
0.0
  0
LINE
  5
94E8
  8
ALPHA
 10
53.000313
 20
26.251058
 30
0.0
 11
53.000313
 21
28.051058
 31
0.0
  0
LINE
  5
94E9
  8
ALPHA
 10
53.120198
 20
26.251058
 30
0.0
 11
53.134936
 21
26.551058
 31
0.0
  0
LINE
  5
94EA
  8
ALPHA
 10
54.635111
 20
26.251058
 30
0.0
 11
54.56582
 21
28.051058
 31
0.0
  0
LINE
  5
94EB
  8
ALPHA
 10
54.779958
 20
26.251058
 30
0.0
 11
54.708602
 21
28.051058
 31
0.0
  0
POLYLINE
  5
94EC
  8
ALPHA
 66
     1
 10
0.0
 20
0.0
 30
0.0
 70
   128
  0
VERTEX
  5
A57B
  8
ALPHA
 10
53.559921
 20
26.551058
 30
0.0
  0
VERTEX
  5
A57C
  8
ALPHA
 10
53.624765
 20
26.349026
 30
0.0
  0
VERTEX
  5
A57D
  8
ALPHA
 10
53.809028
 20
26.251058
 30
0.0
  0
SEQEND
  5
A57E
  8
ALPHA
  0
POLYLINE
  5
94ED
  8
ALPHA
 66
     1
 10
0.0
 20
0.0
 30
0.0
 70
   128
  0
VERTEX
  5
A57F
  8
ALPHA
 10
54.882857
 20
26.251058
 30
0.0
  0
VERTEX
  5
A580
  8
ALPHA
 10
54.962638
 20
26.386125
 30
0.0
  0
VERTEX
  5
A581
  8
ALPHA
 10
54.972874
 20
26.551058
 30
0.0
  0
SEQEND
  5
A582
  8
ALPHA
  0
LINE
  5
94EE
  8
ALPHA
 10
54.253923
 20
28.051058
 30
0.0
 11
54.253923
 21
26.251058
 31
0.0
  0
LINE
  5
94EF
  8
ALPHA
 10
54.061372
 20
28.051058
 30
0.0
 11
54.061372
 21
26.251058
 31
0.0
  0
LINE
  5
94F0
  8
ALPHA
 10
54.972874
 20
26.551058
 30
0.0
 11
54.914857
 21
28.051058
 31
0.0
  0
LINE
  5
94F1
  8
ALPHA
 10
53.559921
 20
26.551058
 30
0.0
 11
53.559921
 21
28.051058
 31
0.0
  0
LINE
  5
94F2
  8
ALPHA
 10
53.134936
 20
26.551058
 30
0.0
 11
53.134936
 21
28.051058
 31
0.0
  0
LINE
  5
94F3
  8
ALPHA
 10
53.105269
 20
26.251058
 30
0.0
 11
53.105269
 21
28.051058
 31
0.0
  0
LINE
  5
94F4
  8
ALPHA
 10
53.559921
 20
26.551058
 30
0.0
 11
53.134936
 21
26.551058
 31
0.0
  0
ARC
  5
94F5
  8
ALPHA
 10
56.177918
 20
37.551058
 30
0.0
 40
7.15
 50
225.0
 51
255.0
  0
ARC
  5
94F6
  8
ALPHA
 10
53.012871
 20
34.494511
 30
0.0
 40
0.399993
 50
44.000911
 51
122.0
  0
ARC
  5
94F7
  8
ALPHA
 10
53.012871
 20
34.494511
 30
0.0
 40
0.2
 50
44.000911
 51
122.0
  0
ARC
  5
94F8
  8
ALPHA
 10
53.212338
 20
33.776759
 30
0.0
 40
0.2
 50
148.0
 51
231.842227
  0
ARC
  5
94F9
  8
ALPHA
 10
56.177918
 20
37.551058
 30
0.0
 40
4.8
 50
216.842227
 51
218.157773
  0
ARC
  5
94FA
  8
ALPHA
 10
52.403618
 20
34.585479
 30
0.0
 40
0.2
 50
218.157773
 51
302.0
  0
ARC
  5
94FB
  8
ALPHA
 10
52.336527
 20
34.672913
 30
0.0
 40
0.2
 50
133.0
 51
216.842227
  0
ARC
  5
94FC
  8
ALPHA
 10
56.177918
 20
37.551058
 30
0.0
 40
5.0
 50
216.842227
 51
218.157773
  0
LINE
  5
94FD
  8
ALPHA
 10
52.542745
 20
35.13868
 30
0.0
 11
52.679145
 21
34.992409
 31
0.0
  0
LINE
  5
94FE
  8
ALPHA
 10
52.906887
 20
34.664121
 30
0.0
 11
52.800904
 21
34.83373
 31
0.0
  0
LINE
  5
94FF
  8
ALPHA
 10
52.200128
 20
34.819184
 30
0.0
 11
52.336527
 21
34.672913
 31
0.0
  0
LINE
  5
9500
  8
ALPHA
 10
52.509602
 20
34.415869
 30
0.0
 11
52.403618
 21
34.585479
 31
0.0
  0
LINE
  5
9501
  8
ALPHA
 10
52.906887
 20
34.664121
 30
0.0
 11
52.509602
 21
34.415869
 31
0.0
  0
LINE
  5
9502
  8
ALPHA
 10
52.800904
 20
34.83373
 30
0.0
 11
52.403618
 21
34.585479
 31
0.0
  0
LINE
  5
9503
  8
ALPHA
 10
52.336527
 20
34.672913
 30
0.0
 11
52.176469
 21
34.55299
 31
0.0
  0
LINE
  5
9504
  8
ALPHA
 10
52.246356
 20
34.461913
 30
0.0
 11
52.403618
 21
34.585479
 31
0.0
  0
LINE
  5
9505
  8
ALPHA
 10
52.336527
 20
34.672913
 30
0.0
 11
52.679145
 21
34.992409
 31
0.0
  0
LINE
  5
9506
  8
ALPHA
 10
52.200128
 20
34.819184
 30
0.0
 11
52.542745
 21
35.13868
 31
0.0
  0
ARC
  5
9507
  8
ALPHA
 10
53.91181
 20
33.779486
 30
0.0
 40
0.399993
 50
59.000911
 51
137.0
  0
ARC
  5
9508
  8
ALPHA
 10
56.177918
 20
37.551058
 30
0.0
 40
3.999999
 50
239.000911
 51
240.999089
  0
ARC
  5
9509
  8
ALPHA
 10
54.044694
 20
33.702766
 30
0.0
 40
0.399993
 50
343.0
 51
60.999089
  0
ARC
  5
950A
  8
ALPHA
 10
56.177918
 20
37.551058
 30
0.0
 40
3.999989
 50
224.000911
 51
225.999089
  0
ARC
  5
950B
  8
ALPHA
 10
53.121371
 20
34.386012
 30
0.0
 40
0.399993
 50
328.0
 51
45.999089
  0
ARC
  5
950C
  8
ALPHA
 10
56.177918
 20
37.551058
 30
0.0
 40
4.8
 50
231.842227
 51
233.157773
  0
ARC
  5
950D
  8
ALPHA
 10
56.177918
 20
37.551058
 30
0.0
 40
4.8
 50
246.842227
 51
248.157773
  0
ARC
  5
950E
  8
ALPHA
 10
53.299773
 20
33.709668
 30
0.0
 40
0.2
 50
233.157773
 51
317.0
  0
ARC
  5
950F
  8
ALPHA
 10
53.91181
 20
33.779486
 30
0.0
 40
0.2
 50
59.000911
 51
137.0
  0
ARC
  5
9510
  8
ALPHA
 10
56.177918
 20
37.551058
 30
0.0
 40
4.2
 50
239.000911
 51
240.999089
  0
ARC
  5
9511
  8
ALPHA
 10
54.965181
 20
33.321488
 30
0.0
 40
0.2
 50
74.000911
 51
152.0
  0
ARC
  5
9512
  8
ALPHA
 10
54.044694
 20
33.702766
 30
0.0
 40
0.2
 50
343.0
 51
60.999089
  0
ARC
  5
9513
  8
ALPHA
 10
54.290249
 20
33.137816
 30
0.0
 40
0.2
 50
163.0
 51
246.842227
  0
ARC
  5
9514
  8
ALPHA
 10
54.392068
 20
33.095641
 30
0.0
 40
0.2
 50
248.157773
 51
332.0
  0
ARC
  5
9515
  8
ALPHA
 10
56.177918
 20
37.551058
 30
0.0
 40
4.2
 50
224.000911
 51
225.999089
  0
ARC
  5
9516
  8
ALPHA
 10
53.121371
 20
34.386012
 30
0.0
 40
0.2
 50
328.0
 51
45.999089
  0
ARC
  5
9517
  8
ALPHA
 10
56.177918
 20
37.551058
 30
0.0
 40
5.0
 50
231.842227
 51
233.157773
  0
ARC
  5
9518
  8
ALPHA
 10
56.177918
 20
37.551058
 30
0.0
 40
5.0
 50
246.842227
 51
248.157773
  0
LINE
  5
9519
  8
ALPHA
 10
53.29098
 20
34.280028
 30
0.0
 11
53.46059
 21
34.174044
 31
0.0
  0
LINE
  5
951A
  8
ALPHA
 10
54.014815
 20
33.950921
 30
0.0
 11
54.141659
 21
33.877688
 31
0.0
  0
LINE
  5
951B
  8
ALPHA
 10
54.788591
 20
33.415382
 30
0.0
 11
54.612002
 21
33.509276
 31
0.0
  0
LINE
  5
951C
  8
ALPHA
 10
54.235955
 20
33.644291
 30
0.0
 11
54.427216
 21
33.585817
 31
0.0
  0
LINE
  5
951D
  8
ALPHA
 10
54.098988
 20
33.196291
 30
0.0
 11
54.290249
 21
33.137816
 31
0.0
  0
LINE
  5
951E
  8
ALPHA
 10
53.156737
 20
34.633445
 30
0.0
 11
53.260305
 21
34.529878
 31
0.0
  0
LINE
  5
951F
  8
ALPHA
 10
53.76554
 20
33.915886
 30
0.0
 11
53.619269
 21
34.052286
 31
0.0
  0
LINE
  5
9520
  8
ALPHA
 10
53.446043
 20
33.573268
 30
0.0
 11
53.299773
 21
33.709668
 31
0.0
  0
LINE
  5
9521
  8
ALPHA
 10
53.042729
 20
33.882742
 30
0.0
 11
53.212338
 21
33.776759
 31
0.0
  0
LINE
  5
9522
  8
ALPHA
 10
54.568658
 20
33.001747
 30
0.0
 11
54.392068
 21
33.095641
 31
0.0
  0
LINE
  5
9523
  8
ALPHA
 10
54.238958
 20
30.314763
 30
0.0
 11
54.405007
 21
30.934466
 31
0.0
  0
LINE
  5
9524
  8
ALPHA
 10
54.141659
 20
33.877688
 30
0.0
 11
54.238624
 21
34.05261
 31
0.0
  0
LINE
  5
9525
  8
ALPHA
 10
54.788591
 20
33.415382
 30
0.0
 11
54.568658
 21
33.001747
 31
0.0
  0
LINE
  5
9526
  8
ALPHA
 10
54.612002
 20
33.509276
 30
0.0
 11
54.392068
 21
33.095641
 31
0.0
  0
LINE
  5
9527
  8
ALPHA
 10
54.290249
 20
33.137816
 30
0.0
 11
54.211596
 21
32.953931
 31
0.0
  0
LINE
  5
9528
  8
ALPHA
 10
54.317658
 20
32.909999
 30
0.0
 11
54.392068
 21
33.095641
 31
0.0
  0
LINE
  5
9529
  8
ALPHA
 10
54.290249
 20
33.137816
 30
0.0
 11
54.427216
 21
33.585817
 31
0.0
  0
LINE
  5
952A
  8
ALPHA
 10
54.098988
 20
33.196291
 30
0.0
 11
54.235955
 21
33.644291
 31
0.0
  0
LINE
  5
952B
  8
ALPHA
 10
53.76554
 20
33.915886
 30
0.0
 11
53.446043
 21
33.573268
 31
0.0
  0
LINE
  5
952C
  8
ALPHA
 10
53.619269
 20
34.052286
 30
0.0
 11
53.299773
 21
33.709668
 31
0.0
  0
LINE
  5
952D
  8
ALPHA
 10
53.212338
 20
33.776759
 30
0.0
 11
53.088773
 21
33.619496
 31
0.0
  0
LINE
  5
952E
  8
ALPHA
 10
53.17985
 20
33.54961
 30
0.0
 11
53.299773
 21
33.709668
 31
0.0
  0
LINE
  5
952F
  8
ALPHA
 10
53.212338
 20
33.776759
 30
0.0
 11
53.46059
 21
34.174044
 31
0.0
  0
LINE
  5
9530
  8
ALPHA
 10
53.042729
 20
33.882742
 30
0.0
 11
53.29098
 21
34.280028
 31
0.0
  0
LINE
  5
9531
  8
ALPHA
 10
54.014815
 20
33.950921
 30
0.0
 11
54.11782
 21
34.122356
 31
0.0
  0
LINE
  5
9532
  8
ALPHA
 10
53.156737
 20
34.633445
 30
0.0
 11
53.300603
 21
34.772379
 31
0.0
  0
LINE
  5
9533
  8
ALPHA
 10
53.260305
 20
34.529878
 30
0.0
 11
53.399239
 21
34.673743
 31
0.0
  0
LINE
  5
9534
  8
ALPHA
 10
57.371377
 20
26.551058
 30
0.0
 11
56.915313
 21
26.551058
 31
0.0
  0
LINE
  5
9535
  8
ALPHA
 10
57.720592
 20
26.251058
 30
0.0
 11
56.375304
 21
26.251058
 31
0.0
  0
LINE
  5
9536
  8
ALPHA
 10
56.051943
 20
28.051058
 30
0.0
 11
55.980669
 21
26.251058
 31
0.0
  0
LINE
  5
9537
  8
ALPHA
 10
55.879321
 20
28.051058
 30
0.0
 11
55.805922
 21
26.251058
 31
0.0
  0
POLYLINE
  5
9538
  8
ALPHA
 66
     1
 10
0.0
 20
0.0
 30
0.0
 70
   128
  0
VERTEX
  5
A583
  8
ALPHA
 10
55.452205
 20
26.551058
 30
0.0
  0
VERTEX
  5
A584
  8
ALPHA
 10
55.483608
 20
26.365867
 30
0.0
  0
VERTEX
  5
A585
  8
ALPHA
 10
55.622063
 20
26.251058
 30
0.0
  0
SEQEND
  5
A586
  8
ALPHA
  0
POLYLINE
  5
9539
  8
ALPHA
 66
     1
 10
0.0
 20
0.0
 30
0.0
 70
   128
  0
VERTEX
  5
A587
  8
ALPHA
 10
56.733773
 20
26.251058
 30
0.0
  0
VERTEX
  5
A588
  8
ALPHA
 10
56.876342
 20
26.365118
 30
0.0
  0
VERTEX
  5
A589
  8
ALPHA
 10
56.915313
 20
26.551058
 30
0.0
  0
SEQEND
  5
A58A
  8
ALPHA
  0
LINE
  5
953A
  8
ALPHA
 10
56.915313
 20
26.551058
 30
0.0
 11
56.915313
 21
28.051058
 31
0.0
  0
LINE
  5
953B
  8
ALPHA
 10
56.549874
 20
28.051058
 30
0.0
 11
56.549874
 21
26.251058
 31
0.0
  0
LINE
  5
953C
  8
ALPHA
 10
56.375304
 20
26.251058
 30
0.0
 11
56.375304
 21
28.051058
 31
0.0
  0
LINE
  5
953D
  8
ALPHA
 10
55.452205
 20
26.551058
 30
0.0
 11
55.510785
 21
28.051058
 31
0.0
  0
POLYLINE
  5
953E
  8
ALPHA
 66
     1
 10
0.0
 20
0.0
 30
0.0
 70
   128
  0
VERTEX
  5
A58B
  8
ALPHA
 10
57.371377
 20
26.551058
 30
0.0
  0
VERTEX
  5
A58C
  8
ALPHA
 10
57.388172
 20
26.385274
 30
0.0
  0
VERTEX
  5
A58D
  8
ALPHA
 10
57.472978
 20
26.251058
 30
0.0
  0
SEQEND
  5
A58E
  8
ALPHA
  0
POLYLINE
  5
953F
  8
ALPHA
 66
     1
 10
0.0
 20
0.0
 30
0.0
 70
   128
  0
VERTEX
  5
A58F
  8
ALPHA
 10
58.546807
 20
26.251058
 30
0.0
  0
VERTEX
  5
A590
  8
ALPHA
 10
58.731071
 20
26.349026
 30
0.0
  0
VERTEX
  5
A591
  8
ALPHA
 10
58.795915
 20
26.551058
 30
0.0
  0
SEQEND
  5
A592
  8
ALPHA
  0
LINE
  5
9540
  8
ALPHA
 10
58.795915
 20
26.551058
 30
0.0
 11
58.795915
 21
28.051058
 31
0.0
  0
LINE
  5
9541
  8
ALPHA
 10
58.294464
 20
26.251058
 30
0.0
 11
58.294464
 21
28.051058
 31
0.0
  0
LINE
  5
9542
  8
ALPHA
 10
58.101913
 20
26.251058
 30
0.0
 11
58.101913
 21
28.051058
 31
0.0
  0
LINE
  5
9543
  8
ALPHA
 10
57.720592
 20
28.051058
 30
0.0
 11
57.720592
 21
26.251058
 31
0.0
  0
LINE
  5
9544
  8
ALPHA
 10
57.575899
 20
28.051058
 30
0.0
 11
57.575899
 21
26.251058
 31
0.0
  0
LINE
  5
9545
  8
ALPHA
 10
57.371377
 20
26.551058
 30
0.0
 11
57.371377
 21
28.051058
 31
0.0
  0
ARC
  5
9546
  8
ALPHA
 10
57.242442
 20
33.281774
 30
0.0
 40
0.399993
 50
104.000911
 51
182.0
  0
ARC
  5
9547
  8
ALPHA
 10
57.242442
 20
33.281774
 30
0.0
 40
0.2
 50
104.000911
 51
182.0
  0
ARC
  5
9548
  8
ALPHA
 10
55.113394
 20
33.281774
 30
0.0
 40
0.399993
 50
358.0
 51
75.999089
  0
ARC
  5
9549
  8
ALPHA
 10
56.177918
 20
37.551058
 30
0.0
 40
3.999998
 50
254.000911
 51
255.999089
  0
ARC
  5
954A
  8
ALPHA
 10
56.254638
 20
33.151727
 30
0.0
 40
0.399993
 50
13.0
 51
90.999089
  0
ARC
  5
954B
  8
ALPHA
 10
56.177918
 20
37.551058
 30
0.0
 40
3.999991
 50
269.000911
 51
270.999089
  0
ARC
  5
954C
  8
ALPHA
 10
56.101197
 20
33.151727
 30
0.0
 40
0.399993
 50
89.000911
 51
167.0
  0
ARC
  5
954D
  8
ALPHA
 10
56.177918
 20
37.551058
 30
0.0
 40
4.8
 50
261.842227
 51
263.157773
  0
ARC
  5
954E
  8
ALPHA
 10
56.177918
 20
37.551058
 30
0.0
 40
4.8
 50
276.842227
 51
278.157773
  0
ARC
  5
954F
  8
ALPHA
 10
55.496801
 20
32.799629
 30
0.0
 40
0.2
 50
178.0
 51
261.842227
  0
ARC
  5
9550
  8
ALPHA
 10
55.113394
 20
33.281774
 30
0.0
 40
0.2
 50
358.0
 51
75.999089
  0
ARC
  5
9551
  8
ALPHA
 10
56.749769
 20
32.785244
 30
0.0
 40
0.2
 50
193.0
 51
276.842227
  0
ARC
  5
9552
  8
ALPHA
 10
56.254638
 20
33.151727
 30
0.0
 40
0.2
 50
13.0
 51
90.999089
  0
ARC
  5
9553
  8
ALPHA
 10
56.177918
 20
37.551058
 30
0.0
 40
4.2
 50
269.000911
 51
270.999089
  0
ARC
  5
9554
  8
ALPHA
 10
56.101197
 20
33.151727
 30
0.0
 40
0.2
 50
89.000911
 51
167.0
  0
ARC
  5
9555
  8
ALPHA
 10
55.606066
 20
32.785244
 30
0.0
 40
0.2
 50
263.157773
 51
347.0
  0
ARC
  5
9556
  8
ALPHA
 10
56.859035
 20
32.799629
 30
0.0
 40
0.2
 50
278.157773
 51
2.0
  0
ARC
  5
9557
  8
ALPHA
 10
56.177918
 20
37.551058
 30
0.0
 40
5.0
 50
261.842227
 51
263.157773
  0
ARC
  5
9558
  8
ALPHA
 10
56.177918
 20
37.551058
 30
0.0
 40
5.0
 50
276.842227
 51
278.157773
  0
LINE
  5
9559
  8
ALPHA
 10
55.313272
 20
33.274794
 30
0.0
 11
55.51315
 21
33.267814
 31
0.0
  0
LINE
  5
955A
  8
ALPHA
 10
56.104685
 20
33.351697
 30
0.0
 11
56.251151
 21
33.351697
 31
0.0
  0
LINE
  5
955B
  8
ALPHA
 10
57.042564
 20
33.274794
 30
0.0
 11
56.842686
 21
33.267814
 31
0.0
  0
LINE
  5
955C
  8
ALPHA
 10
55.906323
 20
33.196717
 30
0.0
 11
55.711449
 21
33.241708
 31
0.0
  0
LINE
  5
955D
  8
ALPHA
 10
55.80094
 20
32.740254
 30
0.0
 11
55.606066
 21
32.785244
 31
0.0
  0
LINE
  5
955E
  8
ALPHA
 10
55.296922
 20
32.806609
 30
0.0
 11
55.496801
 21
32.799629
 31
0.0
  0
LINE
  5
955F
  8
ALPHA
 10
57.058913
 20
32.806609
 30
0.0
 11
56.859035
 21
32.799629
 31
0.0
  0
LINE
  5
9560
  8
ALPHA
 10
56.449512
 20
33.196717
 30
0.0
 11
56.644386
 21
33.241708
 31
0.0
  0
LINE
  5
9561
  8
ALPHA
 10
56.554895
 20
32.740254
 30
0.0
 11
56.749769
 21
32.785244
 31
0.0
  0
LINE
  5
9562
  8
ALPHA
 10
56.749769
 20
32.785244
 30
0.0
 11
56.773597
 21
32.586668
 31
0.0
  0
LINE
  5
9563
  8
ALPHA
 10
56.887415
 20
32.601653
 30
0.0
 11
56.859035
 21
32.799629
 31
0.0
  0
LINE
  5
9564
  8
ALPHA
 10
56.749769
 20
32.785244
 30
0.0
 11
56.644386
 21
33.241708
 31
0.0
  0
LINE
  5
9565
  8
ALPHA
 10
56.554895
 20
32.740254
 30
0.0
 11
56.449512
 21
33.196717
 31
0.0
  0
LINE
  5
9566
  8
ALPHA
 10
57.042564
 20
33.274794
 30
0.0
 11
57.058913
 21
32.806609
 31
0.0
  0
LINE
  5
9567
  8
ALPHA
 10
56.842686
 20
33.267814
 30
0.0
 11
56.859035
 21
32.799629
 31
0.0
  0
LINE
  5
9568
  8
ALPHA
 10
55.906323
 20
33.196717
 30
0.0
 11
55.80094
 21
32.740254
 31
0.0
  0
LINE
  5
9569
  8
ALPHA
 10
55.711449
 20
33.241708
 30
0.0
 11
55.606066
 21
32.785244
 31
0.0
  0
LINE
  5
956A
  8
ALPHA
 10
55.496801
 20
32.799629
 30
0.0
 11
55.468421
 21
32.601653
 31
0.0
  0
LINE
  5
956B
  8
ALPHA
 10
55.582239
 20
32.586668
 30
0.0
 11
55.606066
 21
32.785244
 31
0.0
  0
LINE
  5
956C
  8
ALPHA
 10
55.496801
 20
32.799629
 30
0.0
 11
55.51315
 21
33.267814
 31
0.0
  0
LINE
  5
956D
  8
ALPHA
 10
55.296922
 20
32.806609
 30
0.0
 11
55.313272
 21
33.274794
 31
0.0
  0
LINE
  5
956E
  8
ALPHA
 10
56.104685
 20
33.351697
 30
0.0
 11
56.108172
 21
33.551666
 31
0.0
  0
LINE
  5
956F
  8
ALPHA
 10
56.251151
 20
33.351697
 30
0.0
 11
56.247664
 21
33.551666
 31
0.0
  0
LINE
  5
9570
  8
ALPHA
 10
55.161781
 20
33.475832
 30
0.0
 11
55.210169
 21
33.669891
 31
0.0
  0
ARC
  5
9571
  8
ALPHA
 10
57.390655
 20
33.321488
 30
0.0
 40
0.399993
 50
28.0
 51
105.999089
  0
ARC
  5
9572
  8
ALPHA
 10
56.177918
 20
37.551058
 30
0.0
 40
3.99999
 50
284.000911
 51
285.999089
  0
ARC
  5
9573
  8
ALPHA
 10
58.444025
 20
33.779486
 30
0.0
 40
0.399993
 50
43.0
 51
120.999089
  0
ARC
  5
9574
  8
ALPHA
 10
56.177918
 20
37.551058
 30
0.0
 40
3.999998
 50
299.000911
 51
300.999089
  0
ARC
  5
9575
  8
ALPHA
 10
58.311141
 20
33.702766
 30
0.0
 40
0.399993
 50
119.000911
 51
197.0
  0
ARC
  5
9576
  8
ALPHA
 10
56.177918
 20
37.551058
 30
0.0
 40
3.999999
 50
314.000911
 51
315.999089
  0
ARC
  5
9577
  8
ALPHA
 10
59.234465
 20
34.386012
 30
0.0
 40
0.399993
 50
134.000911
 51
212.0
  0
ARC
  5
9578
  8
ALPHA
 10
56.177918
 20
37.551058
 30
0.0
 40
4.8
 50
291.842227
 51
293.157773
  0
ARC
  5
9579
  8
ALPHA
 10
56.177918
 20
37.551058
 30
0.0
 40
4.8
 50
306.842227
 51
308.157773
  0
ARC
  5
957A
  8
ALPHA
 10
57.963768
 20
33.095641
 30
0.0
 40
0.2
 50
208.0
 51
291.842227
  0
ARC
  5
957B
  8
ALPHA
 10
57.390655
 20
33.321488
 30
0.0
 40
0.2
 50
28.0
 51
105.999089
  0
ARC
  5
957C
  8
ALPHA
 10
56.177918
 20
37.551058
 30
0.0
 40
4.2
 50
284.000911
 51
285.999089
  0
ARC
  5
957D
  8
ALPHA
 10
58.444025
 20
33.779486
 30
0.0
 40
0.2
 50
43.0
 51
120.999089
  0
ARC
  5
957E
  8
ALPHA
 10
56.177918
 20
37.551058
 30
0.0
 40
4.2
 50
299.000911
 51
300.999089
  0
ARC
  5
957F
  8
ALPHA
 10
58.311141
 20
33.702766
 30
0.0
 40
0.2
 50
119.000911
 51
197.0
  0
ARC
  5
9580
  8
ALPHA
 10
58.065587
 20
33.137816
 30
0.0
 40
0.2
 50
293.157773
 51
17.0
  0
ARC
  5
9581
  8
ALPHA
 10
59.234465
 20
34.386012
 30
0.0
 40
0.2
 50
134.000911
 51
212.0
  0
ARC
  5
9582
  8
ALPHA
 10
56.177918
 20
37.551058
 30
0.0
 40
5.0
 50
291.842227
 51
293.157773
  0
LINE
  5
9583
  8
ALPHA
 10
58.895246
 20
34.174044
 30
0.0
 11
59.143497
 21
33.776759
 31
0.0
  0
LINE
  5
9584
  8
ALPHA
 10
59.056063
 20
33.709668
 30
0.0
 11
58.736567
 21
34.052286
 31
0.0
  0
LINE
  5
9585
  8
ALPHA
 10
58.909792
 20
33.573268
 30
0.0
 11
58.590296
 21
33.915886
 31
0.0
  0
LINE
  5
9586
  8
ALPHA
 10
59.095531
 20
34.529878
 30
0.0
 11
58.956597
 21
34.673743
 31
0.0
  0
LINE
  5
9587
  8
ALPHA
 10
58.11988
 20
33.644291
 30
0.0
 11
58.256848
 21
33.196291
 31
0.0
  0
LINE
  5
9588
  8
ALPHA
 10
57.963768
 20
33.095641
 30
0.0
 11
58.038178
 21
32.909999
 31
0.0
  0
LINE
  5
9589
  8
ALPHA
 10
58.14424
 20
32.953931
 30
0.0
 11
58.065587
 21
33.137816
 31
0.0
  0
LINE
  5
958A
  8
ALPHA
 10
57.963768
 20
33.095641
 30
0.0
 11
57.743834
 21
33.509276
 31
0.0
  0
LINE
  5
958B
  8
ALPHA
 10
58.214177
 20
33.877688
 30
0.0
 11
58.117212
 21
34.05261
 31
0.0
  0
LINE
  5
958C
  8
ALPHA
 10
58.34102
 20
33.950921
 30
0.0
 11
58.238016
 21
34.122356
 31
0.0
  0
LINE
  5
958D
  8
ALPHA
 10
57.194055
 20
33.475832
 30
0.0
 11
57.145667
 21
33.669891
 31
0.0
  0
LINE
  5
958E
  8
ALPHA
 10
58.117012
 20
30.31426
 30
0.0
 11
57.950828
 21
30.934466
 31
0.0
  0
LINE
  5
958F
  8
ALPHA
 10
57.335531
 20
33.513741
 30
0.0
 11
57.280406
 21
33.705994
 31
0.0
  0
LINE
  5
9590
  8
ALPHA
 10
57.928619
 20
33.585817
 30
0.0
 11
58.065587
 21
33.137816
 31
0.0
  0
LINE
  5
9591
  8
ALPHA
 10
57.787178
 20
33.001747
 30
0.0
 11
57.567244
 21
33.415382
 31
0.0
  0
LINE
  5
9592
  8
ALPHA
 10
57.194055
 20
33.475832
 30
0.0
 11
57.335531
 21
33.513741
 31
0.0
  0
LINE
  5
9593
  8
ALPHA
 10
58.909792
 20
33.573268
 30
0.0
 11
59.056063
 21
33.709668
 31
0.0
  0
LINE
  5
9594
  8
ALPHA
 10
58.590296
 20
33.915886
 30
0.0
 11
58.736567
 21
34.052286
 31
0.0
  0
LINE
  5
9595
  8
ALPHA
 10
58.256848
 20
33.196291
 30
0.0
 11
58.065587
 21
33.137816
 31
0.0
  0
LINE
  5
9596
  8
ALPHA
 10
57.787178
 20
33.001747
 30
0.0
 11
57.963768
 21
33.095641
 31
0.0
  0
LINE
  5
9597
  8
ALPHA
 10
57.567244
 20
33.415382
 30
0.0
 11
57.743834
 21
33.509276
 31
0.0
  0
LINE
  5
9598
  8
ALPHA
 10
59.064855
 20
34.280028
 30
0.0
 11
58.895246
 21
34.174044
 31
0.0
  0
LINE
  5
9599
  8
ALPHA
 10
58.11988
 20
33.644291
 30
0.0
 11
57.928619
 21
33.585817
 31
0.0
  0
POLYLINE
  5
959A
  8
ALPHA
 66
     1
 10
0.0
 20
0.0
 30
0.0
 70
   128
210
0.0
220
0.0
230
-1.0
  0
VERTEX
  5
A593
  8
ALPHA
 10
-55.423503
 20
35.716079
 30
0.0
  0
VERTEX
  5
A594
  8
ALPHA
 10
-55.070251
 20
35.95467
 30
0.0
  0
VERTEX
  5
A595
  8
ALPHA
 10
-54.778846
 20
36.266578
 30
0.0
  0
VERTEX
  5
A596
  8
ALPHA
 10
-54.564046
 20
36.634783
 30
0.0
  0
VERTEX
  5
A597
  8
ALPHA
 10
-54.439666
 20
37.042643
 30
0.0
  0
VERTEX
  5
A598
  8
ALPHA
 10
-54.414626
 20
37.468248
 30
0.0
  0
VERTEX
  5
A599
  8
ALPHA
 10
-54.493092
 20
37.887137
 30
0.0
  0
VERTEX
  5
A59A
  8
ALPHA
 10
-54.672056
 20
38.274417
 30
0.0
  0
VERTEX
  5
A59B
  8
ALPHA
 10
-54.944826
 20
38.601718
 30
0.0
  0
SEQEND
  5
A59C
  8
ALPHA
  0
ARC
  5
959B
  8
ALPHA
 10
56.177918
 20
37.551058
 30
0.0
 40
6.935285
 50
75.0
 51
105.0
  0
ARC
  5
959C
  8
ALPHA
 10
54.965181
 20
41.780629
 30
0.0
 40
0.399993
 50
208.0
 51
285.999089
  0
ARC
  5
959D
  8
ALPHA
 10
56.177918
 20
37.551058
 30
0.0
 40
4.2
 50
104.000911
 51
105.999089
  0
CIRCLE
  5
959E
  8
ALPHA
 10
56.177918
 20
37.551058
 30
0.0
 40
1.62
  0
CIRCLE
  5
959F
  8
ALPHA
 10
56.177918
 20
37.551058
 30
0.0
 40
2.1
  0
ARC
  5
95A0
  8
ALPHA
 10
56.177918
 20
37.551058
 30
0.0
 40
2.0
 50
255.0
 51
195.0
  0
LINE
  5
95A1
  8
ALPHA
 10
55.161781
 20
41.626284
 30
0.0
 11
55.020305
 21
41.588376
 31
0.0
  0
LINE
  5
95A2
  8
ALPHA
 10
55.020305
 20
41.588376
 30
0.0
 11
55.07543
 21
41.396123
 31
0.0
  0
ARC
  5
95A3
  8
ALPHA
 10
54.044694
 20
41.399351
 30
0.0
 40
0.399993
 50
299.000911
 51
17.0
  0
ARC
  5
95A4
  8
ALPHA
 10
56.177918
 20
37.551058
 30
0.0
 40
4.2
 50
119.000911
 51
120.999089
  0
ARC
  5
95A5
  8
ALPHA
 10
53.91181
 20
41.32263
 30
0.0
 40
0.2
 50
223.0
 51
300.999089
  0
LINE
  5
95A6
  8
ALPHA
 10
53.299773
 20
41.392449
 30
0.0
 11
53.619269
 21
41.049831
 31
0.0
  0
LINE
  5
95A7
  8
ALPHA
 10
54.141659
 20
41.224429
 30
0.0
 11
54.238624
 21
41.049506
 31
0.0
  0
LINE
  5
95A8
  8
ALPHA
 10
53.46059
 20
40.928073
 30
0.0
 11
53.212338
 21
41.325358
 31
0.0
  0
LINE
  5
95A9
  8
ALPHA
 10
53.29098
 20
40.822089
 30
0.0
 11
53.042729
 21
41.219374
 31
0.0
  0
LINE
  5
95AA
  8
ALPHA
 10
53.76554
 20
41.186231
 30
0.0
 11
53.619269
 21
41.049831
 31
0.0
  0
ARC
  5
95AB
  8
ALPHA
 10
53.012871
 20
40.607605
 30
0.0
 40
0.399993
 50
238.0
 51
315.999089
  0
ARC
  5
95AC
  8
ALPHA
 10
53.012871
 20
40.607605
 30
0.0
 40
0.2
 50
238.0
 51
315.999089
  0
ARC
  5
95AD
  8
ALPHA
 10
52.329625
 20
35.417835
 30
0.0
 40
0.399993
 50
29.000911
 51
107.0
  0
ARC
  5
95AE
  8
ALPHA
 10
56.177918
 20
37.551058
 30
0.0
 40
4.0
 50
209.000911
 51
210.999089
  0
ARC
  5
95AF
  8
ALPHA
 10
52.406346
 20
39.817166
 30
0.0
 40
0.399993
 50
329.000911
 51
47.0
  0
ARC
  5
95B0
  8
ALPHA
 10
56.177918
 20
37.551058
 30
0.0
 40
3.999998
 50
149.000911
 51
150.999089
  0
ARC
  5
95B1
  8
ALPHA
 10
52.329625
 20
39.684282
 30
0.0
 40
0.399993
 50
253.0
 51
330.999089
  0
ARC
  5
95B2
  8
ALPHA
 10
51.948347
 20
38.763795
 30
0.0
 40
0.399993
 50
344.000911
 51
62.0
  0
ARC
  5
95B3
  8
ALPHA
 10
56.177918
 20
37.551058
 30
0.0
 40
3.99999
 50
164.000911
 51
165.999089
  0
ARC
  5
95B4
  8
ALPHA
 10
51.908634
 20
38.615583
 30
0.0
 40
0.399993
 50
268.0
 51
345.999089
  0
ARC
  5
95B5
  8
ALPHA
 10
51.778587
 20
37.627779
 30
0.0
 40
0.399993
 50
359.000911
 51
77.0
  0
ARC
  5
95B6
  8
ALPHA
 10
56.177918
 20
37.551058
 30
0.0
 40
4.0
 50
179.000911
 51
180.999089
  0
ARC
  5
95B7
  8
ALPHA
 10
51.778587
 20
37.474338
 30
0.0
 40
0.399993
 50
283.0
 51
0.999089
  0
ARC
  5
95B8
  8
ALPHA
 10
51.908634
 20
36.486534
 30
0.0
 40
0.399993
 50
14.000911
 51
92.0
  0
ARC
  5
95B9
  8
ALPHA
 10
56.177918
 20
37.551058
 30
0.0
 40
3.999989
 50
194.000911
 51
195.999089
  0
ARC
  5
95BA
  8
ALPHA
 10
51.948347
 20
36.338321
 30
0.0
 40
0.399993
 50
298.0
 51
15.999089
  0
ARC
  5
95BB
  8
ALPHA
 10
56.177918
 20
37.551058
 30
0.0
 40
4.8
 50
141.842227
 51
143.157773
  0
ARC
  5
95BC
  8
ALPHA
 10
56.177918
 20
37.551058
 30
0.0
 40
4.8
 50
156.842227
 51
158.157773
  0
ARC
  5
95BD
  8
ALPHA
 10
56.177918
 20
37.551058
 30
0.0
 40
4.8
 50
171.842227
 51
173.157773
  0
ARC
  5
95BE
  8
ALPHA
 10
56.177918
 20
37.551058
 30
0.0
 40
4.8
 50
186.842227
 51
188.157773
  0
ARC
  5
95BF
  8
ALPHA
 10
56.177918
 20
37.551058
 30
0.0
 40
4.8
 50
201.842227
 51
203.157773
  0
ARC
  5
95C0
  8
ALPHA
 10
51.764676
 20
35.663389
 30
0.0
 40
0.2
 50
203.157773
 51
287.0
  0
ARC
  5
95C1
  8
ALPHA
 10
52.329625
 20
35.417835
 30
0.0
 40
0.2
 50
29.000911
 51
107.0
  0
ARC
  5
95C2
  8
ALPHA
 10
56.177918
 20
37.551058
 30
0.0
 40
4.2
 50
209.000911
 51
210.999089
  0
ARC
  5
95C3
  8
ALPHA
 10
52.403618
 20
40.516638
 30
0.0
 40
0.2
 50
58.0
 51
141.842227
  0
ARC
  5
95C4
  8
ALPHA
 10
52.336527
 20
40.429203
 30
0.0
 40
0.2
 50
143.157773
 51
227.0
  0
ARC
  5
95C5
  8
ALPHA
 10
52.406346
 20
39.817166
 30
0.0
 40
0.2
 50
329.000911
 51
47.0
  0
ARC
  5
95C6
  8
ALPHA
 10
56.177918
 20
37.551058
 30
0.0
 40
4.2
 50
149.000911
 51
150.999089
  0
ARC
  5
95C7
  8
ALPHA
 10
52.329625
 20
39.684282
 30
0.0
 40
0.2
 50
253.0
 51
330.999089
  0
ARC
  5
95C8
  8
ALPHA
 10
51.764676
 20
39.438727
 30
0.0
 40
0.2
 50
73.0
 51
156.842227
  0
ARC
  5
95C9
  8
ALPHA
 10
51.722501
 20
39.336908
 30
0.0
 40
0.2
 50
158.157773
 51
242.0
  0
ARC
  5
95CA
  8
ALPHA
 10
51.948347
 20
38.763795
 30
0.0
 40
0.2
 50
344.000911
 51
62.0
  0
ARC
  5
95CB
  8
ALPHA
 10
56.177918
 20
37.551058
 30
0.0
 40
4.2
 50
164.000911
 51
165.999089
  0
ARC
  5
95CC
  8
ALPHA
 10
51.908634
 20
38.615583
 30
0.0
 40
0.2
 50
268.0
 51
345.999089
  0
ARC
  5
95CD
  8
ALPHA
 10
51.426489
 20
38.232176
 30
0.0
 40
0.2
 50
88.0
 51
171.842227
  0
ARC
  5
95CE
  8
ALPHA
 10
51.412104
 20
38.12291
 30
0.0
 40
0.2
 50
173.157773
 51
257.0
  0
ARC
  5
95CF
  8
ALPHA
 10
51.778587
 20
37.627779
 30
0.0
 40
0.2
 50
359.000911
 51
77.0
  0
ARC
  5
95D0
  8
ALPHA
 10
56.177918
 20
37.551058
 30
0.0
 40
4.2
 50
179.000911
 51
180.999089
  0
ARC
  5
95D1
  8
ALPHA
 10
51.778587
 20
37.474338
 30
0.0
 40
0.2
 50
283.0
 51
0.999089
  0
ARC
  5
95D2
  8
ALPHA
 10
51.412104
 20
36.979207
 30
0.0
 40
0.2
 50
103.0
 51
186.842227
  0
ARC
  5
95D3
  8
ALPHA
 10
51.426489
 20
36.869941
 30
0.0
 40
0.2
 50
188.157773
 51
272.0
  0
ARC
  5
95D4
  8
ALPHA
 10
51.908634
 20
36.486534
 30
0.0
 40
0.2
 50
14.000911
 51
92.0
  0
ARC
  5
95D5
  8
ALPHA
 10
56.177918
 20
37.551058
 30
0.0
 40
4.2
 50
194.000911
 51
195.999089
  0
ARC
  5
95D6
  8
ALPHA
 10
51.948347
 20
36.338321
 30
0.0
 40
0.2
 50
298.0
 51
15.999089
  0
ARC
  5
95D7
  8
ALPHA
 10
51.722501
 20
35.765209
 30
0.0
 40
0.2
 50
118.0
 51
201.842227
  0
ARC
  5
95D8
  8
ALPHA
 10
56.177918
 20
37.551058
 30
0.0
 40
5.0
 50
141.842227
 51
143.157773
  0
ARC
  5
95D9
  8
ALPHA
 10
56.177918
 20
37.551058
 30
0.0
 40
5.0
 50
156.842227
 51
158.157773
  0
ARC
  5
95DA
  8
ALPHA
 10
56.177918
 20
37.551058
 30
0.0
 40
5.0
 50
171.842227
 51
173.157773
  0
ARC
  5
95DB
  8
ALPHA
 10
56.177918
 20
37.551058
 30
0.0
 40
5.0
 50
186.842227
 51
188.157773
  0
ARC
  5
95DC
  8
ALPHA
 10
56.177918
 20
37.551058
 30
0.0
 40
5.0
 50
201.842227
 51
203.157773
  0
LINE
  5
95DD
  8
ALPHA
 10
51.433469
 20
38.432054
 30
0.0
 11
51.901654
 21
38.415704
 31
0.0
  0
LINE
  5
95DE
  8
ALPHA
 10
51.426489
 20
38.232176
 30
0.0
 11
51.894674
 21
38.215826
 31
0.0
  0
LINE
  5
95DF
  8
ALPHA
 10
51.367113
 20
37.174081
 30
0.0
 11
51.823577
 21
37.279464
 31
0.0
  0
LINE
  5
95E0
  8
ALPHA
 10
52.509602
 20
40.686247
 30
0.0
 11
52.906887
 21
40.437996
 31
0.0
  0
LINE
  5
95E1
  8
ALPHA
 10
52.403618
 20
40.516638
 30
0.0
 11
52.800904
 21
40.268386
 31
0.0
  0
LINE
  5
95E2
  8
ALPHA
 10
51.764676
 20
39.438727
 30
0.0
 11
51.580791
 21
39.51738
 31
0.0
  0
LINE
  5
95E3
  8
ALPHA
 10
51.536858
 20
39.411318
 30
0.0
 11
51.722501
 21
39.336908
 31
0.0
  0
LINE
  5
95E4
  8
ALPHA
 10
51.82315
 20
39.629988
 30
0.0
 11
52.271151
 21
39.493021
 31
0.0
  0
LINE
  5
95E5
  8
ALPHA
 10
51.764676
 20
39.438727
 30
0.0
 11
52.212676
 21
39.30176
 31
0.0
  0
LINE
  5
95E6
  8
ALPHA
 10
52.1406
 20
38.708671
 30
0.0
 11
52.332854
 21
38.653547
 31
0.0
  0
LINE
  5
95E7
  8
ALPHA
 10
52.102692
 20
38.567195
 30
0.0
 11
52.29675
 21
38.518808
 31
0.0
  0
LINE
  5
95E8
  8
ALPHA
 10
51.868567
 20
38.017527
 30
0.0
 11
51.412104
 21
38.12291
 31
0.0
  0
LINE
  5
95E9
  8
ALPHA
 10
51.426489
 20
38.232176
 30
0.0
 11
51.228512
 21
38.260556
 31
0.0
  0
LINE
  5
95EA
  8
ALPHA
 10
51.213528
 20
38.146737
 30
0.0
 11
51.412104
 21
38.12291
 31
0.0
  0
LINE
  5
95EB
  8
ALPHA
 10
51.978556
 20
37.624292
 30
0.0
 11
52.178526
 21
37.620804
 31
0.0
  0
LINE
  5
95EC
  8
ALPHA
 10
51.978556
 20
37.477825
 30
0.0
 11
52.178526
 21
37.481312
 31
0.0
  0
LINE
  5
95ED
  8
ALPHA
 10
51.894674
 20
36.88629
 30
0.0
 11
51.426489
 21
36.869941
 31
0.0
  0
LINE
  5
95EE
  8
ALPHA
 10
51.901654
 20
36.686412
 30
0.0
 11
51.433469
 21
36.670063
 31
0.0
  0
LINE
  5
95EF
  8
ALPHA
 10
51.412104
 20
36.979207
 30
0.0
 11
51.213528
 21
36.95538
 31
0.0
  0
LINE
  5
95F0
  8
ALPHA
 10
51.228512
 20
36.841561
 30
0.0
 11
51.426489
 21
36.869941
 31
0.0
  0
LINE
  5
95F1
  8
ALPHA
 10
51.412104
 20
36.979207
 30
0.0
 11
51.868567
 21
37.08459
 31
0.0
  0
LINE
  5
95F2
  8
ALPHA
 10
52.102692
 20
36.534922
 30
0.0
 11
52.29675
 21
36.583309
 31
0.0
  0
LINE
  5
95F3
  8
ALPHA
 10
52.403618
 20
40.516638
 30
0.0
 11
52.246356
 21
40.640204
 31
0.0
  0
LINE
  5
95F4
  8
ALPHA
 10
52.176469
 20
40.549126
 30
0.0
 11
52.336527
 21
40.429203
 31
0.0
  0
LINE
  5
95F5
  8
ALPHA
 10
52.577781
 20
39.714161
 30
0.0
 11
52.749216
 21
39.611156
 31
0.0
  0
LINE
  5
95F6
  8
ALPHA
 10
52.504547
 20
39.587317
 30
0.0
 11
52.67947
 21
39.490352
 31
0.0
  0
LINE
  5
95F7
  8
ALPHA
 10
52.136136
 20
39.116974
 30
0.0
 11
51.722501
 21
39.336908
 31
0.0
  0
LINE
  5
95F8
  8
ALPHA
 10
52.042241
 20
38.940385
 30
0.0
 11
51.628606
 21
39.160319
 31
0.0
  0
LINE
  5
95F9
  8
ALPHA
 10
51.823577
 20
37.822653
 30
0.0
 11
51.367113
 21
37.928036
 31
0.0
  0
LINE
  5
95FA
  8
ALPHA
 10
52.679145
 20
40.109707
 30
0.0
 11
52.336527
 21
40.429203
 31
0.0
  0
LINE
  5
95FB
  8
ALPHA
 10
52.542745
 20
39.963437
 30
0.0
 11
52.200128
 21
40.282933
 31
0.0
  0
LINE
  5
95FC
  8
ALPHA
 10
52.504547
 20
35.514799
 30
0.0
 11
52.577781
 21
35.387956
 31
0.0
  0
LINE
  5
95FD
  8
ALPHA
 10
52.042241
 20
36.161732
 30
0.0
 11
52.136136
 21
35.985142
 31
0.0
  0
LINE
  5
95FE
  8
ALPHA
 10
51.628606
 20
35.941798
 30
0.0
 11
51.722501
 21
35.765209
 31
0.0
  0
LINE
  5
95FF
  8
ALPHA
 10
51.823577
 20
37.279464
 30
0.0
 11
51.868567
 21
37.08459
 31
0.0
  0
LINE
  5
9600
  8
ALPHA
 10
51.367113
 20
37.174081
 30
0.0
 11
51.412104
 21
36.979207
 31
0.0
  0
LINE
  5
9601
  8
ALPHA
 10
52.102692
 20
36.534922
 30
0.0
 11
52.1406
 21
36.393446
 31
0.0
  0
LINE
  5
9602
  8
ALPHA
 10
52.271151
 20
35.609096
 30
0.0
 11
52.212676
 21
35.800357
 31
0.0
  0
LINE
  5
9603
  8
ALPHA
 10
51.82315
 20
35.472128
 30
0.0
 11
51.764676
 21
35.663389
 31
0.0
  0
LINE
  5
9604
  8
ALPHA
 10
51.901654
 20
38.415704
 30
0.0
 11
51.894674
 21
38.215826
 31
0.0
  0
LINE
  5
9605
  8
ALPHA
 10
51.978556
 20
37.624292
 30
0.0
 11
51.978556
 21
37.477825
 31
0.0
  0
LINE
  5
9606
  8
ALPHA
 10
51.901654
 20
36.686412
 30
0.0
 11
51.894674
 21
36.88629
 31
0.0
  0
LINE
  5
9607
  8
ALPHA
 10
51.433469
 20
36.670063
 30
0.0
 11
51.426489
 21
36.869941
 31
0.0
  0
LINE
  5
9608
  8
ALPHA
 10
51.433469
 20
38.432054
 30
0.0
 11
51.426489
 21
38.232176
 31
0.0
  0
LINE
  5
9609
  8
ALPHA
 10
52.1406
 20
36.393446
 30
0.0
 11
52.332854
 21
36.44857
 31
0.0
  0
LINE
  5
960A
  8
ALPHA
 10
52.271151
 20
35.609096
 30
0.0
 11
51.82315
 21
35.472128
 31
0.0
  0
LINE
  5
960B
  8
ALPHA
 10
52.212676
 20
35.800357
 30
0.0
 11
51.764676
 21
35.663389
 31
0.0
  0
LINE
  5
960C
  8
ALPHA
 10
51.722501
 20
35.765209
 30
0.0
 11
51.536858
 21
35.690798
 31
0.0
  0
LINE
  5
960D
  8
ALPHA
 10
51.580791
 20
35.584736
 30
0.0
 11
51.764676
 21
35.663389
 31
0.0
  0
LINE
  5
960E
  8
ALPHA
 10
51.722501
 20
35.765209
 30
0.0
 11
52.136136
 21
35.985142
 31
0.0
  0
LINE
  5
960F
  8
ALPHA
 10
51.628606
 20
35.941798
 30
0.0
 11
52.042241
 21
36.161732
 31
0.0
  0
LINE
  5
9610
  8
ALPHA
 10
52.504547
 20
35.514799
 30
0.0
 11
52.67947
 21
35.611764
 31
0.0
  0
LINE
  5
9611
  8
ALPHA
 10
52.577781
 20
35.387956
 30
0.0
 11
52.749216
 21
35.490961
 31
0.0
  0
LINE
  5
9612
  8
ALPHA
 10
52.271151
 20
39.493021
 30
0.0
 11
52.212676
 21
39.30176
 31
0.0
  0
LINE
  5
9613
  8
ALPHA
 10
51.82315
 20
39.629988
 30
0.0
 11
51.764676
 21
39.438727
 31
0.0
  0
LINE
  5
9614
  8
ALPHA
 10
52.1406
 20
38.708671
 30
0.0
 11
52.102692
 21
38.567195
 31
0.0
  0
LINE
  5
9615
  8
ALPHA
 10
51.823577
 20
37.822653
 30
0.0
 11
51.868567
 21
38.017527
 31
0.0
  0
LINE
  5
9616
  8
ALPHA
 10
51.367113
 20
37.928036
 30
0.0
 11
51.412104
 21
38.12291
 31
0.0
  0
LINE
  5
9617
  8
ALPHA
 10
52.906887
 20
40.437996
 30
0.0
 11
52.800904
 21
40.268386
 31
0.0
  0
LINE
  5
9618
  8
ALPHA
 10
52.577781
 20
39.714161
 30
0.0
 11
52.504547
 21
39.587317
 31
0.0
  0
LINE
  5
9619
  8
ALPHA
 10
52.042241
 20
38.940385
 30
0.0
 11
52.136136
 21
39.116974
 31
0.0
  0
LINE
  5
961A
  8
ALPHA
 10
51.628606
 20
39.160319
 30
0.0
 11
51.722501
 21
39.336908
 31
0.0
  0
LINE
  5
961B
  8
ALPHA
 10
52.542745
 20
39.963437
 30
0.0
 11
52.679145
 21
40.109707
 31
0.0
  0
LINE
  5
961C
  8
ALPHA
 10
52.509602
 20
40.686247
 30
0.0
 11
52.403618
 21
40.516638
 31
0.0
  0
LINE
  5
961D
  8
ALPHA
 10
52.200128
 20
40.282933
 30
0.0
 11
52.336527
 21
40.429203
 31
0.0
  0
ARC
  5
961E
  8
ALPHA
 10
56.177918
 20
37.551058
 30
0.0
 40
3.999996
 50
119.000911
 51
120.999089
  0
ARC
  5
961F
  8
ALPHA
 10
53.91181
 20
41.32263
 30
0.0
 40
0.399993
 50
223.0
 51
300.999089
  0
ARC
  5
9620
  8
ALPHA
 10
53.121371
 20
40.716105
 30
0.0
 40
0.399993
 50
314.000911
 51
32.0
  0
ARC
  5
9621
  8
ALPHA
 10
56.177918
 20
37.551058
 30
0.0
 40
3.999991
 50
134.000911
 51
135.999089
  0
ARC
  5
9622
  8
ALPHA
 10
53.121371
 20
40.716105
 30
0.0
 40
0.2
 50
314.000911
 51
32.0
  0
ARC
  5
9623
  8
ALPHA
 10
56.177918
 20
37.551058
 30
0.0
 40
4.2
 50
134.000911
 51
135.999089
  0
LINE
  5
9624
  8
ALPHA
 10
53.156737
 20
40.468672
 30
0.0
 11
53.300603
 21
40.329738
 31
0.0
  0
LINE
  5
9625
  8
ALPHA
 10
53.260305
 20
40.572239
 30
0.0
 11
53.399239
 21
40.428373
 31
0.0
  0
LINE
  5
9626
  8
ALPHA
 10
54.014815
 20
41.151195
 30
0.0
 11
54.11782
 21
40.97976
 31
0.0
  0
LINE
  5
9627
  8
ALPHA
 10
53.260305
 20
40.572239
 30
0.0
 11
53.156737
 21
40.468672
 31
0.0
  0
LINE
  5
9628
  8
ALPHA
 10
53.29098
 20
40.822089
 30
0.0
 11
53.46059
 21
40.928073
 31
0.0
  0
ARC
  5
9629
  8
ALPHA
 10
56.177918
 20
37.551058
 30
0.0
 40
7.15
 50
105.0
 51
135.0
  0
ARC
  5
962A
  8
ALPHA
 10
53.212338
 20
41.325358
 30
0.0
 40
0.2
 50
128.157773
 51
212.0
  0
ARC
  5
962B
  8
ALPHA
 10
56.177918
 20
37.551058
 30
0.0
 40
4.8
 50
111.842227
 51
113.157773
  0
ARC
  5
962C
  8
ALPHA
 10
56.177918
 20
37.551058
 30
0.0
 40
4.8
 50
126.842227
 51
128.157773
  0
ARC
  5
962D
  8
ALPHA
 10
54.290249
 20
41.9643
 30
0.0
 40
0.2
 50
113.157773
 51
197.0
  0
ARC
  5
962E
  8
ALPHA
 10
54.044694
 20
41.399351
 30
0.0
 40
0.2
 50
299.000911
 51
17.0
  0
ARC
  5
962F
  8
ALPHA
 10
53.299773
 20
41.392449
 30
0.0
 40
0.2
 50
43.0
 51
126.842227
  0
ARC
  5
9630
  8
ALPHA
 10
56.177918
 20
37.551058
 30
0.0
 40
5.0
 50
111.842227
 51
113.157773
  0
ARC
  5
9631
  8
ALPHA
 10
56.177918
 20
37.551058
 30
0.0
 40
5.0
 50
126.842227
 51
128.157773
  0
ARC
  5
9632
  8
ALPHA
 10
54.392068
 20
42.006475
 30
0.0
 40
0.2
 50
28.0
 51
111.842227
  0
ARC
  5
9633
  8
ALPHA
 10
54.965181
 20
41.780629
 30
0.0
 40
0.2
 50
208.0
 51
285.999089
  0
LINE
  5
9634
  8
ALPHA
 10
53.446043
 20
41.528848
 30
0.0
 11
53.76554
 21
41.186231
 31
0.0
  0
LINE
  5
9635
  8
ALPHA
 10
54.568658
 20
42.10037
 30
0.0
 11
54.788591
 21
41.686735
 31
0.0
  0
LINE
  5
9636
  8
ALPHA
 10
53.299773
 20
41.392449
 30
0.0
 11
53.17985
 21
41.552507
 31
0.0
  0
LINE
  5
9637
  8
ALPHA
 10
53.088773
 20
41.482621
 30
0.0
 11
53.212338
 21
41.325358
 31
0.0
  0
LINE
  5
9638
  8
ALPHA
 10
54.392068
 20
42.006475
 30
0.0
 11
54.317658
 21
42.192118
 31
0.0
  0
LINE
  5
9639
  8
ALPHA
 10
54.211596
 20
42.148185
 30
0.0
 11
54.290249
 21
41.9643
 31
0.0
  0
LINE
  5
963A
  8
ALPHA
 10
54.392068
 20
42.006475
 30
0.0
 11
54.612002
 21
41.59284
 31
0.0
  0
LINE
  5
963B
  8
ALPHA
 10
54.238824
 20
44.787856
 30
0.0
 11
54.405007
 21
44.16765
 31
0.0
  0
LINE
  5
963C
  8
ALPHA
 10
54.427216
 20
41.5163
 30
0.0
 11
54.290249
 21
41.9643
 31
0.0
  0
LINE
  5
963D
  8
ALPHA
 10
54.235955
 20
41.457825
 30
0.0
 11
54.098988
 21
41.905826
 31
0.0
  0
LINE
  5
963E
  8
ALPHA
 10
54.788591
 20
41.686735
 30
0.0
 11
54.612002
 21
41.59284
 31
0.0
  0
LINE
  5
963F
  8
ALPHA
 10
53.446043
 20
41.528848
 30
0.0
 11
53.299773
 21
41.392449
 31
0.0
  0
LINE
  5
9640
  8
ALPHA
 10
54.235955
 20
41.457825
 30
0.0
 11
54.427216
 21
41.5163
 31
0.0
  0
LINE
  5
9641
  8
ALPHA
 10
54.098988
 20
41.905826
 30
0.0
 11
54.290249
 21
41.9643
 31
0.0
  0
LINE
  5
9642
  8
ALPHA
 10
54.568658
 20
42.10037
 30
0.0
 11
54.392068
 21
42.006475
 31
0.0
  0
LINE
  5
9643
  8
ALPHA
 10
53.042729
 20
41.219374
 30
0.0
 11
53.212338
 21
41.325358
 31
0.0
  0
ARC
  5
9644
  8
ALPHA
 10
58.311141
 20
41.399351
 30
0.0
 40
0.399997
 50
163.0
 51
240.999089
  0
ARC
  5
9645
  8
ALPHA
 10
58.444025
 20
41.32263
 30
0.0
 40
0.2
 50
239.000911
 51
317.0
  0
ARC
  5
9646
  8
ALPHA
 10
56.177918
 20
37.551058
 30
0.0
 40
4.2
 50
59.000911
 51
60.999089
  0
ARC
  5
9647
  8
ALPHA
 10
56.177918
 20
41.101058
 30
0.0
 40
0.15
 50
20.0
 51
160.0
  0
LINE
  5
9648
  8
ALPHA
 10
58.34102
 20
41.151195
 30
0.0
 11
58.214177
 21
41.224429
 31
0.0
  0
LINE
  5
9649
  8
ALPHA
 10
58.736567
 20
41.049831
 30
0.0
 11
58.590296
 21
41.186231
 31
0.0
  0
LINE
  5
964A
  8
ALPHA
 10
59.143497
 20
41.325358
 30
0.0
 11
58.895246
 21
40.928073
 31
0.0
  0
LINE
  5
964B
  8
ALPHA
 10
58.117212
 20
41.049506
 30
0.0
 11
58.214177
 21
41.224429
 31
0.0
  0
LINE
  5
964C
  8
ALPHA
 10
59.056063
 20
41.392449
 30
0.0
 11
58.736567
 21
41.049831
 31
0.0
  0
POLYLINE
  5
964D
  8
ALPHA
 66
     1
 10
0.0
 20
0.0
 30
0.0
 70
   128
210
0.0
220
0.0
230
-1.0
  0
VERTEX
  5
A59D
  8
ALPHA
 10
-57.411002
 20
38.601726
 30
0.0
  0
VERTEX
  5
A59E
  8
ALPHA
 10
-57.687892
 20
38.267879
 30
0.0
  0
VERTEX
  5
A59F
  8
ALPHA
 10
-57.867382
 20
37.872404
 30
0.0
  0
VERTEX
  5
A5A0
  8
ALPHA
 10
-57.942491
 20
37.445096
 30
0.0
  0
VERTEX
  5
A5A1
  8
ALPHA
 10
-57.910423
 20
37.012274
 30
0.0
  0
VERTEX
  5
A5A2
  8
ALPHA
 10
-57.775918
 20
36.599525
 30
0.0
  0
VERTEX
  5
A5A3
  8
ALPHA
 10
-57.548781
 20
36.229776
 30
0.0
  0
VERTEX
  5
A5A4
  8
ALPHA
 10
-57.243845
 20
35.920335
 30
0.0
  0
VERTEX
  5
A5A5
  8
ALPHA
 10
-56.877162
 20
35.687954
 30
0.0
  0
SEQEND
  5
A5A6
  8
ALPHA
  0
LINE
  5
964E
  8
ALPHA
 10
55.47869
 20
35.687948
 30
0.0
 11
55.358903
 21
35.737428
 31
0.0
  0
LINE
  5
964F
  8
ALPHA
 10
55.662992
 20
35.628845
 30
0.0
 11
55.47869
 21
35.687948
 31
0.0
  0
POLYLINE
  5
9650
  8
ALPHA
 66
     1
 10
0.0
 20
0.0
 30
0.0
 70
   128
210
0.0
220
0.0
230
-1.0
  0
VERTEX
  5
A5A7
  8
ALPHA
 10
-56.877162
 20
35.687954
 30
0.0
  0
VERTEX
  5
A5A8
  8
ALPHA
 10
-56.274815
 20
35.563132
 30
0.0
  0
VERTEX
  5
A5A9
  8
ALPHA
 10
-55.662992
 20
35.628845
 30
0.0
  0
SEQEND
  5
A5AA
  8
ALPHA
  0
LINE
  5
9651
  8
ALPHA
 10
55.47869
 20
35.687948
 30
0.0
 11
55.423503
 21
35.716079
 31
0.0
  0
CIRCLE
  5
9652
  8
ALPHA
 10
56.177918
 20
37.551058
 30
0.0
 40
0.753975
  0
ARC
  5
9653
  8
ALPHA
 10
55.777551
 20
40.001058
 30
0.0
 40
0.15
 50
160.0
 51
270.0
  0
ARC
  5
9654
  8
ALPHA
 10
56.578285
 20
40.001058
 30
0.0
 40
0.15
 50
270.0
 51
20.0
  0
LINE
  5
9655
  8
ALPHA
 10
55.777551
 20
39.851058
 30
0.0
 11
56.578285
 21
39.851058
 31
0.0
  0
LINE
  5
9656
  8
ALPHA
 10
56.719239
 20
40.052361
 30
0.0
 11
56.318872
 21
41.152361
 31
0.0
  0
LINE
  5
9657
  8
ALPHA
 10
56.036964
 20
41.152361
 30
0.0
 11
55.636597
 21
40.052361
 31
0.0
  0
ARC
  5
9658
  8
ALPHA
 10
59.234465
 20
40.716105
 30
0.0
 40
0.399993
 50
148.0
 51
225.999089
  0
ARC
  5
9659
  8
ALPHA
 10
56.177918
 20
37.551058
 30
0.0
 40
3.999998
 50
44.000911
 51
45.999089
  0
ARC
  5
965A
  8
ALPHA
 10
58.444025
 20
41.32263
 30
0.0
 40
0.399997
 50
239.000911
 51
317.0
  0
ARC
  5
965B
  8
ALPHA
 10
56.177918
 20
37.551058
 30
0.0
 40
3.999992
 50
59.000911
 51
60.999089
  0
ARC
  5
965C
  8
ALPHA
 10
59.234465
 20
40.716105
 30
0.0
 40
0.2
 50
148.0
 51
225.999089
  0
LINE
  5
965D
  8
ALPHA
 10
59.064855
 20
40.822089
 30
0.0
 11
58.895246
 21
40.928073
 31
0.0
  0
LINE
  5
965E
  8
ALPHA
 10
58.238016
 20
40.97976
 30
0.0
 11
58.34102
 21
41.151195
 31
0.0
  0
LINE
  5
965F
  8
ALPHA
 10
59.095531
 20
40.572239
 30
0.0
 11
58.956597
 21
40.428373
 31
0.0
  0
ARC
  5
9660
  8
ALPHA
 10
57.242442
 20
41.820343
 30
0.0
 40
0.399993
 50
178.0
 51
255.999089
  0
ARC
  5
9661
  8
ALPHA
 10
57.242442
 20
41.820343
 30
0.0
 40
0.2
 50
178.0
 51
255.999089
  0
ARC
  5
9662
  8
ALPHA
 10
56.177918
 20
37.551058
 30
0.0
 40
3.999993
 50
104.000911
 51
105.999089
  0
ARC
  5
9663
  8
ALPHA
 10
55.113394
 20
41.820343
 30
0.0
 40
0.399993
 50
284.000911
 51
2.0
  0
ARC
  5
9664
  8
ALPHA
 10
56.101197
 20
41.950389
 30
0.0
 40
0.399993
 50
193.0
 51
270.999089
  0
ARC
  5
9665
  8
ALPHA
 10
56.177918
 20
37.551058
 30
0.0
 40
3.999993
 50
89.000911
 51
90.999089
  0
ARC
  5
9666
  8
ALPHA
 10
56.254638
 20
41.950389
 30
0.0
 40
0.399993
 50
269.000911
 51
347.0
  0
ARC
  5
9667
  8
ALPHA
 10
56.177918
 20
37.551058
 30
0.0
 40
4.8
 50
81.842227
 51
83.157773
  0
ARC
  5
9668
  8
ALPHA
 10
56.177918
 20
37.551058
 30
0.0
 40
4.8
 50
96.842227
 51
98.157773
  0
ARC
  5
9669
  8
ALPHA
 10
56.177918
 20
37.551058
 30
0.0
 40
5.0
 50
81.842227
 51
83.157773
  0
ARC
  5
966A
  8
ALPHA
 10
56.177918
 20
37.551058
 30
0.0
 40
5.0
 50
96.842227
 51
98.157773
  0
ARC
  5
966B
  8
ALPHA
 10
55.113394
 20
41.820343
 30
0.0
 40
0.2
 50
284.000911
 51
2.0
  0
ARC
  5
966C
  8
ALPHA
 10
55.496801
 20
42.302488
 30
0.0
 40
0.2
 50
98.157773
 51
182.0
  0
ARC
  5
966D
  8
ALPHA
 10
55.606066
 20
42.316873
 30
0.0
 40
0.2
 50
13.0
 51
96.842227
  0
ARC
  5
966E
  8
ALPHA
 10
56.101197
 20
41.950389
 30
0.0
 40
0.2
 50
193.0
 51
270.999089
  0
ARC
  5
966F
  8
ALPHA
 10
56.177918
 20
37.551058
 30
0.0
 40
4.2
 50
89.000911
 51
90.999089
  0
ARC
  5
9670
  8
ALPHA
 10
56.254638
 20
41.950389
 30
0.0
 40
0.2
 50
269.000911
 51
347.0
  0
ARC
  5
9671
  8
ALPHA
 10
56.749769
 20
42.316873
 30
0.0
 40
0.2
 50
83.157773
 51
167.0
  0
ARC
  5
9672
  8
ALPHA
 10
56.859035
 20
42.302488
 30
0.0
 40
0.2
 50
358.0
 51
81.842227
  0
LINE
  5
9673
  8
ALPHA
 10
56.554895
 20
42.361863
 30
0.0
 11
56.749769
 21
42.316873
 31
0.0
  0
LINE
  5
9674
  8
ALPHA
 10
56.449512
 20
41.905399
 30
0.0
 11
56.644386
 21
41.860409
 31
0.0
  0
LINE
  5
9675
  8
ALPHA
 10
57.058913
 20
42.295508
 30
0.0
 11
56.859035
 21
42.302488
 31
0.0
  0
LINE
  5
9676
  8
ALPHA
 10
57.042564
 20
41.827322
 30
0.0
 11
56.842686
 21
41.834302
 31
0.0
  0
LINE
  5
9677
  8
ALPHA
 10
56.251151
 20
41.75042
 30
0.0
 11
56.104685
 21
41.75042
 31
0.0
  0
LINE
  5
9678
  8
ALPHA
 10
55.296922
 20
42.295508
 30
0.0
 11
55.496801
 21
42.302488
 31
0.0
  0
LINE
  5
9679
  8
ALPHA
 10
55.313272
 20
41.827322
 30
0.0
 11
55.51315
 21
41.834302
 31
0.0
  0
LINE
  5
967A
  8
ALPHA
 10
55.80094
 20
42.361863
 30
0.0
 11
55.606066
 21
42.316873
 31
0.0
  0
LINE
  5
967B
  8
ALPHA
 10
55.906323
 20
41.905399
 30
0.0
 11
55.711449
 21
41.860409
 31
0.0
  0
LINE
  5
967C
  8
ALPHA
 10
55.80094
 20
42.361863
 30
0.0
 11
55.906323
 21
41.905399
 31
0.0
  0
LINE
  5
967D
  8
ALPHA
 10
55.606066
 20
42.316873
 30
0.0
 11
55.711449
 21
41.860409
 31
0.0
  0
LINE
  5
967E
  8
ALPHA
 10
55.161781
 20
41.626284
 30
0.0
 11
55.210169
 21
41.432226
 31
0.0
  0
LINE
  5
967F
  8
ALPHA
 10
55.606066
 20
42.316873
 30
0.0
 11
55.582239
 21
42.515448
 31
0.0
  0
LINE
  5
9680
  8
ALPHA
 10
55.468421
 20
42.500464
 30
0.0
 11
55.496801
 21
42.302488
 31
0.0
  0
LINE
  5
9681
  8
ALPHA
 10
57.058913
 20
42.295508
 30
0.0
 11
57.042564
 21
41.827322
 31
0.0
  0
LINE
  5
9682
  8
ALPHA
 10
56.859035
 20
42.302488
 30
0.0
 11
56.842686
 21
41.834302
 31
0.0
  0
LINE
  5
9683
  8
ALPHA
 10
56.859035
 20
42.302488
 30
0.0
 11
56.887415
 21
42.500464
 31
0.0
  0
LINE
  5
9684
  8
ALPHA
 10
56.773597
 20
42.515448
 30
0.0
 11
56.749769
 21
42.316873
 31
0.0
  0
LINE
  5
9685
  8
ALPHA
 10
56.251151
 20
41.75042
 30
0.0
 11
56.247664
 21
41.55045
 31
0.0
  0
LINE
  5
9686
  8
ALPHA
 10
56.104685
 20
41.75042
 30
0.0
 11
56.108172
 21
41.55045
 31
0.0
  0
LINE
  5
9687
  8
ALPHA
 10
55.51315
 20
41.834302
 30
0.0
 11
55.496801
 21
42.302488
 31
0.0
  0
LINE
  5
9688
  8
ALPHA
 10
55.313272
 20
41.827322
 30
0.0
 11
55.296922
 21
42.295508
 31
0.0
  0
LINE
  5
9689
  8
ALPHA
 10
56.644386
 20
41.860409
 30
0.0
 11
56.749769
 21
42.316873
 31
0.0
  0
LINE
  5
968A
  8
ALPHA
 10
56.449512
 20
41.905399
 30
0.0
 11
56.554895
 21
42.361863
 31
0.0
  0
ARC
  5
968B
  8
ALPHA
 10
56.177918
 20
37.551058
 30
0.0
 40
3.999996
 50
74.000911
 51
75.999089
  0
ARC
  5
968C
  8
ALPHA
 10
57.390655
 20
41.780629
 30
0.0
 40
0.399993
 50
254.000911
 51
332.0
  0
ARC
  5
968D
  8
ALPHA
 10
56.177918
 20
37.551058
 30
0.0
 40
4.8
 50
51.842227
 51
53.157773
  0
ARC
  5
968E
  8
ALPHA
 10
56.177918
 20
37.551058
 30
0.0
 40
4.8
 50
66.842227
 51
68.157773
  0
ARC
  5
968F
  8
ALPHA
 10
56.177918
 20
37.551058
 30
0.0
 40
5.0
 50
66.842227
 51
68.157773
  0
ARC
  5
9690
  8
ALPHA
 10
58.311141
 20
41.399351
 30
0.0
 40
0.2
 50
163.0
 51
240.999089
  0
ARC
  5
9691
  8
ALPHA
 10
58.065587
 20
41.9643
 30
0.0
 40
0.2
 50
343.0
 51
66.842227
  0
ARC
  5
9692
  8
ALPHA
 10
56.177918
 20
37.551058
 30
0.0
 40
4.2
 50
74.000911
 51
75.999089
  0
ARC
  5
9693
  8
ALPHA
 10
57.390655
 20
41.780629
 30
0.0
 40
0.2
 50
254.000911
 51
332.0
  0
ARC
  5
9694
  8
ALPHA
 10
57.963768
 20
42.006475
 30
0.0
 40
0.2
 50
68.157773
 51
152.0
  0
LINE
  5
9695
  8
ALPHA
 10
58.065587
 20
41.9643
 30
0.0
 11
58.256848
 21
41.905826
 31
0.0
  0
LINE
  5
9696
  8
ALPHA
 10
59.056063
 20
41.392449
 30
0.0
 11
58.909792
 21
41.528848
 31
0.0
  0
LINE
  5
9697
  8
ALPHA
 10
57.787178
 20
42.10037
 30
0.0
 11
57.963768
 21
42.006475
 31
0.0
  0
LINE
  5
9698
  8
ALPHA
 10
57.567244
 20
41.686735
 30
0.0
 11
57.743834
 21
41.59284
 31
0.0
  0
LINE
  5
9699
  8
ALPHA
 10
57.928619
 20
41.5163
 30
0.0
 11
58.11988
 21
41.457825
 31
0.0
  0
LINE
  5
969A
  8
ALPHA
 10
57.335531
 20
41.588376
 30
0.0
 11
57.194055
 21
41.626284
 31
0.0
  0
LINE
  5
969B
  8
ALPHA
 10
58.11988
 20
41.457825
 30
0.0
 11
58.256848
 21
41.905826
 31
0.0
  0
LINE
  5
969C
  8
ALPHA
 10
57.928619
 20
41.5163
 30
0.0
 11
58.065587
 21
41.9643
 31
0.0
  0
LINE
  5
969D
  8
ALPHA
 10
57.335531
 20
41.588376
 30
0.0
 11
57.280406
 21
41.396123
 31
0.0
  0
LINE
  5
969E
  8
ALPHA
 10
58.116877
 20
44.787353
 30
0.0
 11
57.950828
 21
44.16765
 31
0.0
  0
LINE
  5
969F
  8
ALPHA
 10
57.194055
 20
41.626284
 30
0.0
 11
57.145667
 21
41.432226
 31
0.0
  0
LINE
  5
96A0
  8
ALPHA
 10
58.065587
 20
41.9643
 30
0.0
 11
58.14424
 21
42.148185
 31
0.0
  0
LINE
  5
96A1
  8
ALPHA
 10
58.038178
 20
42.192118
 30
0.0
 11
57.963768
 21
42.006475
 31
0.0
  0
LINE
  5
96A2
  8
ALPHA
 10
57.743834
 20
41.59284
 30
0.0
 11
57.963768
 21
42.006475
 31
0.0
  0
LINE
  5
96A3
  8
ALPHA
 10
57.567244
 20
41.686735
 30
0.0
 11
57.787178
 21
42.10037
 31
0.0
  0
LINE
  5
96A4
  8
ALPHA
 10
58.909792
 20
41.528848
 30
0.0
 11
58.590296
 21
41.186231
 31
0.0
  0
ARC
  5
96A5
  8
ALPHA
 10
56.177918
 20
37.551058
 30
0.0
 40
6.935285
 50
315.0
 51
345.0
  0
ARC
  5
96A6
  8
ALPHA
 10
59.94949
 20
35.284951
 30
0.0
 40
0.399993
 50
149.000911
 51
227.0
  0
ARC
  5
96A7
  8
ALPHA
 10
59.94949
 20
35.284951
 30
0.0
 40
0.2
 50
149.000911
 51
227.0
  0
LINE
  5
96A8
  8
ALPHA
 10
64.177918
 20
28.051058
 30
0.0
 11
64.177918
 21
43.938685
 31
0.0
  0
LINE
  5
96A9
  8
ALPHA
 10
59.220899
 20
26.551058
 30
0.0
 11
59.235637
 21
26.251058
 31
0.0
  0
LINE
  5
96AA
  8
ALPHA
 10
59.355522
 20
28.051058
 30
0.0
 11
59.355522
 21
26.251058
 31
0.0
  0
LINE
  5
96AB
  8
ALPHA
 10
59.250567
 20
28.051058
 30
0.0
 11
59.250567
 21
26.251058
 31
0.0
  0
LINE
  5
96AC
  8
ALPHA
 10
59.220899
 20
26.551058
 30
0.0
 11
59.220899
 21
28.051058
 31
0.0
  0
LINE
  5
96AD
  8
ALPHA
 10
62.877918
 20
28.051058
 30
0.0
 11
62.877918
 21
25.901058
 31
0.0
  0
LINE
  5
96AE
  8
ALPHA
 10
61.677918
 20
25.451058
 30
0.0
 11
61.677918
 21
25.901058
 31
0.0
  0
LINE
  5
96AF
  8
ALPHA
 10
61.464815
 20
32.264161
 30
0.0
 11
61.021599
 21
32.707377
 31
0.0
  0
ARC
  5
96B0
  8
ALPHA
 10
56.177918
 20
37.551058
 30
0.0
 40
4.8
 50
321.842227
 51
323.157773
  0
ARC
  5
96B1
  8
ALPHA
 10
59.952218
 20
34.585479
 30
0.0
 40
0.2
 50
238.0
 51
321.842227
  0
ARC
  5
96B2
  8
ALPHA
 10
59.342964
 20
34.494511
 30
0.0
 40
0.2
 50
58.0
 51
135.999089
  0
ARC
  5
96B3
  8
ALPHA
 10
59.143497
 20
33.776759
 30
0.0
 40
0.2
 50
308.157773
 51
32.0
  0
ARC
  5
96B4
  8
ALPHA
 10
60.019308
 20
34.672913
 30
0.0
 40
0.2
 50
323.157773
 51
47.0
  0
ARC
  5
96B5
  8
ALPHA
 10
56.177918
 20
37.551058
 30
0.0
 40
5.0
 50
306.842227
 51
308.157773
  0
ARC
  5
96B6
  8
ALPHA
 10
56.177918
 20
37.551058
 30
0.0
 40
5.0
 50
321.842227
 51
323.157773
  0
LINE
  5
96B7
  8
ALPHA
 10
59.81309
 20
35.13868
 30
0.0
 11
60.155708
 21
34.819184
 31
0.0
  0
LINE
  5
96B8
  8
ALPHA
 10
59.676691
 20
34.992409
 30
0.0
 11
60.019308
 21
34.672913
 31
0.0
  0
LINE
  5
96B9
  8
ALPHA
 10
59.952218
 20
34.585479
 30
0.0
 11
60.10948
 21
34.461913
 31
0.0
  0
LINE
  5
96BA
  8
ALPHA
 10
60.179366
 20
34.55299
 30
0.0
 11
60.019308
 21
34.672913
 31
0.0
  0
LINE
  5
96BB
  8
ALPHA
 10
59.952218
 20
34.585479
 30
0.0
 11
59.554932
 21
34.83373
 31
0.0
  0
LINE
  5
96BC
  8
ALPHA
 10
59.846234
 20
34.415869
 30
0.0
 11
59.448948
 21
34.664121
 31
0.0
  0
LINE
  5
96BD
  8
ALPHA
 10
59.846234
 20
34.415869
 30
0.0
 11
59.952218
 21
34.585479
 31
0.0
  0
LINE
  5
96BE
  8
ALPHA
 10
59.448948
 20
34.664121
 30
0.0
 11
59.554932
 21
34.83373
 31
0.0
  0
LINE
  5
96BF
  8
ALPHA
 10
60.155708
 20
34.819184
 30
0.0
 11
60.019308
 21
34.672913
 31
0.0
  0
LINE
  5
96C0
  8
ALPHA
 10
59.81309
 20
35.13868
 30
0.0
 11
59.676691
 21
34.992409
 31
0.0
  0
LINE
  5
96C1
  8
ALPHA
 10
64.427918
 20
25.451058
 30
0.0
 11
64.427918
 21
24.751058
 31
0.0
  0
ARC
  5
96C2
  8
ALPHA
 10
62.177918
 20
33.945507
 30
0.0
 40
2.0
 50
328.997281
 51
0.0
  0
ARC
  5
96C3
  8
ALPHA
 10
62.177918
 20
43.938685
 30
0.0
 40
2.0
 50
0.0
 51
78.34488
  0
ARC
  5
96C4
  8
ALPHA
 10
56.177918
 20
37.551058
 30
0.0
 40
7.15
 50
345.0
 51
15.0
  0
LINE
  5
96C5
  8
ALPHA
 10
63.411655
 20
35.612784
 30
0.0
 11
62.79451
 21
35.778148
 31
0.0
  0
LINE
  5
96C6
  8
ALPHA
 10
63.40992
 20
39.488868
 30
0.0
 11
62.79451
 21
39.323969
 31
0.0
  0
ARC
  5
96C7
  8
ALPHA
 10
56.177918
 20
37.551058
 30
0.0
 40
6.935285
 50
15.0
 51
45.0
  0
ARC
  5
96C8
  8
ALPHA
 10
60.026211
 20
35.417835
 30
0.0
 40
0.399993
 50
73.0
 51
150.999089
  0
ARC
  5
96C9
  8
ALPHA
 10
56.177918
 20
37.551058
 30
0.0
 40
3.999989
 50
329.000911
 51
330.999089
  0
ARC
  5
96CA
  8
ALPHA
 10
60.447202
 20
36.486534
 30
0.0
 40
0.399993
 50
88.0
 51
165.999089
  0
ARC
  5
96CB
  8
ALPHA
 10
56.177918
 20
37.551058
 30
0.0
 40
4.0
 50
344.000911
 51
345.999089
  0
ARC
  5
96CC
  8
ALPHA
 10
60.407489
 20
36.338321
 30
0.0
 40
0.399993
 50
164.000911
 51
242.0
  0
ARC
  5
96CD
  8
ALPHA
 10
60.577249
 20
37.627779
 30
0.0
 40
0.399993
 50
103.0
 51
180.999089
  0
ARC
  5
96CE
  8
ALPHA
 10
56.177918
 20
37.551058
 30
0.0
 40
3.999989
 50
359.000911
 51
0.999089
  0
ARC
  5
96CF
  8
ALPHA
 10
60.577249
 20
37.474338
 30
0.0
 40
0.399993
 50
179.000911
 51
257.0
  0
ARC
  5
96D0
  8
ALPHA
 10
60.407489
 20
38.763795
 30
0.0
 40
0.399993
 50
118.0
 51
195.999089
  0
ARC
  5
96D1
  8
ALPHA
 10
56.177918
 20
37.551058
 30
0.0
 40
4.0
 50
14.000911
 51
15.999089
  0
ARC
  5
96D2
  8
ALPHA
 10
60.447202
 20
38.615583
 30
0.0
 40
0.399993
 50
194.000911
 51
272.0
  0
ARC
  5
96D3
  8
ALPHA
 10
56.177918
 20
37.551058
 30
0.0
 40
4.8
 50
336.842227
 51
338.157773
  0
ARC
  5
96D4
  8
ALPHA
 10
56.177918
 20
37.551058
 30
0.0
 40
4.8
 50
351.842227
 51
353.157773
  0
ARC
  5
96D5
  8
ALPHA
 10
56.177918
 20
37.551058
 30
0.0
 40
4.8
 50
6.842227
 51
8.157773
  0
ARC
  5
96D6
  8
ALPHA
 10
56.177918
 20
37.551058
 30
0.0
 40
4.8
 50
21.842227
 51
23.157773
  0
ARC
  5
96D7
  8
ALPHA
 10
56.177918
 20
37.551058
 30
0.0
 40
4.8
 50
36.842227
 51
38.157773
  0
ARC
  5
96D8
  8
ALPHA
 10
59.94949
 20
39.817166
 30
0.0
 40
0.399993
 50
133.0
 51
210.999089
  0
ARC
  5
96D9
  8
ALPHA
 10
56.177918
 20
37.551058
 30
0.0
 40
3.99999
 50
29.000911
 51
30.999089
  0
ARC
  5
96DA
  8
ALPHA
 10
60.026211
 20
39.684282
 30
0.0
 40
0.399993
 50
209.000911
 51
287.0
  0
ARC
  5
96DB
  8
ALPHA
 10
60.59116
 20
35.663389
 30
0.0
 40
0.2
 50
253.0
 51
336.842227
  0
ARC
  5
96DC
  8
ALPHA
 10
60.026211
 20
35.417835
 30
0.0
 40
0.2
 50
73.0
 51
150.999089
  0
ARC
  5
96DD
  8
ALPHA
 10
56.177918
 20
37.551058
 30
0.0
 40
4.2
 50
329.000911
 51
330.999089
  0
ARC
  5
96DE
  8
ALPHA
 10
60.929347
 20
36.869941
 30
0.0
 40
0.2
 50
268.0
 51
351.842227
  0
ARC
  5
96DF
  8
ALPHA
 10
60.447202
 20
36.486534
 30
0.0
 40
0.2
 50
88.0
 51
165.999089
  0
ARC
  5
96E0
  8
ALPHA
 10
56.177918
 20
37.551058
 30
0.0
 40
4.2
 50
344.000911
 51
345.999089
  0
ARC
  5
96E1
  8
ALPHA
 10
60.407489
 20
36.338321
 30
0.0
 40
0.2
 50
164.000911
 51
242.0
  0
ARC
  5
96E2
  8
ALPHA
 10
60.633335
 20
35.765209
 30
0.0
 40
0.2
 50
338.157773
 51
62.0
  0
ARC
  5
96E3
  8
ALPHA
 10
60.943732
 20
38.12291
 30
0.0
 40
0.2
 50
283.0
 51
6.842227
  0
ARC
  5
96E4
  8
ALPHA
 10
60.577249
 20
37.627779
 30
0.0
 40
0.2
 50
103.0
 51
180.999089
  0
ARC
  5
96E5
  8
ALPHA
 10
56.177918
 20
37.551058
 30
0.0
 40
4.2
 50
359.000911
 51
0.999089
  0
ARC
  5
96E6
  8
ALPHA
 10
60.577249
 20
37.474338
 30
0.0
 40
0.2
 50
179.000911
 51
257.0
  0
ARC
  5
96E7
  8
ALPHA
 10
60.943732
 20
36.979207
 30
0.0
 40
0.2
 50
353.157773
 51
77.0
  0
ARC
  5
96E8
  8
ALPHA
 10
60.633335
 20
39.336908
 30
0.0
 40
0.2
 50
298.0
 51
21.842227
  0
ARC
  5
96E9
  8
ALPHA
 10
60.407489
 20
38.763795
 30
0.0
 40
0.2
 50
118.0
 51
195.999089
  0
ARC
  5
96EA
  8
ALPHA
 10
56.177918
 20
37.551058
 30
0.0
 40
4.2
 50
14.000911
 51
15.999089
  0
ARC
  5
96EB
  8
ALPHA
 10
60.447202
 20
38.615583
 30
0.0
 40
0.2
 50
194.000911
 51
272.0
  0
ARC
  5
96EC
  8
ALPHA
 10
56.177918
 20
37.551058
 30
0.0
 40
5.0
 50
336.842227
 51
338.157773
  0
ARC
  5
96ED
  8
ALPHA
 10
56.177918
 20
37.551058
 30
0.0
 40
5.0
 50
351.842227
 51
353.157773
  0
ARC
  5
96EE
  8
ALPHA
 10
56.177918
 20
37.551058
 30
0.0
 40
5.0
 50
6.842227
 51
8.157773
  0
ARC
  5
96EF
  8
ALPHA
 10
56.177918
 20
37.551058
 30
0.0
 40
5.0
 50
21.842227
 51
23.157773
  0
ARC
  5
96F0
  8
ALPHA
 10
56.177918
 20
37.551058
 30
0.0
 40
5.0
 50
36.842227
 51
38.157773
  0
ARC
  5
96F1
  8
ALPHA
 10
60.929347
 20
38.232176
 30
0.0
 40
0.2
 50
8.157773
 51
92.0
  0
ARC
  5
96F2
  8
ALPHA
 10
60.019308
 20
40.429203
 30
0.0
 40
0.2
 50
313.0
 51
36.842227
  0
ARC
  5
96F3
  8
ALPHA
 10
59.94949
 20
39.817166
 30
0.0
 40
0.2
 50
133.0
 51
210.999089
  0
ARC
  5
96F4
  8
ALPHA
 10
56.177918
 20
37.551058
 30
0.0
 40
4.2
 50
29.000911
 51
30.999089
  0
ARC
  5
96F5
  8
ALPHA
 10
60.026211
 20
39.684282
 30
0.0
 40
0.2
 50
209.000911
 51
287.0
  0
ARC
  5
96F6
  8
ALPHA
 10
60.59116
 20
39.438727
 30
0.0
 40
0.2
 50
23.157773
 51
107.0
  0
ARC
  5
96F7
  8
ALPHA
 10
59.342964
 20
40.607605
 30
0.0
 40
0.2
 50
224.000911
 51
302.0
  0
ARC
  5
96F8
  8
ALPHA
 10
59.952218
 20
40.516638
 30
0.0
 40
0.2
 50
38.157773
 51
122.0
  0
LINE
  5
96F9
  8
ALPHA
 10
60.155708
 20
40.282933
 30
0.0
 11
60.019308
 21
40.429203
 31
0.0
  0
LINE
  5
96FA
  8
ALPHA
 10
59.81309
 20
39.963437
 30
0.0
 11
59.676691
 21
40.109707
 31
0.0
  0
LINE
  5
96FB
  8
ALPHA
 10
60.727229
 20
39.160319
 30
0.0
 11
60.633335
 21
39.336908
 31
0.0
  0
LINE
  5
96FC
  8
ALPHA
 10
60.313594
 20
38.940385
 30
0.0
 11
60.2197
 21
39.116974
 31
0.0
  0
LINE
  5
96FD
  8
ALPHA
 10
59.851288
 20
39.587317
 30
0.0
 11
59.778055
 21
39.714161
 31
0.0
  0
LINE
  5
96FE
  8
ALPHA
 10
59.846234
 20
40.686247
 30
0.0
 11
59.952218
 21
40.516638
 31
0.0
  0
LINE
  5
96FF
  8
ALPHA
 10
59.448948
 20
40.437996
 30
0.0
 11
59.554932
 21
40.268386
 31
0.0
  0
LINE
  5
9700
  8
ALPHA
 10
60.532259
 20
37.279464
 30
0.0
 11
60.988722
 21
37.174081
 31
0.0
  0
LINE
  5
9701
  8
ALPHA
 10
60.454182
 20
38.415704
 30
0.0
 11
60.922367
 21
38.432054
 31
0.0
  0
LINE
  5
9702
  8
ALPHA
 10
60.461162
 20
38.215826
 30
0.0
 11
60.929347
 21
38.232176
 31
0.0
  0
LINE
  5
9703
  8
ALPHA
 10
60.988722
 20
37.928036
 30
0.0
 11
60.943732
 21
38.12291
 31
0.0
  0
LINE
  5
9704
  8
ALPHA
 10
60.532686
 20
39.629988
 30
0.0
 11
60.59116
 21
39.438727
 31
0.0
  0
LINE
  5
9705
  8
ALPHA
 10
60.084685
 20
39.493021
 30
0.0
 11
60.143159
 21
39.30176
 31
0.0
  0
LINE
  5
9706
  8
ALPHA
 10
60.313594
 20
36.161732
 30
0.0
 11
60.727229
 21
35.941798
 31
0.0
  0
LINE
  5
9707
  8
ALPHA
 10
60.2197
 20
35.985142
 30
0.0
 11
60.633335
 21
35.765209
 31
0.0
  0
LINE
  5
9708
  8
ALPHA
 10
60.59116
 20
35.663389
 30
0.0
 11
60.775045
 21
35.584736
 31
0.0
  0
LINE
  5
9709
  8
ALPHA
 10
60.818977
 20
35.690798
 30
0.0
 11
60.633335
 21
35.765209
 31
0.0
  0
LINE
  5
970A
  8
ALPHA
 10
60.215235
 20
36.393446
 30
0.0
 11
60.022982
 21
36.44857
 31
0.0
  0
LINE
  5
970B
  8
ALPHA
 10
60.253144
 20
36.534922
 30
0.0
 11
60.059085
 21
36.583309
 31
0.0
  0
LINE
  5
970C
  8
ALPHA
 10
60.487268
 20
37.08459
 30
0.0
 11
60.943732
 21
36.979207
 31
0.0
  0
LINE
  5
970D
  8
ALPHA
 10
60.929347
 20
36.869941
 30
0.0
 11
61.127323
 21
36.841561
 31
0.0
  0
LINE
  5
970E
  8
ALPHA
 10
61.142308
 20
36.95538
 30
0.0
 11
60.943732
 21
36.979207
 31
0.0
  0
LINE
  5
970F
  8
ALPHA
 10
60.929347
 20
36.869941
 30
0.0
 11
60.461162
 21
36.88629
 31
0.0
  0
LINE
  5
9710
  8
ALPHA
 10
60.922367
 20
36.670063
 30
0.0
 11
60.454182
 21
36.686412
 31
0.0
  0
LINE
  5
9711
  8
ALPHA
 10
60.377279
 20
37.477825
 30
0.0
 11
60.17731
 21
37.481312
 31
0.0
  0
LINE
  5
9712
  8
ALPHA
 10
60.377279
 20
37.624292
 30
0.0
 11
60.17731
 21
37.620804
 31
0.0
  0
LINE
  5
9713
  8
ALPHA
 10
60.943732
 20
38.12291
 30
0.0
 11
61.142308
 21
38.146737
 31
0.0
  0
LINE
  5
9714
  8
ALPHA
 10
61.127323
 20
38.260556
 30
0.0
 11
60.929347
 21
38.232176
 31
0.0
  0
LINE
  5
9715
  8
ALPHA
 10
60.943732
 20
38.12291
 30
0.0
 11
60.487268
 21
38.017527
 31
0.0
  0
LINE
  5
9716
  8
ALPHA
 10
60.253144
 20
38.567195
 30
0.0
 11
60.059085
 21
38.518808
 31
0.0
  0
LINE
  5
9717
  8
ALPHA
 10
60.532259
 20
37.822653
 30
0.0
 11
60.487268
 21
38.017527
 31
0.0
  0
LINE
  5
9718
  8
ALPHA
 10
60.253144
 20
38.567195
 30
0.0
 11
60.215235
 21
38.708671
 31
0.0
  0
LINE
  5
9719
  8
ALPHA
 10
59.778055
 20
35.387956
 30
0.0
 11
59.60662
 21
35.490961
 31
0.0
  0
LINE
  5
971A
  8
ALPHA
 10
59.851288
 20
35.514799
 30
0.0
 11
59.676366
 21
35.611764
 31
0.0
  0
LINE
  5
971B
  8
ALPHA
 10
60.59116
 20
35.663389
 30
0.0
 11
60.143159
 21
35.800357
 31
0.0
  0
LINE
  5
971C
  8
ALPHA
 10
60.532686
 20
35.472128
 30
0.0
 11
60.084685
 21
35.609096
 31
0.0
  0
LINE
  5
971D
  8
ALPHA
 10
60.988722
 20
37.928036
 30
0.0
 11
60.532259
 21
37.822653
 31
0.0
  0
LINE
  5
971E
  8
ALPHA
 10
60.922367
 20
38.432054
 30
0.0
 11
60.929347
 21
38.232176
 31
0.0
  0
LINE
  5
971F
  8
ALPHA
 10
60.922367
 20
36.670063
 30
0.0
 11
60.929347
 21
36.869941
 31
0.0
  0
LINE
  5
9720
  8
ALPHA
 10
60.454182
 20
36.686412
 30
0.0
 11
60.461162
 21
36.88629
 31
0.0
  0
LINE
  5
9721
  8
ALPHA
 10
60.377279
 20
37.477825
 30
0.0
 11
60.377279
 21
37.624292
 31
0.0
  0
LINE
  5
9722
  8
ALPHA
 10
60.454182
 20
38.415704
 30
0.0
 11
60.461162
 21
38.215826
 31
0.0
  0
LINE
  5
9723
  8
ALPHA
 10
60.532686
 20
35.472128
 30
0.0
 11
60.59116
 21
35.663389
 31
0.0
  0
LINE
  5
9724
  8
ALPHA
 10
60.988722
 20
37.174081
 30
0.0
 11
60.943732
 21
36.979207
 31
0.0
  0
LINE
  5
9725
  8
ALPHA
 10
60.532259
 20
37.279464
 30
0.0
 11
60.487268
 21
37.08459
 31
0.0
  0
LINE
  5
9726
  8
ALPHA
 10
60.727229
 20
35.941798
 30
0.0
 11
60.633335
 21
35.765209
 31
0.0
  0
LINE
  5
9727
  8
ALPHA
 10
60.084685
 20
35.609096
 30
0.0
 11
60.143159
 21
35.800357
 31
0.0
  0
LINE
  5
9728
  8
ALPHA
 10
60.215235
 20
36.393446
 30
0.0
 11
60.253144
 21
36.534922
 31
0.0
  0
LINE
  5
9729
  8
ALPHA
 10
59.778055
 20
35.387956
 30
0.0
 11
59.851288
 21
35.514799
 31
0.0
  0
LINE
  5
972A
  8
ALPHA
 10
60.313594
 20
36.161732
 30
0.0
 11
60.2197
 21
35.985142
 31
0.0
  0
LINE
  5
972B
  8
ALPHA
 10
60.155708
 20
40.282933
 30
0.0
 11
59.81309
 21
39.963437
 31
0.0
  0
LINE
  5
972C
  8
ALPHA
 10
60.019308
 20
40.429203
 30
0.0
 11
59.676691
 21
40.109707
 31
0.0
  0
LINE
  5
972D
  8
ALPHA
 10
60.727229
 20
39.160319
 30
0.0
 11
60.313594
 21
38.940385
 31
0.0
  0
LINE
  5
972E
  8
ALPHA
 10
60.633335
 20
39.336908
 30
0.0
 11
60.2197
 21
39.116974
 31
0.0
  0
LINE
  5
972F
  8
ALPHA
 10
60.019308
 20
40.429203
 30
0.0
 11
60.179366
 21
40.549126
 31
0.0
  0
LINE
  5
9730
  8
ALPHA
 10
60.10948
 20
40.640204
 30
0.0
 11
59.952218
 21
40.516638
 31
0.0
  0
LINE
  5
9731
  8
ALPHA
 10
60.215235
 20
38.708671
 30
0.0
 11
60.022982
 21
38.653547
 31
0.0
  0
LINE
  5
9732
  8
ALPHA
 10
60.633335
 20
39.336908
 30
0.0
 11
60.818977
 21
39.411318
 31
0.0
  0
LINE
  5
9733
  8
ALPHA
 10
60.775045
 20
39.51738
 30
0.0
 11
60.59116
 21
39.438727
 31
0.0
  0
LINE
  5
9734
  8
ALPHA
 10
59.851288
 20
39.587317
 30
0.0
 11
59.676366
 21
39.490352
 31
0.0
  0
LINE
  5
9735
  8
ALPHA
 10
59.778055
 20
39.714161
 30
0.0
 11
59.60662
 21
39.611156
 31
0.0
  0
LINE
  5
9736
  8
ALPHA
 10
59.554932
 20
40.268386
 30
0.0
 11
59.952218
 21
40.516638
 31
0.0
  0
LINE
  5
9737
  8
ALPHA
 10
59.448948
 20
40.437996
 30
0.0
 11
59.846234
 21
40.686247
 31
0.0
  0
LINE
  5
9738
  8
ALPHA
 10
60.143159
 20
39.30176
 30
0.0
 11
60.59116
 21
39.438727
 31
0.0
  0
LINE
  5
9739
  8
ALPHA
 10
60.084685
 20
39.493021
 30
0.0
 11
60.532686
 21
39.629988
 31
0.0
  0
LINE
  5
973A
  8
ALPHA
 10
61.464558
 20
42.837698
 30
0.0
 11
61.021599
 21
42.39474
 31
0.0
  0
ARC
  5
973B
  8
ALPHA
 10
56.177918
 20
37.551058
 30
0.0
 40
5.0
 50
51.842227
 51
53.157773
  0
ARC
  5
973C
  8
ALPHA
 10
59.143497
 20
41.325358
 30
0.0
 40
0.2
 50
328.0
 51
51.842227
  0
ARC
  5
973D
  8
ALPHA
 10
56.177918
 20
37.551058
 30
0.0
 40
7.4
 50
345.0
 51
15.0
  0
LINE
  5
9E08
  8
COTATION1
 10
7.875126
 20
27.251058
 30
0.0
 11
7.875126
 21
52.209981
 31
0.0
  0
LINE
  5
9E09
  8
AXE
 10
56.177918
 20
4.851058
 30
0.0
 11
56.177918
 21
50.251058
 31
0.0
  0
DIMENSION
  5
9E0A
  8
COTATION1
  2
*D3
 10
64.427918
 20
-4.647143
 30
0.0
 11
56.177918
 21
-1.397143
 31
0.0
  1
%%c<>
 13
47.927918
 23
25.451058
 33
0.0
 14
64.427918
 24
25.451058
 34
0.0
  0
LINE
  5
9E0B
  8
COTATION1
 10
-0.225226
 20
24.751058
 30
0.0
 11
47.177918
 21
24.751058
 31
0.0
  0
DIMENSION
  5
9E0C
  8
COTATION1
  2
*D4
 10
31.195289
 20
24.751058
 30
0.0
 11
31.195289
 21
35.651058
 31
0.0
 70
   128
 13
56.177918
 23
46.551058
 33
0.0
 14
48.177935
 24
24.751058
 34
0.0
 50
90.0
  0
SOLID
  5
9E0D
  8
COTATION1
 10
9.318502
 20
24.751058
 30
0.0
 11
6.43175
 21
24.751058
 31
0.0
 12
7.875126
 22
27.251058
 32
0.0
 13
7.875126
 23
27.251058
 33
0.0
  0
DIMENSION
  5
9E0E
  8
COTATION1
  2
*D5
 10
84.177918
 20
14.851058
 30
0.0
 11
84.177918
 21
30.701058
 31
0.0
 13
56.177918
 23
46.551058
 33
0.0
 14
62.177869
 24
14.851058
 34
0.0
 50
90.0
  0
LINE
  5
9E11
  8
AXE
 10
43.177918
 20
37.551058
 30
0.0
 11
74.177918
 21
37.551058
 31
0.0
  0
TEXT
  5
9E34
  8
AXE
 10
51.130299
 20
4.851058
 30
0.0
 40
5.0
  1
Y
 72
     2
 11
55.177918
 21
4.851058
 31
0.0
  0
TEXT
  5
A0E7
  8
AXE
 10
70.130299
 20
38.551058
 30
0.0
 40
5.0
  1
X
 72
     2
 11
74.177918
 21
38.551058
 31
0.0
  0
LINE
  5
A0E8
  8
COTATION1
 10
21.125126
 20
52.209981
 30
0.0
 11
-5.374874
 21
52.209981
 31
0.0
  0
LINE
  5
A0E9
  8
COTATION1
 10
-5.374874
 20
57.209981
 30
0.0
 11
21.125126
 21
57.209981
 31
0.0
  0
LINE
  5
A0EA
  8
COTATION1
 10
-5.374874
 20
52.209981
 30
0.0
 11
-5.374874
 21
57.209981
 31
0.0
  0
TEXT
  5
A0EB
  8
COTATION1
 10
-4.124874
 20
53.459981
 30
0.0
 40
2.5
  1
PLANE_TO_LINE_UP
 41
0.626087
  7
STANDARD
 72
     5
 11
19.875126
 21
53.459981
 31
0.0
  0
LINE
  5
A0EC
  8
COTATION1
 10
21.125126
 20
57.209981
 30
0.0
 11
21.125126
 21
52.209981
 31
0.0
  0
VIEWPORT
  5
494D
 67
     1
  8
0
 10
4.995325
 20
6.556512
 30
0.0
 40
22.70986
 41
13.988421
 68
    -1
 69
     1
1001
ACAD
1000
MVIEW
1002
{
1070
    16
1010
0.0
1020
0.0
1030
0.0
1010
0.0
1020
0.0
1030
1.0
1040
0.0
1040
13.988421
1040
4.995325
1040
6.556512
1040
50.0
1040
0.0
1040
0.0
1070
     0
1070
   100
1070
     1
1070
     1
1070
     0
1070
     0
1070
     0
1070
     0
1040
0.0
1040
0.0
1040
0.0
1040
10.0
1040
10.0
1040
10.0
1040
10.0
1070
     0
1002
{
1002
}
1002
}
  0
ENDSEC
  0
EOF
