  0
SECTION
  2
HEADER
  9
$ACADVER
  1
AC1009
  9
$INSBASE
 10
402.590624
 20
-1.041018
 30
0.0
  9
$EXTMIN
 10
-5.172906
 20
53.177385
 30
0.0
  9
$EXTMAX
 10
83.689185
 20
126.953515
 30
0.0
  9
$LIMMIN
 10
-407.970438
 20
-367.832444
  9
$LIMMAX
 10
429.804077
 20
234.370848
  9
$ORTHOMODE
 70
     1
  9
$REGENMODE
 70
     1
  9
$FILLMODE
 70
     1
  9
$QTEXTMODE
 70
     0
  9
$MIRRTEXT
 70
     1
  9
$DRAGMODE
 70
     2
  9
$LTSCALE
 40
10.0
  9
$OSMODE
 70
    39
  9
$ATTMODE
 70
     1
  9
$TEXTSIZE
 40
6.0
  9
$TRACEWID
 40
1.0
  9
$TEXTSTYLE
  7
ROMANS
  9
$CLAYER
  8
ALPHA
  9
$CELTYPE
  6
BYLAYER
  9
$CECOLOR
 62
   256
  9
$DIMSCALE
 40
1.0
  9
$DIMASZ
 40
5.0
  9
$DIMEXO
 40
2.0
  9
$DIMDLI
 40
0.38
  9
$DIMRND
 40
0.0
  9
$DIMDLE
 40
0.0
  9
$DIMEXE
 40
2.5
  9
$DIMTP
 40
0.0
  9
$DIMTM
 40
0.0
  9
$DIMTXT
 40
2.5
  9
$DIMCEN
 40
0.0
  9
$DIMTSZ
 40
0.0
  9
$DIMTOL
 70
     0
  9
$DIMLIM
 70
     0
  9
$DIMTIH
 70
     1
  9
$DIMTOH
 70
     1
  9
$DIMSE1
 70
     0
  9
$DIMSE2
 70
     0
  9
$DIMTAD
 70
     1
  9
$DIMZIN
 70
    12
  9
$DIMBLK
  1
OPEN30
  9
$DIMASO
 70
     1
  9
$DIMSHO
 70
     1
  9
$DIMPOST
  1

  9
$DIMAPOST
  1

  9
$DIMALT
 70
     0
  9
$DIMALTD
 70
     2
  9
$DIMALTF
 40
25.4
  9
$DIMLFAC
 40
1.0
  9
$DIMTOFL
 70
     0
  9
$DIMTVP
 40
0.0
  9
$DIMTIX
 70
     0
  9
$DIMSOXD
 70
     0
  9
$DIMSAH
 70
     0
  9
$DIMBLK1
  1

  9
$DIMBLK2
  1

  9
$DIMSTYLE
  2
SC_DEFAUT
  9
$DIMCLRD
 70
     0
  9
$DIMCLRE
 70
     0
  9
$DIMCLRT
 70
     0
  9
$DIMTFAC
 40
1.0
  9
$DIMGAP
 40
2.0
  9
$LUNITS
 70
     2
  9
$LUPREC
 70
     1
  9
$SKETCHINC
 40
0.1
  9
$FILLETRAD
 40
0.0
  9
$AUNITS
 70
     0
  9
$AUPREC
 70
     0
  9
$MENU
  1
acad
  9
$ELEVATION
 40
0.0
  9
$PELEVATION
 40
0.0
  9
$THICKNESS
 40
0.0
  9
$LIMCHECK
 70
     0
  9
$BLIPMODE
 70
     0
  9
$CHAMFERA
 40
0.0
  9
$CHAMFERB
 40
0.0
  9
$SKPOLY
 70
     0
  9
$TDCREATE
 40
2450373.687919
  9
$TDUPDATE
 40
2452996.495295
  9
$TDINDWG
 40
0.893395
  9
$TDUSRTIMER
 40
0.893395
  9
$USRTIMER
 70
     1
  9
$ANGBASE
 50
0.0
  9
$ANGDIR
 70
     0
  9
$PDMODE
 70
    32
  9
$PDSIZE
 40
0.0
  9
$PLINEWID
 40
0.0
  9
$COORDS
 70
     1
  9
$SPLFRAME
 70
     0
  9
$SPLINETYPE
 70
     6
  9
$SPLINESEGS
 70
     8
  9
$ATTDIA
 70
     0
  9
$ATTREQ
 70
     1
  9
$HANDLING
 70
     1
  9
$HANDSEED
  5
9863
  9
$SURFTAB1
 70
     6
  9
$SURFTAB2
 70
     6
  9
$SURFTYPE
 70
     6
  9
$SURFU
 70
     6
  9
$SURFV
 70
     6
  9
$UCSNAME
  2

  9
$UCSORG
 10
0.0
 20
0.0
 30
0.0
  9
$UCSXDIR
 10
1.0
 20
0.0
 30
0.0
  9
$UCSYDIR
 10
0.0
 20
1.0
 30
0.0
  9
$PUCSNAME
  2

  9
$PUCSORG
 10
0.0
 20
0.0
 30
0.0
  9
$PUCSXDIR
 10
1.0
 20
0.0
 30
0.0
  9
$PUCSYDIR
 10
0.0
 20
1.0
 30
0.0
  9
$USERI1
 70
     0
  9
$USERI2
 70
     0
  9
$USERI3
 70
     0
  9
$USERI4
 70
     0
  9
$USERI5
 70
     0
  9
$USERR1
 40
0.0
  9
$USERR2
 40
0.0
  9
$USERR3
 40
0.0
  9
$USERR4
 40
0.0
  9
$USERR5
 40
0.0
  9
$WORLDVIEW
 70
     1
  9
$SHADEDGE
 70
     3
  9
$SHADEDIF
 70
    70
  9
$TILEMODE
 70
     1
  9
$MAXACTVP
 70
    16
  9
$PLIMCHECK
 70
     0
  9
$PEXTMIN
 10
-1.452248
 20
-0.437698
 30
0.0
  9
$PEXTMAX
 10
12.749749
 20
8.310198
 30
0.0
  9
$PLIMMIN
 10
0.0
 20
0.0
  9
$PLIMMAX
 10
12.0
 20
9.0
  9
$UNITMODE
 70
     0
  9
$VISRETAIN
 70
     0
  9
$PLINEGEN
 70
     0
  9
$PSLTSCALE
 70
     0
  0
ENDSEC
  0
SECTION
  2
TABLES
  0
TABLE
  2
VPORT
 70
     2
  0
VPORT
  2
*ACTIVE
 70
     0
 10
0.0
 20
0.0
 11
1.0
 21
1.0
 12
39.264066
 22
90.05469
 13
0.0
 23
0.0
 14
1.0
 24
1.0
 15
10.0
 25
10.0
 16
0.0
 26
0.0
 36
1.0
 17
0.0
 27
0.0
 37
0.0
 40
74.364563
 41
1.466346
 42
50.0
 43
0.0
 44
0.0
 50
0.0
 51
0.0
 71
     0
 72
   100
 73
     1
 74
     0
 75
     0
 76
     0
 77
     0
 78
     0
  0
ENDTAB
  0
TABLE
  2
LTYPE
 70
     2
  0
LTYPE
  2
CONTINUOUS
 70
     0
  3
Solid line
 72
    65
 73
     0
 40
0.0
  0
LTYPE
  2
AXES2
 70
     0
  3
___ _ ___ _ ___ _ ___ _ ___ _ ___ _ ___ _ ___ _
 72
    65
 73
     4
 40
1.125
 49
0.75
 49
-0.125
 49
0.125
 49
-0.125
  0
ENDTAB
  0
TABLE
  2
LAYER
 70
     5
  0
LAYER
  2
0
 70
     0
 62
   255
  6
CONTINUOUS
  0
LAYER
  2
COTATION1
 70
     0
 62
     2
  6
CONTINUOUS
  0
LAYER
  2
AXE
 70
     0
 62
    80
  6
AXES2
  0
LAYER
  2
DEFPOINTS
 70
     0
 62
     7
  6
CONTINUOUS
  0
LAYER
  2
ALPHA
 70
     0
 62
   254
  6
CONTINUOUS
  0
ENDTAB
  0
TABLE
  2
STYLE
 70
     2
  0
STYLE
  2
ROMANS
 70
     0
 40
0.0
 41
1.0
 50
0.0
 71
     0
 42
6.0
  3
romans
  4

  0
STYLE
  2
STANDARD
 70
     0
 40
0.0
 41
1.0
 50
0.0
 71
     0
 42
0.2
  3
txt
  4

  0
ENDTAB
  0
TABLE
  2
VIEW
 70
     0
  0
ENDTAB
  0
TABLE
  2
UCS
 70
     0
  0
ENDTAB
  0
TABLE
  2
APPID
 70
     1
  0
APPID
  2
ACAD
 70
     0
  0
ENDTAB
  0
TABLE
  2
DIMSTYLE
 70
     2
  0
DIMSTYLE
  2
SC_DEFAUT
 70
     0
  3

  4

  5
OPEN30
  6

  7

 40
1.0
 41
5.0
 42
2.0
 43
0.38
 44
2.5
 45
0.0
 46
0.0
 47
0.0
 48
0.0
140
2.5
141
0.0
142
0.0
143
25.4
144
1.0
145
0.0
146
1.0
147
2.0
 71
     0
 72
     0
 73
     1
 74
     1
 75
     0
 76
     0
 77
     1
 78
    12
170
     0
171
     2
172
     0
173
     0
174
     0
175
     0
176
     0
177
     0
178
     0
  0
DIMSTYLE
  2
STANDARD
 70
     0
  3

  4

  5

  6

  7

 40
1.0
 41
0.18
 42
0.0625
 43
0.38
 44
0.18
 45
0.0
 46
0.0
 47
0.0
 48
0.0
140
0.18
141
0.09
142
0.0
143
25.4
144
1.0
145
0.0
146
1.0
147
0.09
 71
     0
 72
     0
 73
     1
 74
     1
 75
     0
 76
     0
 77
     0
 78
     0
170
     0
171
     2
172
     0
173
     0
174
     0
175
     0
176
     0
177
     0
178
     0
  0
ENDTAB
  0
ENDSEC
  0
SECTION
  2
BLOCKS
  0
BLOCK
  8
0
  2
$MODEL_SPACE
 70
     0
 10
0.0
 20
0.0
 30
0.0
  3
$MODEL_SPACE
  1

  0
ENDBLK
  5
9808
  8
0
  0
BLOCK
 67
     1
  8
0
  2
$PAPER_SPACE
 70
     0
 10
0.0
 20
0.0
 30
0.0
  3
$PAPER_SPACE
  1

  0
ENDBLK
  5
9806
 67
     1
  8
0
  0
BLOCK
  8
0
  2
COTE
 70
     0
 10
0.0
 20
0.0
 30
0.0
  3
COTE
  1

  0
ENDBLK
  5
F
  8
0
  0
BLOCK
  8
0
  2
FOND
 70
     0
 10
0.0
 20
0.0
 30
0.0
  3
FOND
  1

  0
ENDBLK
  5
75
  8
0
  0
BLOCK
  8
0
  2
_OPEN30
 70
     0
 10
0.0
 20
0.0
 30
0.0
  3
_OPEN30
  1

  0
LINE
  5
4B05
  8
COTATION1
 62
     0
 10
-1.0
 20
0.267949
 30
0.0
 11
0.0
 21
0.0
 31
0.0
1001
ACAD
1000
RTLwPs
1070
   158
  0
LINE
  5
4B06
  8
COTATION1
 62
     0
 10
0.0
 20
0.0
 30
0.0
 11
-1.0
 21
-0.267949
 31
0.0
1001
ACAD
1000
RTLwPs
1070
   158
  0
LINE
  5
4B07
  8
COTATION1
 62
     0
 10
0.0
 20
0.0
 30
0.0
 11
-1.0
 21
0.0
 31
0.0
1001
ACAD
1000
RTLwPs
1070
   158
  0
ENDBLK
  5
4B09
  8
0
  0
BLOCK
  8
0
  2
*D3
 70
     1
 10
0.0
 20
0.0
 30
0.0
  3
*D3
  1

  0
LINE
  5
921E
  8
COTATION1
 62
     0
 10
43.879661
 20
81.977385
 30
0.0
 11
43.879661
 21
53.177385
 31
0.0
1001
ACAD
1000
RTLwPs
1070
   158
  0
LINE
  5
921F
  8
COTATION1
 62
     0
 10
59.879661
 20
81.977385
 30
0.0
 11
59.879661
 21
53.177385
 31
0.0
1001
ACAD
1000
RTLwPs
1070
   158
  0
LINE
  5
9220
  8
COTATION1
 62
     0
 10
48.879661
 20
55.677385
 30
0.0
 11
54.879661
 21
55.677385
 31
0.0
1001
ACAD
1000
RTLwPs
1070
   158
  0
INSERT
  5
9221
  8
COTATION1
 62
     0
  2
_OPEN30
 10
43.879661
 20
55.677385
 30
0.0
 41
5.0
 42
5.0
 43
5.0
 50
180.0
1001
ACAD
1000
RTLwPs
1070
   158
  0
INSERT
  5
9222
  8
COTATION1
 62
     0
  2
_OPEN30
 10
59.879661
 20
55.677385
 30
0.0
 41
5.0
 42
5.0
 43
5.0
1001
ACAD
1000
RTLwPs
1070
   158
  0
TEXT
  5
9223
  8
COTATION1
 62
     0
 10
49.320137
 20
57.677385
 30
0.0
 40
2.5
  1
16
1001
ACAD
1000
MTEXTBEGIN
1070
    73
1070
     1
1070
    44
1040
1.0
1070
    74
1070
     0
1000
MTEXTEND
  0
POINT
  5
9224
  8
DEFPOINTS
 62
     0
 10
43.879661
 20
83.977385
 30
0.0
  0
POINT
  5
9225
  8
DEFPOINTS
 62
     0
 10
59.879661
 20
83.977385
 30
0.0
  0
POINT
  5
9226
  8
DEFPOINTS
 62
     0
 10
59.879661
 20
55.677385
 30
0.0
  0
ENDBLK
  5
7F3E
  8
0
  0
BLOCK
  8
0
  2
*D4
 70
     1
 10
0.0
 20
0.0
 30
0.0
  3
*D4
  1

  0
LINE
  5
96AD
  8
COTATION1
 62
     0
 10
47.129661
 20
121.953422
 30
0.0
 11
28.237846
 21
121.953422
 31
0.0
1001
ACAD
1000
RTLwPs
1070
   158
  0
LINE
  5
96AE
  8
COTATION1
 62
     0
 10
41.879661
 20
83.977385
 30
0.0
 11
28.237846
 21
83.977385
 31
0.0
1001
ACAD
1000
RTLwPs
1070
   158
  0
LINE
  5
96AF
  8
COTATION1
 62
     0
 10
30.737846
 20
116.953422
 30
0.0
 11
30.737846
 21
106.215404
 31
0.0
1001
ACAD
1000
RTLwPs
1070
   158
  0
LINE
  5
96B0
  8
COTATION1
 62
     0
 10
30.737846
 20
88.977385
 30
0.0
 11
30.737846
 21
99.715404
 31
0.0
1001
ACAD
1000
RTLwPs
1070
   158
  0
INSERT
  5
96B1
  8
COTATION1
 62
     0
  2
_OPEN30
 10
30.737846
 20
121.953422
 30
0.0
 41
5.0
 42
5.0
 43
5.0
 50
90.0
1001
ACAD
1000
RTLwPs
1070
   158
  0
INSERT
  5
96B2
  8
COTATION1
 62
     0
  2
_OPEN30
 10
30.737846
 20
83.977385
 30
0.0
 41
5.0
 42
5.0
 43
5.0
 50
270.0
1001
ACAD
1000
RTLwPs
1070
   158
  0
TEXT
  5
96B3
  8
COTATION1
 62
     0
 10
28.356893
 20
101.715404
 30
0.0
 40
2.5
  1
38
1001
ACAD
1000
MTEXTBEGIN
1070
    73
1070
     1
1070
    44
1040
1.0
1070
    74
1070
     0
1000
MTEXTEND
  0
POINT
  5
96B4
  8
DEFPOINTS
 62
     0
 10
49.129661
 20
121.953422
 30
0.0
  0
POINT
  5
96B5
  8
DEFPOINTS
 62
     0
 10
43.879661
 20
83.977385
 30
0.0
  0
POINT
  5
96B6
  8
DEFPOINTS
 62
     0
 10
30.737846
 20
83.977385
 30
0.0
  0
ENDBLK
  5
7F4B
  8
0
  0
BLOCK
  8
0
  2
*D5
 70
     1
 10
0.0
 20
0.0
 30
0.0
  3
*D5
  1

  0
LINE
  5
96C0
  8
COTATION1
 62
     0
 10
56.629661
 20
121.953422
 30
0.0
 11
82.379661
 21
121.953422
 31
0.0
1001
ACAD
1000
RTLwPs
1070
   158
  0
LINE
  5
96C1
  8
COTATION1
 62
     0
 10
59.729661
 20
75.677385
 30
0.0
 11
82.379661
 21
75.677385
 31
0.0
1001
ACAD
1000
RTLwPs
1070
   158
  0
LINE
  5
96C2
  8
COTATION1
 62
     0
 10
79.879661
 20
116.953422
 30
0.0
 11
79.879661
 21
102.065404
 31
0.0
1001
ACAD
1000
RTLwPs
1070
   158
  0
LINE
  5
96C3
  8
COTATION1
 62
     0
 10
79.879661
 20
80.677385
 30
0.0
 11
79.879661
 21
95.565404
 31
0.0
1001
ACAD
1000
RTLwPs
1070
   158
  0
TEXT
  5
96C4
  8
COTATION1
 62
     0
 10
75.712994
 20
97.565404
 30
0.0
 40
2.5
  1
46.3
1001
ACAD
1000
MTEXTBEGIN
1070
    73
1070
     1
1070
    44
1040
1.0
1070
    74
1070
     0
1000
MTEXTEND
  0
INSERT
  5
96C5
  8
COTATION1
 62
     0
  2
_OPEN30
 10
79.879661
 20
121.953422
 30
0.0
 41
5.0
 42
5.0
 43
5.0
 50
90.0
1001
ACAD
1000
RTLwPs
1070
   158
  0
INSERT
  5
96C6
  8
COTATION1
 62
     0
  2
_OPEN30
 10
79.879661
 20
75.677385
 30
0.0
 41
5.0
 42
5.0
 43
5.0
 50
270.0
1001
ACAD
1000
RTLwPs
1070
   158
  0
POINT
  5
96C7
  8
DEFPOINTS
 62
     0
 10
54.629661
 20
121.953422
 30
0.0
  0
POINT
  5
96C8
  8
DEFPOINTS
 62
     0
 10
57.729661
 20
75.677385
 30
0.0
  0
POINT
  5
96C9
  8
DEFPOINTS
 62
     0
 10
79.879661
 20
75.677385
 30
0.0
  0
ENDBLK
  5
8EB4
  8
0
  0
ENDSEC
  0
SECTION
  2
ENTITIES
  0
INSERT
  5
A
  8
0
  2
COTE
 10
0.0
 20
0.0
 30
0.0
  0
INSERT
  5
17
  8
0
  2
COTE
 10
284.010391
 20
6.373258
 30
0.0
  0
INSERT
  5
72
  8
0
  2
FOND
 10
0.0
 20
0.0
 30
0.0
  0
DIMENSION
  5
7F30
  8
COTATION1
  2
*D3
 10
59.879661
 20
55.677385
 30
0.0
 11
51.879661
 21
58.927385
 31
0.0
 13
43.879661
 23
83.977385
 33
0.0
 14
59.879661
 24
83.977385
 34
0.0
  0
DIMENSION
  5
7F31
  8
COTATION1
  2
*D4
 10
30.737846
 20
83.977385
 30
0.0
 11
30.737846
 21
102.965404
 31
0.0
 13
49.129661
 23
121.953422
 33
0.0
 14
43.879661
 24
83.977385
 34
0.0
 50
90.0
  0
LINE
  5
8AD3
  8
AXE
 10
51.879661
 20
65.677385
 30
0.0
 11
51.879661
 21
126.953515
 31
0.0
  0
TEXT
  5
8AD4
  8
AXE
 10
46.832042
 20
65.677385
 30
0.0
 40
5.0
  1
Y
 72
     2
 11
50.879661
 21
65.677385
 31
0.0
  0
LINE
  5
8AD5
  8
AXE
 10
38.879661
 20
82.922385
 30
0.0
 11
69.879661
 21
82.922385
 31
0.0
  0
TEXT
  5
8AD6
  8
AXE
 10
65.832042
 20
83.922385
 30
0.0
 40
5.0
  1
X
 72
     2
 11
69.879661
 21
83.922385
 31
0.0
  0
LINE
  5
8B73
  8
COTATION1
 10
8.077094
 20
86.477385
 30
0.0
 11
8.077094
 21
111.436307
 31
0.0
  0
LINE
  5
8B74
  8
COTATION1
 10
-0.023259
 20
83.977385
 30
0.0
 11
42.879661
 21
83.977385
 31
0.0
  0
SOLID
  5
8B75
  8
COTATION1
 10
9.520469
 20
83.977385
 30
0.0
 11
6.633718
 21
83.977385
 31
0.0
 12
8.077094
 22
86.477385
 32
0.0
 13
8.077094
 23
86.477385
 33
0.0
  0
LINE
  5
8B76
  8
COTATION1
 10
-5.172906
 20
116.436307
 30
0.0
 11
21.327094
 21
116.436307
 31
0.0
  0
LINE
  5
8B77
  8
COTATION1
 10
21.327094
 20
111.436307
 30
0.0
 11
-5.172906
 21
111.436307
 31
0.0
  0
TEXT
  5
8B78
  8
COTATION1
 10
-3.922906
 20
112.686307
 30
0.0
 40
2.5
  1
PLANE_TO_LINE_UP
 41
0.626087
  7
STANDARD
 72
     5
 11
20.077094
 21
112.686307
 31
0.0
  0
LINE
  5
8B79
  8
COTATION1
 10
21.327094
 20
116.436307
 30
0.0
 11
21.327094
 21
111.436307
 31
0.0
  0
LINE
  5
8B7A
  8
COTATION1
 10
-5.172906
 20
111.436307
 30
0.0
 11
-5.172906
 21
116.436307
 31
0.0
  0
DIMENSION
  5
8EA7
  8
COTATION1
  2
*D5
 10
79.879661
 20
75.677385
 30
0.0
 11
79.879661
 21
98.815404
 31
0.0
 70
   128
 13
54.629661
 23
121.953422
 33
0.0
 14
57.729661
 24
75.677385
 34
0.0
 50
90.0
  0
LINE
  5
94BA
  8
ALPHA
 10
45.879661
 20
115.753515
 30
0.0
 11
48.629661
 21
115.753515
 31
0.0
  0
LINE
  5
94BB
  8
ALPHA
 10
45.879661
 20
107.558321
 30
0.0
 11
48.629661
 21
107.558321
 31
0.0
  0
LINE
  5
94BC
  8
ALPHA
 10
45.879661
 20
99.297709
 30
0.0
 11
48.629661
 21
99.297709
 31
0.0
  0
LINE
  5
94BD
  8
ALPHA
 10
46.079661
 20
97.919124
 30
0.0
 11
57.679661
 21
97.919124
 31
0.0
  0
LINE
  5
94BE
  8
ALPHA
 10
57.879661
 20
97.907439
 30
0.0
 11
45.879661
 21
97.907439
 31
0.0
  0
LINE
  5
94BF
  8
ALPHA
 10
45.879661
 20
96.910478
 30
0.0
 11
57.879661
 21
96.910478
 31
0.0
  0
LINE
  5
94C0
  8
ALPHA
 10
43.879661
 20
92.977385
 30
0.0
 11
47.879661
 21
92.977385
 31
0.0
  0
LINE
  5
94C1
  8
ALPHA
 10
43.879661
 20
89.577385
 30
0.0
 11
47.879661
 21
89.577385
 31
0.0
  0
LINE
  5
94C2
  8
ALPHA
 10
44.379661
 20
87.877385
 30
0.0
 11
59.379661
 21
87.877385
 31
0.0
  0
LINE
  5
94C3
  8
ALPHA
 10
43.879661
 20
87.377385
 30
0.0
 11
59.879661
 21
87.377385
 31
0.0
  0
LINE
  5
94C4
  8
ALPHA
 10
43.879661
 20
83.977385
 30
0.0
 11
59.879661
 21
83.977385
 31
0.0
  0
LINE
  5
94C5
  8
ALPHA
 10
44.528867
 20
81.867385
 30
0.0
 11
59.230455
 21
81.867385
 31
0.0
  0
LINE
  5
94C6
  8
ALPHA
 10
58.229661
 20
80.527385
 30
0.0
 11
45.529661
 21
80.527385
 31
0.0
  0
LINE
  5
94C7
  8
ALPHA
 10
58.229661
 20
79.377385
 30
0.0
 11
45.529661
 21
79.377385
 31
0.0
  0
LINE
  5
94C8
  8
ALPHA
 10
57.879661
 20
79.277385
 30
0.0
 11
45.879661
 21
79.277385
 31
0.0
  0
LINE
  5
94C9
  8
ALPHA
 10
57.879661
 20
78.277385
 30
0.0
 11
45.879661
 21
78.277385
 31
0.0
  0
LINE
  5
94CA
  8
ALPHA
 10
58.229661
 20
78.177385
 30
0.0
 11
45.529661
 21
78.177385
 31
0.0
  0
LINE
  5
94CB
  8
ALPHA
 10
45.529661
 20
76.177385
 30
0.0
 11
58.229661
 21
76.177385
 31
0.0
  0
LINE
  5
94CC
  8
ALPHA
 10
57.729661
 20
75.677385
 30
0.0
 11
46.029661
 21
75.677385
 31
0.0
  0
LINE
  5
94CD
  8
ALPHA
 10
45.879661
 20
96.910478
 30
0.0
 11
45.879661
 21
115.753458
 31
0.0
  0
LINE
  5
94CE
  8
ALPHA
 10
44.379661
 20
87.877385
 30
0.0
 11
44.379661
 21
97.777385
 31
0.0
  0
LINE
  5
94CF
  8
ALPHA
 10
43.879661
 20
83.977385
 30
0.0
 11
43.879661
 21
97.277385
 31
0.0
  0
LINE
  5
94D0
  8
ALPHA
 10
45.529661
 20
78.177385
 30
0.0
 11
45.529661
 21
76.177385
 31
0.0
  0
ARC
  5
94D1
  8
ALPHA
 10
46.029661
 20
76.177385
 30
0.0
 40
0.5
 50
180.0
 51
270.0
  0
LINE
  5
94D2
  8
ALPHA
 10
45.981116
 20
83.977385
 30
0.0
 11
45.981116
 21
81.867385
 31
0.0
  0
LINE
  5
94D3
  8
ALPHA
 10
45.813764
 20
83.977385
 30
0.0
 11
45.813764
 21
81.867385
 31
0.0
  0
LINE
  5
94D4
  8
ALPHA
 10
45.258409
 20
81.867385
 30
0.0
 11
45.258409
 21
83.977385
 31
0.0
  0
LINE
  5
94D5
  8
ALPHA
 10
45.083452
 20
81.867385
 30
0.0
 11
45.083452
 21
83.977385
 31
0.0
  0
LINE
  5
94D6
  8
ALPHA
 10
45.003805
 20
81.867385
 30
0.0
 11
45.003805
 21
83.977385
 31
0.0
  0
LINE
  5
94D7
  8
ALPHA
 10
44.989639
 20
81.867385
 30
0.0
 11
44.989639
 21
83.977385
 31
0.0
  0
LINE
  5
94D8
  8
ALPHA
 10
44.695039
 20
81.867385
 30
0.0
 11
44.695039
 21
83.977385
 31
0.0
  0
LINE
  5
94D9
  8
ALPHA
 10
44.557278
 20
81.867385
 30
0.0
 11
44.557278
 21
83.977385
 31
0.0
  0
LINE
  5
94DA
  8
ALPHA
 10
44.530112
 20
81.867385
 30
0.0
 11
44.530112
 21
83.977385
 31
0.0
  0
LINE
  5
94DB
  8
ALPHA
 10
44.528748
 20
81.867385
 30
0.0
 11
44.528748
 21
83.977385
 31
0.0
  0
ARC
  5
94DC
  8
ALPHA
 10
45.879661
 20
78.777385
 30
0.0
 40
0.5
 50
90.0
 51
270.0
  0
LINE
  5
94DD
  8
ALPHA
 10
45.529661
 20
80.527385
 30
0.0
 11
45.529661
 21
79.377385
 31
0.0
  0
ARC
  5
94DE
  8
ALPHA
 10
45.979661
 20
78.477385
 30
0.0
 40
0.3
 50
270.000026
 51
317.581999
  0
LINE
  5
94DF
  8
ALPHA
 10
46.379661
 20
81.867385
 30
0.0
 11
46.379661
 21
80.527385
 31
0.0
  0
LINE
  5
94E0
  8
ALPHA
 10
46.279661
 20
79.377385
 30
0.0
 11
46.279661
 21
79.277385
 31
0.0
  0
LINE
  5
94E1
  8
ALPHA
 10
44.379661
 20
87.877385
 30
0.0
 11
43.879661
 21
87.377385
 31
0.0
  0
LINE
  5
94E2
  8
ALPHA
 10
45.879661
 20
97.777385
 30
0.0
 11
44.379661
 21
97.777385
 31
0.0
  0
LINE
  5
94E3
  8
ALPHA
 10
44.379661
 20
97.777385
 30
0.0
 11
43.879661
 21
97.277385
 31
0.0
  0
LINE
  5
94E4
  8
ALPHA
 10
45.974169
 20
98.024295
 30
0.0
 11
45.879661
 21
98.024295
 31
0.0
  0
LINE
  5
94E5
  8
ALPHA
 10
45.879661
 20
98.118516
 30
0.0
 11
46.079661
 21
97.919124
 31
0.0
  0
LINE
  5
94EA
  8
ALPHA
 10
57.929661
 20
112.7225
 30
0.0
 11
57.929661
 21
109.184531
 31
0.0
  0
LINE
  5
94EB
  8
ALPHA
 10
57.879661
 20
96.910478
 30
0.0
 11
57.879661
 21
115.753458
 31
0.0
  0
LINE
  5
94EC
  8
ALPHA
 10
55.129661
 20
115.753412
 30
0.0
 11
55.129661
 21
99.297709
 31
0.0
  0
LINE
  5
94ED
  8
ALPHA
 10
54.879661
 20
106.953645
 30
0.0
 11
54.879661
 21
114.953386
 31
0.0
  0
LINE
  5
94EE
  8
ALPHA
 10
54.629661
 20
99.953609
 30
0.0
 11
54.629661
 21
121.953422
 31
0.0
  0
LINE
  5
94EF
  8
ALPHA
 10
49.129661
 20
99.953609
 30
0.0
 11
49.129661
 21
121.953422
 31
0.0
  0
LINE
  5
94F0
  8
ALPHA
 10
48.879661
 20
106.953645
 30
0.0
 11
48.879661
 21
114.953386
 31
0.0
  0
LINE
  5
94F1
  8
ALPHA
 10
48.629661
 20
115.753412
 30
0.0
 11
48.629661
 21
99.297709
 31
0.0
  0
LINE
  5
94F3
  8
ALPHA
 10
59.879661
 20
83.977385
 30
0.0
 11
59.879661
 21
97.277385
 31
0.0
  0
LINE
  5
94F4
  8
ALPHA
 10
59.379661
 20
87.877385
 30
0.0
 11
59.379661
 21
97.777385
 31
0.0
  0
LINE
  5
94F5
  8
ALPHA
 10
55.879661
 20
88.377385
 30
0.0
 11
55.879661
 21
96.910478
 31
0.0
  0
LINE
  5
94F6
  8
ALPHA
 10
55.729661
 20
96.910478
 30
0.0
 11
55.729661
 21
88.177456
 31
0.0
  0
LINE
  5
94F7
  8
ALPHA
 10
55.379661
 20
87.877385
 30
0.0
 11
55.379661
 21
93.639369
 31
0.0
  0
LINE
  5
94F8
  8
ALPHA
 10
48.379661
 20
87.877385
 30
0.0
 11
48.379661
 21
93.639369
 31
0.0
  0
LINE
  5
94F9
  8
ALPHA
 10
48.029661
 20
88.177457
 30
0.0
 11
48.029661
 21
96.910478
 31
0.0
  0
LINE
  5
94FA
  8
ALPHA
 10
47.879661
 20
88.377385
 30
0.0
 11
47.879661
 21
96.910478
 31
0.0
  0
ARC
  5
94FB
  8
ALPHA
 10
55.379661
 20
88.377385
 30
0.0
 40
0.5
 50
277.32176
 51
0.0
  0
ARC
  5
94FC
  8
ALPHA
 10
48.379661
 20
88.377385
 30
0.0
 40
0.5
 50
180.0
 51
262.67824
  0
LINE
  5
94FD
  8
ALPHA
 10
48.379661
 20
88.177385
 30
0.0
 11
48.029661
 21
88.177385
 31
0.0
  0
LINE
  5
94FE
  8
ALPHA
 10
55.729661
 20
88.177385
 30
0.0
 11
55.379661
 21
88.177385
 31
0.0
  0
LINE
  5
94FF
  8
ALPHA
 10
58.229661
 20
78.177385
 30
0.0
 11
58.229661
 21
76.177385
 31
0.0
  0
ARC
  5
9500
  8
ALPHA
 10
57.729661
 20
76.177385
 30
0.0
 40
0.5
 50
270.0
 51
0.0
  0
LINE
  5
9501
  8
ALPHA
 10
59.230574
 20
81.867385
 30
0.0
 11
59.230574
 21
83.977385
 31
0.0
  0
LINE
  5
9502
  8
ALPHA
 10
59.229211
 20
81.867385
 30
0.0
 11
59.229211
 21
83.977385
 31
0.0
  0
LINE
  5
9503
  8
ALPHA
 10
59.202045
 20
81.867385
 30
0.0
 11
59.202045
 21
83.977385
 31
0.0
  0
LINE
  5
9504
  8
ALPHA
 10
59.064284
 20
81.867385
 30
0.0
 11
59.064284
 21
83.977385
 31
0.0
  0
LINE
  5
9505
  8
ALPHA
 10
58.769683
 20
81.867385
 30
0.0
 11
58.769683
 21
83.977385
 31
0.0
  0
LINE
  5
9506
  8
ALPHA
 10
58.755517
 20
81.867385
 30
0.0
 11
58.755517
 21
83.977385
 31
0.0
  0
LINE
  5
9507
  8
ALPHA
 10
58.67587
 20
81.867385
 30
0.0
 11
58.67587
 21
83.977385
 31
0.0
  0
LINE
  5
9508
  8
ALPHA
 10
58.500913
 20
81.867385
 30
0.0
 11
58.500913
 21
83.977385
 31
0.0
  0
LINE
  5
9509
  8
ALPHA
 10
57.945558
 20
81.867385
 30
0.0
 11
57.945558
 21
83.977385
 31
0.0
  0
LINE
  5
950A
  8
ALPHA
 10
57.778206
 20
81.867385
 30
0.0
 11
57.778206
 21
83.977385
 31
0.0
  0
ARC
  5
950B
  8
ALPHA
 10
57.879661
 20
78.777385
 30
0.0
 40
0.5
 50
270.0
 51
90.0
  0
ARC
  5
950C
  8
ALPHA
 10
57.779661
 20
78.477385
 30
0.0
 40
0.3
 50
222.418001
 51
269.999974
  0
LINE
  5
950D
  8
ALPHA
 10
57.479661
 20
79.377385
 30
0.0
 11
57.479661
 21
79.277385
 31
0.0
  0
LINE
  5
950E
  8
ALPHA
 10
57.379661
 20
81.867385
 30
0.0
 11
57.379661
 21
80.527385
 31
0.0
  0
LINE
  5
950F
  8
ALPHA
 10
58.229661
 20
80.527385
 30
0.0
 11
58.229661
 21
79.377385
 31
0.0
  0
LINE
  5
9510
  8
ALPHA
 10
59.379661
 20
87.877385
 30
0.0
 11
59.879661
 21
87.377385
 31
0.0
  0
LINE
  5
9511
  8
ALPHA
 10
55.129661
 20
107.558321
 30
0.0
 11
57.879661
 21
107.558321
 31
0.0
  0
LINE
  5
9512
  8
ALPHA
 10
55.129661
 20
99.297709
 30
0.0
 11
57.879661
 21
99.297709
 31
0.0
  0
LINE
  5
9513
  8
ALPHA
 10
59.879661
 20
92.977385
 30
0.0
 11
55.879661
 21
92.977385
 31
0.0
  0
LINE
  5
9514
  8
ALPHA
 10
55.879661
 20
89.577385
 30
0.0
 11
59.879661
 21
89.577385
 31
0.0
  0
LINE
  5
9515
  8
ALPHA
 10
54.629661
 20
99.953515
 30
0.0
 11
49.129661
 21
99.953515
 31
0.0
  0
LINE
  5
9516
  8
ALPHA
 10
54.979661
 20
95.037373
 30
0.0
 11
48.779661
 21
95.037373
 31
0.0
  0
LINE
  5
9517
  8
ALPHA
 10
48.779661
 20
94.032385
 30
0.0
 11
54.979661
 21
94.032385
 31
0.0
  0
LINE
  5
9518
  8
ALPHA
 10
48.546328
 20
93.836571
 30
0.0
 11
55.212994
 21
93.836571
 31
0.0
  0
LINE
  5
9519
  8
ALPHA
 10
48.379661
 20
93.639369
 30
0.0
 11
55.379661
 21
93.639369
 31
0.0
  0
LINE
  5
951A
  8
ALPHA
 10
48.779661
 20
93.86603
 30
0.0
 11
48.779661
 21
96.910478
 31
0.0
  0
ARC
  5
951B
  8
ALPHA
 10
50.879661
 20
80.032385
 30
0.0
 40
14.0
 50
90.0
 51
99.594068
  0
ARC
  5
951C
  8
ALPHA
 10
48.579661
 20
93.639369
 30
0.0
 40
0.2
 50
99.594064
 51
180.0
  0
LINE
  5
951D
  8
ALPHA
 10
47.879661
 20
90.733325
 30
0.0
 11
48.029661
 21
90.646723
 31
0.0
  0
POLYLINE
  5
951E
  8
ALPHA
 66
     1
 10
0.0
 20
0.0
 30
0.0
  0
VERTEX
  5
980E
  8
ALPHA
 10
49.129661
 20
99.414565
 30
0.0
  0
VERTEX
  5
980F
  8
ALPHA
 10
48.975639
 20
99.412671
 30
0.0
  0
VERTEX
  5
9810
  8
ALPHA
 10
48.834958
 20
99.40708
 30
0.0
  0
VERTEX
  5
9811
  8
ALPHA
 10
48.725742
 20
99.398572
 30
0.0
  0
VERTEX
  5
9812
  8
ALPHA
 10
48.653975
 20
99.387612
 30
0.0
  0
VERTEX
  5
9813
  8
ALPHA
 10
48.629661
 20
99.375613
 30
0.0
  0
SEQEND
  5
9814
  8
ALPHA
  0
LINE
  5
951F
  8
ALPHA
 10
47.879661
 20
95.221445
 30
0.0
 11
48.029661
 21
95.308048
 31
0.0
  0
LINE
  5
9520
  8
ALPHA
 10
48.029661
 20
96.710715
 30
0.0
 11
48.779661
 21
96.710715
 31
0.0
  0
LINE
  5
9521
  8
ALPHA
 10
49.129661
 20
99.953515
 30
0.0
 11
49.129661
 21
99.414565
 31
0.0
  0
LINE
  5
9522
  8
ALPHA
 10
54.979661
 20
93.86603
 30
0.0
 11
54.979661
 21
96.910478
 31
0.0
  0
ARC
  5
9523
  8
ALPHA
 10
52.879661
 20
80.032385
 30
0.0
 40
14.0
 50
80.405932
 51
90.0
  0
ARC
  5
9524
  8
ALPHA
 10
55.179661
 20
93.639369
 30
0.0
 40
0.2
 50
0.0
 51
80.405936
  0
LINE
  5
9525
  8
ALPHA
 10
55.729661
 20
90.502385
 30
0.0
 11
55.879661
 21
90.502385
 31
0.0
  0
POLYLINE
  5
9526
  8
ALPHA
 66
     1
 10
0.0
 20
0.0
 30
0.0
  0
VERTEX
  5
9815
  8
ALPHA
 10
55.129661
 20
99.375613
 30
0.0
  0
VERTEX
  5
9816
  8
ALPHA
 10
55.105347
 20
99.387612
 30
0.0
  0
VERTEX
  5
9817
  8
ALPHA
 10
55.03358
 20
99.398572
 30
0.0
  0
VERTEX
  5
9818
  8
ALPHA
 10
54.924364
 20
99.40708
 30
0.0
  0
VERTEX
  5
9819
  8
ALPHA
 10
54.783684
 20
99.412671
 30
0.0
  0
VERTEX
  5
981A
  8
ALPHA
 10
54.629661
 20
99.414565
 30
0.0
  0
SEQEND
  5
981B
  8
ALPHA
  0
LINE
  5
9527
  8
ALPHA
 10
54.629661
 20
99.414565
 30
0.0
 11
54.629661
 21
99.953515
 31
0.0
  0
LINE
  5
9528
  8
ALPHA
 10
55.729661
 20
96.710715
 30
0.0
 11
54.979661
 21
96.710715
 31
0.0
  0
LINE
  5
9529
  8
ALPHA
 10
55.729661
 20
95.452385
 30
0.0
 11
55.879661
 21
95.452385
 31
0.0
  0
POLYLINE
  5
952A
  8
ALPHA
 66
     1
 10
0.0
 20
0.0
 30
0.0
 70
   128
  0
VERTEX
  5
981C
  8
ALPHA
 10
48.629661
 20
101.439741
 30
0.0
  0
VERTEX
  5
981D
  8
ALPHA
 10
48.838966
 20
101.255792
 30
0.0
  0
VERTEX
  5
981E
  8
ALPHA
 10
49.129661
 20
101.213646
 30
0.0
  0
SEQEND
  5
981F
  8
ALPHA
  0
POLYLINE
  5
952B
  8
ALPHA
 66
     1
 10
0.0
 20
0.0
 30
0.0
 70
   128
  0
VERTEX
  5
9820
  8
ALPHA
 10
48.629661
 20
103.697566
 30
0.0
  0
VERTEX
  5
9821
  8
ALPHA
 10
48.778684
 20
103.351347
 30
0.0
  0
VERTEX
  5
9822
  8
ALPHA
 10
49.129661
 20
103.210994
 30
0.0
  0
SEQEND
  5
9823
  8
ALPHA
  0
LINE
  5
952C
  8
ALPHA
 10
48.873835
 20
104.518783
 30
0.0
 11
48.878724
 21
104.516148
 31
0.0
  0
LINE
  5
952D
  8
ALPHA
 10
48.778231
 20
104.584861
 30
0.0
 11
48.873835
 21
104.518783
 31
0.0
  0
LINE
  5
952E
  8
ALPHA
 10
48.629661
 20
104.89145
 30
0.0
 11
48.778231
 21
104.584861
 31
0.0
  0
LINE
  5
952F
  8
ALPHA
 10
49.129521
 20
105.714449
 30
0.0
 11
49.098435
 21
105.693809
 31
0.0
  0
POLYLINE
  5
9530
  8
ALPHA
 66
     1
 10
0.0
 20
0.0
 30
0.0
  0
VERTEX
  5
9824
  8
ALPHA
 10
49.079661
 20
104.611837
 30
0.0
  0
VERTEX
  5
9825
  8
ALPHA
 10
49.001182
 20
104.595445
 30
0.0
  0
VERTEX
  5
9826
  8
ALPHA
 10
48.910197
 20
104.562862
 30
0.0
  0
VERTEX
  5
9827
  8
ALPHA
 10
48.879661
 20
104.529601
 30
0.0
  0
SEQEND
  5
9828
  8
ALPHA
  0
POLYLINE
  5
9531
  8
ALPHA
 66
     1
 10
0.0
 20
0.0
 30
0.0
  0
VERTEX
  5
9829
  8
ALPHA
 10
49.079661
 20
105.668592
 30
0.0
  0
VERTEX
  5
982A
  8
ALPHA
 10
49.08749
 20
105.65229
 30
0.0
  0
VERTEX
  5
982B
  8
ALPHA
 10
49.129661
 20
105.630494
 30
0.0
  0
SEQEND
  5
982C
  8
ALPHA
  0
POLYLINE
  5
9532
  8
ALPHA
 66
     1
 10
0.0
 20
0.0
 30
0.0
  0
VERTEX
  5
982D
  8
ALPHA
 10
49.079661
 20
104.529601
 30
0.0
  0
VERTEX
  5
982E
  8
ALPHA
 10
49.108161
 20
104.498557
 30
0.0
  0
VERTEX
  5
982F
  8
ALPHA
 10
49.129661
 20
104.490857
 30
0.0
  0
SEQEND
  5
9830
  8
ALPHA
  0
POLYLINE
  5
9533
  8
ALPHA
 66
     1
 10
0.0
 20
0.0
 30
0.0
  0
VERTEX
  5
9831
  8
ALPHA
 10
48.879661
 20
104.529601
 30
0.0
  0
VERTEX
  5
9832
  8
ALPHA
 10
48.910197
 20
104.49634
 30
0.0
  0
VERTEX
  5
9833
  8
ALPHA
 10
49.001182
 20
104.463756
 30
0.0
  0
VERTEX
  5
9834
  8
ALPHA
 10
49.129661
 20
104.43692
 30
0.0
  0
SEQEND
  5
9835
  8
ALPHA
  0
POLYLINE
  5
9534
  8
ALPHA
 66
     1
 10
0.0
 20
0.0
 30
0.0
  0
VERTEX
  5
9836
  8
ALPHA
 10
48.879661
 20
103.732032
 30
0.0
  0
VERTEX
  5
9837
  8
ALPHA
 10
48.910197
 20
103.698771
 30
0.0
  0
VERTEX
  5
9838
  8
ALPHA
 10
49.001182
 20
103.666187
 30
0.0
  0
VERTEX
  5
9839
  8
ALPHA
 10
49.129661
 20
103.639352
 30
0.0
  0
SEQEND
  5
983A
  8
ALPHA
  0
LINE
  5
9535
  8
ALPHA
 10
49.079661
 20
104.529601
 30
0.0
 11
49.079661
 21
105.668592
 31
0.0
  0
LINE
  5
9536
  8
ALPHA
 10
48.879661
 20
103.732032
 30
0.0
 11
48.879661
 21
104.529601
 31
0.0
  0
POLYLINE
  5
9537
  8
ALPHA
 66
     1
 10
0.0
 20
0.0
 30
0.0
  0
VERTEX
  5
983B
  8
ALPHA
 10
49.098435
 20
105.693809
 30
0.0
  0
VERTEX
  5
983C
  8
ALPHA
 10
49.08749
 20
105.684893
 30
0.0
  0
VERTEX
  5
983D
  8
ALPHA
 10
49.079661
 20
105.668592
 30
0.0
  0
SEQEND
  5
983E
  8
ALPHA
  0
LINE
  5
9538
  8
ALPHA
 10
48.879661
 20
107.978515
 30
0.0
 11
48.629661
 21
107.978515
 31
0.0
  0
LINE
  5
9539
  8
ALPHA
 10
49.129661
 20
106.953515
 30
0.0
 11
48.879661
 21
106.953515
 31
0.0
  0
POLYLINE
  5
953A
  8
ALPHA
 66
     1
 10
0.0
 20
0.0
 30
0.0
 70
   128
210
0.0
220
0.0
230
-1.0
  0
VERTEX
  5
983F
  8
ALPHA
 10
-55.129661
 20
101.439741
 30
0.0
  0
VERTEX
  5
9840
  8
ALPHA
 10
-54.920356
 20
101.255792
 30
0.0
  0
VERTEX
  5
9841
  8
ALPHA
 10
-54.629661
 20
101.213646
 30
0.0
  0
SEQEND
  5
9842
  8
ALPHA
  0
POLYLINE
  5
953B
  8
ALPHA
 66
     1
 10
0.0
 20
0.0
 30
0.0
 70
   128
210
0.0
220
0.0
230
-1.0
  0
VERTEX
  5
9843
  8
ALPHA
 10
-55.129661
 20
103.697566
 30
0.0
  0
VERTEX
  5
9844
  8
ALPHA
 10
-54.980638
 20
103.351347
 30
0.0
  0
VERTEX
  5
9845
  8
ALPHA
 10
-54.629661
 20
103.210994
 30
0.0
  0
SEQEND
  5
9846
  8
ALPHA
  0
LINE
  5
953C
  8
ALPHA
 10
54.885487
 20
104.518783
 30
0.0
 11
54.981092
 21
104.584861
 31
0.0
  0
LINE
  5
953D
  8
ALPHA
 10
54.880598
 20
104.516148
 30
0.0
 11
54.885487
 21
104.518783
 31
0.0
  0
LINE
  5
953E
  8
ALPHA
 10
54.981092
 20
104.584861
 30
0.0
 11
55.129661
 21
104.89145
 31
0.0
  0
LINE
  5
953F
  8
ALPHA
 10
54.660887
 20
105.693809
 30
0.0
 11
54.629801
 21
105.714449
 31
0.0
  0
POLYLINE
  5
9540
  8
ALPHA
 66
     1
 10
0.0
 20
0.0
 30
0.0
  0
VERTEX
  5
9847
  8
ALPHA
 10
54.679661
 20
105.668592
 30
0.0
  0
VERTEX
  5
9848
  8
ALPHA
 10
54.671832
 20
105.684893
 30
0.0
  0
VERTEX
  5
9849
  8
ALPHA
 10
54.660887
 20
105.693809
 30
0.0
  0
SEQEND
  5
984A
  8
ALPHA
  0
POLYLINE
  5
9541
  8
ALPHA
 66
     1
 10
0.0
 20
0.0
 30
0.0
  0
VERTEX
  5
984B
  8
ALPHA
 10
54.879661
 20
104.529601
 30
0.0
  0
VERTEX
  5
984C
  8
ALPHA
 10
54.849125
 20
104.562862
 30
0.0
  0
VERTEX
  5
984D
  8
ALPHA
 10
54.75814
 20
104.595445
 30
0.0
  0
VERTEX
  5
984E
  8
ALPHA
 10
54.679661
 20
104.611837
 30
0.0
  0
SEQEND
  5
984F
  8
ALPHA
  0
POLYLINE
  5
9542
  8
ALPHA
 66
     1
 10
0.0
 20
0.0
 30
0.0
  0
VERTEX
  5
9850
  8
ALPHA
 10
54.629661
 20
104.43692
 30
0.0
  0
VERTEX
  5
9851
  8
ALPHA
 10
54.75814
 20
104.463756
 30
0.0
  0
VERTEX
  5
9852
  8
ALPHA
 10
54.849125
 20
104.49634
 30
0.0
  0
VERTEX
  5
9853
  8
ALPHA
 10
54.879661
 20
104.529601
 30
0.0
  0
SEQEND
  5
9854
  8
ALPHA
  0
POLYLINE
  5
9543
  8
ALPHA
 66
     1
 10
0.0
 20
0.0
 30
0.0
  0
VERTEX
  5
9855
  8
ALPHA
 10
54.629661
 20
103.639352
 30
0.0
  0
VERTEX
  5
9856
  8
ALPHA
 10
54.75814
 20
103.666187
 30
0.0
  0
VERTEX
  5
9857
  8
ALPHA
 10
54.849125
 20
103.698771
 30
0.0
  0
VERTEX
  5
9858
  8
ALPHA
 10
54.879661
 20
103.732032
 30
0.0
  0
SEQEND
  5
9859
  8
ALPHA
  0
LINE
  5
9544
  8
ALPHA
 10
54.879661
 20
103.732032
 30
0.0
 11
54.879661
 21
104.529601
 31
0.0
  0
LINE
  5
9545
  8
ALPHA
 10
54.679661
 20
104.529601
 30
0.0
 11
54.679661
 21
105.668592
 31
0.0
  0
POLYLINE
  5
9546
  8
ALPHA
 66
     1
 10
0.0
 20
0.0
 30
0.0
  0
VERTEX
  5
985A
  8
ALPHA
 10
54.629661
 20
104.490857
 30
0.0
  0
VERTEX
  5
985B
  8
ALPHA
 10
54.651161
 20
104.498557
 30
0.0
  0
VERTEX
  5
985C
  8
ALPHA
 10
54.679661
 20
104.529601
 30
0.0
  0
SEQEND
  5
985D
  8
ALPHA
  0
POLYLINE
  5
9547
  8
ALPHA
 66
     1
 10
0.0
 20
0.0
 30
0.0
  0
VERTEX
  5
985E
  8
ALPHA
 10
54.629661
 20
105.630494
 30
0.0
  0
VERTEX
  5
985F
  8
ALPHA
 10
54.671832
 20
105.65229
 30
0.0
  0
VERTEX
  5
9860
  8
ALPHA
 10
54.679661
 20
105.668592
 30
0.0
  0
SEQEND
  5
9861
  8
ALPHA
  0
LINE
  5
9548
  8
ALPHA
 10
54.879661
 20
106.953515
 30
0.0
 11
54.629661
 21
106.953515
 31
0.0
  0
LINE
  5
9549
  8
ALPHA
 10
55.129661
 20
108.209456
 30
0.0
 11
54.879661
 21
108.065118
 31
0.0
  0
LINE
  5
954A
  8
ALPHA
 10
59.379661
 20
97.777385
 30
0.0
 11
57.879661
 21
97.777385
 31
0.0
  0
LINE
  5
954B
  8
ALPHA
 10
57.879661
 20
98.118516
 30
0.0
 11
57.679661
 21
97.919124
 31
0.0
  0
LINE
  5
954C
  8
ALPHA
 10
57.879661
 20
98.024295
 30
0.0
 11
57.785153
 21
98.024295
 31
0.0
  0
LINE
  5
954D
  8
ALPHA
 10
59.879661
 20
97.277385
 30
0.0
 11
59.379661
 21
97.777385
 31
0.0
  0
LINE
  5
954E
  8
ALPHA
 10
57.879661
 20
109.155588
 30
0.0
 11
57.929661
 21
109.184456
 31
0.0
  0
LINE
  5
95FD
  8
ALPHA
 10
55.129661
 20
115.753515
 30
0.0
 11
57.879661
 21
115.753515
 31
0.0
  0
LINE
  5
95FE
  8
ALPHA
 10
54.629661
 20
121.953515
 30
0.0
 11
49.129661
 21
121.953515
 31
0.0
  0
LINE
  5
95FF
  8
ALPHA
 10
49.129661
 20
114.953515
 30
0.0
 11
48.879661
 21
114.953515
 31
0.0
  0
LINE
  5
9600
  8
ALPHA
 10
48.879661
 20
113.928515
 30
0.0
 11
48.629661
 21
113.928515
 31
0.0
  0
LINE
  5
9601
  8
ALPHA
 10
54.879661
 20
114.953515
 30
0.0
 11
54.629661
 21
114.953515
 31
0.0
  0
LINE
  5
9602
  8
ALPHA
 10
55.129661
 20
113.697575
 30
0.0
 11
54.879661
 21
113.841913
 31
0.0
  0
LINE
  5
9603
  8
ALPHA
 10
57.879661
 20
112.751443
 30
0.0
 11
57.929661
 21
112.722575
 31
0.0
  0
VIEWPORT
  5
494D
 67
     1
  8
0
 10
4.995325
 20
6.556512
 30
0.0
 40
22.70986
 41
13.988421
 68
    -1
 69
     1
1001
ACAD
1000
MVIEW
1002
{
1070
    16
1010
0.0
1020
0.0
1030
0.0
1010
0.0
1020
0.0
1030
1.0
1040
0.0
1040
13.988421
1040
4.995325
1040
6.556512
1040
50.0
1040
0.0
1040
0.0
1070
     0
1070
   100
1070
     1
1070
     1
1070
     0
1070
     0
1070
     0
1070
     0
1040
0.0
1040
0.0
1040
0.0
1040
10.0
1040
10.0
1040
10.0
1040
10.0
1070
     0
1002
{
1002
}
1002
}
  0
ENDSEC
  0
EOF
