  0
SECTION
  2
HEADER
  9
$ACADVER
  1
AC1009
  9
$INSBASE
 10
402.590624
 20
-1.041018
 30
0.0
  9
$EXTMIN
 10
-56.37238
 20
33.228457
 30
0.0
  9
$EXTMAX
 10
-3.515237
 20
157.128457
 30
0.0
  9
$LIMMIN
 10
-407.970438
 20
-367.832444
  9
$LIMMAX
 10
429.804077
 20
234.370848
  9
$ORTHOMODE
 70
     1
  9
$REGENMODE
 70
     1
  9
$FILLMODE
 70
     1
  9
$QTEXTMODE
 70
     0
  9
$MIRRTEXT
 70
     1
  9
$DRAGMODE
 70
     2
  9
$LTSCALE
 40
10.0
  9
$OSMODE
 70
   161
  9
$ATTMODE
 70
     1
  9
$TEXTSIZE
 40
6.0
  9
$TRACEWID
 40
1.0
  9
$TEXTSTYLE
  7
ROMANS
  9
$CLAYER
  8
ALPHA
  9
$CELTYPE
  6
BYLAYER
  9
$CECOLOR
 62
   256
  9
$DIMSCALE
 40
1.0
  9
$DIMASZ
 40
5.0
  9
$DIMEXO
 40
2.0
  9
$DIMDLI
 40
0.38
  9
$DIMRND
 40
0.0
  9
$DIMDLE
 40
0.0
  9
$DIMEXE
 40
2.5
  9
$DIMTP
 40
0.0
  9
$DIMTM
 40
0.0
  9
$DIMTXT
 40
2.5
  9
$DIMCEN
 40
0.0
  9
$DIMTSZ
 40
0.0
  9
$DIMTOL
 70
     0
  9
$DIMLIM
 70
     0
  9
$DIMTIH
 70
     1
  9
$DIMTOH
 70
     1
  9
$DIMSE1
 70
     0
  9
$DIMSE2
 70
     0
  9
$DIMTAD
 70
     1
  9
$DIMZIN
 70
    12
  9
$DIMBLK
  1
OPEN30
  9
$DIMASO
 70
     1
  9
$DIMSHO
 70
     1
  9
$DIMPOST
  1

  9
$DIMAPOST
  1

  9
$DIMALT
 70
     0
  9
$DIMALTD
 70
     2
  9
$DIMALTF
 40
25.4
  9
$DIMLFAC
 40
1.0
  9
$DIMTOFL
 70
     0
  9
$DIMTVP
 40
0.0
  9
$DIMTIX
 70
     0
  9
$DIMSOXD
 70
     0
  9
$DIMSAH
 70
     0
  9
$DIMBLK1
  1

  9
$DIMBLK2
  1

  9
$DIMSTYLE
  2
SC_DEFAUT
  9
$DIMCLRD
 70
     0
  9
$DIMCLRE
 70
     0
  9
$DIMCLRT
 70
     0
  9
$DIMTFAC
 40
1.0
  9
$DIMGAP
 40
2.0
  9
$LUNITS
 70
     2
  9
$LUPREC
 70
     1
  9
$SKETCHINC
 40
0.1
  9
$FILLETRAD
 40
5.0
  9
$AUNITS
 70
     0
  9
$AUPREC
 70
     0
  9
$MENU
  1
acad
  9
$ELEVATION
 40
0.0
  9
$PELEVATION
 40
0.0
  9
$THICKNESS
 40
0.0
  9
$LIMCHECK
 70
     0
  9
$BLIPMODE
 70
     0
  9
$CHAMFERA
 40
0.0
  9
$CHAMFERB
 40
0.0
  9
$SKPOLY
 70
     0
  9
$TDCREATE
 40
2450373.687919
  9
$TDUPDATE
 40
2452832.65479
  9
$TDINDWG
 40
1.616219
  9
$TDUSRTIMER
 40
1.616219
  9
$USRTIMER
 70
     1
  9
$ANGBASE
 50
0.0
  9
$ANGDIR
 70
     0
  9
$PDMODE
 70
    32
  9
$PDSIZE
 40
0.0
  9
$PLINEWID
 40
0.0
  9
$COORDS
 70
     1
  9
$SPLFRAME
 70
     0
  9
$SPLINETYPE
 70
     6
  9
$SPLINESEGS
 70
     8
  9
$ATTDIA
 70
     0
  9
$ATTREQ
 70
     1
  9
$HANDLING
 70
     1
  9
$HANDSEED
  5
103C0
  9
$SURFTAB1
 70
     6
  9
$SURFTAB2
 70
     6
  9
$SURFTYPE
 70
     6
  9
$SURFU
 70
     6
  9
$SURFV
 70
     6
  9
$UCSNAME
  2

  9
$UCSORG
 10
0.0
 20
0.0
 30
0.0
  9
$UCSXDIR
 10
1.0
 20
0.0
 30
0.0
  9
$UCSYDIR
 10
0.0
 20
1.0
 30
0.0
  9
$PUCSNAME
  2

  9
$PUCSORG
 10
0.0
 20
0.0
 30
0.0
  9
$PUCSXDIR
 10
1.0
 20
0.0
 30
0.0
  9
$PUCSYDIR
 10
0.0
 20
1.0
 30
0.0
  9
$USERI1
 70
     0
  9
$USERI2
 70
     0
  9
$USERI3
 70
     0
  9
$USERI4
 70
     0
  9
$USERI5
 70
     0
  9
$USERR1
 40
0.0
  9
$USERR2
 40
0.0
  9
$USERR3
 40
0.0
  9
$USERR4
 40
0.0
  9
$USERR5
 40
0.0
  9
$WORLDVIEW
 70
     1
  9
$SHADEDGE
 70
     3
  9
$SHADEDIF
 70
    70
  9
$TILEMODE
 70
     1
  9
$MAXACTVP
 70
    16
  9
$PLIMCHECK
 70
     0
  9
$PEXTMIN
 10
-1.452248
 20
-0.437698
 30
0.0
  9
$PEXTMAX
 10
12.749749
 20
8.310198
 30
0.0
  9
$PLIMMIN
 10
0.0
 20
0.0
  9
$PLIMMAX
 10
12.0
 20
9.0
  9
$UNITMODE
 70
     0
  9
$VISRETAIN
 70
     0
  9
$PLINEGEN
 70
     0
  9
$PSLTSCALE
 70
     0
  0
ENDSEC
  0
SECTION
  2
TABLES
  0
TABLE
  2
VPORT
 70
     2
  0
VPORT
  2
*ACTIVE
 70
     0
 10
0.0
 20
0.0
 11
1.0
 21
1.0
 12
-29.92622
 22
95.177498
 13
0.0
 23
0.0
 14
1.0
 24
1.0
 15
10.0
 25
10.0
 16
0.0
 26
0.0
 36
1.0
 17
0.0
 27
0.0
 37
0.0
 40
125.019149
 41
1.56
 42
50.0
 43
0.0
 44
0.0
 50
0.0
 51
0.0
 71
     0
 72
   100
 73
     1
 74
     0
 75
     0
 76
     0
 77
     0
 78
     0
  0
ENDTAB
  0
TABLE
  2
LTYPE
 70
     2
  0
LTYPE
  2
CONTINUOUS
 70
     0
  3
Solid line
 72
    65
 73
     0
 40
0.0
  0
LTYPE
  2
AXES2
 70
     0
  3
___ _ ___ _ ___ _ ___ _ ___ _ ___ _ ___ _ ___ _
 72
    65
 73
     4
 40
1.125
 49
0.75
 49
-0.125
 49
0.125
 49
-0.125
  0
ENDTAB
  0
TABLE
  2
LAYER
 70
     5
  0
LAYER
  2
0
 70
     0
 62
   255
  6
CONTINUOUS
  0
LAYER
  2
COTATION1
 70
     0
 62
     2
  6
CONTINUOUS
  0
LAYER
  2
AXE
 70
     0
 62
    80
  6
AXES2
  0
LAYER
  2
DEFPOINTS
 70
     0
 62
     7
  6
CONTINUOUS
  0
LAYER
  2
ALPHA
 70
     0
 62
   254
  6
CONTINUOUS
  0
ENDTAB
  0
TABLE
  2
STYLE
 70
     2
  0
STYLE
  2
ROMANS
 70
     0
 40
0.0
 41
1.0
 50
0.0
 71
     0
 42
6.0
  3
romans
  4

  0
STYLE
  2
STANDARD
 70
     0
 40
0.2
 41
1.0
 50
0.0
 71
     0
 42
0.2
  3
txt
  4

  0
ENDTAB
  0
TABLE
  2
VIEW
 70
     0
  0
ENDTAB
  0
TABLE
  2
UCS
 70
     0
  0
ENDTAB
  0
TABLE
  2
APPID
 70
     1
  0
APPID
  2
ACAD
 70
     0
  0
ENDTAB
  0
TABLE
  2
DIMSTYLE
 70
     1
  0
DIMSTYLE
  2
SC_DEFAUT
 70
     0
  3

  4

  5
OPEN30
  6

  7

 40
1.0
 41
5.0
 42
2.0
 43
0.38
 44
2.5
 45
0.0
 46
0.0
 47
0.0
 48
0.0
140
2.5
141
0.0
142
0.0
143
25.4
144
1.0
145
0.0
146
1.0
147
2.0
 71
     0
 72
     0
 73
     1
 74
     1
 75
     0
 76
     0
 77
     1
 78
    12
170
     0
171
     2
172
     0
173
     0
174
     0
175
     0
176
     0
177
     0
178
     0
  0
ENDTAB
  0
ENDSEC
  0
SECTION
  2
BLOCKS
  0
BLOCK
  8
0
  2
$MODEL_SPACE
 70
     0
 10
0.0
 20
0.0
 30
0.0
  3
$MODEL_SPACE
  1

  0
ENDBLK
  5
103B9
  8
0
  0
BLOCK
 67
     1
  8
0
  2
$PAPER_SPACE
 70
     0
 10
0.0
 20
0.0
 30
0.0
  3
$PAPER_SPACE
  1

  0
ENDBLK
  5
103B7
 67
     1
  8
0
  0
BLOCK
  8
0
  2
COTE
 70
     0
 10
0.0
 20
0.0
 30
0.0
  3
COTE
  1

  0
ENDBLK
  5
F
  8
0
  0
BLOCK
  8
0
  2
FOND
 70
     0
 10
0.0
 20
0.0
 30
0.0
  3
FOND
  1

  0
ENDBLK
  5
75
  8
0
  0
BLOCK
  8
0
  2
_OPEN30
 70
     0
 10
0.0
 20
0.0
 30
0.0
  3
_OPEN30
  1

  0
LINE
  5
4B05
  8
COTATION1
 62
     0
 10
-1.0
 20
0.267949
 30
0.0
 11
0.0
 21
0.0
 31
0.0
1001
ACAD
1000
RTLwPs
1070
   158
  0
LINE
  5
4B06
  8
COTATION1
 62
     0
 10
0.0
 20
0.0
 30
0.0
 11
-1.0
 21
-0.267949
 31
0.0
1001
ACAD
1000
RTLwPs
1070
   158
  0
LINE
  5
4B07
  8
COTATION1
 62
     0
 10
0.0
 20
0.0
 30
0.0
 11
-1.0
 21
0.0
 31
0.0
1001
ACAD
1000
RTLwPs
1070
   158
  0
ENDBLK
  5
4B09
  8
0
  0
BLOCK
  8
0
  2
*D3
 70
     1
 10
0.0
 20
0.0
 30
0.0
  3
*D3
  1

  0
LINE
  5
FBD5
  8
COTATION1
 62
     0
 10
-43.384285
 20
65.728457
 30
0.0
 11
-43.384285
 21
33.228457
 31
0.0
1001
ACAD
1000
RTLwPs
1070
   158
  0
LINE
  5
FBD6
  8
COTATION1
 62
     0
 10
-27.384285
 20
65.728457
 30
0.0
 11
-27.384285
 21
33.228457
 31
0.0
1001
ACAD
1000
RTLwPs
1070
   158
  0
LINE
  5
FBD7
  8
COTATION1
 62
     0
 10
-38.384285
 20
35.728457
 30
0.0
 11
-32.384285
 21
35.728457
 31
0.0
1001
ACAD
1000
RTLwPs
1070
   158
  0
INSERT
  5
FBD8
  8
COTATION1
 62
     0
  2
_OPEN30
 10
-43.384285
 20
35.728457
 30
0.0
 41
5.0
 42
5.0
 43
5.0
 50
180.0
1001
ACAD
1000
RTLwPs
1070
   158
  0
INSERT
  5
FBD9
  8
COTATION1
 62
     0
  2
_OPEN30
 10
-27.384285
 20
35.728457
 30
0.0
 41
5.0
 42
5.0
 43
5.0
1001
ACAD
1000
RTLwPs
1070
   158
  0
TEXT
  5
FBDA
  8
COTATION1
 62
     0
 10
-37.943809
 20
37.728457
 30
0.0
 40
2.5
  1
16
1001
ACAD
1000
MTEXTBEGIN
1070
    73
1070
     1
1070
    44
1040
1.0
1070
    74
1070
     0
1000
MTEXTEND
1000
MTEXTBEGIN
1070
    73
1070
     1
1070
    44
1040
1.0
1070
    74
1070
     0
1000
MTEXTEND
1000
MTEXTBEGIN
1070
    73
1070
     1
1070
    44
1040
1.0
1070
    74
1070
     0
1000
MTEXTEND
1000
MTEXTBEGIN
1070
    73
1070
     1
1070
    44
1040
1.0
1070
    74
1070
     0
1000
MTEXTEND
  0
POINT
  5
FBDB
  8
DEFPOINTS
 62
     0
 10
-43.384285
 20
67.728457
 30
0.0
  0
POINT
  5
FBDC
  8
DEFPOINTS
 62
     0
 10
-27.384285
 20
67.728457
 30
0.0
  0
POINT
  5
FBDD
  8
DEFPOINTS
 62
     0
 10
-27.384285
 20
35.728457
 30
0.0
  0
ENDBLK
  5
F718
  8
0
  0
BLOCK
  8
0
  2
*D4
 70
     1
 10
0.0
 20
0.0
 30
0.0
  3
*D4
  1

  0
LINE
  5
10259
  8
COTATION1
 62
     0
 10
-31.634285
 20
138.128457
 30
0.0
 11
-4.884285
 21
138.128457
 31
0.0
1001
ACAD
1000
RTLwPs
1070
   158
  0
LINE
  5
1025A
  8
COTATION1
 62
     0
 10
-25.384285
 20
67.728457
 30
0.0
 11
-4.884285
 21
67.728457
 31
0.0
1001
ACAD
1000
RTLwPs
1070
   158
  0
LINE
  5
1025B
  8
COTATION1
 62
     0
 10
-7.384285
 20
133.128457
 30
0.0
 11
-7.384285
 21
106.178457
 31
0.0
1001
ACAD
1000
RTLwPs
1070
   158
  0
LINE
  5
1025C
  8
COTATION1
 62
     0
 10
-7.384285
 20
72.728457
 30
0.0
 11
-7.384285
 21
99.678457
 31
0.0
1001
ACAD
1000
RTLwPs
1070
   158
  0
INSERT
  5
1025D
  8
COTATION1
 62
     0
  2
_OPEN30
 10
-7.384285
 20
138.128457
 30
0.0
 41
5.0
 42
5.0
 43
5.0
 50
90.0
1001
ACAD
1000
RTLwPs
1070
   158
  0
INSERT
  5
1025E
  8
COTATION1
 62
     0
  2
_OPEN30
 10
-7.384285
 20
67.728457
 30
0.0
 41
5.0
 42
5.0
 43
5.0
 50
270.0
1001
ACAD
1000
RTLwPs
1070
   158
  0
TEXT
  5
1025F
  8
COTATION1
 62
     0
 10
-11.610475
 20
101.678457
 30
0.0
 40
2.5
  1
70.4
1001
ACAD
1000
MTEXTBEGIN
1070
    73
1070
     1
1070
    44
1040
1.0
1070
    74
1070
     0
1000
MTEXTEND
1000
MTEXTBEGIN
1070
    73
1070
     1
1070
    44
1040
1.0
1070
    74
1070
     0
1000
MTEXTEND
1000
MTEXTBEGIN
1070
    73
1070
     1
1070
    44
1040
1.0
1070
    74
1070
     0
1000
MTEXTEND
  0
POINT
  5
10260
  8
DEFPOINTS
 62
     0
 10
-33.634285
 20
138.128457
 30
0.0
  0
POINT
  5
10261
  8
DEFPOINTS
 62
     0
 10
-27.384285
 20
67.728457
 30
0.0
  0
POINT
  5
10262
  8
DEFPOINTS
 62
     0
 10
-7.384285
 20
67.728457
 30
0.0
  0
ENDBLK
  5
F741
  8
0
  0
BLOCK
  8
0
  2
*D5
 70
     1
 10
0.0
 20
0.0
 30
0.0
  3
*D5
  1

  0
LINE
  5
1024F
  8
COTATION1
 62
     0
 10
-37.134285
 20
140.128457
 30
0.0
 11
-37.134285
 21
155.128457
 31
0.0
1001
ACAD
1000
RTLwPs
1070
   158
  0
LINE
  5
10250
  8
COTATION1
 62
     0
 10
-33.634285
 20
140.128457
 30
0.0
 11
-33.634285
 21
155.128457
 31
0.0
1001
ACAD
1000
RTLwPs
1070
   158
  0
LINE
  5
10251
  8
COTATION1
 62
     0
 10
-28.634285
 20
152.628457
 30
0.0
 11
-23.634285
 21
152.628457
 31
0.0
1001
ACAD
1000
RTLwPs
1070
   158
  0
LINE
  5
10252
  8
COTATION1
 62
     0
 10
-42.134285
 20
152.628457
 30
0.0
 11
-56.37238
 21
152.628457
 31
0.0
1001
ACAD
1000
RTLwPs
1070
   158
  0
INSERT
  5
10253
  8
COTATION1
 62
     0
  2
_OPEN30
 10
-33.634285
 20
152.628457
 30
0.0
 41
5.0
 42
5.0
 43
5.0
 50
180.0
1001
ACAD
1000
RTLwPs
1070
   158
  0
INSERT
  5
10254
  8
COTATION1
 62
     0
  2
_OPEN30
 10
-37.134285
 20
152.628457
 30
0.0
 41
5.0
 42
5.0
 43
5.0
1001
ACAD
1000
RTLwPs
1070
   158
  0
TEXT
  5
10255
  8
COTATION1
 62
     0
 10
-54.729523
 20
154.628457
 30
0.0
 40
2.5
  1
3.5
1001
ACAD
1000
MTEXTBEGIN
1070
    73
1070
     1
1070
    44
1040
1.0
1070
    74
1070
     0
1000
MTEXTEND
1000
MTEXTBEGIN
1070
    73
1070
     1
1070
    44
1040
1.0
1070
    74
1070
     0
1000
MTEXTEND
1000
MTEXTBEGIN
1070
    73
1070
     1
1070
    44
1040
1.0
1070
    74
1070
     0
1000
MTEXTEND
  0
POINT
  5
10256
  8
DEFPOINTS
 62
     0
 10
-37.134285
 20
138.128457
 30
0.0
  0
POINT
  5
10257
  8
DEFPOINTS
 62
     0
 10
-33.634285
 20
138.128457
 30
0.0
  0
POINT
  5
10258
  8
DEFPOINTS
 62
     0
 10
-33.634285
 20
152.628457
 30
0.0
  0
ENDBLK
  5
1023B
  8
0
  0
ENDSEC
  0
SECTION
  2
ENTITIES
  0
INSERT
  5
A
  8
0
  2
COTE
 10
0.0
 20
0.0
 30
0.0
  0
INSERT
  5
17
  8
0
  2
COTE
 10
284.010391
 20
6.373258
 30
0.0
  0
INSERT
  5
72
  8
0
  2
FOND
 10
0.0
 20
0.0
 30
0.0
  0
LINE
  5
F1A5
  8
ALPHA
 10
-43.384285
 20
67.728457
 30
0.0
 11
-38.617249
 21
67.728457
 31
0.0
  0
LINE
  5
F1A6
  8
ALPHA
 10
-27.384285
 20
67.728457
 30
0.0
 11
-27.384285
 21
117.728457
 31
0.0
  0
LINE
  5
F1A7
  8
ALPHA
 10
-43.384285
 20
117.728457
 30
0.0
 11
-43.134285
 21
117.728457
 31
0.0
  0
LINE
  5
F1A8
  8
ALPHA
 10
-43.384285
 20
67.728457
 30
0.0
 11
-43.384285
 21
117.728457
 31
0.0
  0
LINE
  5
F1AA
  8
AXE
 10
-35.384285
 20
143.128457
 30
0.0
 11
-35.384285
 21
45.728457
 31
0.0
  0
LINE
  5
F1B0
  8
ALPHA
 10
-39.134285
 20
75.228457
 30
0.0
 11
-39.134285
 21
73.228457
 31
0.0
  0
LINE
  5
F1BD
  8
AXE
 10
-37.384285
 20
60.728457
 30
0.0
 11
-27.384285
 21
60.728457
 31
0.0
  0
ARC
  5
F1BE
  8
ALPHA
 10
-12.861229
 20
72.923991
 30
0.0
 40
26.27482
 50
179.336055
 51
207.655412
  0
ARC
  5
F1BF
  8
ALPHA
 10
-5.361229
 20
72.923991
 30
0.0
 40
26.27482
 50
179.336055
 51
207.655412
  0
LINE
  5
F1C0
  8
ALPHA
 10
-31.634285
 20
75.228457
 30
0.0
 11
-31.634285
 21
73.228457
 31
0.0
  0
LINE
  5
F1C7
  8
ALPHA
 10
-31.117249
 20
67.728457
 30
0.0
 11
-27.384285
 21
67.728457
 31
0.0
  0
LINE
  5
F22D
  8
ALPHA
 10
-43.384285
 20
115.728457
 30
0.0
 11
-27.384285
 21
115.728457
 31
0.0
  0
LINE
  5
F258
  8
ALPHA
 10
-27.634285
 20
117.728457
 30
0.0
 11
-27.384285
 21
117.728457
 31
0.0
  0
TEXT
  5
F5A8
  8
AXE
 10
-42.860475
 20
45.728457
 30
0.0
 40
8.0
  1
Y
 72
     2
 11
-36.384285
 21
45.728457
 31
0.0
  0
LINE
  5
F6FF
  8
AXE
 10
-48.384285
 20
92.728457
 30
0.0
 11
-14.884285
 21
92.728457
 31
0.0
  0
TEXT
  5
F700
  8
AXE
 10
-21.360475
 20
93.728457
 30
0.0
 40
8.0
  1
Z
 72
     2
 11
-14.884285
 21
93.728457
 31
0.0
  0
DIMENSION
  5
F70C
  8
COTATION1
  2
*D3
 10
-27.384285
 20
35.728457
 30
0.0
 11
-35.384285
 21
38.978457
 31
0.0
 13
-43.384285
 23
67.728457
 33
0.0
 14
-27.384285
 24
67.728457
 34
0.0
  0
DIMENSION
  5
F734
  8
COTATION1
  2
*D4
 10
-7.384285
 20
67.728457
 30
0.0
 11
-7.384285
 21
102.928457
 31
0.0
 13
-33.634285
 23
138.128457
 33
0.0
 14
-27.384285
 24
67.728457
 34
0.0
 50
90.0
  0
ARC
  5
FA82
  8
ALPHA
 10
-35.384285
 20
75.228457
 30
0.0
 40
3.75
 50
0.0
 51
180.0
  0
ARC
  5
FA91
  8
ALPHA
 10
-35.384285
 20
75.228457
 30
0.0
 40
5.0
 50
318.879803
 51
221.723379
  0
DIMENSION
  5
101F0
  8
COTATION1
  2
*D5
 10
-33.634285
 20
152.628457
 30
0.0
 11
-51.753332
 21
152.628457
 31
0.0
 70
   128
 13
-37.134285
 23
138.128457
 33
0.0
 14
-33.634285
 24
138.128457
 34
0.0
  0
LINE
  5
101F9
  8
ALPHA
 10
-33.434285
 20
132.07456
 30
0.0
 11
-33.434285
 21
123.57456
 31
0.0
  0
LINE
  5
101FA
  8
ALPHA
 10
-37.334285
 20
132.07456
 30
0.0
 11
-37.334285
 21
123.57456
 31
0.0
  0
LINE
  5
101FB
  8
ALPHA
 10
-33.634285
 20
138.128457
 30
0.0
 11
-33.634285
 21
126.528457
 31
0.0
  0
LINE
  5
101FC
  8
ALPHA
 10
-37.134285
 20
138.128457
 30
0.0
 11
-37.134285
 21
126.528457
 31
0.0
  0
LINE
  5
101FD
  8
ALPHA
 10
-29.384285
 20
131.07456
 30
0.0
 11
-29.384285
 21
119.128457
 31
0.0
  0
LINE
  5
101FE
  8
ALPHA
 10
-41.384285
 20
131.07456
 30
0.0
 11
-41.384285
 21
119.128457
 31
0.0
  0
LINE
  5
101FF
  8
ALPHA
 10
-33.634285
 20
126.528457
 30
0.0
 11
-35.384285
 21
126.528457
 31
0.0
  0
LINE
  5
10200
  8
ALPHA
 10
-35.384285
 20
123.57456
 30
0.0
 11
-33.434285
 21
123.57456
 31
0.0
  0
LINE
  5
10203
  8
ALPHA
 10
-37.134285
 20
126.528457
 30
0.0
 11
-35.384285
 21
126.528457
 31
0.0
  0
LINE
  5
10204
  8
ALPHA
 10
-35.384285
 20
123.57456
 30
0.0
 11
-37.334285
 21
123.57456
 31
0.0
  0
LINE
  5
10206
  8
ALPHA
 10
-33.634285
 20
138.128457
 30
0.0
 11
-35.384285
 21
138.128457
 31
0.0
  0
LINE
  5
10207
  8
ALPHA
 10
-37.134285
 20
138.128457
 30
0.0
 11
-35.384285
 21
138.128457
 31
0.0
  0
LINE
  5
10208
  8
ALPHA
 10
-37.134285
 20
135.07456
 30
0.0
 11
-38.884285
 21
135.07456
 31
0.0
  0
ARC
  5
10209
  8
ALPHA
 10
-39.883433
 20
132.910518
 30
0.0
 40
1.199688
 50
358.282449
 51
33.608343
  0
LINE
  5
1020A
  8
ALPHA
 10
-38.884285
 20
135.07456
 30
0.0
 11
-38.884285
 21
133.57456
 31
0.0
  0
LINE
  5
1020B
  8
ALPHA
 10
-41.384285
 20
131.07456
 30
0.0
 11
-40.384285
 21
132.07456
 31
0.0
  0
LINE
  5
1020C
  8
ALPHA
 10
-37.334285
 20
132.07456
 30
0.0
 11
-40.384285
 21
132.07456
 31
0.0
  0
LINE
  5
1020D
  8
ALPHA
 10
-37.334285
 20
131.07456
 30
0.0
 11
-41.384285
 21
131.07456
 31
0.0
  0
LINE
  5
1020E
  8
ALPHA
 10
-38.684285
 20
132.946476
 30
0.0
 11
-38.684285
 21
132.07456
 31
0.0
  0
LINE
  5
1020F
  8
ALPHA
 10
-33.634285
 20
135.07456
 30
0.0
 11
-31.884285
 21
135.07456
 31
0.0
  0
ARC
  5
10210
  8
ALPHA
 10
-30.885136
 20
132.910518
 30
0.0
 40
1.199688
 50
146.391657
 51
181.717551
  0
LINE
  5
10211
  8
ALPHA
 10
-31.884285
 20
135.07456
 30
0.0
 11
-31.884285
 21
133.57456
 31
0.0
  0
LINE
  5
10212
  8
ALPHA
 10
-33.434285
 20
132.07456
 30
0.0
 11
-30.384285
 21
132.07456
 31
0.0
  0
LINE
  5
10213
  8
ALPHA
 10
-29.384285
 20
131.07456
 30
0.0
 11
-30.384285
 21
132.07456
 31
0.0
  0
LINE
  5
10214
  8
ALPHA
 10
-33.434285
 20
131.07456
 30
0.0
 11
-29.384285
 21
131.07456
 31
0.0
  0
LINE
  5
10215
  8
ALPHA
 10
-32.084285
 20
132.946476
 30
0.0
 11
-32.084285
 21
132.07456
 31
0.0
  0
LINE
  5
10306
  8
ALPHA
 10
-42.634285
 20
119.128457
 30
0.0
 11
-35.384285
 21
119.128457
 31
0.0
  0
LINE
  5
10307
  8
ALPHA
 10
-43.134285
 20
118.628457
 30
0.0
 11
-35.384285
 21
118.628457
 31
0.0
  0
LINE
  5
10308
  8
ALPHA
 10
-43.134285
 20
118.628457
 30
0.0
 11
-43.134285
 21
117.184991
 31
0.0
  0
LINE
  5
10309
  8
ALPHA
 10
-43.134285
 20
118.628457
 30
0.0
 11
-42.634285
 21
119.128457
 31
0.0
  0
LINE
  5
1030A
  8
ALPHA
 10
-27.634285
 20
118.628457
 30
0.0
 11
-28.134285
 21
119.128457
 31
0.0
  0
LINE
  5
1030B
  8
ALPHA
 10
-27.634285
 20
118.628457
 30
0.0
 11
-27.634285
 21
117.217874
 31
0.0
  0
LINE
  5
1030C
  8
ALPHA
 10
-27.634285
 20
118.628457
 30
0.0
 11
-35.384285
 21
118.628457
 31
0.0
  0
LINE
  5
1030D
  8
ALPHA
 10
-28.134285
 20
119.128457
 30
0.0
 11
-35.384285
 21
119.128457
 31
0.0
  0
LINE
  5
1030E
  8
ALPHA
 10
-43.134285
 20
117.184991
 30
0.0
 11
-27.634285
 21
117.184991
 31
0.0
  0
VIEWPORT
  5
494D
 67
     1
  8
0
 10
4.995325
 20
6.556512
 30
0.0
 40
22.70986
 41
13.988421
 68
    -1
 69
     1
1001
ACAD
1000
MVIEW
1002
{
1070
    16
1010
0.0
1020
0.0
1030
0.0
1010
0.0
1020
0.0
1030
1.0
1040
0.0
1040
13.988421
1040
4.995325
1040
6.556512
1040
50.0
1040
0.0
1040
0.0
1070
     0
1070
   100
1070
     1
1070
     1
1070
     0
1070
     0
1070
     0
1070
     0
1040
0.0
1040
0.0
1040
0.0
1040
10.0
1040
10.0
1040
10.0
1040
10.0
1070
     0
1002
{
1002
}
1002
}
  0
ENDSEC
  0
EOF
