  0
SECTION
  2
HEADER
  9
$ACADVER
  1
AC1018
  9
$ACADMAINTVER
 70
    77
  9
$DWGCODEPAGE
  3
ANSI_1252
  9
$INSBASE
 10
0.0
 20
0.0
 30
0.0
  9
$EXTMIN
 10
0.0
 20
0.0
 30
0.0
  9
$EXTMAX
 10
210.0
 20
297.0
 30
0.0
  9
$LIMMIN
 10
0.0
 20
0.0
  9
$LIMMAX
 10
210.0
 20
297.0
  9
$ORTHOMODE
 70
     0
  9
$REGENMODE
 70
     1
  9
$FILLMODE
 70
     1
  9
$QTEXTMODE
 70
     0
  9
$MIRRTEXT
 70
     0
  9
$LTSCALE
 40
19.36
  9
$ATTMODE
 70
     1
  9
$TEXTSIZE
 40
0.2
  9
$TRACEWID
 40
0.05
  9
$TEXTSTYLE
  7
Standard
  9
$CLAYER
  8
0
  9
$CELTYPE
  6
ByLayer
  9
$CECOLOR
 62
   256
  9
$CELTSCALE
 40
1.0
  9
$DISPSILH
 70
     0
  9
$DIMSCALE
 40
1.0
  9
$DIMASZ
 40
3.0
  9
$DIMEXO
 40
2.2
  9
$DIMDLI
 40
13.376
  9
$DIMRND
 40
0.0
  9
$DIMDLE
 40
0.0
  9
$DIMEXE
 40
6.336
  9
$DIMTP
 40
0.0
  9
$DIMTM
 40
0.0
  9
$DIMTXT
 40
0.18
  9
$DIMCEN
 40
3.168
  9
$DIMTSZ
 40
0.0
  9
$DIMTOL
 70
     0
  9
$DIMLIM
 70
     0
  9
$DIMTIH
 70
     1
  9
$DIMTOH
 70
     1
  9
$DIMSE1
 70
     0
  9
$DIMSE2
 70
     0
  9
$DIMTAD
 70
     0
  9
$DIMZIN
 70
     0
  9
$DIMBLK
  1

  9
$DIMASO
 70
     1
  9
$DIMSHO
 70
     1
  9
$DIMPOST
  1

  9
$DIMAPOST
  1

  9
$DIMALT
 70
     0
  9
$DIMALTD
 70
     2
  9
$DIMALTF
 40
25.4
  9
$DIMLFAC
 40
1.0
  9
$DIMTOFL
 70
     0
  9
$DIMTVP
 40
0.0
  9
$DIMTIX
 70
     0
  9
$DIMSOXD
 70
     0
  9
$DIMSAH
 70
     0
  9
$DIMBLK1
  1

  9
$DIMBLK2
  1

  9
$DIMSTYLE
  2
Standard
  9
$DIMCLRD
 70
     0
  9
$DIMCLRE
 70
     0
  9
$DIMCLRT
 70
     0
  9
$DIMTFAC
 40
1.0
  9
$DIMGAP
 40
0.09
  9
$DIMJUST
 70
     0
  9
$DIMSD1
 70
     0
  9
$DIMSD2
 70
     0
  9
$DIMTOLJ
 70
     1
  9
$DIMTZIN
 70
     0
  9
$DIMALTZ
 70
     0
  9
$DIMALTTZ
 70
     0
  9
$DIMUPT
 70
     0
  9
$DIMDEC
 70
     4
  9
$DIMTDEC
 70
     4
  9
$DIMALTU
 70
     2
  9
$DIMALTTD
 70
     2
  9
$DIMTXSTY
  7
Standard
  9
$DIMAUNIT
 70
     0
  9
$DIMADEC
 70
     0
  9
$DIMALTRND
 40
0.0
  9
$DIMAZIN
 70
     0
  9
$DIMDSEP
 70
    46
  9
$DIMATFIT
 70
     3
  9
$DIMFRAC
 70
     0
  9
$DIMLDRBLK
  1

  9
$DIMLUNIT
 70
     2
  9
$DIMLWD
 70
    -2
  9
$DIMLWE
 70
    -2
  9
$DIMTMOVE
 70
     0
  9
$LUNITS
 70
     2
  9
$LUPREC
 70
     4
  9
$SKETCHINC
 40
0.1
  9
$FILLETRAD
 40
0.0
  9
$AUNITS
 70
     0
  9
$AUPREC
 70
     0
  9
$MENU
  1
.
  9
$ELEVATION
 40
0.0
  9
$PELEVATION
 40
0.0
  9
$THICKNESS
 40
0.0
  9
$LIMCHECK
 70
     0
  9
$CHAMFERA
 40
0.0
  9
$CHAMFERB
 40
0.0
  9
$CHAMFERC
 40
0.0
  9
$CHAMFERD
 40
0.0
  9
$SKPOLY
 70
     0
  9
$TDCREATE
 40
2454592.513794120
  9
$TDUCREATE
 40
2454592.430460787
  9
$TDUPDATE
 40
2454592.514570486
  9
$TDUUPDATE
 40
2454592.431237153
  9
$TDINDWG
 40
0.0007765509
  9
$TDUSRTIMER
 40
0.0007765509
  9
$USRTIMER
 70
     1
  9
$ANGBASE
 50
0.0
  9
$ANGDIR
 70
     0
  9
$PDMODE
 70
     0
  9
$PDSIZE
 40
0.0
  9
$PLINEWID
 40
0.0
  9
$SPLFRAME
 70
     0
  9
$SPLINETYPE
 70
     6
  9
$SPLINESEGS
 70
     8
  9
$HANDSEED
  5
DA5
  9
$SURFTAB1
 70
     6
  9
$SURFTAB2
 70
     6
  9
$SURFTYPE
 70
     6
  9
$SURFU
 70
     6
  9
$SURFV
 70
     6
  9
$UCSBASE
  2

  9
$UCSNAME
  2

  9
$UCSORG
 10
0.0
 20
0.0
 30
0.0
  9
$UCSXDIR
 10
1.0
 20
0.0
 30
0.0
  9
$UCSYDIR
 10
0.0
 20
1.0
 30
0.0
  9
$UCSORTHOREF
  2

  9
$UCSORTHOVIEW
 70
     0
  9
$UCSORGTOP
 10
0.0
 20
0.0
 30
0.0
  9
$UCSORGBOTTOM
 10
0.0
 20
0.0
 30
0.0
  9
$UCSORGLEFT
 10
0.0
 20
0.0
 30
0.0
  9
$UCSORGRIGHT
 10
0.0
 20
0.0
 30
0.0
  9
$UCSORGFRONT
 10
0.0
 20
0.0
 30
0.0
  9
$UCSORGBACK
 10
0.0
 20
0.0
 30
0.0
  9
$PUCSBASE
  2

  9
$PUCSNAME
  2

  9
$PUCSORG
 10
0.0
 20
0.0
 30
0.0
  9
$PUCSXDIR
 10
1.0
 20
0.0
 30
0.0
  9
$PUCSYDIR
 10
0.0
 20
1.0
 30
0.0
  9
$PUCSORTHOREF
  2

  9
$PUCSORTHOVIEW
 70
     0
  9
$PUCSORGTOP
 10
0.0
 20
0.0
 30
0.0
  9
$PUCSORGBOTTOM
 10
0.0
 20
0.0
 30
0.0
  9
$PUCSORGLEFT
 10
0.0
 20
0.0
 30
0.0
  9
$PUCSORGRIGHT
 10
0.0
 20
0.0
 30
0.0
  9
$PUCSORGFRONT
 10
0.0
 20
0.0
 30
0.0
  9
$PUCSORGBACK
 10
0.0
 20
0.0
 30
0.0
  9
$USERI1
 70
     0
  9
$USERI2
 70
     0
  9
$USERI3
 70
     0
  9
$USERI4
 70
     0
  9
$USERI5
 70
     0
  9
$USERR1
 40
0.0
  9
$USERR2
 40
0.0
  9
$USERR3
 40
0.0
  9
$USERR4
 40
0.0
  9
$USERR5
 40
0.0
  9
$WORLDVIEW
 70
     1
  9
$SHADEDGE
 70
     3
  9
$SHADEDIF
 70
    70
  9
$TILEMODE
 70
     1
  9
$MAXACTVP
 70
    64
  9
$PINSBASE
 10
0.0
 20
0.0
 30
0.0
  9
$PLIMCHECK
 70
     0
  9
$PEXTMIN
 10
1.000000000000000E+20
 20
1.000000000000000E+20
 30
1.000000000000000E+20
  9
$PEXTMAX
 10
-1.000000000000000E+20
 20
-1.000000000000000E+20
 30
-1.000000000000000E+20
  9
$PLIMMIN
 10
0.0
 20
0.0
  9
$PLIMMAX
 10
12.0
 20
9.0
  9
$UNITMODE
 70
     0
  9
$VISRETAIN
 70
     1
  9
$PLINEGEN
 70
     0
  9
$PSLTSCALE
 70
     1
  9
$TREEDEPTH
 70
  3020
  9
$CMLSTYLE
  2
Standard
  9
$CMLJUST
 70
     0
  9
$CMLSCALE
 40
1.0
  9
$PROXYGRAPHICS
 70
     1
  9
$MEASUREMENT
 70
     0
  9
$CELWEIGHT
370
    -1
  9
$ENDCAPS
280
     0
  9
$JOINSTYLE
280
     0
  9
$LWDISPLAY
290
     0
  9
$INSUNITS
 70
     0
  9
$HYPERLINKBASE
  1

  9
$STYLESHEET
  1

  9
$XEDIT
290
     1
  9
$CEPSNTYPE
380
     0
  9
$PSTYLEMODE
290
     1
  9
$FINGERPRINTGUID
  2
{DAB24853-C378-4B0C-A16B-7864E4812F52}
  9
$VERSIONGUID
  2
{BC1D5363-8DBB-4C97-948E-CBE747EEB75E}
  9
$EXTNAMES
290
     1
  9
$PSVPSCALE
 40
0.0
  9
$OLESTARTUP
290
     0
  9
$SORTENTS
280
   127
  9
$INDEXCTL
280
     0
  9
$HIDETEXT
280
     0
  9
$XCLIPFRAME
290
     0
  9
$HALOGAP
280
     0
  9
$OBSCOLOR
 70
   257
  9
$OBSLTYPE
280
     0
  9
$INTERSECTIONDISPLAY
280
     0
  9
$INTERSECTIONCOLOR
 70
   257
  9
$DIMASSOC
280
     1
  9
$PROJECTNAME
  1

  0
ENDSEC
  0
SECTION
  2
CLASSES
  0
CLASS
  1
ACDBDICTIONARYWDFLT
  2
AcDbDictionaryWithDefault
  3
ObjectDBX Classes
 90
        0
 91
        1
280
     0
281
     0
  0
CLASS
  1
TABLESTYLE
  2
AcDbTableStyle
  3
ObjectDBX Classes
 90
     2047
 91
        1
280
     0
281
     0
  0
CLASS
  1
DICTIONARYVAR
  2
AcDbDictionaryVar
  3
ObjectDBX Classes
 90
        0
 91
        1
280
     0
281
     0
  0
ENDSEC
  0
SECTION
  2
TABLES
  0
TABLE
  2
VPORT
  5
8
330
0
100
AcDbSymbolTable
 70
     3
  0
VPORT
  5
DA4
330
8
100
AcDbSymbolTableRecord
100
AcDbViewportTableRecord
  2
*Active
 70
     0
 10
0.0
 20
0.0
 11
1.0
 21
1.0
 12
188.1602080981235
 22
210.6602478527094
 13
0.0
 23
0.0
 14
1.0
 24
1.0
 15
0.0
 25
0.0
 16
0.0
 26
0.0
 36
1.0
 17
0.0
 27
0.0
 37
0.0
 40
268.6004306060266
 41
1.382765531062124
 42
50.0
 43
0.0
 44
0.0
 50
0.0
 51
0.0
 71
     0
 72
   100
 73
     1
 74
     1
 75
     0
 76
     0
 77
     0
 78
     0
281
     0
 65
     1
110
0.0
120
0.0
130
0.0
111
1.0
121
0.0
131
0.0
112
0.0
122
1.0
132
0.0
 79
     0
146
0.0
  0
ENDTAB
  0
TABLE
  2
LTYPE
  5
5
330
0
100
AcDbSymbolTable
 70
     8
  0
LTYPE
  5
13
330
5
100
AcDbSymbolTableRecord
100
AcDbLinetypeTableRecord
  2
ByBlock
 70
     0
  3

 72
    65
 73
     0
 40
0.0
  0
LTYPE
  5
14
330
5
100
AcDbSymbolTableRecord
100
AcDbLinetypeTableRecord
  2
ByLayer
 70
     0
  3

 72
    65
 73
     0
 40
0.0
  0
LTYPE
  5
15
330
5
100
AcDbSymbolTableRecord
100
AcDbLinetypeTableRecord
  2
CONTINUOUS
 70
     0
  3
Solid line
 72
    65
 73
     0
 40
0.0
  0
LTYPE
  5
26
330
5
100
AcDbSymbolTableRecord
100
AcDbLinetypeTableRecord
  2
BYBLOCK
 70
     0
  3

 72
    65
 73
     0
 40
0.0
  0
LTYPE
  5
27
330
5
100
AcDbSymbolTableRecord
100
AcDbLinetypeTableRecord
  2
BYLAYER
 70
     0
  3

 72
    65
 73
     0
 40
0.0
  0
LTYPE
  5
28
330
5
100
AcDbSymbolTableRecord
100
AcDbLinetypeTableRecord
  2
CENTER
 70
     0
  3
____ _ ____ _ ____ _ ____ _ ____ _ ____ _ ____
 72
    65
 73
     4
 40
0.6
 49
0.375
 74
     0
 49
-0.075
 74
     0
 49
0.075
 74
     0
 49
-0.075
 74
     0
  0
LTYPE
  5
29
330
5
100
AcDbSymbolTableRecord
100
AcDbLinetypeTableRecord
  2
HIDDEN
 70
     0
  3
- - - - - - - - - - - - - - - - - - - -
 72
    65
 73
     2
 40
0.2
 49
0.1
 74
     0
 49
-0.1
 74
     0
  0
LTYPE
  5
2A
330
5
100
AcDbSymbolTableRecord
100
AcDbLinetypeTableRecord
  2
PHANTOM
 70
     0
  3
_____ _ _ _____ _ _ _____ _ _ _____
 72
    65
 73
     6
 40
0.8
 49
0.45
 74
     0
 49
-0.05
 74
     0
 49
0.1
 74
     0
 49
-0.05
 74
     0
 49
0.1
 74
     0
 49
-0.05
 74
     0
  0
LTYPE
  5
2B
330
5
100
AcDbSymbolTableRecord
100
AcDbLinetypeTableRecord
  2
DOT
 70
     0
  3
. . . . . . . . . . . . . . . . . . . .
 72
    65
 73
     2
 40
0.2
 49
0.1
 74
     0
 49
-0.1
 74
     0
  0
LTYPE
  5
2C
330
5
100
AcDbSymbolTableRecord
100
AcDbLinetypeTableRecord
  2
DASHED
 70
     0
  3
- - - - - - - - - - - - - - - - - - - -
 72
    65
 73
     2
 40
0.2
 49
0.1
 74
     0
 49
-0.1
 74
     0
  0
ENDTAB
  0
TABLE
  2
LAYER
  5
2
330
0
100
AcDbSymbolTable
 70
    67
  0
LAYER
  5
10
330
2
100
AcDbSymbolTableRecord
100
AcDbLayerTableRecord
  2
0
 70
     0
 62
     7
  6
CONTINUOUS
370
    -3
390
F
  0
LAYER
  5
2D
330
2
100
AcDbSymbolTableRecord
100
AcDbLayerTableRecord
  2
DEFAULT_1
 70
     0
 62
     7
  6
CENTER
370
    -3
390
F
  0
LAYER
  5
2E
330
2
100
AcDbSymbolTableRecord
100
AcDbLayerTableRecord
  2
DEFAULT_2
 70
     0
 62
     8
  6
HIDDEN
370
    -3
390
F
  0
LAYER
  5
2F
330
2
100
AcDbSymbolTableRecord
100
AcDbLayerTableRecord
  2
DEFAULT_3
 70
     0
 62
     7
  6
PHANTOM
370
    -3
390
F
  0
LAYER
  5
30
330
2
100
AcDbSymbolTableRecord
100
AcDbLayerTableRecord
  2
_BLACK_HOLE
 70
     0
 62
     7
  6
CONTINUOUS
370
    -3
390
F
  0
LAYER
  5
31
330
2
100
AcDbSymbolTableRecord
100
AcDbLayerTableRecord
  2
1
 70
     0
 62
     7
  6
CONTINUOUS
370
    -3
390
F
  0
LAYER
  5
32
330
2
100
AcDbSymbolTableRecord
100
AcDbLayerTableRecord
  2
10
 70
     0
 62
     7
  6
CONTINUOUS
370
    -3
390
F
  0
LAYER
  5
33
330
2
100
AcDbSymbolTableRecord
100
AcDbLayerTableRecord
  2
11
 70
     0
 62
     7
  6
CONTINUOUS
370
    -3
390
F
  0
LAYER
  5
34
330
2
100
AcDbSymbolTableRecord
100
AcDbLayerTableRecord
  2
12
 70
     0
 62
     7
  6
CONTINUOUS
370
    -3
390
F
  0
LAYER
  5
35
330
2
100
AcDbSymbolTableRecord
100
AcDbLayerTableRecord
  2
13
 70
     0
 62
     7
  6
CONTINUOUS
370
    -3
390
F
  0
LAYER
  5
36
330
2
100
AcDbSymbolTableRecord
100
AcDbLayerTableRecord
  2
14
 70
     0
 62
     7
  6
CONTINUOUS
370
    -3
390
F
  0
LAYER
  5
37
330
2
100
AcDbSymbolTableRecord
100
AcDbLayerTableRecord
  2
15
 70
     0
 62
     7
  6
CONTINUOUS
370
    -3
390
F
  0
LAYER
  5
38
330
2
100
AcDbSymbolTableRecord
100
AcDbLayerTableRecord
  2
16
 70
     0
 62
     7
  6
CONTINUOUS
370
    -3
390
F
  0
LAYER
  5
39
330
2
100
AcDbSymbolTableRecord
100
AcDbLayerTableRecord
  2
17
 70
     0
 62
     7
  6
CONTINUOUS
370
    -3
390
F
  0
LAYER
  5
3A
330
2
100
AcDbSymbolTableRecord
100
AcDbLayerTableRecord
  2
18
 70
     0
 62
     7
  6
CONTINUOUS
370
    -3
390
F
  0
LAYER
  5
3B
330
2
100
AcDbSymbolTableRecord
100
AcDbLayerTableRecord
  2
19
 70
     0
 62
     7
  6
CONTINUOUS
370
    -3
390
F
  0
LAYER
  5
3C
330
2
100
AcDbSymbolTableRecord
100
AcDbLayerTableRecord
  2
2
 70
     0
 62
     7
  6
CONTINUOUS
370
    -3
390
F
  0
LAYER
  5
3D
330
2
100
AcDbSymbolTableRecord
100
AcDbLayerTableRecord
  2
20
 70
     0
 62
     7
  6
CONTINUOUS
370
    -3
390
F
  0
LAYER
  5
3E
330
2
100
AcDbSymbolTableRecord
100
AcDbLayerTableRecord
  2
21
 70
     0
 62
     7
  6
CONTINUOUS
370
    -3
390
F
  0
LAYER
  5
3F
330
2
100
AcDbSymbolTableRecord
100
AcDbLayerTableRecord
  2
22
 70
     0
 62
     7
  6
CONTINUOUS
370
    -3
390
F
  0
LAYER
  5
40
330
2
100
AcDbSymbolTableRecord
100
AcDbLayerTableRecord
  2
23
 70
     0
 62
     7
  6
CONTINUOUS
370
    -3
390
F
  0
LAYER
  5
41
330
2
100
AcDbSymbolTableRecord
100
AcDbLayerTableRecord
  2
24
 70
     0
 62
     7
  6
CONTINUOUS
370
    -3
390
F
  0
LAYER
  5
42
330
2
100
AcDbSymbolTableRecord
100
AcDbLayerTableRecord
  2
25
 70
     0
 62
     7
  6
CONTINUOUS
370
    -3
390
F
  0
LAYER
  5
43
330
2
100
AcDbSymbolTableRecord
100
AcDbLayerTableRecord
  2
26
 70
     0
 62
     7
  6
CONTINUOUS
370
    -3
390
F
  0
LAYER
  5
44
330
2
100
AcDbSymbolTableRecord
100
AcDbLayerTableRecord
  2
27
 70
     0
 62
     7
  6
CONTINUOUS
370
    -3
390
F
  0
LAYER
  5
45
330
2
100
AcDbSymbolTableRecord
100
AcDbLayerTableRecord
  2
28
 70
     0
 62
     7
  6
CONTINUOUS
370
    -3
390
F
  0
LAYER
  5
46
330
2
100
AcDbSymbolTableRecord
100
AcDbLayerTableRecord
  2
29
 70
     0
 62
     7
  6
CONTINUOUS
370
    -3
390
F
  0
LAYER
  5
47
330
2
100
AcDbSymbolTableRecord
100
AcDbLayerTableRecord
  2
3
 70
     0
 62
     7
  6
CONTINUOUS
370
    -3
390
F
  0
LAYER
  5
48
330
2
100
AcDbSymbolTableRecord
100
AcDbLayerTableRecord
  2
30
 70
     0
 62
     7
  6
CONTINUOUS
370
    -3
390
F
  0
LAYER
  5
49
330
2
100
AcDbSymbolTableRecord
100
AcDbLayerTableRecord
  2
31
 70
     0
 62
     7
  6
CONTINUOUS
370
    -3
390
F
  0
LAYER
  5
4A
330
2
100
AcDbSymbolTableRecord
100
AcDbLayerTableRecord
  2
32
 70
     0
 62
     7
  6
CONTINUOUS
370
    -3
390
F
  0
LAYER
  5
4B
330
2
100
AcDbSymbolTableRecord
100
AcDbLayerTableRecord
  2
4
 70
     0
 62
     7
  6
CONTINUOUS
370
    -3
390
F
  0
LAYER
  5
4C
330
2
100
AcDbSymbolTableRecord
100
AcDbLayerTableRecord
  2
5
 70
     0
 62
     7
  6
CONTINUOUS
370
    -3
390
F
  0
LAYER
  5
4D
330
2
100
AcDbSymbolTableRecord
100
AcDbLayerTableRecord
  2
6
 70
     0
 62
     7
  6
CONTINUOUS
370
    -3
390
F
  0
LAYER
  5
4E
330
2
100
AcDbSymbolTableRecord
100
AcDbLayerTableRecord
  2
7
 70
     0
 62
     7
  6
CONTINUOUS
370
    -3
390
F
  0
LAYER
  5
4F
330
2
100
AcDbSymbolTableRecord
100
AcDbLayerTableRecord
  2
8
 70
     0
 62
     7
  6
CONTINUOUS
370
    -3
390
F
  0
LAYER
  5
50
330
2
100
AcDbSymbolTableRecord
100
AcDbLayerTableRecord
  2
9
 70
     0
 62
     7
  6
CONTINUOUS
370
    -3
390
F
  0
LAYER
  5
51
330
2
100
AcDbSymbolTableRecord
100
AcDbLayerTableRecord
  2
AXE
 70
     0
 62
     7
  6
CONTINUOUS
370
    -3
390
F
  0
LAYER
  5
52
330
2
100
AcDbSymbolTableRecord
100
AcDbLayerTableRecord
  2
AXIS
 70
     0
 62
     7
  6
CONTINUOUS
370
    -3
390
F
  0
LAYER
  5
53
330
2
100
AcDbSymbolTableRecord
100
AcDbLayerTableRecord
  2
CHANFREIN
 70
     0
 62
     7
  6
CONTINUOUS
370
    -3
390
F
  0
LAYER
  5
54
330
2
100
AcDbSymbolTableRecord
100
AcDbLayerTableRecord
  2
CI
 70
     0
 62
     7
  6
CONTINUOUS
370
    -3
390
F
  0
LAYER
  5
55
330
2
100
AcDbSymbolTableRecord
100
AcDbLayerTableRecord
  2
COORD
 70
     0
 62
     7
  6
CONTINUOUS
370
    -3
390
F
  0
LAYER
  5
56
330
2
100
AcDbSymbolTableRecord
100
AcDbLayerTableRecord
  2
COUVERCLE
 70
     0
 62
     7
  6
CONTINUOUS
370
    -3
390
F
  0
LAYER
  5
57
330
2
100
AcDbSymbolTableRecord
100
AcDbLayerTableRecord
  2
CSYS
 70
     0
 62
     7
  6
CONTINUOUS
370
    -3
390
F
  0
LAYER
  5
58
330
2
100
AcDbSymbolTableRecord
100
AcDbLayerTableRecord
  2
CUT
 70
     0
 62
     7
  6
CONTINUOUS
370
    -3
390
F
  0
LAYER
  5
59
330
2
100
AcDbSymbolTableRecord
100
AcDbLayerTableRecord
  2
C_I
 70
     0
 62
     7
  6
CONTINUOUS
370
    -3
390
F
  0
LAYER
  5
5A
330
2
100
AcDbSymbolTableRecord
100
AcDbLayerTableRecord
  2
FOND
 70
     0
 62
     7
  6
CONTINUOUS
370
    -3
390
F
  0
LAYER
  5
5B
330
2
100
AcDbSymbolTableRecord
100
AcDbLayerTableRecord
  2
GTOL
 70
     0
 62
     7
  6
CONTINUOUS
370
    -3
390
F
  0
LAYER
  5
5C
330
2
100
AcDbSymbolTableRecord
100
AcDbLayerTableRecord
  2
HOLE
 70
     0
 62
     7
  6
CONTINUOUS
370
    -3
390
F
  0
LAYER
  5
5D
330
2
100
AcDbSymbolTableRecord
100
AcDbLayerTableRecord
  2
INSERTS
 70
     0
 62
     7
  6
CONTINUOUS
370
    -3
390
F
  0
LAYER
  5
5E
330
2
100
AcDbSymbolTableRecord
100
AcDbLayerTableRecord
  2
ISOLANT
 70
     0
 62
     7
  6
CONTINUOUS
370
    -3
390
F
  0
LAYER
  5
5F
330
2
100
AcDbSymbolTableRecord
100
AcDbLayerTableRecord
  2
JOINT
 70
     0
 62
     7
  6
CONTINUOUS
370
    -3
390
F
  0
LAYER
  5
60
330
2
100
AcDbSymbolTableRecord
100
AcDbLayerTableRecord
  2
LAY0001
 70
     0
 62
     7
  6
CONTINUOUS
370
    -3
390
F
  0
LAYER
  5
61
330
2
100
AcDbSymbolTableRecord
100
AcDbLayerTableRecord
  2
NOTE
 70
     0
 62
     7
  6
CONTINUOUS
370
    -3
390
F
  0
LAYER
  5
62
330
2
100
AcDbSymbolTableRecord
100
AcDbLayerTableRecord
  2
PART
 70
     0
 62
     7
  6
CONTINUOUS
370
    -3
390
F
  0
LAYER
  5
63
330
2
100
AcDbSymbolTableRecord
100
AcDbLayerTableRecord
  2
PLANE
 70
     0
 62
     7
  6
CONTINUOUS
370
    -3
390
F
  0
LAYER
  5
64
330
2
100
AcDbSymbolTableRecord
100
AcDbLayerTableRecord
  2
PLANS
 70
     0
 62
     7
  6
CONTINUOUS
370
    -3
390
F
  0
LAYER
  5
65
330
2
100
AcDbSymbolTableRecord
100
AcDbLayerTableRecord
  2
PROTRUSION
 70
     0
 62
     7
  6
CONTINUOUS
370
    -3
390
F
  0
LAYER
  5
66
330
2
100
AcDbSymbolTableRecord
100
AcDbLayerTableRecord
  2
P_ETOUPE
 70
     0
 62
     7
  6
CONTINUOUS
370
    -3
390
F
  0
LAYER
  5
67
330
2
100
AcDbSymbolTableRecord
100
AcDbLayerTableRecord
  2
ROUND
 70
     0
 62
     7
  6
CONTINUOUS
370
    -3
390
F
  0
LAYER
  5
68
330
2
100
AcDbSymbolTableRecord
100
AcDbLayerTableRecord
  2
SURF
 70
     0
 62
     7
  6
CONTINUOUS
370
    -3
390
F
  0
LAYER
  5
69
330
2
100
AcDbSymbolTableRecord
100
AcDbLayerTableRecord
  2
SURF_CONN
 70
     0
 62
     7
  6
CONTINUOUS
370
    -3
390
F
  0
LAYER
  5
6A
330
2
100
AcDbSymbolTableRecord
100
AcDbLayerTableRecord
  2
SYMBOL
 70
     0
 62
     7
  6
CONTINUOUS
370
    -3
390
F
  0
LAYER
  5
6B
330
2
100
AcDbSymbolTableRecord
100
AcDbLayerTableRecord
  2
THREAD
 70
     0
 62
     7
  6
CONTINUOUS
370
    -3
390
F
  0
LAYER
  5
6C
330
2
100
AcDbSymbolTableRecord
100
AcDbLayerTableRecord
  2
VISSERIE
 70
     0
 62
     7
  6
CONTINUOUS
370
    -3
390
F
  0
LAYER
  5
6D
330
2
100
AcDbSymbolTableRecord
100
AcDbLayerTableRecord
  2
WHITE
 70
     0
 62
     7
  6
CONTINUOUS
370
    -3
390
F
  0
LAYER
  5
6E
330
2
100
AcDbSymbolTableRecord
100
AcDbLayerTableRecord
  2
XSEC_DATUMS
 70
     0
 62
     7
  6
CONTINUOUS
370
    -3
390
F
  0
ENDTAB
  0
TABLE
  2
STYLE
  5
3
330
0
100
AcDbSymbolTable
 70
     1
  0
STYLE
  5
11
330
3
100
AcDbSymbolTableRecord
100
AcDbTextStyleTableRecord
  2
Standard
 70
     0
 40
0.0
 41
1.0
 50
0.0
 71
     0
 42
0.2
  3
txt
  4

  0
ENDTAB
  0
TABLE
  2
VIEW
  5
6
330
0
100
AcDbSymbolTable
 70
     0
  0
ENDTAB
  0
TABLE
  2
UCS
  5
7
330
0
100
AcDbSymbolTable
 70
     0
  0
ENDTAB
  0
TABLE
  2
APPID
  5
9
330
0
100
AcDbSymbolTable
 70
     1
  0
APPID
  5
12
330
9
100
AcDbSymbolTableRecord
100
AcDbRegAppTableRecord
  2
ACAD
 70
     0
  0
ENDTAB
  0
TABLE
  2
DIMSTYLE
  5
A
330
0
100
AcDbSymbolTable
 70
     1
100
AcDbDimStyleTable
 71
     0
  0
DIMSTYLE
105
D9F
330
A
100
AcDbSymbolTableRecord
100
AcDbDimStyleTableRecord
  2
Standard
 70
     0
340
11
  0
ENDTAB
  0
TABLE
  2
BLOCK_RECORD
  5
1
330
0
100
AcDbSymbolTable
 70
     4
  0
BLOCK_RECORD
  5
22
330
1
100
AcDbSymbolTableRecord
100
AcDbBlockTableRecord
  2
*Model_Space
340
25
  0
BLOCK_RECORD
  5
1E
330
1
100
AcDbSymbolTableRecord
100
AcDbBlockTableRecord
  2
*Paper_Space
340
21
  0
BLOCK_RECORD
  5
71
330
1
100
AcDbSymbolTableRecord
100
AcDbBlockTableRecord
  2
*D0
340
0
  0
BLOCK_RECORD
  5
7B
330
1
100
AcDbSymbolTableRecord
100
AcDbBlockTableRecord
  2
*D1
340
0
  0
BLOCK_RECORD
  5
85
330
1
100
AcDbSymbolTableRecord
100
AcDbBlockTableRecord
  2
*D2
340
0
  0
BLOCK_RECORD
  5
91
330
1
100
AcDbSymbolTableRecord
100
AcDbBlockTableRecord
  2
*D3
340
0
  0
ENDTAB
  0
ENDSEC
  0
SECTION
  2
BLOCKS
  0
BLOCK
  5
23
330
22
100
AcDbEntity
  8
0
100
AcDbBlockBegin
  2
*Model_Space
 70
     0
 10
0.0
 20
0.0
 30
0.0
  3
*Model_Space
  1

  0
ENDBLK
  5
24
330
22
100
AcDbEntity
  8
0
100
AcDbBlockEnd
  0
BLOCK
  5
1F
330
1E
100
AcDbEntity
 67
     1
  8
0
100
AcDbBlockBegin
  2
*Paper_Space
 70
     0
 10
0.0
 20
0.0
 30
0.0
  3
*Paper_Space
  1

  0
ENDBLK
  5
20
330
1E
100
AcDbEntity
 67
     1
  8
0
100
AcDbBlockEnd
  0
BLOCK
  5
72
330
71
100
AcDbEntity
  8
0
  6
Continuous
 62
     2
100
AcDbBlockBegin
  2
*D0
 70
     1
 10
0.0
 20
0.0
 30
0.0
  3
*D0
  1

  0
TEXT
  5
73
330
71
100
AcDbEntity
  8
0
  6
Continuous
 62
     2
100
AcDbText
 10
98.5819352506
 20
130.3882127955
 30
0.0
 40
2.5
  1
115
 41
0.9000000082999974
 72
     5
 11
103.0819352921
 21
130.3882127955
 31
0.0
100
AcDbText
  0
LINE
  5
74
330
71
100
AcDbEntity
  8
0
  6
Continuous
 62
     2
100
AcDbLine
 10
43.2192628651
 20
198.7632127954999
 30
0.0
 11
43.2192628651
 21
128.7632127955
 31
0.0
  0
LINE
  5
75
330
71
100
AcDbEntity
  8
0
  6
Continuous
 62
     2
100
AcDbLine
 10
158.2192628651
 20
148.7632127954999
 30
0.0
 11
158.2192628651
 21
128.7632127955
 31
0.0
  0
LINE
  5
76
330
71
100
AcDbEntity
  8
0
  6
Continuous
 62
     2
100
AcDbLine
 10
43.2192628651
 20
129.7632127955
 30
0.0
 11
100.7192628651
 21
129.7632127955
 31
0.0
  0
LINE
  5
77
330
71
100
AcDbEntity
  8
0
  6
Continuous
 62
     2
100
AcDbLine
 10
158.2192628651
 20
129.7632127955
 30
0.0
 11
100.7192628651
 21
129.7632127955
 31
0.0
  0
SOLID
  5
78
330
71
100
AcDbEntity
  8
0
  6
Continuous
 62
     2
100
AcDbTrace
 10
46.21926286509999
 20
130.7632127955
 30
0.0
 11
43.2192628651
 21
129.7632127955
 31
0.0
 12
46.21926286509999
 22
128.7632127955
 32
0.0
 13
46.21926286509999
 23
128.7632127955
 33
0.0
  0
SOLID
  5
79
330
71
100
AcDbEntity
  8
0
  6
Continuous
 62
     2
100
AcDbTrace
 10
155.2192628651
 20
128.7632127955
 30
0.0
 11
158.2192628651
 21
129.7632127955
 31
0.0
 12
155.2192628651
 22
130.7632127955
 32
0.0
 13
155.2192628651
 23
130.7632127955
 33
0.0
  0
ENDBLK
  5
7A
330
71
100
AcDbEntity
  8
0
100
AcDbBlockEnd
  0
BLOCK
  5
7C
330
7B
100
AcDbEntity
  8
0
  6
Continuous
 62
     2
100
AcDbBlockBegin
  2
*D1
 70
     1
 10
0.0
 20
0.0
 30
0.0
  3
*D1
  1

  0
TEXT
  5
7D
330
7B
100
AcDbEntity
  8
0
  6
Continuous
 62
     2
100
AcDbText
 10
193.5766663365
 20
173.9924621765
 30
0.0
 40
2.5
  1
50
 50
90.0
 41
0.8
 72
     5
 11
193.5766663365
 21
176.9924621765
 31
0.0
100
AcDbText
  0
LINE
  5
7E
330
7B
100
AcDbEntity
  8
0
  6
Continuous
 62
     2
100
AcDbLine
 10
159.2192628651
 20
149.7632127954999
 30
0.0
 11
195.2016663365
 21
149.7632127954999
 31
0.0
  0
LINE
  5
7F
330
7B
100
AcDbEntity
  8
0
  6
Continuous
 62
     2
100
AcDbLine
 10
44.21926286509999
 20
199.7632127954999
 30
0.0
 11
195.2016663365
 21
199.7632127954999
 31
0.0
  0
LINE
  5
80
330
7B
100
AcDbEntity
  8
0
  6
Continuous
 62
     2
100
AcDbLine
 10
194.2016663365
 20
149.7632127954999
 30
0.0
 11
194.2016663365
 21
174.7632127954999
 31
0.0
  0
LINE
  5
81
330
7B
100
AcDbEntity
  8
0
  6
Continuous
 62
     2
100
AcDbLine
 10
194.2016663365
 20
199.7632127954999
 30
0.0
 11
194.2016663365
 21
174.7632127954999
 31
0.0
  0
SOLID
  5
82
330
7B
100
AcDbEntity
  8
0
  6
Continuous
 62
     2
100
AcDbTrace
 10
193.2016663365
 20
152.7632127955
 30
0.0
 11
194.2016663365
 21
149.7632127954999
 31
0.0
 12
195.2016663365
 22
152.7632127955
 32
0.0
 13
195.2016663365
 23
152.7632127955
 33
0.0
  0
SOLID
  5
83
330
7B
100
AcDbEntity
  8
0
  6
Continuous
 62
     2
100
AcDbTrace
 10
195.2016663365
 20
196.7632127954999
 30
0.0
 11
194.2016663365
 21
199.7632127954999
 31
0.0
 12
193.2016663365
 22
196.7632127954999
 32
0.0
 13
193.2016663365
 23
196.7632127954999
 33
0.0
  0
ENDBLK
  5
84
330
7B
100
AcDbEntity
  8
0
100
AcDbBlockEnd
  0
BLOCK
  5
86
330
85
100
AcDbEntity
  8
0
  6
Continuous
 62
     2
100
AcDbBlockBegin
  2
*D2
 70
     1
 10
0.0
 20
0.0
 30
0.0
  3
*D2
  1

  0
TEXT
  5
87
330
85
100
AcDbEntity
  8
0
  6
Continuous
 62
     2
100
AcDbText
 10
19.0942628651
 20
217.5773805411
 30
0.0
 40
2.5
  1
11.4
 50
90.0
 41
1.028571428571428
 72
     5
 11
19.0942628651
 21
223.5773805411
 31
0.0
100
AcDbText
  0
LINE
  5
88
330
85
100
AcDbEntity
  8
0
  6
Continuous
 62
     2
100
AcDbLine
 10
40.7192628651
 20
214.7632127955
 30
0.0
 11
18.7192628651
 21
214.7632127955
 31
0.0
  0
LINE
  5
89
330
85
100
AcDbEntity
  8
0
  6
Continuous
 62
     2
100
AcDbLine
 10
70.6192628651
 20
226.1632127955
 30
0.0
 11
18.7192628651
 21
226.1632127955
 31
0.0
  0
LINE
  5
8A
330
85
100
AcDbEntity
  8
0
  6
Continuous
 62
     2
100
AcDbLine
 10
19.7192628651
 20
214.7632127955
 30
0.0
 11
19.7192628651
 21
212.7632127955
 31
0.0
  0
LINE
  5
8B
330
85
100
AcDbEntity
  8
0
  6
Continuous
 62
     2
100
AcDbLine
 10
19.7192628651
 20
212.7632127955
 30
0.0
 11
19.7192628651
 21
220.4632127955
 31
0.0
  0
LINE
  5
8C
330
85
100
AcDbEntity
  8
0
  6
Continuous
 62
     2
100
AcDbLine
 10
19.7192628651
 20
226.1632127955
 30
0.0
 11
19.7192628651
 21
228.1632127955
 31
0.0
  0
LINE
  5
8D
330
85
100
AcDbEntity
  8
0
  6
Continuous
 62
     2
100
AcDbLine
 10
19.7192628651
 20
228.1632127955
 30
0.0
 11
19.7192628651
 21
220.4632127955
 31
0.0
  0
SOLID
  5
8E
330
85
100
AcDbEntity
  8
0
  6
Continuous
 62
     2
100
AcDbTrace
 10
20.7192628651
 20
211.7632127955
 30
0.0
 11
19.7192628651
 21
214.7632127955
 31
0.0
 12
18.7192628651
 22
211.7632127955
 32
0.0
 13
18.7192628651
 23
211.7632127955
 33
0.0
  0
SOLID
  5
8F
330
85
100
AcDbEntity
  8
0
  6
Continuous
 62
     2
100
AcDbTrace
 10
18.7192628651
 20
229.1632127955
 30
0.0
 11
19.7192628651
 21
226.1632127955
 31
0.0
 12
20.7192628651
 22
229.1632127955
 32
0.0
 13
20.7192628651
 23
229.1632127955
 33
0.0
  0
ENDBLK
  5
90
330
85
100
AcDbEntity
  8
0
100
AcDbBlockEnd
  0
BLOCK
  5
92
330
91
100
AcDbEntity
  8
0
  6
Continuous
 62
     2
100
AcDbBlockBegin
  2
*D3
 70
     1
 10
0.0
 20
0.0
 30
0.0
  3
*D3
  1

  0
TEXT
  5
93
330
91
100
AcDbEntity
  8
0
  6
Continuous
 62
     2
100
AcDbText
 10
172.7434811729
 20
130.3882127955
 30
0.0
 40
2.5
  1
M
 41
0.9
 72
     5
 11
174.2434811729
 21
130.3882127955
 31
0.0
100
AcDbText
  0
TEXT
  5
94
330
91
100
AcDbEntity
  8
0
  6
Continuous
 62
     2
100
AcDbText
 10
174.2434811729
 20
130.3882127955
 30
0.0
 40
2.5
  1
4
 41
0.9
 72
     5
 11
175.7434811729
 21
130.3882127955
 31
0.0
100
AcDbText
  0
LINE
  5
95
330
91
100
AcDbEntity
  8
0
  6
Continuous
 62
     2
100
AcDbLine
 10
159.2549533282
 20
148.0522641509
 30
0.0
 11
170.3258853088
 21
129.7632127955
 31
0.0
  0
LINE
  5
96
330
91
100
AcDbEntity
  8
0
  6
Continuous
 62
     2
100
AcDbLine
 10
170.3258853088
 20
129.7632127955
 30
0.0
 11
170.3259205087999
 21
129.7632127955
 31
0.0
  0
LINE
  5
97
330
91
100
AcDbEntity
  8
0
  6
Continuous
 62
     2
100
AcDbLine
 10
170.3259205087999
 20
129.7632127955
 30
0.0
 11
178.2434811729
 21
129.7632127955
 31
0.0
  0
SOLID
  5
98
330
91
100
AcDbEntity
  8
0
  6
Continuous
 62
     2
100
AcDbTrace
 10
161.6639633451
 20
146.0036864154
 30
0.0
 11
159.2549533282
 21
148.0522641509
 31
0.0
 12
159.9530147005
 22
144.9679959523
 32
0.0
 13
159.9530147005
 23
144.9679959523
 33
0.0
  0
ENDBLK
  5
99
330
91
100
AcDbEntity
  8
0
100
AcDbBlockEnd
  0
ENDSEC
  0
SECTION
  2
ENTITIES
  0
DIMENSION
  5
9A
330
22
100
AcDbEntity
  8
0
  6
Continuous
 62
     2
100
AcDbDimension
  2
*D0
 10
158.2192628651
 20
129.7632127955
 30
0.0
 11
100.8319352713
 21
131.6382127955
 31
0.0
 70
   128
 71
     5
 42
-1.0
100
AcDbAlignedDimension
 13
43.2192628651
 23
198.7632127954999
 33
0.0
 14
158.2192628651
 24
148.7632127954999
 34
0.0
100
AcDbRotatedDimension
  0
DIMENSION
  5
9B
330
22
100
AcDbEntity
  8
0
  6
Continuous
 62
     2
100
AcDbDimension
  2
*D1
 10
194.2016663365
 20
199.7632127954999
 30
0.0
 11
192.3266663365
 21
175.4924621765
 31
0.0
 70
   128
 71
     5
 42
-1.0
100
AcDbAlignedDimension
 13
159.2192628651
 23
149.7632127954999
 33
0.0
 14
44.21926286509999
 24
199.7632127954999
 34
0.0
 50
90.0
100
AcDbRotatedDimension
  0
DIMENSION
  5
9C
330
22
100
AcDbEntity
  8
0
  6
Continuous
 62
     2
100
AcDbDimension
  2
*D2
 10
19.7192628651
 20
226.1632127955
 30
0.0
 11
17.8442628651
 21
220.5773805411
 31
0.0
 70
   128
 71
     5
 42
-1.0
100
AcDbAlignedDimension
 13
40.7192628651
 23
214.7632127955
 33
0.0
 14
70.6192628651
 24
226.1632127955
 34
0.0
 50
90.0
100
AcDbRotatedDimension
  0
DIMENSION
  5
9D
330
22
100
AcDbEntity
  8
0
  6
Continuous
 62
     2
100
AcDbDimension
  2
*D3
 10
159.2549533282
 20
148.0522641509
 30
0.0
 11
174.2434811729
 21
131.6382127955
 31
0.0
 70
   131
 71
     5
 42
-1.0
100
AcDbDiametricDimension
 15
157.183572402
 25
151.4741614402
 35
0.0
 40
0.0
  0
TEXT
  5
9E
330
22
100
AcDbEntity
  8
NOTE
  6
Continuous
 62
     2
100
AcDbText
 10
175.2225312935
 20
4.935326842799999
 30
0.0
 40
5.0
  1
BOTTOM VIEW
 41
0.6000000000000001
 72
     5
 11
208.2225312935
 21
4.935326842799999
 31
0.0
100
AcDbText
  0
SOLID
  5
9F
330
22
100
AcDbEntity
  8
0
  6
Continuous
 62
     2
100
AcDbTrace
 10
70.556767111
 20
226.1632127955
 30
0.0
 11
72.737925723
 21
228.4528737113
 31
0.0
 12
73.67549055010001
 22
226.686246361
 32
0.0
 13
73.67549055010001
 23
226.686246361
 33
0.0
  0
SOLID
  5
A0
330
22
100
AcDbEntity
  8
0
  6
Continuous
 62
     2
100
AcDbTrace
 10
89.46234439920001
 20
226.1632127955
 30
0.0
 11
88.4997174249
 21
229.1754128733
 31
0.0
 12
90.4995628664
 22
229.1505490423
 32
0.0
 13
90.4995628664
 23
229.1505490423
 33
0.0
  0
SOLID
  5
A1
330
22
100
AcDbEntity
  8
0
  6
Continuous
 62
     2
100
AcDbTrace
 10
111.3666950675
 20
226.1632127955
 30
0.0
 11
108.2244013199
 21
226.5181635016
 31
0.0
 12
109.0658304931
 22
228.3325496089
 32
0.0
 13
109.0658304931
 23
228.3325496089
 33
0.0
  0
TEXT
  5
A2
330
22
100
AcDbEntity
  8
0
  6
Continuous
 62
     2
100
AcDbText
 10
94.58791644979999
 20
235.0132127955
 30
0.0
 40
2.5
  1
%%c B
 41
0.9499999999950006
 72
     5
 11
100.9212497831
 21
235.0132127955
 31
0.0
100
AcDbText
  0
SOLID
  5
A3
330
22
100
AcDbEntity
  8
0
  6
Continuous
 62
     2
100
AcDbTrace
 10
134.5017347625
 20
225.7632127955
 30
0.0
 11
133.4575559743
 21
228.7481232897
 31
0.0
 12
135.4573380285
 22
228.7776484638
 32
0.0
 13
135.4573380285
 23
228.7776484638
 33
0.0
  0
TEXT
  5
A4
330
22
100
AcDbEntity
  8
0
  6
Continuous
 62
     2
100
AcDbText
 10
123.0133773718
 20
235.0132127955
 30
0.0
 40
2.5
  1
%%c C
 41
0.9499999999950006
 72
     5
 11
129.3467107051
 21
235.0132127955
 31
0.0
100
AcDbText
  0
SOLID
  5
A5
330
22
100
AcDbEntity
  8
0
  6
Continuous
 62
     2
100
AcDbTrace
 10
25.01926286510001
 20
176.0783765646
 30
0.0
 11
22.1346652412
 21
174.7825769859
 31
0.0
 12
21.9341050187
 22
176.772495476
 32
0.0
 13
21.9341050187
 23
176.772495476
 33
0.0
  0
TEXT
  5
A6
330
22
100
AcDbEntity
  8
0
  6
Continuous
 62
     2
100
AcDbText
 10
12.3822424295
 20
174.6969803409
 30
0.0
 40
2.5
  1
%%c A
 41
0.9500000000099998
 72
     5
 11
18.7155757629
 21
174.6969803409
 31
0.0
100
AcDbText
  0
SOLID
  5
A7
330
22
100
AcDbEntity
  8
0
  6
Continuous
 62
     2
100
AcDbTrace
 10
176.8192628650999
 20
172.3276490812
 30
0.0
 11
179.8486482314
 21
173.2347457147
 31
0.0
 12
179.7870291382
 22
171.2356951682
 32
0.0
 13
179.7870291382
 23
171.2356951682
 33
0.0
  0
TEXT
  5
A8
330
22
100
AcDbEntity
  8
0
  6
Continuous
 62
     2
100
AcDbText
 10
182.2515904055
 20
171.0643229395
 30
0.0
 40
2.5
  1
%%c D
 41
0.9499999999950006
 72
     5
 11
188.5849237388
 21
171.0643229395
 31
0.0
100
AcDbText
  0
LINE
  5
A9
330
22
100
AcDbEntity
  8
0
  6
Continuous
 62
     7
100
AcDbLine
 10
0.0
 20
0.0
 30
0.0
 11
210.0
 21
0.0
 31
0.0
  0
LINE
  5
AA
330
22
100
AcDbEntity
  8
0
  6
Continuous
 62
     7
100
AcDbLine
 10
0.0
 20
0.0
 30
0.0
 11
0.0
 21
297.0
 31
0.0
  0
LINE
  5
AB
330
22
100
AcDbEntity
  8
0
  6
Continuous
 62
     7
100
AcDbLine
 10
210.0
 20
0.0
 30
0.0
 11
210.0
 21
297.0
 31
0.0
  0
LINE
  5
AC
330
22
100
AcDbEntity
  8
0
  6
Continuous
 62
     7
100
AcDbLine
 10
0.0
 20
297.0
 30
0.0
 11
210.0
 21
297.0
 31
0.0
  0
LWPOLYLINE
  5
AD
330
22
100
AcDbEntity
  8
0
  6
Continuous
 62
     7
100
AcDbPolyline
 90
        3
 70
     0
 43
0.0
 10
30.5484374956
 20
168.891933543
 10
30.5231330285
 20
169.1616989806
 10
30.4981307116
 20
169.5670603728
  0
LWPOLYLINE
  5
B2
330
22
100
AcDbEntity
  8
0
  6
Continuous
 62
     7
100
AcDbPolyline
 90
        3
 70
     0
 43
0.0
 10
29.5480560892
 20
168.8949092029
 10
29.5229454077
 20
169.1642312377
 10
29.4981302346
 20
169.5670603728
  0
LWPOLYLINE
  5
B7
330
22
100
AcDbEntity
  8
0
  6
Continuous
 62
     7
100
AcDbPolyline
 90
        4
 70
     0
 43
0.0
 10
29.4403951255
 20
169.5670603728
 10
29.4652752389
 20
169.1633513032
 10
29.4902422771
 20
168.8955277036
 10
29.5164213415
 20
168.7695353376
  0
LWPOLYLINE
  5
BD
330
22
100
AcDbEntity
  8
0
  6
Continuous
 62
     7
100
AcDbPolyline
 90
        4
 70
     0
 43
0.0
 10
30.4403952077
 20
169.5670603728
 10
30.4652103807
 20
169.1642312377
 10
30.4903210622
 20
168.8949092029
 10
30.5164215015
 20
168.769535351
  0
LWPOLYLINE
  5
C3
330
22
100
AcDbEntity
  8
0
  6
Continuous
 62
     7
100
AcDbPolyline
 90
        8
 70
     0
 43
0.0
 10
29.4981302346
 20
169.5670603728
 10
29.4731398357
 20
170.1001089336
 10
29.4478465506
 20
170.7563824441
 10
29.4225693698
 20
171.5131305187
 10
29.3976116656
 20
172.3406634949
 10
29.3728065819
 20
173.222085049
 10
29.3480183066
 20
174.1402357884
 10
29.2983330259
 20
176.0032003072
  0
LWPOLYLINE
  5
CD
330
22
100
AcDbEntity
  8
0
  6
Continuous
 62
     7
100
AcDbPolyline
 90
        8
 70
     0
 43
0.0
 10
30.4981307116
 20
169.5670603728
 10
30.4733462736
 20
170.0952270405
 10
30.4485716922
 20
170.7360898733
 10
30.4236650991
 20
171.4785007891
 10
30.3988128322
 20
172.2993225928
 10
30.3738544758
 20
173.1839581452
 10
30.3485945644
 20
174.1186523673
 10
30.2984279147
 20
175.9997194381
  0
LWPOLYLINE
  5
D7
330
22
100
AcDbEntity
  8
0
  6
Continuous
 62
     7
100
AcDbPolyline
 90
        4
 70
     0
 43
0.0
 10
27.7681219344
 20
169.8004218551
 10
27.7843886594
 20
169.4508331853
 10
27.8006435069
 20
169.2375660303
 10
27.8149152491
 20
169.1675604116
  0
LWPOLYLINE
  5
DD
330
22
100
AcDbEntity
  8
0
  6
Continuous
 62
     9
100
AcDbPolyline
 90
        4
 70
     0
 43
0.0
 10
27.7964932482
 20
171.1009526229
 10
27.7707497871
 20
171.7878466261
 10
27.7450063261
 20
172.5524165885
 10
27.7192628651
 20
173.3747023677
  0
LWPOLYLINE
  5
E3
330
22
100
AcDbEntity
  8
0
  6
Continuous
 62
     9
100
AcDbPolyline
 90
        7
 70
     0
 43
0.0
 10
28.6811430804
 20
177.4382127955
 10
28.6551463179
 20
178.1560506875
 10
28.6291495553
 20
178.783565918
 10
28.6031527927
 20
179.304053075
 10
28.5771560301
 20
179.7036560042
 10
28.5511592676
 20
179.9717366793
 10
28.525162505
 20
180.101158402
  0
LWPOLYLINE
  5
EC
330
22
100
AcDbEntity
  8
0
  6
Continuous
 62
     9
100
AcDbPolyline
 90
        7
 70
     0
 43
0.0
 10
28.7573826497
 20
177.4382127955
 10
28.7314296551
 20
178.1549129941
 10
28.7054766605
 20
178.78162392
 10
28.6795236659
 20
179.3017175797
 10
28.6535706713
 20
179.7013947725
 10
28.6276176767
 20
179.9700512125999
 10
28.601664682
 20
180.1005588825
  0
LWPOLYLINE
  5
F5
330
22
100
AcDbEntity
  8
0
  6
Continuous
 62
     9
100
AcDbPolyline
 90
        7
 70
     0
 43
0.0
 10
28.5945405401
 20
177.4632127955
 10
28.568797079
 20
178.1811100755
 10
28.543053618
 20
178.8097782189
 10
28.517310157
 20
179.3328049637
 10
28.4915666959
 20
179.7365359712
 10
28.4658232349
 20
180.010431291
 10
28.4400797739
 20
180.1473405196
  0
LWPOLYLINE
  5
FE
330
22
100
AcDbEntity
  8
0
  6
Continuous
 62
     9
100
AcDbPolyline
 90
        8
 70
     0
 43
0.0
 10
28.8439851901
 20
177.4632127955
 10
28.817828857
 20
178.191943861
 10
28.7916725238
 20
178.8282752764
 10
28.7655161907
 20
179.355058801
 10
28.73935985760001
 20
179.7580983636
 10
28.7132035244
 20
180.0265326258
 10
28.6870471913
 20
180.1531276785
 10
28.6692767811
 20
180.1563207204
  0
LWPOLYLINE
  5
108
330
22
100
AcDbEntity
  8
0
  6
Continuous
 62
     9
100
AcDbPolyline
 90
        6
 70
     0
 43
0.0
 10
27.8500445308
 20
177.2832622819
 10
27.8238881977
 20
178.0306755822
 10
27.7977318645
 20
178.6900354886999
 10
27.7715755314
 20
179.2435732152
 10
27.7454191982
 20
179.676371731
 10
27.7192628651
 20
179.9767677522
  0
LWPOLYLINE
  5
110
330
22
100
AcDbEntity
  8
0
  6
Continuous
 62
     9
100
AcDbPolyline
 90
        3
 70
     0
 43
0.0
 10
27.7711688543
 20
177.0273565406
 10
27.7452158597
 20
177.7842557677
 10
27.7192628651
 20
178.4610003404
  0
LINE
  5
115
330
22
100
AcDbEntity
  8
0
  6
Continuous
 62
     9
100
AcDbLine
 10
27.8762008639
 20
176.4679372862
 30
0.0
 11
27.8500445308
 21
177.2832622819
 31
0.0
  0
LINE
  5
116
330
22
100
AcDbEntity
  8
0
  6
Continuous
 62
     9
100
AcDbLine
 10
27.7971218489
 20
176.2103847869
 30
0.0
 11
27.7711688543
 21
177.0273565406
 31
0.0
  0
LWPOLYLINE
  5
117
330
22
100
AcDbEntity
  8
0
  6
Continuous
 62
     7
100
AcDbPolyline
 90
        3
 70
     0
 43
0.0
 10
28.2481303785
 20
177.7632127955
 10
28.2337131996
 20
178.2209672281
 10
28.2192628651
 20
178.6513194463999
  0
LINE
  5
11C
330
22
100
AcDbEntity
  8
0
  6
Continuous
 62
     9
100
AcDbLine
 10
27.8232499154
 20
172.8321478384
 30
0.0
 11
27.7972531528
 21
173.6692030772
 31
0.0
  0
LWPOLYLINE
  5
11D
330
22
100
AcDbEntity
  8
0
  6
Continuous
 62
     9
100
AcDbPolyline
 90
        3
 70
     0
 43
0.0
 10
28.7337746594
 20
175.7888627268
 10
28.7074588699
 20
176.6391227603
 10
28.6811430804
 20
177.4382127955
  0
LWPOLYLINE
  5
122
330
22
100
AcDbEntity
  8
0
  6
Continuous
 62
     9
100
AcDbPolyline
 90
        3
 70
     0
 43
0.0
 10
28.8100142287
 20
175.7888627268
 10
28.7836984392
 20
176.6391227603
 10
28.7573826497
 20
177.4382127955
  0
LWPOLYLINE
  5
127
330
22
100
AcDbEntity
  8
0
  6
Continuous
 62
     9
100
AcDbPolyline
 90
        9
 70
     0
 43
0.0
 10
29.7337746594
 20
175.7888567136
 10
29.7074588699
 20
176.6391157659
 10
29.6811430804
 20
177.4382051337
 10
29.654827291
 20
178.1643277569
 10
29.6285115015
 20
178.7976769138
 10
29.602195712
 20
179.3209764968
 10
29.5758799225
 20
179.7199522594
 10
29.5495641331
 20
179.9837211807
 10
29.5232483436
 20
180.1050883258
  0
LWPOLYLINE
  5
132
330
22
100
AcDbEntity
  8
0
  6
Continuous
 62
     9
100
AcDbPolyline
 90
        9
 70
     0
 43
0.0
 10
29.8100142287
 20
175.7888567136
 10
29.7836984392
 20
176.6391157659
 10
29.7573826497
 20
177.4382051337
 10
29.7310668603
 20
178.1643277569
 10
29.7047510708
 20
178.7976769138
 10
29.6784352813
 20
179.3209764968
 10
29.6521194918
 20
179.7199522594
 10
29.6258037024
 20
179.9837211807
 10
29.5994879129
 20
180.1050883258
  0
LWPOLYLINE
  5
13D
330
22
100
AcDbEntity
  8
0
  6
Continuous
 62
     9
100
AcDbPolyline
 90
        3
 70
     0
 43
0.0
 10
28.647172119
 20
175.7984482402
 10
28.6208563295
 20
176.6566546291999
 10
28.5945405401
 20
177.4632127955
  0
LWPOLYLINE
  5
142
330
22
100
AcDbEntity
  8
0
  6
Continuous
 62
     9
100
AcDbPolyline
 90
        3
 70
     0
 43
0.0
 10
28.8966167691
 20
175.7984482402
 10
28.8703009796
 20
176.6566546291999
 10
28.8439851901
 20
177.4632127955
  0
LWPOLYLINE
  5
147
330
22
100
AcDbEntity
  8
0
  6
Continuous
 62
     9
100
AcDbPolyline
 90
        8
 70
     0
 43
0.0
 10
29.647172119
 20
175.7984421708
 10
29.6208563295
 20
176.6566475694
 10
29.5945405401
 20
177.4632050621
 10
29.5682247506
 20
178.196113878
 10
29.5419089611
 20
178.8353821859
 10
29.5155931716
 20
179.3635724191999
 10
29.4892773822
 20
179.7662769273
 10
29.4629615927
 20
180.0325109787
  0
LWPOLYLINE
  5
151
330
22
100
AcDbEntity
  8
0
  6
Continuous
 62
     9
100
AcDbPolyline
 90
       10
 70
     0
 43
0.0
 10
29.8966167691
 20
175.7984421708
 10
29.8703009796
 20
176.6566475694
 10
29.8439851901
 20
177.4632050621
 10
29.8176694006
 20
178.196113878
 10
29.7913536112
 20
178.8353821859
 10
29.7650378217
 20
179.3635724191999
 10
29.7387220322
 20
179.7662769273
 10
29.7124062427
 20
180.0325109787
 10
29.6860904533
 20
180.1550123962
 10
29.6692792551
 20
180.1563258003
  0
LWPOLYLINE
  5
15D
330
22
100
AcDbEntity
  8
0
  6
Continuous
 62
     9
100
AcDbPolyline
 90
        8
 70
     0
 43
0.0
 10
30.647172119
 20
175.7984596263
 10
30.6208563295
 20
176.6566642777
 10
30.59454054010001
 20
177.463220529
 10
30.5682247506
 20
178.1961276498
 10
30.54190896110001
 20
178.8353938665
 10
30.5155931716
 20
179.3635816844
 10
30.4892773822
 20
179.7662835364
 10
30.4629615927
 20
180.0325147827999
  0
LINE
  5
167
330
22
100
AcDbEntity
  8
0
  6
Continuous
 62
     9
100
AcDbLine
 10
27.7972531528
 20
173.6692030772
 30
0.0
 11
27.7192628651
 21
176.2627162445
 31
0.0
  0
LINE
  5
168
330
22
100
AcDbEntity
  8
0
  6
Continuous
 62
     9
100
AcDbLine
 10
27.8749808328
 20
173.6202857523
 30
0.0
 11
27.7971218489
 21
176.2103847869
 31
0.0
  0
LWPOLYLINE
  5
169
330
22
100
AcDbEntity
  8
0
  6
Continuous
 62
     9
100
AcDbPolyline
 90
        3
 70
     0
 43
0.0
 10
27.95466986340001
 20
173.8397749547
 10
27.9023571971
 20
175.6066724174
 10
27.8762008639
 20
176.4679372862
  0
LWPOLYLINE
  5
16E
330
22
100
AcDbEntity
  8
0
  6
Continuous
 62
     7
100
AcDbPolyline
 90
        3
 70
     0
 43
0.0
 10
28.2481303785
 20
177.7632127955
 10
28.2731296797
 20
176.9134440718
 10
28.2981290385
 20
176.0107302796
  0
LWPOLYLINE
  5
173
330
22
100
AcDbEntity
  8
0
  6
Continuous
 62
     7
100
AcDbPolyline
 90
        3
 70
     0
 43
0.0
 10
29.1903953516
 20
177.7632127955
 10
29.2151752627
 20
176.9211634895
 10
29.2399703741
 20
176.0263475884
  0
LWPOLYLINE
  5
178
330
22
100
AcDbEntity
  8
0
  6
Continuous
 62
     7
100
AcDbPolyline
 90
       10
 70
     0
 43
0.0
 10
29.2983330259
 20
176.0032003072
 10
29.273360679
 20
176.9053038758
 10
29.2480748582
 20
177.7650166699
 10
29.2227890194
 20
178.5491195095
 10
29.1978182227
 20
179.2299403952
 10
29.1729087877
 20
179.7997751648
 10
29.1476760629
 20
180.2514249493
 10
29.122421082
 20
180.5656280216999
 10
29.0974623785
 20
180.7329227589
 10
29.0887704764
 20
180.7568902441
  0
LWPOLYLINE
  5
184
330
22
100
AcDbEntity
  8
0
  6
Continuous
 62
     7
100
AcDbPolyline
 90
       10
 70
     0
 43
0.0
 10
30.2984279147
 20
175.9997194381
 10
30.2734593256
 20
176.90184818
 10
30.2481756742
 20
177.7617424389
 10
30.2228907708
 20
178.5461582213
 10
30.1979190945
 20
179.2274136959
 10
30.1730870623
 20
179.7961301533
 10
30.1482271351
 20
180.2430042806
 10
30.1234438189
 20
180.5557002488
 10
30.098643154
 20
180.7282933393
 10
30.0887709846
 20
180.7568902409
  0
LINE
  5
190
330
22
100
AcDbEntity
  8
0
  6
Continuous
 62
     7
100
AcDbLine
 10
28.2450156683
 20
175.8398162199
 30
0.0
 11
28.2192628651
 21
176.776691078
 31
0.0
  0
LWPOLYLINE
  5
191
330
22
100
AcDbEntity
  8
0
  6
Continuous
 62
     7
100
AcDbPolyline
 90
       10
 70
     0
 43
0.0
 10
28.2981290385
 20
176.0107302796
 10
28.3481294161
 20
174.1360740934
 10
28.3731301436
 20
173.2103023456
 10
28.3981299524
 20
172.3228023808
 10
28.4231293716
 20
171.495404971
 10
28.4481298096
 20
170.7484397281
 10
28.4731303968
 20
170.1003316229
 10
28.4981301531
 20
169.5670603587999
 10
28.5231297681
 20
169.1617352198
 10
28.5481296497
 20
168.8943308986
  0
LWPOLYLINE
  5
19D
330
22
100
AcDbEntity
  8
0
  6
Continuous
 62
     7
100
AcDbPolyline
 90
        8
 70
     0
 43
0.0
 10
29.2399703741
 20
176.0263475884
 10
29.2901131512
 20
174.1466194243
 10
29.3153587627
 20
173.2116262
 10
29.3403046525
 20
172.3259117676
 10
29.365119939
 20
171.5040857814
 10
29.3902710803
 20
170.7519065855
 10
29.415468013
 20
170.0986086655
 10
29.4403951255
 20
169.5670603728
  0
LWPOLYLINE
  5
1A7
330
22
100
AcDbEntity
  8
0
  6
Continuous
 62
     7
100
AcDbPolyline
 90
        8
 70
     0
 43
0.0
 10
30.240597999
 20
176.0032003072
 10
30.2902832796
 20
174.1402357884
 10
30.3150715549
 20
173.222085049
 10
30.3398766387
 20
172.3406634949
 10
30.3648343429
 20
171.5131305187
 10
30.3901115236
 20
170.7563824441
 10
30.4154048087
 20
170.1001089336
 10
30.4403952077
 20
169.5670603728
  0
LWPOLYLINE
  5
1B1
330
22
100
AcDbEntity
  8
0
  6
Continuous
 62
     7
100
AcDbPolyline
 90
        4
 70
     0
 43
0.0
 10
27.7192628651
 20
171.5549421015
 10
27.7355600982
 20
170.8667668654
 10
27.7518461772
 20
170.2766784231
 10
27.7681219344
 20
169.8004218551
  0
LINE
  5
1B7
330
22
100
AcDbEntity
  8
0
  6
Continuous
 62
     7
100
AcDbLine
 10
24.7192628651
 20
169.9633669593
 30
0.0
 11
24.7192628651
 21
179.5630586318
 31
0.0
  0
LINE
  5
1B8
330
22
100
AcDbEntity
  8
0
  6
Continuous
 62
     9
100
AcDbLine
 10
25.01926286510001
 20
169.6632127958
 30
0.0
 11
25.01926286510001
 21
179.8632127953
 31
0.0
  0
LINE
  5
1B9
330
22
100
AcDbEntity
  8
0
  6
Continuous
 62
     7
100
AcDbLine
 10
25.7192628651
 20
169.6632127955
 30
0.0
 11
25.7192628651
 21
179.8632127955
 31
0.0
  0
LINE
  5
1BA
330
22
100
AcDbEntity
  8
0
  6
Continuous
 62
     7
100
AcDbLine
 10
26.6037928113
 20
169.5632127955
 30
0.0
 11
26.6037928113
 21
179.9632127955
 31
0.0
  0
LINE
  5
1BB
330
22
100
AcDbEntity
  8
0
  6
Continuous
 62
     7
100
AcDbLine
 10
26.71926286510001
 20
169.7632127955
 30
0.0
 11
26.71926286510001
 21
179.7632127955
 31
0.0
  0
LINE
  5
1BC
330
22
100
AcDbEntity
  8
0
  6
Continuous
 62
     7
100
AcDbLine
 10
27.7192628651
 20
169.2632170605
 30
0.0
 11
27.7192628651
 21
180.2427813666
 31
0.0
  0
LINE
  5
1BD
330
22
100
AcDbEntity
  8
0
  6
Continuous
 62
     7
100
AcDbLine
 10
28.2192628651
 20
176.776691078
 30
0.0
 11
28.2192628651
 21
178.6513194463999
 31
0.0
  0
LWPOLYLINE
  5
1BE
330
22
100
AcDbEntity
  8
0
  6
Continuous
 62
     7
100
AcDbPolyline
 90
        5
 70
     0
 43
0.0
 10
35.8662217583
 20
210.0804254108
 10
36.3139710338
 20
211.3657099969
 10
37.0343089456
 20
212.5104551289
 10
37.9703464478
 20
213.447097434
 10
39.1149191921
 20
214.1681938613
  0
LINE
  5
1C5
330
22
100
AcDbEntity
  8
0
  6
Continuous
 62
     7
100
AcDbLine
 10
36.3136102426
 20
209.9133517298
 30
0.0
 11
35.8697768714
 21
208.6449633675
 31
0.0
  0
LINE
  5
1C6
330
22
100
AcDbEntity
  8
0
  6
Continuous
 62
     9
100
AcDbLine
 10
28.1692012228
 20
169.3702352523
 30
0.0
 11
28.1639205285
 21
169.3823363533
 31
0.0
  0
LINE
  5
1C7
330
22
100
AcDbEntity
  8
0
  6
Continuous
 62
     9
100
AcDbLine
 10
29.1692006175
 20
169.3702352446
 30
0.0
 11
29.1597746638
 21
169.395986152
 31
0.0
  0
LWPOLYLINE
  5
1C8
330
22
100
AcDbEntity
  8
0
  6
Continuous
 62
     7
100
AcDbPolyline
 90
        7
 70
     0
 43
0.0
 10
35.8697768714
 20
140.8814622236
 10
36.3136102426
 20
139.6130738613
 10
37.0286899022
 20
138.475038361
 10
37.9784715918
 20
137.5252160665
 10
39.1162457522
 20
136.8102394785
 10
40.38419113049999
 20
136.3665280651
 10
41.71926286509999
 20
136.2160799607
  0
LINE
  5
1D1
330
22
100
AcDbEntity
  8
0
  6
Continuous
 62
     7
100
AcDbLine
 10
36.3139710338
 20
138.1607155942
 30
0.0
 11
35.8662217583
 21
139.4460001803
 31
0.0
  0
LWPOLYLINE
  5
1D2
330
22
100
AcDbEntity
  8
0
  6
Continuous
 62
     7
100
AcDbPolyline
 90
       11
 70
     0
 43
0.0
 10
28.5164219477
 20
168.7695353445
 10
28.5025608858
 20
168.8162042743
 10
28.4768050004
 20
169.0221075278
 10
28.4510494137
 20
169.3780295911
 10
28.4252947139
 20
169.8746519927
 10
28.3995404662
 20
170.4989961437
 10
28.3737861779
 20
171.2347577996
 10
28.3480320834
 20
172.062705359
 10
28.322278085
 20
172.9612079802
 10
28.2965235902
 20
173.9068113144
 10
28.2450156683
 20
175.8398162199
  0
LWPOLYLINE
  5
1DF
330
22
100
AcDbEntity
  8
0
  6
Continuous
 62
     9
100
AcDbPolyline
 90
        9
 70
     0
 43
0.0
 10
28.0826047897
 20
169.420159767
 10
28.0566517951
 20
169.5352886233
 10
28.0306988005
 20
169.7891254131
 10
28.0047458059
 20
170.1749352943
 10
27.9787928113
 20
170.6824819003
 10
27.9528398166
 20
171.2982989332
 10
27.926886822
 20
172.0060474538
 10
27.9009338274
 20
172.7869493887
 10
27.8749808328
 20
173.6202857523
  0
LWPOLYLINE
  5
1EA
330
22
100
AcDbEntity
  8
0
  6
Continuous
 62
     9
100
AcDbPolyline
 90
        8
 70
     0
 43
0.0
 10
28.0052272534
 20
169.422245086
 10
27.9792304909
 20
169.5438701798
 10
27.9532337283
 20
169.8044419486
 10
27.9272369657
 20
170.1970235708
 10
27.9012402031
 20
170.7111639281
 10
27.8752434406
 20
171.33317583
 10
27.849246678
 20
172.0465003882
 10
27.8232499154
 20
172.8321478384
  0
LINE
  5
1F4
330
22
100
AcDbEntity
  8
0
  6
Continuous
 62
     7
100
AcDbLine
 10
30.5737241253
 20
168.7703064359
 30
0.0
 11
30.5484374956
 21
168.891933543
 31
0.0
  0
LINE
  5
1F5
330
22
100
AcDbEntity
  8
0
  6
Continuous
 62
     7
100
AcDbLine
 10
29.5732406843
 20
168.7712191919
 30
0.0
 11
29.5480560892
 21
168.8949092029
 31
0.0
  0
LINE
  5
1F6
330
22
100
AcDbEntity
  8
0
  6
Continuous
 62
     7
100
AcDbLine
 10
28.5481296497
 20
168.8943308986
 30
0.0
 11
28.5731290284
 21
168.7714377206
 31
0.0
  0
LWPOLYLINE
  5
1F7
330
22
100
AcDbEntity
  8
0
  6
Continuous
 62
     9
100
AcDbPolyline
 90
        9
 70
     0
 43
0.0
 10
28.1639205285
 20
169.3823363533
 10
28.1377641953
 20
169.5291265492
 10
28.1116078622
 20
169.816967855
 10
28.0854515291
 20
170.238103348
 10
28.0592951959
 20
170.7811840201
 10
28.0331388628
 20
171.4315746189
 10
28.0069825296
 20
172.1717480464
 10
27.9808261965
 20
172.9817576899
 10
27.95466986340001
 20
173.8397749547
  0
LWPOLYLINE
  5
202
330
22
100
AcDbEntity
  8
0
  6
Continuous
 62
     9
100
AcDbPolyline
 90
       10
 70
     0
 43
0.0
 10
28.9969325541
 20
169.445682695
 10
28.9706167647
 20
169.6150767074
 10
28.9443009752
 20
169.9248986224
 10
28.9179851857
 20
170.3666973168
 10
28.8916693962
 20
170.9284216786
 10
28.8653536068
 20
171.5947493285
 10
28.8390378173
 20
172.3475045743
 10
28.8127220278
 20
173.1661541957
 10
28.7864062383
 20
174.0283675369
 10
28.7337746594
 20
175.7888627268
  0
LWPOLYLINE
  5
20E
330
22
100
AcDbEntity
  8
0
  6
Continuous
 62
     9
100
AcDbPolyline
 90
       10
 70
     0
 43
0.0
 10
29.0731721234
 20
169.445682695
 10
29.0468563339
 20
169.6150767074
 10
29.0205405445
 20
169.9248986224
 10
28.994224755
 20
170.3666973168
 10
28.9679089655
 20
170.9284216786
 10
28.9415931761
 20
171.5947493285
 10
28.9152773866
 20
172.3475045743
 10
28.8889615971
 20
173.1661541957
 10
28.86264580760001
 20
174.0283675369
 10
28.8100142287
 20
175.7888627268
  0
LWPOLYLINE
  5
21A
330
22
100
AcDbEntity
  8
0
  6
Continuous
 62
     9
100
AcDbPolyline
 90
       10
 70
     0
 43
0.0
 10
29.9969325541
 20
169.4456832746
 10
29.9706167647
 20
169.615077876
 10
29.9443009752
 20
169.9249000239
 10
29.9179851857
 20
170.3666985911
 10
29.8916693962
 20
170.9284224817
 10
29.8653536068
 20
171.5947493532
 10
29.8390378173
 20
172.3475035684
 10
29.81272202780001
 20
173.1661519795
 10
29.7864062383
 20
174.0283640171
 10
29.7337746594
 20
175.7888567136
  0
LWPOLYLINE
  5
226
330
22
100
AcDbEntity
  8
0
  6
Continuous
 62
     9
100
AcDbPolyline
 90
       10
 70
     0
 43
0.0
 10
30.0731721234
 20
169.4456832746
 10
30.0468563339
 20
169.615077876
 10
30.0205405445
 20
169.9249000239
 10
29.994224755
 20
170.3666985911
 10
29.9679089655
 20
170.9284224817
 10
29.9415931761
 20
171.5947493532
 10
29.9152773866
 20
172.3475035684
 10
29.8889615971
 20
173.1661519795
 10
29.8626458076
 20
174.0283640171
 10
29.8100142287
 20
175.7888567136
  0
LWPOLYLINE
  5
232
330
22
100
AcDbEntity
  8
0
  6
Continuous
 62
     9
100
AcDbPolyline
 90
       10
 70
     0
 43
0.0
 10
30.9969325541
 20
169.4456849299
 10
30.9706167647
 20
169.6150820855
 10
30.9443009752
 20
169.924906791
 10
30.9179851857
 20
170.3667078251
 10
30.8916693962
 20
170.9284339996
 10
30.8653536068
 20
171.5947628848
 10
30.8390378173
 20
172.3475187658
 10
30.81272202780001
 20
173.1661684284
 10
30.7864062383
 20
174.0283812523
 10
30.7337746594
 20
175.7888740075
  0
LWPOLYLINE
  5
23E
330
22
100
AcDbEntity
  8
0
  6
Continuous
 62
     9
100
AcDbPolyline
 90
       10
 70
     0
 43
0.0
 10
31.0731721234
 20
169.4456849299
 10
31.0468563339
 20
169.6150820855
 10
31.0205405445
 20
169.924906791
 10
30.994224755
 20
170.3667078251
 10
30.9679089655
 20
170.9284339996
 10
30.9415931761
 20
171.5947628848
 10
30.9152773866
 20
172.3475187658
 10
30.8889615971
 20
173.1661684284
 10
30.8626458076
 20
174.0283812523
 10
30.8100142287
 20
175.7888740075
  0
LWPOLYLINE
  5
24A
330
22
100
AcDbEntity
  8
0
  6
Continuous
 62
     9
100
AcDbPolyline
 90
       10
 70
     0
 43
0.0
 10
29.1597746638
 20
169.395986152
 10
29.1334588743
 20
169.566963286
 10
29.1071430849
 20
169.8796807329
 10
29.0808272954
 20
170.3256083871
 10
29.0545115059
 20
170.8925825092
 10
29.0281957164
 20
171.5651375204
 10
29.001879927
 20
172.324927862
 10
28.9755641375
 20
173.1512284144
 10
28.949248348
 20
174.0214998242
 10
28.8966167691
 20
175.7984482402
  0
LWPOLYLINE
  5
256
330
22
100
AcDbEntity
  8
0
  6
Continuous
 62
     9
100
AcDbPolyline
 90
       10
 70
     0
 43
0.0
 10
30.1597746638
 20
169.395986737
 10
30.1334588743
 20
169.5669644656
 10
30.1071430849
 20
169.8796821475
 10
30.0808272954
 20
170.3256096733
 10
30.0545115059
 20
170.8925833199
 10
30.0281957164
 20
171.5651375453
 10
30.001879927
 20
172.3249268466999
 10
29.9755641375
 20
173.1512261775
 10
29.949248348
 20
174.0214962715
 10
29.8966167691
 20
175.7984421708
  0
LWPOLYLINE
  5
262
330
22
100
AcDbEntity
  8
0
  6
Continuous
 62
     9
100
AcDbPolyline
 90
       10
 70
     0
 43
0.0
 10
31.1597746638
 20
169.3959884078
 10
31.1334588743
 20
169.5669687144
 10
31.1071430849
 20
169.8796889778
 10
31.0808272954
 20
170.3256189936
 10
31.0545115059
 20
170.8925949454
 10
31.0281957164
 20
171.5651512034
 10
31.001879927
 20
172.3249421861
 10
30.9755641375
 20
173.1512427801
 10
30.949248348
 20
174.0215136678
 10
30.8966167691
 20
175.7984596263
  0
LWPOLYLINE
  5
26E
330
22
100
AcDbEntity
  8
0
  6
Continuous
 62
     7
100
AcDbPolyline
 90
        7
 70
     0
 43
0.0
 10
29.0404715529
 20
180.730043804
 10
29.065419095
 20
180.5585372887
 10
29.090669399
 20
180.2402769233
 10
29.1159091133
 20
179.7846629274
 10
29.140822976
 20
179.2112799867
 10
29.1656143513
 20
178.5327162197
 10
29.1903953516
 20
177.7632127955
  0
LWPOLYLINE
  5
277
330
22
100
AcDbEntity
  8
0
  6
Continuous
 62
     9
100
AcDbPolyline
 90
        8
 70
     0
 43
0.0
 10
34.1442073301
 20
169.4796562358
 10
34.1180684421
 20
169.733113079
 10
34.0919295542
 20
170.1219435271999
 10
34.0657906662
 20
170.6356830878
 10
34.0396517783
 20
171.2605056283
 10
34.0135128903
 20
171.9795954748
 10
33.9873740024
 20
172.7735999687
 10
33.9612351144
 20
173.6211502984
  0
LWPOLYLINE
  5
281
330
22
100
AcDbEntity
  8
0
  6
Continuous
 62
     7
100
AcDbPolyline
 90
        3
 70
     0
 43
0.0
 10
33.5484374956
 20
168.891933543
 10
33.5231330285
 20
169.1616989806
 10
33.4981307116
 20
169.5670603728
  0
LWPOLYLINE
  5
286
330
22
100
AcDbEntity
  8
0
  6
Continuous
 62
     7
100
AcDbPolyline
 90
        3
 70
     0
 43
0.0
 10
31.547977304
 20
168.8955277036
 10
31.5230102658
 20
169.1633513032
 10
31.4981301524
 20
169.5670603728
  0
LWPOLYLINE
  5
28B
330
22
100
AcDbEntity
  8
0
  6
Continuous
 62
     7
100
AcDbPolyline
 90
        3
 70
     0
 43
0.0
 10
32.5480560892
 20
168.8949092029
 10
32.5229454077
 20
169.1642312377
 10
32.4981302346
 20
169.5670603728
  0
LWPOLYLINE
  5
290
330
22
100
AcDbEntity
  8
0
  6
Continuous
 62
     7
100
AcDbPolyline
 90
        4
 70
     0
 43
0.0
 10
31.4403956847
 20
169.5670603728
 10
31.4653980016
 20
169.1616989806
 10
31.4907024686
 20
168.891933543
 10
31.5164219477
 20
168.7695353445
  0
LWPOLYLINE
  5
296
330
22
100
AcDbEntity
  8
0
  6
Continuous
 62
     7
100
AcDbPolyline
 90
        4
 70
     0
 43
0.0
 10
32.44039512550001
 20
169.5670603728
 10
32.4652752389
 20
169.1633513032
 10
32.4902422771
 20
168.8955277036
 10
32.5164213415
 20
168.7695353376
  0
LWPOLYLINE
  5
29C
330
22
100
AcDbEntity
  8
0
  6
Continuous
 62
     7
100
AcDbPolyline
 90
        4
 70
     0
 43
0.0
 10
33.4403952077
 20
169.5670603728
 10
33.4652103807
 20
169.1642312377
 10
33.4903210622
 20
168.8949092029
 10
33.5164215015
 20
168.769535351
  0
LWPOLYLINE
  5
2A2
330
22
100
AcDbEntity
  8
0
  6
Continuous
 62
     7
100
AcDbPolyline
 90
        8
 70
     0
 43
0.0
 10
31.4981301524
 20
169.5670603728
 10
31.4732030399
 20
170.0986086655
 10
31.4480061072
 20
170.7519065855
 10
31.422854966
 20
171.5040857814
 10
31.3980396794
 20
172.3259117676
 10
31.3730937896
 20
173.2116262
 10
31.3478481781
 20
174.1466194243
 10
31.297705401
 20
176.0263475884
  0
LWPOLYLINE
  5
2AC
330
22
100
AcDbEntity
  8
0
  6
Continuous
 62
     7
100
AcDbPolyline
 90
        8
 70
     0
 43
0.0
 10
32.4981302346
 20
169.5670603728
 10
32.47313983570001
 20
170.1001089336
 10
32.4478465506
 20
170.7563824441
 10
32.4225693698
 20
171.5131305187
 10
32.3976116656
 20
172.3406634949
 10
32.3728065819
 20
173.222085049
 10
32.3480183066
 20
174.1402357884
 10
32.2983330259
 20
176.0032003072
  0
LWPOLYLINE
  5
2B6
330
22
100
AcDbEntity
  8
0
  6
Continuous
 62
     7
100
AcDbPolyline
 90
        8
 70
     0
 43
0.0
 10
33.4981307116
 20
169.5670603728
 10
33.4733462736
 20
170.0952270405
 10
33.4485716922
 20
170.7360898733
 10
33.4236650991
 20
171.4785007891
 10
33.3988128322
 20
172.2993225928
 10
33.3738544758
 20
173.1839581452
 10
33.3485945644
 20
174.1186523673
 10
33.2984279147
 20
175.9997194381
  0
LWPOLYLINE
  5
2C0
330
22
100
AcDbEntity
  8
0
  6
Continuous
 62
     9
100
AcDbPolyline
 90
        5
 70
     0
 43
0.0
 10
34.7192628651
 20
178.4609953811999
 10
34.69305153580001
 20
179.0448439374
 10
34.6668402064
 20
179.5128237605
 10
34.6406288771
 20
179.8522704904
 10
34.6144175477
 20
180.0539981083
  0
LWPOLYLINE
  5
2C7
330
22
100
AcDbEntity
  8
0
  6
Continuous
 62
     9
100
AcDbPolyline
 90
        6
 70
     0
 43
0.0
 10
34.654827291
 20
178.164335636
 10
34.6285115015
 20
178.7976844624
 10
34.602195712
 20
179.3209831511
 10
34.5758799225
 20
179.71995747
 10
34.5495641331
 20
179.9837244418
 10
34.52324834360001
 20
180.105089202
  0
LWPOLYLINE
  5
2CF
330
22
100
AcDbEntity
  8
0
  6
Continuous
 62
     9
100
AcDbPolyline
 90
        7
 70
     0
 43
0.0
 10
33.7494436795
 20
177.6659121778
 10
33.7232323502
 20
178.3634289902999
 10
33.69702102090001
 20
178.9635176952
 10
33.67080969150001
 20
179.4499388582
 10
33.6445983622
 20
179.8095290865
 10
33.6183870328
 20
180.0325572523
 10
33.5907161707
 20
180.1132127955
  0
LWPOLYLINE
  5
2D8
330
22
100
AcDbEntity
  8
0
  6
Continuous
 62
     9
100
AcDbPolyline
 90
        7
 70
     0
 43
0.0
 10
31.6811430804
 20
177.4382127955
 10
31.654827291
 20
178.164335636
 10
31.6285115015
 20
178.7976844624
 10
31.602195712
 20
179.3209831511
 10
31.5758799225
 20
179.71995747
 10
31.5495641331
 20
179.9837244418
 10
31.5232483436
 20
180.105089202
  0
LWPOLYLINE
  5
2E1
330
22
100
AcDbEntity
  8
0
  6
Continuous
 62
     9
100
AcDbPolyline
 90
        7
 70
     0
 43
0.0
 10
31.7573826497
 20
177.4382127955
 10
31.7310668603
 20
178.164335636
 10
31.7047510708
 20
178.7976844624
 10
31.6784352813
 20
179.3209831511
 10
31.6521194918
 20
179.71995747
 10
31.6258037024
 20
179.9837244418
 10
31.5994879129
 20
180.105089202
  0
LWPOLYLINE
  5
2EA
330
22
100
AcDbEntity
  8
0
  6
Continuous
 62
     9
100
AcDbPolyline
 90
        7
 70
     0
 43
0.0
 10
33.6811430804
 20
177.4382204574
 10
33.654827291
 20
178.1643414012
 10
33.6285115015
 20
178.7976884862
 10
33.602195712
 20
179.3209856761
 10
33.5758799225
 20
179.7199588073
 10
33.5495641331
 20
179.9837249496
 10
33.5232483436
 20
180.1050892641
  0
LINE
  5
2F3
330
22
100
AcDbEntity
  8
0
  6
Continuous
 62
     9
100
AcDbLine
 10
34.6694300419
 20
177.7614067786999
 30
0.0
 11
34.654827291
 21
178.164335636
 31
0.0
  0
LWPOLYLINE
  5
2F4
330
22
100
AcDbEntity
  8
0
  6
Continuous
 62
     9
100
AcDbPolyline
 90
        6
 70
     0
 43
0.0
 10
31.5945405401
 20
177.4632127955
 10
31.5682247506
 20
178.1961218308
 10
31.5419089611
 20
178.8353898051
 10
31.5155931716
 20
179.3635791357
 10
31.4892773822
 20
179.7662821866
 10
31.4629615927
 20
180.0325142703
  0
LWPOLYLINE
  5
2FC
330
22
100
AcDbEntity
  8
0
  6
Continuous
 62
     9
100
AcDbPolyline
 90
        8
 70
     0
 43
0.0
 10
31.84398519010001
 20
177.4632127955
 10
31.8176694006
 20
178.1961218308
 10
31.7913536112
 20
178.8353898051
 10
31.7650378217
 20
179.3635791357
 10
31.7387220322
 20
179.7662821866
 10
31.7124062427
 20
180.0325142703
 10
31.6860904533
 20
180.1550132806
 10
31.6692962652
 20
180.1563540693999
  0
LWPOLYLINE
  5
306
330
22
100
AcDbEntity
  8
0
  6
Continuous
 62
     9
100
AcDbPolyline
 90
        6
 70
     0
 43
0.0
 10
33.5945405401
 20
177.463220529
 10
33.5682247506
 20
178.1961276498
 10
33.5419089611
 20
178.8353938665
 10
33.51559317159999
 20
179.3635816844
 10
33.4892773822
 20
179.7662835364
 10
33.4629615927
 20
180.0325147827999
  0
LWPOLYLINE
  5
30E
330
22
100
AcDbEntity
  8
0
  6
Continuous
 62
     9
100
AcDbPolyline
 90
        6
 70
     0
 43
0.0
 10
34.58376875739999
 20
177.7632127955
 10
34.5682247506
 20
178.1961218308
 10
34.5419089611
 20
178.8353898051
 10
34.5155931716
 20
179.3635791357
 10
34.4892773822
 20
179.7662821866
 10
34.4629615927
 20
180.0325142703
  0
LINE
  5
316
330
22
100
AcDbEntity
  8
0
  6
Continuous
 62
     9
100
AcDbLine
 10
33.70745886989999
 20
176.6391323195
 30
0.0
 11
33.6811430804
 21
177.4382204574
 31
0.0
  0
LINE
  5
317
330
22
100
AcDbEntity
  8
0
  6
Continuous
 62
     9
100
AcDbLine
 10
33.6208563295
 20
176.6566642777
 30
0.0
 11
33.5945405401
 21
177.463220529
 31
0.0
  0
LWPOLYLINE
  5
318
330
22
100
AcDbEntity
  8
0
  6
Continuous
 62
     7
100
AcDbPolyline
 90
        8
 70
     0
 43
0.0
 10
31.2481303785
 20
177.7632127955
 10
31.2233493782
 20
178.5327162197
 10
31.1985580029
 20
179.2112799867
 10
31.1736441402
 20
179.7846629274
 10
31.1484044259
 20
180.2402769233
 10
31.1231541219
 20
180.5585372887
 10
31.0982065798
 20
180.730043804
 10
31.0887709433
 20
180.7568902577
  0
LWPOLYLINE
  5
322
330
22
100
AcDbEntity
  8
0
  6
Continuous
 62
     7
100
AcDbPolyline
 90
        8
 70
     0
 43
0.0
 10
34.2481303785
 20
177.7632127955
 10
34.2233493782
 20
178.5327162197
 10
34.1985580029
 20
179.2112799867
 10
34.1736441402
 20
179.7846629274
 10
34.1484044259
 20
180.2402769233
 10
34.1231541219
 20
180.5585372887
 10
34.0982065798
 20
180.730043804
 10
34.0887709433
 20
180.7568902577
  0
LWPOLYLINE
  5
32C
330
22
100
AcDbEntity
  8
0
  6
Continuous
 62
     7
100
AcDbPolyline
 90
        7
 70
     0
 43
0.0
 10
34.1916395183
 20
177.7225101551
 10
34.1665143145
 20
178.5062665068
 10
34.1413899881
 20
179.1969106783
 10
34.116266063
 20
179.7772879869
 10
34.0911420773
 20
180.2329786673
 10
34.0660183335
 20
180.5526468448
 10
34.0408945644
 20
180.7283484003
  0
LWPOLYLINE
  5
335
330
22
100
AcDbEntity
  8
0
  6
Continuous
 62
     9
100
AcDbPolyline
 90
        3
 70
     0
 43
0.0
 10
33.8018663382
 20
176.056224025
 10
33.7756550089
 20
176.889843267
 10
33.7494436795
 20
177.6659121778
  0
LWPOLYLINE
  5
33A
330
22
100
AcDbEntity
  8
0
  6
Continuous
 62
     9
100
AcDbPolyline
 90
        9
 70
     0
 43
0.0
 10
32.8058358233
 20
175.9263394111
 10
32.779624494
 20
176.7667385658
 10
32.7534131646
 20
177.5529188528
 10
32.7272018353
 20
178.2636048659
 10
32.700990506
 20
178.8795642028
 10
32.6747791766
 20
179.3841279268
 10
32.6485678473
 20
179.7636416585
 10
32.6223565179
 20
180.0078350865
 10
32.59614518860001
 20
180.1100999008
  0
LWPOLYLINE
  5
345
330
22
100
AcDbEntity
  8
0
  6
Continuous
 62
     9
100
AcDbPolyline
 90
        9
 70
     0
 43
0.0
 10
30.7337746594
 20
175.7888740075
 10
30.7074588699
 20
176.6391323195
 10
30.6811430804
 20
177.4382204574
 10
30.654827291
 20
178.1643414012
 10
30.6285115015
 20
178.7976884862
 10
30.602195712
 20
179.3209856761
 10
30.5758799225
 20
179.7199588073
 10
30.5495641331
 20
179.9837249496
 10
30.5232483436
 20
180.1050892641
  0
LWPOLYLINE
  5
350
330
22
100
AcDbEntity
  8
0
  6
Continuous
 62
     9
100
AcDbPolyline
 90
        9
 70
     0
 43
0.0
 10
30.8100142287
 20
175.7888740075
 10
30.7836984392
 20
176.6391323195
 10
30.7573826497
 20
177.4382204574
 10
30.7310668603
 20
178.1643414012
 10
30.7047510708
 20
178.7976884862
 10
30.6784352813
 20
179.3209856761
 10
30.6521194918
 20
179.7199588073
 10
30.6258037024
 20
179.9837249496
 10
30.5994879129
 20
180.1050892641
  0
LWPOLYLINE
  5
35B
330
22
100
AcDbEntity
  8
0
  6
Continuous
 62
     9
100
AcDbPolyline
 90
        3
 70
     0
 43
0.0
 10
31.7337746594
 20
175.7888627268
 10
31.7074588699
 20
176.6391227603
 10
31.6811430804
 20
177.4382127955
  0
LWPOLYLINE
  5
360
330
22
100
AcDbEntity
  8
0
  6
Continuous
 62
     9
100
AcDbPolyline
 90
        3
 70
     0
 43
0.0
 10
31.8098053084
 20
175.7957544488
 10
31.7835939791
 20
176.6424108553
 10
31.7573826497
 20
177.4382127955
  0
LWPOLYLINE
  5
365
330
22
100
AcDbEntity
  8
0
  6
Continuous
 62
     9
100
AcDbPolyline
 90
        9
 70
     0
 43
0.0
 10
32.7337746594
 20
175.7888567136
 10
32.70745886989999
 20
176.6391157659
 10
32.6811430804
 20
177.4382051337
 10
32.654827291
 20
178.1643277569
 10
32.6285115015
 20
178.7976769138
 10
32.602195712
 20
179.3209764968
 10
32.5758799225
 20
179.7199522594
 10
32.5495641331
 20
179.9837211807
 10
32.5232483436
 20
180.1050883258
  0
LINE
  5
370
330
22
100
AcDbEntity
  8
0
  6
Continuous
 62
     9
100
AcDbLine
 10
33.7337746594
 20
175.7888740075
 30
0.0
 11
33.70745886989999
 21
176.6391323195
 31
0.0
  0
LWPOLYLINE
  5
371
330
22
100
AcDbEntity
  8
0
  6
Continuous
 62
     9
100
AcDbPolyline
 90
       10
 70
     0
 43
0.0
 10
30.8966167691
 20
175.7984596263
 10
30.8703009796
 20
176.6566642777
 10
30.8439851901
 20
177.463220529
 10
30.8176694006
 20
178.1961276498
 10
30.7913536112
 20
178.8353938665
 10
30.7650378217
 20
179.3635816844
 10
30.7387220322
 20
179.7662835364
 10
30.7124062427
 20
180.0325147827999
 10
30.6860904533
 20
180.1550133432
 10
30.6692702709
 20
180.15630954
  0
LWPOLYLINE
  5
37D
330
22
100
AcDbEntity
  8
0
  6
Continuous
 62
     9
100
AcDbPolyline
 90
        3
 70
     0
 43
0.0
 10
31.647172119
 20
175.7984482402
 10
31.6208563295
 20
176.6566546291999
 10
31.5945405401
 20
177.4632127955
  0
LWPOLYLINE
  5
382
330
22
100
AcDbEntity
  8
0
  6
Continuous
 62
     9
100
AcDbPolyline
 90
        3
 70
     0
 43
0.0
 10
31.896262966
 20
175.8102272791999
 10
31.8701240781
 20
176.6622745246
 10
31.84398519010001
 20
177.4632127955
  0
LWPOLYLINE
  5
387
330
22
100
AcDbEntity
  8
0
  6
Continuous
 62
     9
100
AcDbPolyline
 90
        8
 70
     0
 43
0.0
 10
32.64717211900001
 20
175.7984421708
 10
32.6208563295
 20
176.6566475694
 10
32.5945405401
 20
177.4632050621
 10
32.5682247506
 20
178.196113878
 10
32.5419089611
 20
178.8353821859
 10
32.5155931716
 20
179.3635724191999
 10
32.4892773822
 20
179.7662769273
 10
32.4629615927
 20
180.0325109787
  0
LINE
  5
391
330
22
100
AcDbEntity
  8
0
  6
Continuous
 62
     9
100
AcDbLine
 10
33.647172119
 20
175.7984596263
 30
0.0
 11
33.6208563295
 21
176.6566642777
 31
0.0
  0
LINE
  5
392
330
22
100
AcDbEntity
  8
0
  6
Continuous
 62
     9
100
AcDbLine
 10
33.8127220278
 20
173.1661684284
 30
0.0
 11
33.7793482717
 21
174.2650050112
 31
0.0
  0
LINE
  5
393
330
22
100
AcDbEntity
  8
0
  6
Continuous
 62
     9
100
AcDbLine
 10
33.7793482717
 20
174.2650050112
 30
0.0
 11
33.7337746594
 21
175.7888740075
 31
0.0
  0
LINE
  5
394
330
22
100
AcDbEntity
  8
0
  6
Continuous
 62
     9
100
AcDbLine
 10
33.7261194874
 20
173.1512427801
 30
0.0
 11
33.6926843085
 21
174.2624273562
 31
0.0
  0
LINE
  5
395
330
22
100
AcDbEntity
  8
0
  6
Continuous
 62
     9
100
AcDbLine
 10
33.6926843085
 20
174.2624273562
 30
0.0
 11
33.647172119
 21
175.7984596263
 31
0.0
  0
LWPOLYLINE
  5
396
330
22
100
AcDbEntity
  8
0
  6
Continuous
 62
     9
100
AcDbPolyline
 90
       12
 70
     0
 43
0.0
 10
33.9612351144
 20
173.6211502984
 10
33.9089573385
 20
175.3848217953
 10
33.8828184506
 20
176.2534778022
 10
33.8566795626
 20
177.0820267399
 10
33.8305406746
 20
177.8481701267
 10
33.8044017867
 20
178.5312889842
 10
33.7782628987
 20
179.1129987498
 10
33.7521240108
 20
179.5776440537
 10
33.72598512280001
 20
179.9127200466999
 10
33.6998462349
 20
180.109208939
 10
33.67370734690001
 20
180.1618226925
 10
33.6692324475
 20
180.1562445183
  0
LWPOLYLINE
  5
3A4
330
22
100
AcDbEntity
  8
0
  6
Continuous
 62
     7
100
AcDbPolyline
 90
        3
 70
     0
 43
0.0
 10
32.1903953516
 20
177.7632127955
 10
32.2151752627
 20
176.9211634895
 10
32.2399703741
 20
176.0263475884
  0
LWPOLYLINE
  5
3A9
330
22
100
AcDbEntity
  8
0
  6
Continuous
 62
     7
100
AcDbPolyline
 90
        3
 70
     0
 43
0.0
 10
31.297705401
 20
176.0263475884
 10
31.2729102897
 20
176.9211634895
 10
31.2481303785
 20
177.7632127955
  0
LWPOLYLINE
  5
3AE
330
22
100
AcDbEntity
  8
0
  6
Continuous
 62
     7
100
AcDbPolyline
 90
       10
 70
     0
 43
0.0
 10
32.2983330259
 20
176.0032003072
 10
32.273360679
 20
176.9053038758
 10
32.2480748582
 20
177.7650166699
 10
32.22278901940001
 20
178.5491195095
 10
32.1978182227
 20
179.2299403952
 10
32.1729087877
 20
179.7997751648
 10
32.1476760629
 20
180.2514249493
 10
32.122421082
 20
180.5656280216999
 10
32.0974623785
 20
180.7329227589
 10
32.0887704764
 20
180.7568902441
  0
LWPOLYLINE
  5
3BA
330
22
100
AcDbEntity
  8
0
  6
Continuous
 62
     7
100
AcDbPolyline
 90
       10
 70
     0
 43
0.0
 10
33.2984279147
 20
175.9997194381
 10
33.2734593256
 20
176.90184818
 10
33.2481756742
 20
177.7617424389
 10
33.2228907708
 20
178.5461582213
 10
33.1979190945
 20
179.2274136959
 10
33.1730870623
 20
179.7961301533
 10
33.1482271351
 20
180.2430042806
 10
33.1234438189
 20
180.5557002488
 10
33.098643154
 20
180.7282933393
 10
33.0887709846
 20
180.7568902409
  0
LWPOLYLINE
  5
3C6
330
22
100
AcDbEntity
  8
0
  6
Continuous
 62
     7
100
AcDbPolyline
 90
        3
 70
     0
 43
0.0
 10
34.2418890295
 20
175.955559435
 10
34.216764722
 20
176.8651559521
 10
34.1916395183
 20
177.7225101551
  0
LWPOLYLINE
  5
3CB
330
22
100
AcDbEntity
  8
0
  6
Continuous
 62
     7
100
AcDbPolyline
 90
        8
 70
     0
 43
0.0
 10
31.2406928877
 20
175.9997194381
 10
31.2908595375
 20
174.1186523673
 10
31.3161194489
 20
173.1839581452
 10
31.3410778053
 20
172.2993225928
 10
31.3659300722
 20
171.4785007891
 10
31.3908366652
 20
170.7360898733
 10
31.4156112467
 20
170.0952270405
 10
31.4403956847
 20
169.5670603728
  0
LWPOLYLINE
  5
3D5
330
22
100
AcDbEntity
  8
0
  6
Continuous
 62
     7
100
AcDbPolyline
 90
        8
 70
     0
 43
0.0
 10
32.2399703741
 20
176.0263475884
 10
32.2901131512
 20
174.1466194243
 10
32.3153587627
 20
173.2116262
 10
32.3403046525
 20
172.3259117676
 10
32.36511993900001
 20
171.5040857814
 10
32.39027108030001
 20
170.7519065855
 10
32.415468013
 20
170.0986086655
 10
32.44039512550001
 20
169.5670603728
  0
LWPOLYLINE
  5
3DF
330
22
100
AcDbEntity
  8
0
  6
Continuous
 62
     7
100
AcDbPolyline
 90
        8
 70
     0
 43
0.0
 10
33.240597999
 20
176.0032003072
 10
33.2902832796
 20
174.1402357884
 10
33.3150715549
 20
173.222085049
 10
33.3398766387
 20
172.3406634949
 10
33.3648343429
 20
171.5131305187
 10
33.3901115236
 20
170.7563824441
 10
33.4154048087
 20
170.1001089336
 10
33.4403952077
 20
169.5670603728
  0
LINE
  5
3E9
330
22
100
AcDbEntity
  8
0
  6
Continuous
 62
     7
100
AcDbLine
 10
34.7192628651
 20
180.2427877902
 30
0.0
 11
34.7192628651
 21
168.7632584846
 31
0.0
  0
LINE
  5
3EA
330
22
100
AcDbEntity
  8
0
  6
Continuous
 62
     7
100
AcDbLine
 10
35.7192628651
 20
140.7665481643
 30
0.0
 11
35.7192628651
 21
208.7598774268
 31
0.0
  0
LINE
  5
3EB
330
22
100
AcDbEntity
  8
0
  6
Continuous
 62
     7
100
AcDbLine
 10
35.7192628651
 20
208.7598774268
 30
0.0
 11
35.8662217583
 21
210.0804254108
 31
0.0
  0
LINE
  5
3EC
330
22
100
AcDbEntity
  8
0
  6
Continuous
 62
     7
100
AcDbLine
 10
35.8698026171
 20
210.0997790235
 30
0.0
 11
35.7567307307
 21
209.0965573874
 31
0.0
  0
LINE
  5
3ED
330
22
100
AcDbEntity
  8
0
  6
Continuous
 62
     7
100
AcDbLine
 10
35.8697768714
 20
208.6449633675
 30
0.0
 11
35.7192628651
 21
207.3092332231
 31
0.0
  0
LINE
  5
3EE
330
22
100
AcDbEntity
  8
0
  6
Continuous
 62
     7
100
AcDbLine
 10
30.16731593
 20
169.373279814
 30
0.0
 11
30.1692817021
 21
169.3700959706
 31
0.0
  0
LINE
  5
3EF
330
22
100
AcDbEntity
  8
0
  6
Continuous
 62
     7
100
AcDbLine
 10
28.1682351643
 20
169.3718451883
 30
0.0
 11
28.1692783513
 21
169.3701024689
 31
0.0
  0
LINE
  5
3F0
330
22
100
AcDbEntity
  8
0
  6
Continuous
 62
     7
100
AcDbLine
 10
29.1692006175
 20
169.3702352446
 30
0.0
 11
29.5164213415
 21
168.7695353376
 31
0.0
  0
LINE
  5
3F1
330
22
100
AcDbEntity
  8
0
  6
Continuous
 62
     7
100
AcDbLine
 10
30.1692007758
 20
169.3702352595
 30
0.0
 11
30.5164215015
 21
168.769535351
 31
0.0
  0
LINE
  5
3F2
330
22
100
AcDbEntity
  8
0
  6
Continuous
 62
     7
100
AcDbLine
 10
31.1692012228
 20
169.3702352523
 30
0.0
 11
31.5164219477
 21
168.7695353445
 31
0.0
  0
LINE
  5
3F3
330
22
100
AcDbEntity
  8
0
  6
Continuous
 62
     7
100
AcDbLine
 10
32.16920061750001
 20
169.3702352446
 30
0.0
 11
32.5164213415
 21
168.7695353376
 31
0.0
  0
LINE
  5
3F4
330
22
100
AcDbEntity
  8
0
  6
Continuous
 62
     7
100
AcDbLine
 10
28.1692012228
 20
169.3702352523
 30
0.0
 11
28.5164219477
 21
168.7695353445
 31
0.0
  0
LINE
  5
3F5
330
22
100
AcDbEntity
  8
0
  6
Continuous
 62
     7
100
AcDbLine
 10
26.6037928113
 20
179.9632127955
 30
0.0
 11
26.71926286510001
 21
179.7632127955
 31
0.0
  0
LINE
  5
3F6
330
22
100
AcDbEntity
  8
0
  6
Continuous
 62
     9
100
AcDbLine
 10
29.0144741223
 20
169.413212796
 30
0.0
 11
28.9969325541
 21
169.445682695
 31
0.0
  0
LINE
  5
3F7
330
22
100
AcDbEntity
  8
0
  6
Continuous
 62
     9
100
AcDbLine
 10
32.0144741223
 20
169.413212796
 30
0.0
 11
31.9969325541
 21
169.445682695
 31
0.0
  0
LINE
  5
3F8
330
22
100
AcDbEntity
  8
0
  6
Continuous
 62
     9
100
AcDbLine
 10
30.0144303417
 20
169.4132130188
 30
0.0
 11
29.9969325541
 21
169.4456832746
 31
0.0
  0
LINE
  5
3F9
330
22
100
AcDbEntity
  8
0
  6
Continuous
 62
     9
100
AcDbLine
 10
31.0144307314
 20
169.4132130192
 30
0.0
 11
30.9969325541
 21
169.4456849299
 31
0.0
  0
LINE
  5
3FA
330
22
100
AcDbEntity
  8
0
  6
Continuous
 62
     9
100
AcDbLine
 10
33.0144303417
 20
169.4132130188
 30
0.0
 11
32.9969325541
 21
169.4456832746
 31
0.0
  0
LINE
  5
3FB
330
22
100
AcDbEntity
  8
0
  6
Continuous
 62
     9
100
AcDbLine
 10
30.0906572579
 20
169.4132131585
 30
0.0
 11
30.0731721234
 21
169.4456832746
 31
0.0
  0
LINE
  5
3FC
330
22
100
AcDbEntity
  8
0
  6
Continuous
 62
     9
100
AcDbLine
 10
29.0906377183
 20
169.4132134379
 30
0.0
 11
29.0731721234
 21
169.445682695
 31
0.0
  0
LINE
  5
3FD
330
22
100
AcDbEntity
  8
0
  6
Continuous
 62
     9
100
AcDbLine
 10
31.0906383322
 20
169.4132134379
 30
0.0
 11
31.0731721234
 21
169.4456849299
 31
0.0
  0
LINE
  5
3FE
330
22
100
AcDbEntity
  8
0
  6
Continuous
 62
     9
100
AcDbLine
 10
32.0906377183
 20
169.4132134379
 30
0.0
 11
32.0719186018
 21
169.4504829469
 31
0.0
  0
LINE
  5
3FF
330
22
100
AcDbEntity
  8
0
  6
Continuous
 62
     9
100
AcDbLine
 10
28.4400797739
 20
180.1473405196
 30
0.0
 11
28.4359916668
 21
180.156190351
 31
0.0
  0
LINE
  5
400
330
22
100
AcDbEntity
  8
0
  6
Continuous
 62
     9
100
AcDbLine
 10
33.09063789350001
 20
169.4132134379
 30
0.0
 11
33.0679491167
 21
169.4678571291
 31
0.0
  0
LWPOLYLINE
  5
401
330
22
100
AcDbEntity
  8
0
  6
Continuous
 62
     7
100
AcDbPolyline
 90
        7
 70
     0
 43
0.0
 10
28.13659892550001
 20
180.674138274
 10
28.1393401025
 20
180.6672108416
 10
28.1553461186
 20
180.5397790562
 10
28.1713413604
 20
180.2663569014
 10
28.1873258707
 20
179.8533263768
 10
28.2032996911
 20
179.3105889543
 10
28.2192628651
 20
178.6513194463999
  0
LINE
  5
40A
330
22
100
AcDbEntity
  8
0
  6
Continuous
 62
     9
100
AcDbLine
 10
30.1692007758
 20
169.3702352595
 30
0.0
 11
30.1597746638
 21
169.395986737
 31
0.0
  0
LINE
  5
40B
330
22
100
AcDbEntity
  8
0
  6
Continuous
 62
     9
100
AcDbLine
 10
31.1692012228
 20
169.3702352523
 30
0.0
 11
31.1597746638
 21
169.3959884078
 31
0.0
  0
LINE
  5
40C
330
22
100
AcDbEntity
  8
0
  6
Continuous
 62
     9
100
AcDbLine
 10
34.0906383322
 20
169.4132134379
 30
0.0
 11
34.0639796316
 21
169.4885270599
 31
0.0
  0
LINE
  5
40D
330
22
100
AcDbEntity
  8
0
  6
Continuous
 62
     9
100
AcDbLine
 10
32.16920061750001
 20
169.3702352446
 30
0.0
 11
32.1576518456
 21
169.4043866208
 31
0.0
  0
LINE
  5
40E
330
22
100
AcDbEntity
  8
0
  6
Continuous
 62
     9
100
AcDbLine
 10
33.1692007758
 20
169.3702352595
 30
0.0
 11
33.1509295878
 21
169.4372701793
 31
0.0
  0
LINE
  5
40F
330
22
100
AcDbEntity
  8
0
  6
Continuous
 62
     9
100
AcDbLine
 10
34.1692012228
 20
169.3702352523
 30
0.0
 11
34.1442073301
 21
169.4796562358
 31
0.0
  0
LWPOLYLINE
  5
410
330
22
100
AcDbEntity
  8
0
  6
Continuous
 62
     7
100
AcDbPolyline
 90
       11
 70
     0
 43
0.0
 10
34.51642194770001
 20
168.7695353445
 10
34.4931350316
 20
168.8737263572
 10
34.4680088874
 20
169.1271821393
 10
34.4428835851
 20
169.5208013182
 10
34.4177596937
 20
170.0447676851
 10
34.3926358674
 20
170.68606796
 10
34.3675117121
 20
171.4287662172
 10
34.3423877126
 20
172.2543800511
 10
34.31726343280001
 20
173.1423928519
 10
34.29213830280001
 20
174.0707443704
 10
34.2418890295
 20
175.955559435
  0
LINE
  5
41D
330
22
100
AcDbEntity
  8
0
  6
Continuous
 62
     9
100
AcDbLine
 10
29.4629615927
 20
180.0325109787
 30
0.0
 11
29.4359912016
 21
180.1561903359
 31
0.0
  0
LINE
  5
41E
330
22
100
AcDbEntity
  8
0
  6
Continuous
 62
     9
100
AcDbLine
 10
30.4629615927
 20
180.0325147827999
 30
0.0
 11
30.4359917102
 21
180.1561903324
 31
0.0
  0
LINE
  5
41F
330
22
100
AcDbEntity
  8
0
  6
Continuous
 62
     9
100
AcDbLine
 10
31.4629615927
 20
180.0325142703
 30
0.0
 11
31.4359916668
 21
180.156190351
 31
0.0
  0
LINE
  5
420
330
22
100
AcDbEntity
  8
0
  6
Continuous
 62
     9
100
AcDbLine
 10
32.4629615927
 20
180.0325109787
 30
0.0
 11
32.4359912017
 21
180.1561903359
 31
0.0
  0
LINE
  5
421
330
22
100
AcDbEntity
  8
0
  6
Continuous
 62
     9
100
AcDbLine
 10
33.4629615927
 20
180.0325147827999
 30
0.0
 11
33.4359917102
 21
180.1561903324
 31
0.0
  0
LINE
  5
422
330
22
100
AcDbEntity
  8
0
  6
Continuous
 62
     9
100
AcDbLine
 10
34.4629615927
 20
180.0325142703
 30
0.0
 11
34.4359916668
 21
180.156190351
 31
0.0
  0
LINE
  5
423
330
22
100
AcDbEntity
  8
0
  6
Continuous
 62
     7
100
AcDbLine
 10
33.57372412530001
 20
168.7703064359
 30
0.0
 11
33.5484374956
 21
168.891933543
 31
0.0
  0
LINE
  5
424
330
22
100
AcDbEntity
  8
0
  6
Continuous
 62
     7
100
AcDbLine
 10
32.5732406843
 20
168.7712191919
 30
0.0
 11
32.5480560892
 21
168.8949092029
 31
0.0
  0
LINE
  5
425
330
22
100
AcDbEntity
  8
0
  6
Continuous
 62
     7
100
AcDbLine
 10
31.5727754414
 20
168.7721502316
 30
0.0
 11
31.547977304
 21
168.8955277036
 31
0.0
  0
LINE
  5
426
330
22
100
AcDbEntity
  8
0
  6
Continuous
 62
     9
100
AcDbLine
 10
34.7192628651
 20
179.9767670582
 30
0.0
 11
34.6931239771
 21
180.1366072542
 31
0.0
  0
LWPOLYLINE
  5
427
330
22
100
AcDbEntity
  8
0
  6
Continuous
 62
     9
100
AcDbPolyline
 90
       10
 70
     0
 43
0.0
 10
31.9969325541
 20
169.445682695
 10
31.9706167647
 20
169.6150767074
 10
31.9443009752
 20
169.9248986224
 10
31.9179851857
 20
170.3666973168
 10
31.8916693962
 20
170.9284216786
 10
31.8653536068
 20
171.5947493285
 10
31.8390378173
 20
172.3475045743
 10
31.81272202780001
 20
173.1661541957
 10
31.7864062383
 20
174.0283675369
 10
31.7337746594
 20
175.7888627268
  0
LWPOLYLINE
  5
433
330
22
100
AcDbEntity
  8
0
  6
Continuous
 62
     9
100
AcDbPolyline
 90
       10
 70
     0
 43
0.0
 10
32.9969325541
 20
169.4456832746
 10
32.9706167647
 20
169.615077876
 10
32.9443009752
 20
169.9249000239
 10
32.91798518570001
 20
170.3666985911
 10
32.8916693962
 20
170.9284224817
 10
32.8653536068
 20
171.5947493532
 10
32.8390378173
 20
172.3475035684
 10
32.8127220278
 20
173.1661519795
 10
32.7864062383
 20
174.0283640171
 10
32.7337746594
 20
175.7888567136
  0
LWPOLYLINE
  5
43F
330
22
100
AcDbEntity
  8
0
  6
Continuous
 62
     9
100
AcDbPolyline
 90
        8
 70
     0
 43
0.0
 10
33.9969325541
 20
169.4456849299
 10
33.9706167647
 20
169.6150820855
 10
33.9443009752
 20
169.924906791
 10
33.91798518570001
 20
170.3667078251
 10
33.8916693962
 20
170.9284339996
 10
33.8653536068
 20
171.5947628849
 10
33.8390378173
 20
172.3475187658
 10
33.8127220278
 20
173.1661684284
  0
LWPOLYLINE
  5
449
330
22
100
AcDbEntity
  8
0
  6
Continuous
 62
     9
100
AcDbPolyline
 90
       10
 70
     0
 43
0.0
 10
32.0719186018
 20
169.4504829469
 10
32.04570727250001
 20
169.6257209368
 10
32.0194959431
 20
169.939988654
 10
31.9932846138
 20
170.3847814725
 10
31.9670732845
 20
170.9480625215
 10
31.9408619551
 20
171.6145884226
 10
31.9146506258
 20
172.3663218027
 10
31.8884392964
 20
173.1829194159999
 10
31.8622279671
 20
174.042282668
 10
31.8098053084
 20
175.7957544488
  0
LWPOLYLINE
  5
455
330
22
100
AcDbEntity
  8
0
  6
Continuous
 62
     7
100
AcDbPolyline
 90
        9
 70
     0
 43
0.0
 10
30.0397273515
 20
180.7329227589
 10
30.0646860551
 20
180.5656280216999
 10
30.089941036
 20
180.2514249493
 10
30.1151737608
 20
179.7997751648
 10
30.1400831958
 20
179.2299403952
 10
30.1650539925
 20
178.5491195095
 10
30.1903398313
 20
177.7650166699
 10
30.2156256521
 20
176.9053038758
 10
30.240597999
 20
176.0032003072
  0
LWPOLYLINE
  5
460
330
22
100
AcDbEntity
  8
0
  6
Continuous
 62
     7
100
AcDbPolyline
 90
        9
 70
     0
 43
0.0
 10
33.0397273515
 20
180.7329227589
 10
33.0646860551
 20
180.5656280216999
 10
33.089941036
 20
180.2514249493
 10
33.1151737608
 20
179.7997751648
 10
33.1400831958
 20
179.2299403952
 10
33.1650539925
 20
178.5491195095
 10
33.1903398313
 20
177.7650166699
 10
33.2156256521
 20
176.9053038758
 10
33.240597999
 20
176.0032003072
  0
LWPOLYLINE
  5
46B
330
22
100
AcDbEntity
  8
0
  6
Continuous
 62
     7
100
AcDbPolyline
 90
        7
 70
     0
 43
0.0
 10
32.0404715529
 20
180.730043804
 10
32.065419095
 20
180.5585372887
 10
32.090669399
 20
180.2402769233
 10
32.1159091133
 20
179.7846629274
 10
32.140822976
 20
179.2112799867
 10
32.1656143513
 20
178.5327162197
 10
32.1903953516
 20
177.7632127955
  0
LWPOLYLINE
  5
474
330
22
100
AcDbEntity
  8
0
  6
Continuous
 62
     9
100
AcDbPolyline
 90
       10
 70
     0
 43
0.0
 10
32.1576518456
 20
169.4043866208
 10
32.1315129576
 20
169.5853163301
 10
32.1053740697
 20
169.9055974693
 10
32.0792351817
 20
170.3566104134
 10
32.0530962938
 20
170.926217183
 10
32.0269574058
 20
171.5990881095
 10
32.0008185178
 20
172.357114397
 10
31.9746796299
 20
173.1798954795
 10
31.9485407419
 20
174.0452880548
 10
31.896262966
 20
175.8102272791999
  0
LWPOLYLINE
  5
480
330
22
100
AcDbEntity
  8
0
  6
Continuous
 62
     7
100
AcDbPolyline
 90
        9
 70
     0
 43
0.0
 10
31.040908127
 20
180.7282933393
 10
31.065708792
 20
180.5557002488
 10
31.0904921082
 20
180.2430042806
 10
31.1153520354
 20
179.7961301533
 10
31.1401840676
 20
179.2274136959
 10
31.1651557439
 20
178.5461582213
 10
31.1904406473
 20
177.7617424389
 10
31.2157242987
 20
176.90184818
 10
31.2406928877
 20
175.9997194381
  0
LWPOLYLINE
  5
48B
330
22
100
AcDbEntity
  8
0
  6
Continuous
 62
     9
100
AcDbPolyline
 90
       10
 70
     0
 43
0.0
 10
33.0679491167
 20
169.4678571291
 10
33.0417377874
 20
169.6645499825
 10
33.01552645800001
 20
169.999221461
 10
32.9893151287
 20
170.4628147803
 10
32.9631037994
 20
171.0427843086
 10
32.93689247
 20
171.723435072
 10
32.9106811407
 20
172.4863474881
 10
32.8844698113
 20
173.3108758307
 10
32.858258482
 20
174.1747069389
 10
32.8058358233
 20
175.9263394111
  0
LWPOLYLINE
  5
497
330
22
100
AcDbEntity
  8
0
  6
Continuous
 62
     9
100
AcDbPolyline
 90
       20
 70
     0
 43
0.0
 10
33.1509295878
 20
169.4372701793
 10
33.1247906999
 20
169.6546563274
 10
33.0986518119
 20
170.0095274577
 10
33.072512924
 20
170.4923330386
 10
33.046374036
 20
171.090079479
 10
33.0202351481
 20
171.7866798196
 10
32.9940962601
 20
172.5633866766
 10
32.9679573722
 20
173.399296783
 10
32.9418184842
 20
174.2719135524
 10
32.9156795962
 20
175.1577525211
 10
32.8895407083
 20
176.032973379
 10
32.86340182030001
 20
176.8740215756
 10
32.83726293239999
 20
177.6582622364
 10
32.8111240444
 20
178.3645893286
 10
32.7849851565
 20
178.9739936808
 10
32.7588462685
 20
179.4700745718
 10
32.7327073806
 20
179.8394811182
 10
32.7065684926
 20
180.0722715832
 10
32.6804296047
 20
180.162180936
 10
32.6692949238
 20
180.1563526153
  0
LWPOLYLINE
  5
4AD
330
22
100
AcDbEntity
  8
0
  6
Continuous
 62
     9
100
AcDbPolyline
 90
       11
 70
     0
 43
0.0
 10
34.0639796316
 20
169.4885270599
 10
34.0377683023
 20
169.7065544146999
 10
34.01155697290001
 20
170.0614237919
 10
33.9853456436
 20
170.5435317929
 10
33.9591343142
 20
171.1398317214
 10
33.9329229849
 20
171.8341866508
 10
33.9067116556
 20
172.607806118
 10
33.8805003262
 20
173.439754626
 10
33.8542889969
 20
174.3075181957
 10
33.8280776676
 20
175.187613633
 10
33.8018663382
 20
176.056224025
  0
LWPOLYLINE
  5
4BA
330
22
100
AcDbEntity
  8
0
  6
Continuous
 62
     7
100
AcDbPolyline
 90
        7
 70
     0
 43
0.0
 10
35.7567307307
 20
140.4298682037
 10
35.8698026171
 20
139.4266465676
 10
36.3127775832
 20
138.1603649924
 10
37.0288445992
 20
137.0207238998
 10
37.9767739693
 20
136.0727945297
 10
39.1164150619
 20
135.3567275137
 10
40.3826966372
 20
134.9137525475
  0
LINE
  5
4C3
330
22
100
AcDbEntity
  8
0
  6
Continuous
 62
     7
100
AcDbLine
 10
35.7192628651
 20
142.217192368
 30
0.0
 11
35.8697768714
 21
140.8814622236
 31
0.0
  0
LWPOLYLINE
  5
4C4
330
22
100
AcDbEntity
  8
0
  6
Continuous
 62
     9
100
AcDbPolyline
 90
        8
 70
     0
 43
0.0
 10
37.7192628651
 20
142.217192368
 10
37.8190772074
 20
141.3286612131
 10
38.1149442618
 20
140.4816243029
 10
38.5921948126
 20
139.7215236361
 10
39.2263203363
 20
139.0873173416
 10
39.9859099989
 20
138.6102782282
 10
40.832216055
 20
138.3146139358
 10
41.71926286509999
 20
138.2149687887999
  0
LINE
  5
4CE
330
22
100
AcDbEntity
  8
0
  6
Continuous
 62
     7
100
AcDbLine
 10
35.8662217583
 20
139.4460001803
 30
0.0
 11
35.7192628651
 21
140.7665481643
 31
0.0
  0
LINE
  5
4CF
330
22
100
AcDbEntity
  8
0
  6
Continuous
 62
     7
100
AcDbLine
 10
37.51926286510001
 20
192.9632127955
 30
0.0
 11
37.51926286510001
 21
209.7632127955
 31
0.0
  0
LINE
  5
4D0
330
22
100
AcDbEntity
  8
0
  6
Continuous
 62
     9
100
AcDbLine
 10
37.7192628651
 20
192.9632127955
 30
0.0
 11
37.7192628651
 21
142.217192368
 31
0.0
  0
LINE
  5
4D1
330
22
100
AcDbEntity
  8
0
  6
Continuous
 62
     9
100
AcDbLine
 10
41.71926286509999
 20
134.7632127955
 30
0.0
 11
41.71926286509999
 21
138.2149687887999
 31
0.0
  0
LINE
  5
4D2
330
22
100
AcDbEntity
  8
0
  6
Continuous
 62
     9
100
AcDbLine
 10
41.7192628385
 20
211.7632127955
 30
0.0
 11
41.71926286509999
 21
214.7632127955
 31
0.0
  0
LINE
  5
4D3
330
22
100
AcDbEntity
  8
0
  6
Continuous
 62
     7
100
AcDbLine
 10
41.71883261909999
 20
202.1248258414
 30
0.0
 11
41.67318533119999
 21
201.7781002661
 31
0.0
  0
LINE
  5
4D4
330
22
100
AcDbEntity
  8
0
  6
Continuous
 62
     7
100
AcDbLine
 10
41.2043753945
 20
198.2171352615999
 30
0.0
 11
41.16003349449999
 21
197.8803250922999
 31
0.0
  0
LINE
  5
4D5
330
22
100
AcDbEntity
  8
0
  6
Continuous
 62
     7
100
AcDbLine
 10
42.37843964039999
 20
202.4260582746
 30
0.0
 11
42.24735789679999
 21
202.1095989514
 31
0.0
  0
LINE
  5
4D6
330
22
100
AcDbEntity
  8
0
  6
Continuous
 62
     7
100
AcDbLine
 10
40.8728767092
 20
198.7913078272
 30
0.0
 11
40.746090802
 21
198.4852195705
 31
0.0
  0
LINE
  5
4D7
330
22
100
AcDbEntity
  8
0
  6
Continuous
 62
     7
100
AcDbLine
 10
44.06008608979999
 20
197.1003673165
 30
0.0
 11
44.1911678334
 21
197.4168266397
 31
0.0
  0
LINE
  5
4D8
330
22
100
AcDbEntity
  8
0
  6
Continuous
 62
     7
100
AcDbLine
 10
45.565649021
 20
200.7351177639
 30
0.0
 11
45.69243492819999
 21
201.0412060206
 31
0.0
  0
LINE
  5
4D9
330
22
100
AcDbEntity
  8
0
  6
Continuous
 62
     7
100
AcDbLine
 10
26.6037928113
 20
169.5632127955
 30
0.0
 11
26.71926286510001
 21
169.7632127955
 31
0.0
  0
LINE
  5
4DA
330
22
100
AcDbEntity
  8
0
  6
Continuous
 62
     7
100
AcDbLine
 10
27.7378298559
 20
180.2749076217
 30
0.0
 11
27.7192628651
 21
180.2427889309999
 31
0.0
  0
LINE
  5
4DB
330
22
100
AcDbEntity
  8
0
  6
Continuous
 62
     7
100
AcDbLine
 10
29.0164217846
 20
180.7568902573
 30
0.0
 11
28.6692010611
 21
180.1561903507
 31
0.0
  0
LINE
  5
4DC
330
22
100
AcDbEntity
  8
0
  6
Continuous
 62
     7
100
AcDbLine
 10
30.016421287
 20
180.7568902443
 30
0.0
 11
29.6692005619
 21
180.1561903363
 31
0.0
  0
LINE
  5
4DD
330
22
100
AcDbEntity
  8
0
  6
Continuous
 62
     7
100
AcDbLine
 10
31.0164217875
 20
180.7568902408
 30
0.0
 11
30.6692010619
 21
180.1561903324
 31
0.0
  0
LINE
  5
4DE
330
22
100
AcDbEntity
  8
0
  6
Continuous
 62
     7
100
AcDbLine
 10
32.0164217846
 20
180.7568902573
 30
0.0
 11
31.6692010611
 21
180.1561903507
 31
0.0
  0
LINE
  5
4DF
330
22
100
AcDbEntity
  8
0
  6
Continuous
 62
     7
100
AcDbLine
 10
33.016421287
 20
180.7568902443
 30
0.0
 11
32.6692005619
 21
180.1561903363
 31
0.0
  0
LWPOLYLINE
  5
4E0
330
22
100
AcDbEntity
  8
0
  6
Continuous
 62
     7
100
AcDbPolyline
 90
        4
 70
     0
 43
0.0
 10
28.6692767811
 20
180.1563207204
 10
28.6682125684
 20
180.1545443534
 10
28.6434523497
 20
180.1295923691999
 10
28.5906547965
 20
180.113212398
  0
LWPOLYLINE
  5
4E6
330
22
100
AcDbEntity
  8
0
  6
Continuous
 62
     7
100
AcDbPolyline
 90
        4
 70
     0
 43
0.0
 10
30.6692702709
 20
180.15630954
 10
30.6681877716
 20
180.1545045391
 10
30.64322118510001
 20
180.1294374239
 10
30.5906415384
 20
180.1132122073
  0
LWPOLYLINE
  5
4EC
330
22
100
AcDbEntity
  8
0
  6
Continuous
 62
     7
100
AcDbPolyline
 90
        4
 70
     0
 43
0.0
 10
29.6692792551
 20
180.1563258003
 10
29.66816360760001
 20
180.1544666285
 10
29.6431979481
 20
180.1294222397
 10
29.5906566382
 20
180.1132124276
  0
LWPOLYLINE
  5
4F2
330
22
100
AcDbEntity
  8
0
  6
Continuous
 62
     7
100
AcDbPolyline
 90
        4
 70
     0
 43
0.0
 10
31.6692962652
 20
180.1563540693999
 10
31.6676324388
 20
180.1536301805
 10
31.6415994335
 20
180.1283773185
 10
31.5906606433
 20
180.1132124702
  0
LINE
  5
4F8
330
22
100
AcDbEntity
  8
0
  6
Continuous
 62
     7
100
AcDbLine
 10
27.7378298559
 20
180.2749076217
 30
0.0
 11
27.756636926
 21
180.3005868535
 31
0.0
  0
LINE
  5
4F9
330
22
100
AcDbEntity
  8
0
  6
Continuous
 62
     7
100
AcDbLine
 10
43.0898908543
 20
202.5446119085
 30
0.0
 11
42.8877641798
 21
202.2811952978
 31
0.0
  0
LINE
  5
4FA
330
22
100
AcDbEntity
  8
0
  6
Continuous
 62
     7
100
AcDbLine
 10
40.70128036279999
 20
199.4317141102
 30
0.0
 11
40.5037009273
 21
199.1742235767
 31
0.0
  0
LWPOLYLINE
  5
4FB
330
22
100
AcDbEntity
  8
0
  6
Continuous
 62
     7
100
AcDbPolyline
 90
        5
 70
     0
 43
0.0
 10
40.3997378051
 20
134.910188131
 10
39.1149191921
 20
135.3582317298
 10
37.9703464478
 20
136.0793281570999
 10
37.0343089456
 20
137.0159704622
 10
36.3139710338
 20
138.1607155942
  0
LINE
  5
502
330
22
100
AcDbEntity
  8
0
  6
Continuous
 62
     9
100
AcDbLine
 10
28.0144308543
 20
169.413213018
 30
0.0
 11
28.0052272534
 21
169.422245086
 31
0.0
  0
LINE
  5
503
330
22
100
AcDbEntity
  8
0
  6
Continuous
 62
     7
100
AcDbLine
 10
28.5731290284
 20
168.7714377206
 30
0.0
 11
28.5814634192
 21
168.7632127955
 31
0.0
  0
LINE
  5
504
330
22
100
AcDbEntity
  8
0
  6
Continuous
 62
     7
100
AcDbLine
 10
27.7192628651
 20
169.2632127955
 30
0.0
 11
27.8149146207
 21
169.1675610399
 31
0.0
  0
LWPOLYLINE
  5
505
330
22
100
AcDbEntity
  8
0
  6
Continuous
 62
     9
100
AcDbPolyline
 90
       11
 70
     0
 43
0.0
 10
28.9358998141
 20
169.3700779972
 10
28.9103300137
 20
169.395986152
 10
28.8840142243
 20
169.566963286
 10
28.8576984348
 20
169.8796807329
 10
28.8313826453
 20
170.3256083871
 10
28.8050668559
 20
170.8925825092
 10
28.7787510664
 20
171.5651375204
 10
28.7524352769
 20
172.324927862
 10
28.7261194874
 20
173.1512284144
 10
28.699803698
 20
174.0214998242
 10
28.647172119
 20
175.7984482402
  0
LINE
  5
512
330
22
100
AcDbEntity
  8
0
  6
Continuous
 62
     7
100
AcDbLine
 10
29.1459823002
 20
169.3950722066
 30
0.0
 11
29.1692339161
 21
169.370177763
 31
0.0
  0
LINE
  5
513
330
22
100
AcDbEntity
  8
0
  6
Continuous
 62
     7
100
AcDbLine
 10
31.1459829283
 20
169.3950721952
 30
0.0
 11
31.169234521
 21
169.3701777712
 31
0.0
  0
LINE
  5
514
330
22
100
AcDbEntity
  8
0
  6
Continuous
 62
     7
100
AcDbLine
 10
29.4412695704
 20
180.1484335759999
 30
0.0
 11
29.4359178673
 21
180.1563166169
 31
0.0
  0
LINE
  5
515
330
22
100
AcDbEntity
  8
0
  6
Continuous
 62
     7
100
AcDbLine
 10
28.4400762633
 20
180.150002176
 30
0.0
 11
28.4358994329
 21
180.1563489913
 31
0.0
  0
LINE
  5
516
330
22
100
AcDbEntity
  8
0
  6
Continuous
 62
     7
100
AcDbLine
 10
30.4400762957
 20
180.1500021731
 30
0.0
 11
30.4358994759
 21
180.1563489734
 31
0.0
  0
LINE
  5
517
330
22
100
AcDbEntity
  8
0
  6
Continuous
 62
     7
100
AcDbLine
 10
33.1692007758
 20
169.3702352595
 30
0.0
 11
33.5164215015
 21
168.769535351
 31
0.0
  0
LINE
  5
518
330
22
100
AcDbEntity
  8
0
  6
Continuous
 62
     7
100
AcDbLine
 10
34.1692012228
 20
169.3702352523
 30
0.0
 11
34.51642194770001
 21
168.7695353445
 31
0.0
  0
LINE
  5
519
330
22
100
AcDbEntity
  8
0
  6
Continuous
 62
     7
100
AcDbLine
 10
28.4359916668
 20
180.156190351
 30
0.0
 11
28.13659892550001
 21
180.674138274
 31
0.0
  0
LINE
  5
51A
330
22
100
AcDbEntity
  8
0
  6
Continuous
 62
     7
100
AcDbLine
 10
29.4359912016
 20
180.1561903359
 30
0.0
 11
29.0887704764
 21
180.7568902441
 31
0.0
  0
LINE
  5
51B
330
22
100
AcDbEntity
  8
0
  6
Continuous
 62
     7
100
AcDbLine
 10
30.4359917102
 20
180.1561903324
 30
0.0
 11
30.0887709846
 21
180.7568902409
 31
0.0
  0
LINE
  5
51C
330
22
100
AcDbEntity
  8
0
  6
Continuous
 62
     7
100
AcDbLine
 10
31.4359916668
 20
180.156190351
 30
0.0
 11
31.0887709433
 21
180.7568902577
 31
0.0
  0
LINE
  5
51D
330
22
100
AcDbEntity
  8
0
  6
Continuous
 62
     7
100
AcDbLine
 10
32.4359912017
 20
180.1561903359
 30
0.0
 11
32.0887704764
 21
180.7568902441
 31
0.0
  0
LINE
  5
51E
330
22
100
AcDbEntity
  8
0
  6
Continuous
 62
     7
100
AcDbLine
 10
33.4359917102
 20
180.1561903324
 30
0.0
 11
33.0887709846
 21
180.7568902409
 31
0.0
  0
LINE
  5
51F
330
22
100
AcDbEntity
  8
0
  6
Continuous
 62
     9
100
AcDbLine
 10
34.0144307314
 20
169.4132130192
 30
0.0
 11
33.9969325541
 21
169.4456849299
 31
0.0
  0
LINE
  5
520
330
22
100
AcDbEntity
  8
0
  6
Continuous
 62
     7
100
AcDbLine
 10
30.0237285498
 20
180.7632127955
 30
0.0
 11
30.0397273515
 21
180.7329227589
 31
0.0
  0
LINE
  5
521
330
22
100
AcDbEntity
  8
0
  6
Continuous
 62
     7
100
AcDbLine
 10
33.0237285498
 20
180.7632127955
 30
0.0
 11
33.0397273515
 21
180.7329227589
 31
0.0
  0
LINE
  5
522
330
22
100
AcDbEntity
  8
0
  6
Continuous
 62
     7
100
AcDbLine
 10
29.0237485345
 20
180.7632127497
 30
0.0
 11
29.0404715529
 21
180.730043804
 31
0.0
  0
LINE
  5
523
330
22
100
AcDbEntity
  8
0
  6
Continuous
 62
     7
100
AcDbLine
 10
32.0237485345
 20
180.7632127497
 30
0.0
 11
32.0404715529
 21
180.730043804
 31
0.0
  0
LINE
  5
524
330
22
100
AcDbEntity
  8
0
  6
Continuous
 62
     7
100
AcDbLine
 10
34.0408945644
 20
180.7283484003
 30
0.0
 11
34.0237289614
 21
180.7632127955
 31
0.0
  0
LINE
  5
525
330
22
100
AcDbEntity
  8
0
  6
Continuous
 62
     7
100
AcDbLine
 10
31.0237576339
 20
180.7632126976
 30
0.0
 11
31.040908127
 21
180.7282933393
 31
0.0
  0
LINE
  5
526
330
22
100
AcDbEntity
  8
0
  6
Continuous
 62
     9
100
AcDbLine
 10
34.6144175477
 20
180.0539981083
 30
0.0
 11
34.5907161488
 21
180.1132127955
 31
0.0
  0
LINE
  5
527
330
22
100
AcDbEntity
  8
0
  6
Continuous
 62
     7
100
AcDbLine
 10
44.719693111
 20
197.4015997497
 30
0.0
 11
44.76534039899999
 21
197.748325325
 31
0.0
  0
LINE
  5
528
330
22
100
AcDbEntity
  8
0
  6
Continuous
 62
     7
100
AcDbLine
 10
45.23415033569999
 20
201.3092903295
 30
0.0
 11
45.2784922357
 21
201.6461004988
 31
0.0
  0
LINE
  5
529
330
22
100
AcDbEntity
  8
0
  6
Continuous
 62
     7
100
AcDbLine
 10
34.0164217875
 20
180.7568902408
 30
0.0
 11
33.6692010619
 21
180.1561903324
 31
0.0
  0
LINE
  5
52A
330
22
100
AcDbEntity
  8
0
  6
Continuous
 62
     7
100
AcDbLine
 10
27.8198769657
 20
169.1693705554
 30
0.0
 11
27.9359918562
 21
169.3702352521
 31
0.0
  0
LINE
  5
52B
330
22
100
AcDbEntity
  8
0
  6
Continuous
 62
     7
100
AcDbLine
 10
34.7192628651
 20
180.2427889508
 30
0.0
 11
34.66920106110001
 21
180.1561903507
 31
0.0
  0
LINE
  5
52C
330
22
100
AcDbEntity
  8
0
  6
Continuous
 62
     7
100
AcDbLine
 10
28.5887705098
 20
168.7695353379
 30
0.0
 11
28.9359912339
 21
169.3702352451
 31
0.0
  0
LINE
  5
52D
330
22
100
AcDbEntity
  8
0
  6
Continuous
 62
     7
100
AcDbLine
 10
29.58877070050001
 20
168.7695353511
 30
0.0
 11
29.9359914262
 21
169.3702352597
 31
0.0
  0
LINE
  5
52E
330
22
100
AcDbEntity
  8
0
  6
Continuous
 62
     7
100
AcDbLine
 10
30.5887711313
 20
168.7695353443
 30
0.0
 11
30.9359918562
 21
169.3702352521
 31
0.0
  0
LINE
  5
52F
330
22
100
AcDbEntity
  8
0
  6
Continuous
 62
     7
100
AcDbLine
 10
31.5887705098
 20
168.7695353379
 30
0.0
 11
31.9359912339
 21
169.3702352451
 31
0.0
  0
LINE
  5
530
330
22
100
AcDbEntity
  8
0
  6
Continuous
 62
     7
100
AcDbLine
 10
32.5887707005
 20
168.7695353511
 30
0.0
 11
32.9359914262
 21
169.3702352597
 31
0.0
  0
LWPOLYLINE
  5
531
330
22
100
AcDbEntity
  8
0
  6
Continuous
 62
     7
100
AcDbPolyline
 90
        4
 70
     0
 43
0.0
 10
32.6692949238
 20
180.1563526153
 10
32.6676702352
 20
180.1536894686
 10
32.6417261533
 20
180.1284588001
 10
32.5906597044
 20
180.1132124648
  0
LWPOLYLINE
  5
537
330
22
100
AcDbEntity
  8
0
  6
Continuous
 62
     7
100
AcDbPolyline
 90
        4
 70
     0
 43
0.0
 10
28.9358998141
 20
169.3700779972
 10
28.9401388881
 20
169.3765084509
 10
28.9736504517
 20
169.4036693545
 10
29.0144741223
 20
169.413212796
  0
LWPOLYLINE
  5
53D
330
22
100
AcDbEntity
  8
0
  6
Continuous
 62
     7
100
AcDbPolyline
 90
        4
 70
     0
 43
0.0
 10
27.9359081513
 20
169.3700912056
 10
27.9409790942
 20
169.377617223
 10
27.9769258944
 20
169.4051798189
 10
28.0144308543
 20
169.413213018
  0
LWPOLYLINE
  5
543
330
22
100
AcDbEntity
  8
0
  6
Continuous
 62
     7
100
AcDbPolyline
 90
        4
 70
     0
 43
0.0
 10
29.9359095618
 20
169.3700943643
 10
29.9410296664
 20
169.3776832359
 10
29.9770408142
 20
169.4052303776
 10
30.0144303417
 20
169.4132130188
  0
LINE
  5
549
330
22
100
AcDbEntity
  8
0
  6
Continuous
 62
     7
100
AcDbLine
 10
43.3486348759
 20
196.9818136825999
 30
0.0
 11
43.55076155039999
 21
197.2452302933
 31
0.0
  0
LINE
  5
54A
330
22
100
AcDbEntity
  8
0
  6
Continuous
 62
     7
100
AcDbLine
 10
45.7372453673
 20
200.0947114809
 30
0.0
 11
45.93482480289999
 21
200.3522020144
 31
0.0
  0
LINE
  5
54B
330
22
100
AcDbEntity
  8
0
  6
Continuous
 62
     7
100
AcDbLine
 10
61.4692628651
 20
223.1632127955
 30
0.0
 11
60.9692628651
 21
222.6632127955
 31
0.0
  0
LINE
  5
54C
330
22
100
AcDbEntity
  8
0
  6
Continuous
 62
     2
100
AcDbLine
 10
70.556767111
 20
226.1632127955
 30
0.0
 11
89.58791644979999
 21
236.2632127955
 31
0.0
  0
LINE
  5
54D
330
22
100
AcDbEntity
  8
0
  6
Continuous
 62
     7
100
AcDbLine
 10
31.5164219477
 20
168.7695353445
 30
0.0
 11
31.5237599079
 21
168.7632129085
 31
0.0
  0
LINE
  5
54E
330
22
100
AcDbEntity
  8
0
  6
Continuous
 62
     9
100
AcDbLine
 10
28.0906585009
 20
169.4132131486
 30
0.0
 11
28.0826047897
 21
169.420159767
 31
0.0
  0
LINE
  5
54F
330
22
100
AcDbEntity
  8
0
  6
Continuous
 62
     7
100
AcDbLine
 10
30.5164215015
 20
168.769535351
 30
0.0
 11
30.5237469229
 21
168.7632128354
 31
0.0
  0
LINE
  5
550
330
22
100
AcDbEntity
  8
0
  6
Continuous
 62
     7
100
AcDbLine
 10
33.5164215015
 20
168.769535351
 30
0.0
 11
33.52374692290001
 21
168.7632128354
 31
0.0
  0
LINE
  5
551
330
22
100
AcDbEntity
  8
0
  6
Continuous
 62
     7
100
AcDbLine
 10
28.5237290576
 20
168.7632127955
 30
0.0
 11
28.5164219477
 21
168.7695353445
 31
0.0
  0
LINE
  5
552
330
22
100
AcDbEntity
  8
0
  6
Continuous
 62
     7
100
AcDbLine
 10
29.5164213415
 20
168.7695353376
 30
0.0
 11
29.5237214219
 21
168.7632128013
 31
0.0
  0
LINE
  5
553
330
22
100
AcDbEntity
  8
0
  6
Continuous
 62
     7
100
AcDbLine
 10
32.5164213415
 20
168.7695353376
 30
0.0
 11
32.5237214219
 21
168.7632128013
 31
0.0
  0
LINE
  5
554
330
22
100
AcDbEntity
  8
0
  6
Continuous
 62
     7
100
AcDbLine
 10
30.5814949348
 20
168.7632129085
 30
0.0
 11
30.5737241253
 21
168.7703064359
 31
0.0
  0
LINE
  5
555
330
22
100
AcDbEntity
  8
0
  6
Continuous
 62
     7
100
AcDbLine
 10
33.5814949348
 20
168.7632129085
 30
0.0
 11
33.57372412530001
 21
168.7703064359
 31
0.0
  0
LINE
  5
556
330
22
100
AcDbEntity
  8
0
  6
Continuous
 62
     7
100
AcDbLine
 10
29.5814819498
 20
168.7632128354
 30
0.0
 11
29.5732406843
 21
168.7712191919
 31
0.0
  0
LINE
  5
557
330
22
100
AcDbEntity
  8
0
  6
Continuous
 62
     7
100
AcDbLine
 10
32.5814819498
 20
168.7632128354
 30
0.0
 11
32.5732406843
 21
168.7712191919
 31
0.0
  0
LWPOLYLINE
  5
558
330
22
100
AcDbEntity
  8
0
  6
Continuous
 62
     9
100
AcDbPolyline
 90
       11
 70
     0
 43
0.0
 10
29.9359095618
 20
169.3700943643
 10
29.9103300137
 20
169.395986737
 10
29.8840142243
 20
169.5669644656
 10
29.8576984348
 20
169.8796821475
 10
29.8313826453
 20
170.3256096733
 10
29.8050668559
 20
170.8925833199
 10
29.7787510664
 20
171.5651375453
 10
29.7524352769
 20
172.3249268466999
 10
29.7261194874
 20
173.1512261775
 10
29.699803698
 20
174.0214962715
 10
29.647172119
 20
175.7984421708
  0
LWPOLYLINE
  5
565
330
22
100
AcDbEntity
  8
0
  6
Continuous
 62
     9
100
AcDbPolyline
 90
       11
 70
     0
 43
0.0
 10
32.9359095618
 20
169.3700943643
 10
32.9103300137
 20
169.395986737
 10
32.8840142243
 20
169.5669644656
 10
32.8576984348
 20
169.8796821475
 10
32.83138264530001
 20
170.3256096733
 10
32.8050668559
 20
170.8925833199
 10
32.7787510664
 20
171.5651375453
 10
32.7524352769
 20
172.3249268466999
 10
32.7261194874
 20
173.1512261775
 10
32.69980369800001
 20
174.0214962715
 10
32.64717211900001
 20
175.7984421708
  0
LWPOLYLINE
  5
572
330
22
100
AcDbEntity
  8
0
  6
Continuous
 62
     9
100
AcDbPolyline
 90
       11
 70
     0
 43
0.0
 10
30.9359005465
 20
169.3700781926
 10
30.9103300137
 20
169.3959884078
 10
30.8840142243
 20
169.5669687144
 10
30.8576984348
 20
169.8796889778
 10
30.8313826453
 20
170.3256189936
 10
30.8050668559
 20
170.8925949454
 10
30.7787510664
 20
171.5651512034
 10
30.7524352769
 20
172.3249421861
 10
30.7261194874
 20
173.1512427801
 10
30.699803698
 20
174.0215136678
 10
30.647172119
 20
175.7984596263
  0
LWPOLYLINE
  5
57F
330
22
100
AcDbEntity
  8
0
  6
Continuous
 62
     9
100
AcDbPolyline
 90
       11
 70
     0
 43
0.0
 10
31.9358998141
 20
169.3700779972
 10
31.9103300137
 20
169.395986152
 10
31.8840142243
 20
169.566963286
 10
31.8576984348
 20
169.8796807329
 10
31.83138264530001
 20
170.3256083871
 10
31.8050668559
 20
170.8925825092
 10
31.7787510664
 20
171.5651375204
 10
31.7524352769
 20
172.324927862
 10
31.7261194874
 20
173.1512284144
 10
31.699803698
 20
174.0214998242
 10
31.647172119
 20
175.7984482402
  0
LWPOLYLINE
  5
58C
330
22
100
AcDbEntity
  8
0
  6
Continuous
 62
     9
100
AcDbPolyline
 90
        9
 70
     0
 43
0.0
 10
33.9359005465
 20
169.3700781926
 10
33.9103300137
 20
169.3959884078
 10
33.8840142243
 20
169.5669687144
 10
33.8576984348
 20
169.8796889778
 10
33.8313826453
 20
170.3256189936
 10
33.8050668559
 20
170.8925949454
 10
33.7787510664
 20
171.5651512034
 10
33.7524352769
 20
172.3249421861
 10
33.7261194874
 20
173.1512427801
  0
LINE
  5
597
330
22
100
AcDbEntity
  8
0
  6
Continuous
 62
     7
100
AcDbLine
 10
31.5814564489
 20
168.7632128013
 30
0.0
 11
31.5727754414
 21
168.7721502316
 31
0.0
  0
LINE
  5
598
330
22
100
AcDbEntity
  8
0
  6
Continuous
 62
     7
100
AcDbLine
 10
32.1459823002
 20
169.3950722066
 30
0.0
 11
32.1692339161
 21
169.370177763
 31
0.0
  0
LINE
  5
599
330
22
100
AcDbEntity
  8
0
  6
Continuous
 62
     7
100
AcDbLine
 10
33.145982478
 20
169.3950722023
 30
0.0
 11
33.1692340742
 21
169.370177778
 31
0.0
  0
LINE
  5
59A
330
22
100
AcDbEntity
  8
0
  6
Continuous
 62
     7
100
AcDbLine
 10
34.1459829283
 20
169.3950721952
 30
0.0
 11
34.169234521
 21
169.3701777712
 31
0.0
  0
LINE
  5
59B
330
22
100
AcDbEntity
  8
0
  6
Continuous
 62
     9
100
AcDbLine
 10
28.525162505
 20
180.101158402
 30
0.0
 11
28.5144782796
 21
180.1132127952
 31
0.0
  0
LINE
  5
59C
330
22
100
AcDbEntity
  8
0
  6
Continuous
 62
     9
100
AcDbLine
 10
28.601664682
 20
180.1005588825
 30
0.0
 11
28.5907161488
 21
180.1132127955
 31
0.0
  0
LINE
  5
59D
330
22
100
AcDbEntity
  8
0
  6
Continuous
 62
     7
100
AcDbLine
 10
32.44126957040001
 20
180.1484335759999
 30
0.0
 11
32.4359178673
 21
180.1563166169
 31
0.0
  0
LINE
  5
59E
330
22
100
AcDbEntity
  8
0
  6
Continuous
 62
     7
100
AcDbLine
 10
31.4400762633
 20
180.150002176
 30
0.0
 11
31.4358994329
 21
180.1563489913
 31
0.0
  0
LINE
  5
59F
330
22
100
AcDbEntity
  8
0
  6
Continuous
 62
     7
100
AcDbLine
 10
33.4400762957
 20
180.1500021731
 30
0.0
 11
33.4358994759
 21
180.1563489734
 31
0.0
  0
LINE
  5
5A0
330
22
100
AcDbEntity
  8
0
  6
Continuous
 62
     7
100
AcDbLine
 10
34.4400762633
 20
180.150002176
 30
0.0
 11
34.4358994329
 21
180.1563489913
 31
0.0
  0
LINE
  5
5A1
330
22
100
AcDbEntity
  8
0
  6
Continuous
 62
     7
100
AcDbLine
 10
34.4359916668
 20
180.156190351
 30
0.0
 11
34.0887709433
 21
180.7568902577
 31
0.0
  0
LINE
  5
5A2
330
22
100
AcDbEntity
  8
0
  6
Continuous
 62
     7
100
AcDbLine
 10
41.16003349449999
 20
201.6461004988
 30
0.0
 11
41.2043753945
 21
201.3092903295
 31
0.0
  0
LINE
  5
5A3
330
22
100
AcDbEntity
  8
0
  6
Continuous
 62
     7
100
AcDbLine
 10
41.67318533119999
 20
197.748325325
 30
0.0
 11
41.71883261909999
 21
197.4015997497
 31
0.0
  0
LINE
  5
5A4
330
22
100
AcDbEntity
  8
0
  6
Continuous
 62
     7
100
AcDbLine
 10
45.2784922357
 20
197.8803250922999
 30
0.0
 11
45.23415033569999
 21
198.2171352615999
 31
0.0
  0
LINE
  5
5A5
330
22
100
AcDbEntity
  8
0
  6
Continuous
 62
     7
100
AcDbLine
 10
44.76534039899999
 20
201.7781002661
 30
0.0
 11
44.719693111
 21
202.1248258414
 31
0.0
  0
LINE
  5
5A6
330
22
100
AcDbEntity
  8
0
  6
Continuous
 62
     7
100
AcDbLine
 10
50.0192628651
 20
199.7632127954999
 30
0.0
 11
50.0192628651
 21
211.7632127955
 31
0.0
  0
LINE
  5
5A7
330
22
100
AcDbEntity
  8
0
  6
Continuous
 62
     7
100
AcDbLine
 10
53.2192628651
 20
136.1994058894
 30
0.0
 11
53.2192628651
 21
149.7632127954999
 31
0.0
  0
LINE
  5
5A8
330
22
100
AcDbEntity
  8
0
  6
Continuous
 62
     7
100
AcDbLine
 10
53.2192628651
 20
199.7632127954999
 30
0.0
 11
53.2192628651
 21
213.3270197017
 31
0.0
  0
LINE
  5
5A9
330
22
100
AcDbEntity
  8
0
  6
Continuous
 62
     7
100
AcDbLine
 10
33.5887711313
 20
168.7695353443
 30
0.0
 11
33.9359918562
 21
169.3702352521
 31
0.0
  0
LWPOLYLINE
  5
5AA
330
22
100
AcDbEntity
  8
0
  6
Continuous
 62
     7
100
AcDbPolyline
 90
        4
 70
     0
 43
0.0
 10
31.9358998141
 20
169.3700779972
 10
31.9401388881
 20
169.3765084509
 10
31.9736504517
 20
169.4036693545
 10
32.0144741223
 20
169.413212796
  0
LWPOLYLINE
  5
5B0
330
22
100
AcDbEntity
  8
0
  6
Continuous
 62
     7
100
AcDbPolyline
 90
        4
 70
     0
 43
0.0
 10
30.9359005465
 20
169.3700781926
 10
30.9407714343
 20
169.3773469197
 10
30.9764805501
 20
169.4049829663
 10
31.0144307314
 20
169.4132130192
  0
LWPOLYLINE
  5
5B6
330
22
100
AcDbEntity
  8
0
  6
Continuous
 62
     7
100
AcDbPolyline
 90
        4
 70
     0
 43
0.0
 10
33.9359005465
 20
169.3700781926
 10
33.9407714343
 20
169.3773469197
 10
33.9764805501
 20
169.4049829663
 10
34.0144307314
 20
169.4132130192
  0
LWPOLYLINE
  5
5BC
330
22
100
AcDbEntity
  8
0
  6
Continuous
 62
     7
100
AcDbPolyline
 90
        4
 70
     0
 43
0.0
 10
32.9359095618
 20
169.3700943643
 10
32.9410296664
 20
169.3776832359
 10
32.9770408142
 20
169.4052303776
 10
33.0144303417
 20
169.4132130188
  0
LINE
  5
5C2
330
22
100
AcDbEntity
  8
0
  6
Continuous
 62
     7
100
AcDbLine
 10
34.66922054219999
 20
180.1562240086
 30
0.0
 11
34.64620994070001
 21
180.1315175175999
 31
0.0
  0
LWPOLYLINE
  5
5C3
330
22
100
AcDbEntity
  8
0
  6
Continuous
 62
     7
100
AcDbPolyline
 90
        3
 70
     0
 43
0.0
 10
33.6692324475
 20
180.1562445183
 10
33.6461067271
 20
180.1314428158
 10
33.5906377458
 20
180.113212146
  0
LINE
  5
5C8
330
22
100
AcDbEntity
  8
0
  6
Continuous
 62
     7
100
AcDbLine
 10
27.7566244715
 20
180.300574402
 30
0.0
 11
28.1319018075
 21
180.675851738
 31
0.0
  0
LINE
  5
5C9
330
22
100
AcDbEntity
  8
0
  6
Continuous
 62
     7
100
AcDbLine
 10
29.0164217846
 20
180.7568902573
 30
0.0
 11
29.0237485345
 21
180.7632127497
 31
0.0
  0
LINE
  5
5CA
330
22
100
AcDbEntity
  8
0
  6
Continuous
 62
     7
100
AcDbLine
 10
43.80798229859999
 20
202.4785677198
 30
0.0
 11
43.55076155039999
 21
202.2811952978
 31
0.0
  0
LINE
  5
5CB
330
22
100
AcDbEntity
  8
0
  6
Continuous
 62
     7
100
AcDbLine
 10
40.70128036279999
 20
200.0947114809
 30
0.0
 11
40.4477628278
 21
199.9001806343
 31
0.0
  0
LINE
  5
5CC
330
22
100
AcDbEntity
  8
0
  6
Continuous
 62
     7
100
AcDbLine
 10
42.63054343159999
 20
197.0478578713
 30
0.0
 11
42.8877641798
 21
197.2452302933
 31
0.0
  0
LINE
  5
5CD
330
22
100
AcDbEntity
  8
0
  6
Continuous
 62
     7
100
AcDbLine
 10
45.7372453673
 20
199.4317141102
 30
0.0
 11
45.9907629024
 21
199.6262449568
 31
0.0
  0
LWPOLYLINE
  5
5CE
330
22
100
AcDbEntity
  8
0
  6
Continuous
 62
     7
100
AcDbPolyline
 90
        6
 70
     0
 43
0.0
 10
40.3826966372
 20
214.6126730436
 10
39.1164150619
 20
214.1696980774
 10
37.9767739693
 20
213.4536310614
 10
37.0288445992
 20
212.5057016913
 10
36.3127775832
 20
211.3660605987
 10
35.8698026171
 20
210.0997790235
  0
LWPOLYLINE
  5
5D6
330
22
100
AcDbEntity
  8
0
  6
Continuous
 62
     7
100
AcDbPolyline
 90
        3
 70
     0
 43
0.0
 10
39.1149191921
 20
214.1681938613
 10
40.3997378051
 20
214.6162374601
 10
41.6414563227
 20
214.7545463117
  0
LWPOLYLINE
  5
5DB
330
22
100
AcDbEntity
  8
0
  6
Continuous
 62
     7
100
AcDbPolyline
 90
        6
 70
     0
 43
0.0
 10
159.7192628651
 20
136.2160799607
 10
161.0543345996
 20
136.3665280651
 10
162.322279978
 20
136.8102394785
 10
163.4600541384
 20
137.5252160665
 10
164.409835828
 20
138.475038361
 10
165.1249154875
 20
139.6130738613
  0
LINE
  5
5E3
330
22
100
AcDbEntity
  8
0
  6
Continuous
 62
     7
100
AcDbLine
 10
161.055829093
 20
134.9137525475
 30
0.0
 11
159.7192628651
 21
134.7632127955
 31
0.0
  0
LINE
  5
5E4
330
22
100
AcDbEntity
  8
0
  6
Continuous
 62
     7
100
AcDbLine
 10
41.71926286509999
 20
134.7632127955
 30
0.0
 11
40.3997378051
 21
134.910188131
 31
0.0
  0
LINE
  5
5E5
330
22
100
AcDbEntity
  8
0
  6
Continuous
 62
     7
100
AcDbLine
 10
40.3826966372
 20
134.9137525475
 30
0.0
 11
41.6414563226
 21
134.7718792794
 31
0.0
  0
LWPOLYLINE
  5
5E6
330
22
100
AcDbEntity
  8
0
  6
Continuous
 62
     7
100
AcDbPolyline
 90
        9
 70
     0
 43
0.0
 10
27.7750570394
 20
180.3123523752
 10
27.8307386176
 20
180.2663538864
 10
27.8862555372
 20
180.0977233893
 10
27.9417037872
 20
179.8082815287
 10
27.9970920844
 20
179.4024723391
 10
28.0523554625
 20
178.8880766275
 10
28.107885919
 20
178.2703782574
 10
28.1637545966
 20
177.5588906322
 10
28.2192628651
 20
176.776691078
  0
LINE
  5
5F1
330
22
100
AcDbEntity
  8
0
  6
Continuous
 62
     7
100
AcDbLine
 10
34.5237290994
 20
168.7632127956
 30
0.0
 11
34.51642194770001
 21
168.7695353445
 31
0.0
  0
LINE
  5
5F2
330
22
100
AcDbEntity
  8
0
  6
Continuous
 62
     7
100
AcDbLine
 10
29.0887704764
 20
180.7568902441
 30
0.0
 11
29.0814635767
 21
180.7632127955
 31
0.0
  0
LINE
  5
5F3
330
22
100
AcDbEntity
  8
0
  6
Continuous
 62
     9
100
AcDbLine
 10
29.5232483436
 20
180.1050883258
 30
0.0
 11
29.514476097
 21
180.1132127955
 31
0.0
  0
LINE
  5
5F4
330
22
100
AcDbEntity
  8
0
  6
Continuous
 62
     9
100
AcDbLine
 10
29.5994879129
 20
180.1050883258
 30
0.0
 11
29.5907156663
 21
180.1132127955
 31
0.0
  0
LINE
  5
5F5
330
22
100
AcDbEntity
  8
0
  6
Continuous
 62
     9
100
AcDbLine
 10
30.5232483436
 20
180.1050892641
 30
0.0
 11
30.5144783016
 21
180.1132127952
 31
0.0
  0
LINE
  5
5F6
330
22
100
AcDbEntity
  8
0
  6
Continuous
 62
     9
100
AcDbLine
 10
30.5994879129
 20
180.1050892641
 30
0.0
 11
30.5907161707
 21
180.1132127955
 31
0.0
  0
LINE
  5
5F7
330
22
100
AcDbEntity
  8
0
  6
Continuous
 62
     9
100
AcDbLine
 10
31.5232483436
 20
180.105089202
 30
0.0
 11
31.5144782796
 21
180.1132127952
 31
0.0
  0
LINE
  5
5F8
330
22
100
AcDbEntity
  8
0
  6
Continuous
 62
     9
100
AcDbLine
 10
31.5994879129
 20
180.105089202
 30
0.0
 11
31.5907161488
 21
180.1132127955
 31
0.0
  0
LINE
  5
5F9
330
22
100
AcDbEntity
  8
0
  6
Continuous
 62
     9
100
AcDbLine
 10
32.5232483436
 20
180.1050883258
 30
0.0
 11
32.514476097
 21
180.1132127955
 31
0.0
  0
LINE
  5
5FA
330
22
100
AcDbEntity
  8
0
  6
Continuous
 62
     7
100
AcDbLine
 10
40.746090802
 20
201.0412060206
 30
0.0
 11
40.8728767092
 21
200.7351177639
 31
0.0
  0
LINE
  5
5FB
330
22
100
AcDbEntity
  8
0
  6
Continuous
 62
     7
100
AcDbLine
 10
42.24735789679999
 20
197.4168266397
 30
0.0
 11
42.37843964039999
 21
197.1003673165
 31
0.0
  0
LINE
  5
5FC
330
22
100
AcDbEntity
  8
0
  6
Continuous
 62
     7
100
AcDbLine
 10
59.96926286509999
 20
216.3632127955
 30
0.0
 11
59.96926286509999
 21
213.8700263994
 31
0.0
  0
LINE
  5
5FD
330
22
100
AcDbEntity
  8
0
  6
Continuous
 62
     7
100
AcDbLine
 10
59.9940682016
 20
216.3632127955
 30
0.0
 11
59.9940682016
 21
213.8685940985
 31
0.0
  0
LINE
  5
5FE
330
22
100
AcDbEntity
  8
0
  6
Continuous
 62
     7
100
AcDbLine
 10
83.46926286510001
 20
223.1632127955
 30
0.0
 11
82.9692628651
 21
222.6632127955
 31
0.0
  0
LINE
  5
5FF
330
22
100
AcDbEntity
  8
0
  6
Continuous
 62
     7
100
AcDbLine
 10
30.016421287
 20
180.7568902443
 30
0.0
 11
30.0237285498
 21
180.7632127955
 31
0.0
  0
LINE
  5
600
330
22
100
AcDbEntity
  8
0
  6
Continuous
 62
     7
100
AcDbLine
 10
33.016421287
 20
180.7568902443
 30
0.0
 11
33.0237285498
 21
180.7632127955
 31
0.0
  0
LINE
  5
601
330
22
100
AcDbEntity
  8
0
  6
Continuous
 62
     7
100
AcDbLine
 10
34.0237289614
 20
180.7632127955
 30
0.0
 11
34.0164217875
 21
180.7568902408
 31
0.0
  0
LINE
  5
602
330
22
100
AcDbEntity
  8
0
  6
Continuous
 62
     7
100
AcDbLine
 10
32.0164217846
 20
180.7568902573
 30
0.0
 11
32.0237485345
 21
180.7632127497
 31
0.0
  0
LINE
  5
603
330
22
100
AcDbEntity
  8
0
  6
Continuous
 62
     7
100
AcDbLine
 10
31.0164217875
 20
180.7568902408
 30
0.0
 11
31.0237576339
 21
180.7632126976
 31
0.0
  0
LINE
  5
604
330
22
100
AcDbEntity
  8
0
  6
Continuous
 62
     7
100
AcDbLine
 10
44.4858019008
 20
202.2316403781
 30
0.0
 11
44.1911678334
 21
202.1095989514
 31
0.0
  0
LINE
  5
605
330
22
100
AcDbEntity
  8
0
  6
Continuous
 62
     7
100
AcDbLine
 10
40.8728767092
 20
200.7351177639
 30
0.0
 11
40.5805854861
 21
200.6140467751
 31
0.0
  0
LWPOLYLINE
  5
606
330
22
100
AcDbEntity
  8
0
  6
Continuous
 62
     7
100
AcDbPolyline
 90
        4
 70
     0
 43
0.0
 10
59.2192628651
 20
213.9862010727
 10
59.40512954279999
 20
214.0451545819
 10
59.95456005729999
 20
214.1015267914
 10
59.96926286509999
 20
214.1023757553
  0
LINE
  5
60C
330
22
100
AcDbEntity
  8
0
  6
Continuous
 62
     7
100
AcDbLine
 10
159.7201766942
 20
134.7632127955
 30
0.0
 11
41.71834903599999
 21
134.7632127955
 31
0.0
  0
LINE
  5
60D
330
22
100
AcDbEntity
  8
0
  6
Continuous
 62
     9
100
AcDbLine
 10
53.2192628651
 20
136.1994058894
 30
0.0
 11
148.2192628651
 21
136.1994058894
 31
0.0
  0
LINE
  5
60E
330
22
100
AcDbEntity
  8
0
  6
Continuous
 62
     9
100
AcDbLine
 10
41.71926286509999
 20
136.2160799607
 30
0.0
 11
53.2192628651
 21
136.2160799607
 31
0.0
  0
LINE
  5
60F
330
22
100
AcDbEntity
  8
0
  6
Continuous
 62
     9
100
AcDbLine
 10
148.2192628651
 20
136.2160799607
 30
0.0
 11
159.7192628651
 21
136.2160799607
 31
0.0
  0
LINE
  5
610
330
22
100
AcDbEntity
  8
0
  6
Continuous
 62
     7
100
AcDbLine
 10
151.4192628651
 20
137.7632127955
 30
0.0
 11
161.9192628651
 21
137.7632127955
 31
0.0
  0
LINE
  5
611
330
22
100
AcDbEntity
  8
0
  6
Continuous
 62
     9
100
AcDbLine
 10
53.2192628651
 20
138.1982947175
 30
0.0
 11
148.2192628651
 21
138.1982947175
 31
0.0
  0
LINE
  5
612
330
22
100
AcDbEntity
  8
0
  6
Continuous
 62
     9
100
AcDbLine
 10
41.71926286509999
 20
138.2149687887999
 30
0.0
 11
53.2192628651
 21
138.2149687887999
 31
0.0
  0
LINE
  5
613
330
22
100
AcDbEntity
  8
0
  6
Continuous
 62
     9
100
AcDbLine
 10
148.2192628651
 20
138.2149687887999
 30
0.0
 11
151.4192628651
 21
138.2149687887999
 31
0.0
  0
LWPOLYLINE
  5
614
330
22
100
AcDbEntity
  8
0
  6
Continuous
 62
     7
100
AcDbPolyline
 90
        3
 70
     0
 43
0.0
 10
27.8149152491
 20
169.1675604116
 10
27.8168865265
 20
169.1666580614
 10
27.8198769657
 20
169.1693705554
  0
LINE
  5
619
330
22
100
AcDbEntity
  8
0
  6
Continuous
 62
     9
100
AcDbLine
 10
34.6931239771
 20
180.1366072542
 30
0.0
 11
34.66922054219999
 21
180.1562240086
 31
0.0
  0
LINE
  5
61A
330
22
100
AcDbEntity
  8
0
  6
Continuous
 62
     7
100
AcDbLine
 10
32.0887704764
 20
180.7568902441
 30
0.0
 11
32.0814635767
 21
180.7632127955
 31
0.0
  0
LINE
  5
61B
330
22
100
AcDbEntity
  8
0
  6
Continuous
 62
     7
100
AcDbLine
 10
31.0887709433
 20
180.7568902577
 30
0.0
 11
31.0814835614
 21
180.7632127497
 31
0.0
  0
LINE
  5
61C
330
22
100
AcDbEntity
  8
0
  6
Continuous
 62
     7
100
AcDbLine
 10
34.0887709433
 20
180.7568902577
 30
0.0
 11
34.0814835614
 21
180.7632127497
 31
0.0
  0
LINE
  5
61D
330
22
100
AcDbEntity
  8
0
  6
Continuous
 62
     7
100
AcDbLine
 10
30.0887709846
 20
180.7568902409
 30
0.0
 11
30.0814926608
 21
180.7632126976
 31
0.0
  0
LINE
  5
61E
330
22
100
AcDbEntity
  8
0
  6
Continuous
 62
     7
100
AcDbLine
 10
33.0887709846
 20
180.7568902409
 30
0.0
 11
33.0814926608
 21
180.7632126976
 31
0.0
  0
LINE
  5
61F
330
22
100
AcDbEntity
  8
0
  6
Continuous
 62
     9
100
AcDbLine
 10
33.5232483436
 20
180.1050892641
 30
0.0
 11
33.5144783016
 21
180.1132127952
 31
0.0
  0
LINE
  5
620
330
22
100
AcDbEntity
  8
0
  6
Continuous
 62
     9
100
AcDbLine
 10
34.52324834360001
 20
180.105089202
 30
0.0
 11
34.5144782796
 21
180.1132127952
 31
0.0
  0
LINE
  5
621
330
22
100
AcDbEntity
  8
0
  6
Continuous
 62
     7
100
AcDbLine
 10
45.69243492819999
 20
198.4852195705
 30
0.0
 11
45.565649021
 21
198.7913078272
 31
0.0
  0
LINE
  5
622
330
22
100
AcDbEntity
  8
0
  6
Continuous
 62
     7
100
AcDbLine
 10
44.1911678334
 20
202.1095989514
 30
0.0
 11
44.06008608979999
 21
202.4260582746
 31
0.0
  0
LINE
  5
623
330
22
100
AcDbEntity
  8
0
  6
Continuous
 62
     7
100
AcDbLine
 10
60.9692628651
 20
222.6632127955
 30
0.0
 11
60.9692628651
 21
216.5632127955
 31
0.0
  0
LINE
  5
624
330
22
100
AcDbEntity
  8
0
  6
Continuous
 62
     7
100
AcDbLine
 10
63.3201018756
 20
216.3632127955
 30
0.0
 11
63.3201018756
 21
213.7632127955
 31
0.0
  0
LINE
  5
625
330
22
100
AcDbEntity
  8
0
  6
Continuous
 62
     7
100
AcDbLine
 10
63.8192628651
 20
226.1632127955
 30
0.0
 11
63.8192628651
 21
223.1632127955
 31
0.0
  0
LINE
  5
626
330
22
100
AcDbEntity
  8
0
  6
Continuous
 62
     7
100
AcDbLine
 10
64.39322919119999
 20
216.3632127955
 30
0.0
 11
64.39322919119999
 21
213.7632127955
 31
0.0
  0
LINE
  5
627
330
22
100
AcDbEntity
  8
0
  6
Continuous
 62
     7
100
AcDbLine
 10
30.5887711313
 20
168.7695353443
 30
0.0
 11
30.5814949348
 21
168.7632129085
 31
0.0
  0
LINE
  5
628
330
22
100
AcDbEntity
  8
0
  6
Continuous
 62
     7
100
AcDbLine
 10
33.5887711313
 20
168.7695353443
 30
0.0
 11
33.5814949348
 21
168.7632129085
 31
0.0
  0
LINE
  5
629
330
22
100
AcDbEntity
  8
0
  6
Continuous
 62
     7
100
AcDbLine
 10
29.58877070050001
 20
168.7695353511
 30
0.0
 11
29.5814819498
 21
168.7632128354
 31
0.0
  0
LINE
  5
62A
330
22
100
AcDbEntity
  8
0
  6
Continuous
 62
     7
100
AcDbLine
 10
32.5887707005
 20
168.7695353511
 30
0.0
 11
32.5814819498
 21
168.7632128354
 31
0.0
  0
LINE
  5
62B
330
22
100
AcDbEntity
  8
0
  6
Continuous
 62
     7
100
AcDbLine
 10
28.5814634192
 20
168.7632127955
 30
0.0
 11
28.5887705098
 21
168.7695353379
 31
0.0
  0
LINE
  5
62C
330
22
100
AcDbEntity
  8
0
  6
Continuous
 62
     7
100
AcDbLine
 10
31.5887705098
 20
168.7695353379
 30
0.0
 11
31.5814564489
 21
168.7632128013
 31
0.0
  0
LINE
  5
62D
330
22
100
AcDbEntity
  8
0
  6
Continuous
 62
     7
100
AcDbLine
 10
27.756636926
 20
180.3005868535
 30
0.0
 11
27.7750570394
 21
180.3123523752
 31
0.0
  0
LINE
  5
62E
330
22
100
AcDbEntity
  8
0
  6
Continuous
 62
     7
100
AcDbLine
 10
41.95272382939999
 20
197.294785213
 30
0.0
 11
42.24735789679999
 21
197.4168266397
 31
0.0
  0
LINE
  5
62F
330
22
100
AcDbEntity
  8
0
  6
Continuous
 62
     7
100
AcDbLine
 10
45.565649021
 20
198.7913078272
 30
0.0
 11
45.8579402441
 21
198.9123788159999
 31
0.0
  0
LWPOLYLINE
  5
630
330
22
100
AcDbEntity
  8
0
  6
Continuous
 62
     7
100
AcDbPolyline
 90
        3
 70
     0
 43
0.0
 10
76.2192628651
 20
213.9862010727
 10
76.0333961874
 20
213.9272475635
 10
75.4839656728
 20
213.8708753539
  0
LWPOLYLINE
  5
635
330
22
100
AcDbEntity
  8
0
  6
Continuous
 62
     7
100
AcDbPolyline
 90
        4
 70
     0
 43
0.0
 10
81.21926286510001
 20
213.9862010727
 10
81.4051295428
 20
214.0451545819
 10
81.95456005729999
 20
214.1015267914
 10
81.9692628651
 20
214.1023757553
  0
LINE
  5
63B
330
22
100
AcDbEntity
  8
0
  6
Continuous
 62
     7
100
AcDbLine
 10
156.3599593602
 20
147.7070883436
 30
0.0
 11
156.6731853312
 21
147.748325325
 31
0.0
  0
LINE
  5
63C
330
22
100
AcDbEntity
  8
0
  6
Continuous
 62
     7
100
AcDbLine
 10
160.2341503357
 20
148.2171352616
 30
0.0
 11
160.5465817798
 21
148.2582676416
 31
0.0
  0
LINE
  5
63D
330
22
100
AcDbEntity
  8
0
  6
Continuous
 62
     7
100
AcDbLine
 10
160.07856637
 20
151.8193372475
 30
0.0
 11
159.765340399
 21
151.7781002661
 31
0.0
  0
LINE
  5
63E
330
22
100
AcDbEntity
  8
0
  6
Continuous
 62
     7
100
AcDbLine
 10
156.2043753945
 20
151.3092903295
 30
0.0
 11
155.8919439504
 21
151.2681579495
 31
0.0
  0
LINE
  5
63F
330
22
100
AcDbEntity
  8
0
  6
Continuous
 62
     9
100
AcDbLine
 10
37.7192628651
 20
142.217192368
 30
0.0
 11
35.7192628651
 21
142.2171923767
 31
0.0
  0
LINE
  5
640
330
22
100
AcDbEntity
  8
0
  6
Continuous
 62
     9
100
AcDbLine
 10
163.9192628651
 20
142.2171923678
 30
0.0
 11
165.7192628651
 21
142.217192368
 31
0.0
  0
LINE
  5
641
330
22
100
AcDbEntity
  8
0
  6
Continuous
 62
     7
100
AcDbLine
 10
163.9192628651
 20
142.8632127955
 30
0.0
 11
151.4192628651
 21
142.8632127955
 31
0.0
  0
LINE
  5
642
330
22
100
AcDbEntity
  8
0
  6
Continuous
 62
     7
100
AcDbLine
 10
40.5037009273
 20
200.3522020144
 30
0.0
 11
40.70128036279999
 21
200.0947114809
 31
0.0
  0
LINE
  5
643
330
22
100
AcDbEntity
  8
0
  6
Continuous
 62
     7
100
AcDbLine
 10
42.8877641798
 20
197.2452302933
 30
0.0
 11
43.0898908543
 21
196.9818136825999
 31
0.0
  0
LINE
  5
644
330
22
100
AcDbEntity
  8
0
  6
Continuous
 62
     7
100
AcDbLine
 10
71.04529653899999
 20
216.3632127955
 30
0.0
 11
71.04529653899999
 21
213.7632127955
 31
0.0
  0
LINE
  5
645
330
22
100
AcDbEntity
  8
0
  6
Continuous
 62
     7
100
AcDbLine
 10
71.61926286509999
 20
226.1632127955
 30
0.0
 11
71.61926286509999
 21
223.1632127955
 31
0.0
  0
LINE
  5
646
330
22
100
AcDbEntity
  8
0
  6
Continuous
 62
     7
100
AcDbLine
 10
75.9975750286
 20
196.4132127955
 30
0.0
 11
75.2758871921
 21
195.1632127955
 31
0.0
  0
LINE
  5
647
330
22
100
AcDbEntity
  8
0
  6
Continuous
 62
     7
100
AcDbLine
 10
128.3262853306
 20
223.7371583287
 30
0.0
 11
128.3455141164
 21
223.7447403097
 31
0.0
  0
LWPOLYLINE
  5
648
330
22
100
AcDbEntity
  8
0
  6
Continuous
 62
     7
100
AcDbPolyline
 90
       12
 70
     0
 43
0.0
 10
127.7255854251
 20
223.3899376052
 10
127.7443419414
 20
223.3971873458
 10
127.8987681102
 20
223.4216594661
 10
128.1905460954
 20
223.4461321782
 10
128.6127884897999
 20
223.470604885
 10
129.1555215428
 20
223.4950771877
 10
129.8059489505
 20
223.5195496497
 10
130.5487400854
 20
223.5440227599
 10
131.3663570603
 20
223.5684960617
 10
132.2394897924
 20
223.5929690932
 10
133.1475287605
 20
223.6174417575
 10
134.9823464441
 20
223.6663873861
  0
LWPOLYLINE
  5
656
330
22
100
AcDbEntity
  8
0
  6
Continuous
 62
     7
100
AcDbPolyline
 90
        3
 70
     0
 43
0.0
 10
98.2192628651
 20
213.9862010727
 10
98.0333961874
 20
213.9272475635
 10
97.48396567280002
 20
213.8708753539
  0
LWPOLYLINE
  5
65B
330
22
100
AcDbEntity
  8
0
  6
Continuous
 62
     7
100
AcDbPolyline
 90
        4
 70
     0
 43
0.0
 10
103.2192628651
 20
213.9862010727
 10
103.4051295428
 20
214.0451545819
 10
103.9545600573
 20
214.1015267914
 10
103.9692628651
 20
214.1023757553
  0
LINE
  5
661
330
22
100
AcDbEntity
  8
0
  6
Continuous
 62
     7
100
AcDbLine
 10
139.7129403047
 20
223.8031546524
 30
0.0
 11
139.6637626605
 21
223.7887975631
 31
0.0
  0
LINE
  5
662
330
22
100
AcDbEntity
  8
0
  6
Continuous
 62
     7
100
AcDbLine
 10
175.7192628651
 20
168.5632127955
 30
0.0
 11
173.8786707807
 21
168.0700276329
 31
0.0
  0
LWPOLYLINE
  5
663
330
22
100
AcDbEntity
  8
0
  6
Continuous
 62
     7
100
AcDbPolyline
 90
        3
 70
     0
 43
0.0
 10
30.0906572579
 20
169.4132131585
 10
30.1398884764
 20
169.3991172177
 10
30.16731593
 20
169.373279814
  0
LWPOLYLINE
  5
668
330
22
100
AcDbEntity
  8
0
  6
Continuous
 62
     7
100
AcDbPolyline
 90
        3
 70
     0
 43
0.0
 10
28.0906585009
 20
169.4132131486
 10
28.1430577386
 20
169.3970972333
 10
28.1682351643
 20
169.3718451883
  0
LINE
  5
66D
330
22
100
AcDbEntity
  8
0
  6
Continuous
 62
     7
100
AcDbLine
 10
29.0906377183
 20
169.4132134379
 30
0.0
 11
29.1459823002
 21
169.3950722066
 31
0.0
  0
LINE
  5
66E
330
22
100
AcDbEntity
  8
0
  6
Continuous
 62
     7
100
AcDbLine
 10
31.0906383322
 20
169.4132134379
 30
0.0
 11
31.1459829283
 21
169.3950721952
 31
0.0
  0
LINE
  5
66F
330
22
100
AcDbEntity
  8
0
  6
Continuous
 62
     7
100
AcDbLine
 10
32.0906377183
 20
169.4132134379
 30
0.0
 11
32.1459823002
 21
169.3950722066
 31
0.0
  0
LINE
  5
670
330
22
100
AcDbEntity
  8
0
  6
Continuous
 62
     7
100
AcDbLine
 10
33.09063789350001
 20
169.4132134379
 30
0.0
 11
33.145982478
 21
169.3950722023
 31
0.0
  0
LINE
  5
671
330
22
100
AcDbEntity
  8
0
  6
Continuous
 62
     7
100
AcDbLine
 10
34.0906383322
 20
169.4132134379
 30
0.0
 11
34.1459829283
 21
169.3950721952
 31
0.0
  0
LINE
  5
672
330
22
100
AcDbEntity
  8
0
  6
Continuous
 62
     9
100
AcDbLine
 10
32.59614518860001
 20
180.1100999008
 30
0.0
 11
32.5907156663
 21
180.1132127955
 31
0.0
  0
LINE
  5
673
330
22
100
AcDbEntity
  8
0
  6
Continuous
 62
     7
100
AcDbLine
 10
45.93482480289999
 20
199.1742235767
 30
0.0
 11
45.7372453673
 21
199.4317141102
 31
0.0
  0
LINE
  5
674
330
22
100
AcDbEntity
  8
0
  6
Continuous
 62
     7
100
AcDbLine
 10
43.55076155039999
 20
202.2811952978
 30
0.0
 11
43.3486348759
 21
202.5446119085
 31
0.0
  0
LINE
  5
675
330
22
100
AcDbEntity
  8
0
  6
Continuous
 62
     7
100
AcDbLine
 10
72.11842385459999
 20
216.3632127955
 30
0.0
 11
72.11842385459999
 21
213.7632127955
 31
0.0
  0
LINE
  5
676
330
22
100
AcDbEntity
  8
0
  6
Continuous
 62
     7
100
AcDbLine
 10
74.4692628651
 20
222.6632127955
 30
0.0
 11
74.4692628651
 21
216.5632127955
 31
0.0
  0
LINE
  5
677
330
22
100
AcDbEntity
  8
0
  6
Continuous
 62
     7
100
AcDbLine
 10
75.44445752850001
 20
216.3632127955
 30
0.0
 11
75.44445752850001
 21
213.86859409
 31
0.0
  0
LINE
  5
678
330
22
100
AcDbEntity
  8
0
  6
Continuous
 62
     7
100
AcDbLine
 10
75.4692628651
 20
216.3632127955
 30
0.0
 11
75.4692628651
 21
213.8700263901
 31
0.0
  0
LINE
  5
679
330
22
100
AcDbEntity
  8
0
  6
Continuous
 62
     7
100
AcDbLine
 10
77.4409507016
 20
193.9132127955
 30
0.0
 11
78.16263853809999
 21
195.1632127955
 31
0.0
  0
LINE
  5
67A
330
22
100
AcDbEntity
  8
0
  6
Continuous
 62
     7
100
AcDbLine
 10
105.4692628651
 20
223.1632127955
 30
0.0
 11
104.9692628651
 21
222.6632127955
 31
0.0
  0
LINE
  5
67B
330
22
100
AcDbEntity
  8
0
  6
Continuous
 62
     7
100
AcDbLine
 10
128.3192628651
 20
223.7330987973
 30
0.0
 11
127.7255854251
 21
223.3899376052
 31
0.0
  0
LINE
  5
67C
330
22
100
AcDbEntity
  8
0
  6
Continuous
 62
     7
100
AcDbLine
 10
128.3262853306
 20
223.7371583287
 30
0.0
 11
128.3192628651
 21
223.7330987973
 31
0.0
  0
LWPOLYLINE
  5
67D
330
22
100
AcDbEntity
  8
0
  6
Continuous
 62
     9
100
AcDbPolyline
 90
        7
 70
     0
 43
0.0
 10
27.9359081513
 20
169.3700912056
 10
27.9252105533
 20
169.3639690559
 10
27.8994670923
 20
169.4490004224
 10
27.8737236313
 20
169.6727665645
 10
27.8479801702
 20
170.0294257484
 10
27.82223670920001
 20
170.5096668877
 10
27.7964932482
 20
171.1009526229
  0
LWPOLYLINE
  5
686
330
22
100
AcDbEntity
  8
0
  6
Continuous
 62
     7
100
AcDbPolyline
 90
       10
 70
     0
 43
0.0
 10
128.3192628651
 20
223.9640515755
 10
128.3541234343
 20
223.9821457762
 10
128.5192608136
 20
224.0075026597
 10
128.8161134696
 20
224.0328595432
 10
129.2371621686
 20
224.0582164267
 10
129.77174181
 20
224.0835733101
 10
130.4063115711
 20
224.1089301936
 10
131.1247978944
 20
224.1342870771
 10
131.9090016286
 20
224.1596439606
 10
132.73905901
 20
224.1850008441
  0
LWPOLYLINE
  5
692
330
22
100
AcDbEntity
  8
0
  6
Continuous
 62
     7
100
AcDbPolyline
 90
       18
 70
     0
 43
0.0
 10
128.3262853306
 20
219.7371583287
 10
128.3318515115
 20
219.7399102474
 10
128.4585878187
 20
219.7652725663
 10
128.7186332518
 20
219.7906348851
 10
129.1053980805
 20
219.815997204
 10
129.6090814181
 20
219.8413595228
 10
130.216919582
 20
219.8667218416
 10
130.9135095349
 20
219.8920841605
 10
131.681199208
 20
219.9174464793
 10
132.5005348168
 20
219.9428087982
 10
133.3507538329
 20
219.968171117
 10
134.2103111216
 20
219.9935334358
 10
135.0574249095
 20
220.0188957547
 10
135.8706287503
 20
220.0442580735
 10
136.629315499
 20
220.0696203924
 10
137.3142595115
 20
220.0949827112
 10
137.9081038349
 20
220.12034503
 10
138.3958000455
 20
220.1457073489
  0
LWPOLYLINE
  5
6A6
330
22
100
AcDbEntity
  8
0
  6
Continuous
 62
     7
100
AcDbPolyline
 90
       10
 70
     0
 43
0.0
 10
128.3192628651
 20
218.9640515755
 10
128.3695587565
 20
218.985790706
 10
128.5540206097
 20
219.0111530248
 10
128.8693732561
 20
219.0365153437
 10
129.3076254428
 20
219.0618776625
 10
129.8576715578
 20
219.0872399813
 10
130.5055730539
 20
219.1126023002
 10
131.2349116614
 20
219.137964619
 10
132.027205438
 20
219.1633269379
 10
132.8623771143
 20
219.1886892567
  0
LINE
  5
6B2
330
22
100
AcDbEntity
  8
0
  6
Continuous
 62
     7
100
AcDbLine
 10
128.3262853306
 20
221.7371583287
 30
0.0
 11
128.3416359154
 21
221.7435334358
 31
0.0
  0
LINE
  5
6B3
330
22
100
AcDbEntity
  8
0
  6
Continuous
 62
     7
100
AcDbLine
 10
139.0968898148
 20
223.4495588219
 30
0.0
 11
139.1122403999
 21
223.4559339292
 31
0.0
  0
LWPOLYLINE
  5
6B4
330
22
100
AcDbEntity
  8
0
  6
Continuous
 62
     7
100
AcDbPolyline
 90
       11
 70
     0
 43
0.0
 10
128.3192628651
 20
220.9640515755
 10
128.3876827231
 20
220.9894138944
 10
128.591208491
 20
221.0147762132
 10
128.9246826857
 20
221.0401385321
 10
129.3796548416
 20
221.0655008509
 10
129.9445956512
 20
221.0908631697
 10
130.6051891256
 20
221.1162254886
 10
131.3446953716
 20
221.1415878074
 10
132.144374792
 20
221.1669501263
 10
132.9839629599
 20
221.1923124451
 10
134.6972903975
 20
221.2430370828
  0
LINE
  5
6C1
330
22
100
AcDbEntity
  8
0
  6
Continuous
 62
     7
100
AcDbLine
 10
126.631384478
 20
216.3632127955
 30
0.0
 11
126.2192628651
 21
216.2132127955
 31
0.0
  0
LWPOLYLINE
  5
6C2
330
22
100
AcDbEntity
  8
0
  6
Continuous
 62
     7
100
AcDbPolyline
 90
       10
 70
     0
 43
0.0
 10
128.3262853306
 20
216.7371583287
 10
128.3542071687
 20
216.7471566243
 10
128.5195095134
 20
216.7725189431
 10
128.8165771864
 20
216.7978812619
 10
129.2378822883
 20
216.8232435808
 10
129.772748658
 20
216.8486058996
 10
130.4076224136
 20
216.8739682185
 10
131.1264154171
 20
216.8993305373
 10
131.9109129594
 20
216.9246928561
 10
132.7412353326
 20
216.950055175
  0
LWPOLYLINE
  5
6CE
330
22
100
AcDbEntity
  8
0
  6
Continuous
 62
     7
100
AcDbPolyline
 90
        3
 70
     0
 43
0.0
 10
120.2192628651
 20
213.9862010727
 10
120.0333961874
 20
213.9272475635
 10
119.4839656728
 20
213.8708753539
  0
LWPOLYLINE
  5
6D3
330
22
100
AcDbEntity
  8
0
  6
Continuous
 62
     7
100
AcDbPolyline
 90
        4
 70
     0
 43
0.0
 10
125.2192628651
 20
213.9862010727
 10
125.4051295428
 20
214.0451545819
 10
125.9545600573
 20
214.1015267914
 10
126.2192628651
 20
214.1168111582
  0
LWPOLYLINE
  5
6D9
330
22
100
AcDbEntity
  8
0
  6
Continuous
 62
     7
100
AcDbPolyline
 90
       10
 70
     0
 43
0.0
 10
128.3262853306
 20
218.7371583287
 10
128.3695587565
 20
218.7507798127
 10
128.5540206097
 20
218.7761421315
 10
128.8693732561
 20
218.8015044503
 10
129.3076254428
 20
218.8268667692
 10
129.8576715578
 20
218.852229088
 10
130.5055730539
 20
218.8775914069
 10
131.2349116614
 20
218.9029537257
 10
132.027205438
 20
218.9283160445
 10
132.8623771143
 20
218.9536783634
  0
LINE
  5
6E5
330
22
100
AcDbEntity
  8
0
  6
Continuous
 62
     7
100
AcDbLine
 10
158.2192628651
 20
156.5632127955
 30
0.0
 11
163.9192628651
 21
156.5632127955
 31
0.0
  0
LINE
  5
6E6
330
22
100
AcDbEntity
  8
0
  6
Continuous
 62
     7
100
AcDbLine
 10
155.8919439504
 20
148.2582676416
 30
0.0
 11
156.2043753945
 21
148.2171352616
 31
0.0
  0
LINE
  5
6E7
330
22
100
AcDbEntity
  8
0
  6
Continuous
 62
     7
100
AcDbLine
 10
159.765340399
 20
147.748325325
 30
0.0
 11
160.07856637
 21
147.7070883436
 31
0.0
  0
LINE
  5
6E8
330
22
100
AcDbEntity
  8
0
  6
Continuous
 62
     7
100
AcDbLine
 10
25.7192628651
 20
169.7632127955
 30
0.0
 11
26.6037928113
 21
169.5632127955
 31
0.0
  0
LINE
  5
6E9
330
22
100
AcDbEntity
  8
0
  6
Continuous
 62
     7
100
AcDbLine
 10
28.1319031557
 20
180.6758530857
 30
0.0
 11
28.13659892550001
 21
180.674138274
 31
0.0
  0
LINE
  5
6EA
330
22
100
AcDbEntity
  8
0
  6
Continuous
 62
     7
100
AcDbLine
 10
81.9692628651
 20
216.3632127955
 30
0.0
 11
81.9692628651
 21
213.8700263994
 31
0.0
  0
LINE
  5
6EB
330
22
100
AcDbEntity
  8
0
  6
Continuous
 62
     7
100
AcDbLine
 10
81.9940682016
 20
216.3632127955
 30
0.0
 11
81.9940682016
 21
213.8685940985
 31
0.0
  0
LINE
  5
6EC
330
22
100
AcDbEntity
  8
0
  6
Continuous
 62
     7
100
AcDbLine
 10
82.9692628651
 20
222.6632127955
 30
0.0
 11
82.9692628651
 21
216.5632127955
 31
0.0
  0
LWPOLYLINE
  5
6ED
330
22
100
AcDbEntity
  8
0
  6
Continuous
 62
     7
100
AcDbPolyline
 90
       11
 70
     0
 43
0.0
 10
127.7192629849
 20
220.3104935475
 10
127.737237841
 20
220.3227843312
 10
127.8709857013
 20
220.3463295111
 10
128.1326105695
 20
220.3698831028
 10
128.519422502
 20
220.3935992103
 10
129.02151689
 20
220.4173167937
 10
129.6250177964
 20
220.4409354886
 10
130.3287028578
 20
220.4648818124
 10
131.1136162978
 20
220.4889641438
 10
131.9533070702
 20
220.5129141711
 10
132.8198487842
 20
220.5365137719
  0
LWPOLYLINE
  5
6FA
330
22
100
AcDbEntity
  8
0
  6
Continuous
 62
     7
100
AcDbPolyline
 90
       11
 70
     0
 43
0.0
 10
127.7192629638
 20
222.3104906071
 10
127.7375765922
 20
222.3228999619
 10
127.8726192399
 20
222.3465229069
 10
128.1375790462
 20
222.3702433943
 10
128.5240017635
 20
222.3938423443
 10
129.0249238638
 20
222.4174619867
 10
129.6295402089
 20
222.441099514
 10
130.334777552
 20
222.4650770407
 10
131.1212432889
 20
222.4891886641
 10
131.9623507773
 20
222.5131651205
 10
132.8306003251
 20
222.5368021852
  0
LWPOLYLINE
  5
707
330
22
100
AcDbEntity
  8
0
  6
Continuous
 62
     7
100
AcDbPolyline
 90
       10
 70
     0
 43
0.0
 10
128.3192628651
 20
221.9640515755
 10
128.3416359154
 20
221.9785443292
 10
128.487693087
 20
222.003906648
 10
128.7663218369
 20
222.0292689668
 10
129.170461521
 20
222.0546312857
 10
129.6898709615
 20
222.0799936045
 10
130.3113879657
 20
222.1053559234
 10
131.019262865
 20
222.1307182422
 10
131.7955576224
 20
222.1560805611
 10
132.6206003945
 20
222.1814428799
  0
LINE
  5
713
330
22
100
AcDbEntity
  8
0
  6
Continuous
 62
     7
100
AcDbLine
 10
128.3192628651
 20
222.7330987973
 30
0.0
 11
127.7255854251
 21
222.3899376052
 31
0.0
  0
LINE
  5
714
330
22
100
AcDbEntity
  8
0
  6
Continuous
 62
     7
100
AcDbLine
 10
128.3262853306
 20
222.7371583287
 30
0.0
 11
128.3192628651
 21
222.7330987973
 31
0.0
  0
LINE
  5
715
330
22
100
AcDbEntity
  8
0
  6
Continuous
 62
     7
100
AcDbLine
 10
128.3192628651
 20
221.7330987973
 30
0.0
 11
127.7255854251
 21
221.3899376052
 31
0.0
  0
LINE
  5
716
330
22
100
AcDbEntity
  8
0
  6
Continuous
 62
     7
100
AcDbLine
 10
128.3262853306
 20
221.7371583287
 30
0.0
 11
128.3192628651
 21
221.7330987973
 31
0.0
  0
LINE
  5
717
330
22
100
AcDbEntity
  8
0
  6
Continuous
 62
     7
100
AcDbLine
 10
128.3192628651
 20
220.7330987973
 30
0.0
 11
127.7255854251
 21
220.3899376052
 31
0.0
  0
LINE
  5
718
330
22
100
AcDbEntity
  8
0
  6
Continuous
 62
     7
100
AcDbLine
 10
128.3262853306
 20
220.7371583287
 30
0.0
 11
128.3192628651
 21
220.7330987973
 31
0.0
  0
LINE
  5
719
330
22
100
AcDbEntity
  8
0
  6
Continuous
 62
     7
100
AcDbLine
 10
128.3192628651
 20
219.7330987973
 30
0.0
 11
127.7255854251
 21
219.3899376052
 31
0.0
  0
LINE
  5
71A
330
22
100
AcDbEntity
  8
0
  6
Continuous
 62
     7
100
AcDbLine
 10
128.3262853306
 20
219.7371583287
 30
0.0
 11
128.3192628651
 21
219.7330987973
 31
0.0
  0
LINE
  5
71B
330
22
100
AcDbEntity
  8
0
  6
Continuous
 62
     7
100
AcDbLine
 10
128.3192628651
 20
218.7330987973
 30
0.0
 11
127.7255854251
 21
218.3899376052
 31
0.0
  0
LINE
  5
71C
330
22
100
AcDbEntity
  8
0
  6
Continuous
 62
     7
100
AcDbLine
 10
128.3262853306
 20
218.7371583287
 30
0.0
 11
128.3192628651
 21
218.7330987973
 31
0.0
  0
LINE
  5
71D
330
22
100
AcDbEntity
  8
0
  6
Continuous
 62
     7
100
AcDbLine
 10
128.3192628651
 20
217.7330987973
 30
0.0
 11
127.7255854251
 21
217.3899376052
 31
0.0
  0
LINE
  5
71E
330
22
100
AcDbEntity
  8
0
  6
Continuous
 62
     7
100
AcDbLine
 10
128.3262853306
 20
217.7371583287
 30
0.0
 11
128.3192628651
 21
217.7330987973
 31
0.0
  0
LINE
  5
71F
330
22
100
AcDbEntity
  8
0
  6
Continuous
 62
     7
100
AcDbLine
 10
139.1192628651
 20
223.4599934635
 30
0.0
 11
139.7129403047
 21
223.8031546524
 31
0.0
  0
LINE
  5
720
330
22
100
AcDbEntity
  8
0
  6
Continuous
 62
     7
100
AcDbLine
 10
139.1122403999
 20
223.4559339292
 30
0.0
 11
139.1192628651
 21
223.4599934635
 31
0.0
  0
LINE
  5
721
330
22
100
AcDbEntity
  8
0
  6
Continuous
 62
     7
100
AcDbLine
 10
128.3192628651
 20
216.7330987973
 30
0.0
 11
127.7255854251
 21
216.3899376052
 31
0.0
  0
LINE
  5
722
330
22
100
AcDbEntity
  8
0
  6
Continuous
 62
     7
100
AcDbLine
 10
128.3262853306
 20
216.7371583287
 30
0.0
 11
128.3192628651
 21
216.7330987973
 31
0.0
  0
LINE
  5
723
330
22
100
AcDbEntity
  8
0
  6
Continuous
 62
     7
100
AcDbLine
 10
139.1192628651
 20
222.4599934635
 30
0.0
 11
139.7129403047
 21
222.8031546524
 31
0.0
  0
LINE
  5
724
330
22
100
AcDbEntity
  8
0
  6
Continuous
 62
     7
100
AcDbLine
 10
139.1122403999
 20
222.4559339292
 30
0.0
 11
139.1192628651
 21
222.4599934635
 31
0.0
  0
LWPOLYLINE
  5
725
330
22
100
AcDbEntity
  8
0
  6
Continuous
 62
     7
100
AcDbPolyline
 90
       10
 70
     0
 43
0.0
 10
128.3192628651
 20
216.9640515755
 10
128.3542071687
 20
216.9821675176
 10
128.5195095134
 20
217.0075298364
 10
128.8165771864
 20
217.0328921553
 10
129.2378822883
 20
217.0582544741
 10
129.772748658
 20
217.0836167929
 10
130.4076224136
 20
217.1089791118
 10
131.1264154171
 20
217.1343414306
 10
131.9109129594
 20
217.1597037495
 10
132.7412353326
 20
217.1850660683
  0
LINE
  5
731
330
22
100
AcDbEntity
  8
0
  6
Continuous
 62
     7
100
AcDbLine
 10
139.1066742187
 20
218.4531820103
 30
0.0
 11
139.1122403999
 21
218.4559339292
 31
0.0
  0
LINE
  5
732
330
22
100
AcDbEntity
  8
0
  6
Continuous
 62
     7
100
AcDbLine
 10
139.0968898148
 20
216.4495588219
 30
0.0
 11
139.1122403999
 21
216.4559339292
 31
0.0
  0
LINE
  5
733
330
22
100
AcDbEntity
  8
0
  6
Continuous
 62
     7
100
AcDbLine
 10
34.64620994070001
 20
180.1315175175999
 30
0.0
 11
34.59064494
 21
180.1132122601
 31
0.0
  0
LWPOLYLINE
  5
734
330
22
100
AcDbEntity
  8
0
  6
Continuous
 62
     7
100
AcDbPolyline
 90
        3
 70
     0
 43
0.0
 10
142.2192628651
 20
213.9862010727
 10
142.0333961874
 20
213.9272475635
 10
141.4839656728
 20
213.8708753539
  0
LINE
  5
739
330
22
100
AcDbEntity
  8
0
  6
Continuous
 62
     7
100
AcDbLine
 10
173.8786707807
 20
168.0700276329
 30
0.0
 11
173.8269069618
 21
168.0632127955
 31
0.0
  0
LINE
  5
73A
330
22
100
AcDbEntity
  8
0
  6
Continuous
 62
     2
100
AcDbLine
 10
132.6692628651
 20
158.2632127954999
 30
0.0
 11
119.6692628651
 21
158.2632127954999
 31
0.0
  0
LINE
  5
73B
330
22
100
AcDbEntity
  8
0
  6
Continuous
 62
     7
100
AcDbLine
 10
35.7192628651
 20
159.7632127955
 30
0.0
 11
43.2192628651
 21
159.7632127955
 31
0.0
  0
LINE
  5
73C
330
22
100
AcDbEntity
  8
0
  6
Continuous
 62
     7
100
AcDbLine
 10
158.2192628651
 20
159.7632127955
 30
0.0
 11
165.7192628651
 21
159.7632127955
 31
0.0
  0
LINE
  5
73D
330
22
100
AcDbEntity
  8
0
  6
Continuous
 62
     2
100
AcDbLine
 10
119.6692628651
 20
162.2632127954999
 30
0.0
 11
132.6692628651
 21
162.2632127954999
 31
0.0
  0
LINE
  5
73E
330
22
100
AcDbEntity
  8
0
  6
Continuous
 62
     7
100
AcDbLine
 10
160.5465817798
 20
151.2681579495
 30
0.0
 11
160.2341503357
 21
151.3092903295
 31
0.0
  0
LINE
  5
73F
330
22
100
AcDbEntity
  8
0
  6
Continuous
 62
     7
100
AcDbLine
 10
156.6731853312
 20
151.7781002661
 30
0.0
 11
156.3599593602
 21
151.8193372475
 31
0.0
  0
LWPOLYLINE
  5
740
330
22
100
AcDbEntity
  8
0
  6
Continuous
 62
     7
100
AcDbPolyline
 90
        3
 70
     0
 43
0.0
 10
28.5144782796
 20
180.1132127952
 10
28.4733621841
 20
180.1228964954
 10
28.4400762633
 20
180.150002176
  0
LINE
  5
745
330
22
100
AcDbEntity
  8
0
  6
Continuous
 62
     7
100
AcDbLine
 10
40.4477628278
 20
199.6262449568
 30
0.0
 11
40.70128036279999
 21
199.4317141102
 31
0.0
  0
LINE
  5
746
330
22
100
AcDbEntity
  8
0
  6
Continuous
 62
     7
100
AcDbLine
 10
43.55076155039999
 20
197.2452302933
 30
0.0
 11
43.80798229859999
 21
197.0478578713
 31
0.0
  0
LINE
  5
747
330
22
100
AcDbEntity
  8
0
  6
Continuous
 62
     7
100
AcDbLine
 10
45.9907629024
 20
199.9001806343
 30
0.0
 11
45.7372453673
 21
200.0947114809
 31
0.0
  0
LINE
  5
748
330
22
100
AcDbEntity
  8
0
  6
Continuous
 62
     7
100
AcDbLine
 10
42.8877641798
 20
202.2811952978
 30
0.0
 11
42.63054343159999
 21
202.4785677198
 31
0.0
  0
LINE
  5
749
330
22
100
AcDbEntity
  8
0
  6
Continuous
 62
     7
100
AcDbLine
 10
85.3201018756
 20
216.3632127955
 30
0.0
 11
85.3201018756
 21
213.7632127955
 31
0.0
  0
LINE
  5
74A
330
22
100
AcDbEntity
  8
0
  6
Continuous
 62
     7
100
AcDbLine
 10
85.8192628651
 20
226.1632127955
 30
0.0
 11
85.8192628651
 21
223.1632127955
 31
0.0
  0
LINE
  5
74B
330
22
100
AcDbEntity
  8
0
  6
Continuous
 62
     7
100
AcDbLine
 10
86.39322919120001
 20
216.3632127955
 30
0.0
 11
86.39322919120001
 21
213.7632127955
 31
0.0
  0
LINE
  5
74C
330
22
100
AcDbEntity
  8
0
  6
Continuous
 62
     2
100
AcDbLine
 10
89.46234439920001
 20
226.1632127955
 30
0.0
 11
89.58791644979999
 21
236.2632127955
 31
0.0
  0
LINE
  5
74D
330
22
100
AcDbEntity
  8
0
  6
Continuous
 62
     7
100
AcDbLine
 10
128.034506062
 20
224.1284559925
 30
0.0
 11
128.4692628651
 21
224.5632127955
 31
0.0
  0
LWPOLYLINE
  5
74E
330
22
100
AcDbEntity
  8
0
  6
Continuous
 62
     7
100
AcDbPolyline
 90
       18
 70
     0
 43
0.0
 10
128.3192628651
 20
219.9640515755
 10
128.3318515115
 20
219.9749211408
 10
128.4585878187
 20
220.0002834596
 10
128.7186332518
 20
220.0256457784
 10
129.1053980805
 20
220.0510080973
 10
129.6090814181
 20
220.0763704161
 10
130.216919582
 20
220.101732735
 10
130.9135095349
 20
220.1270950538
 10
131.681199208
 20
220.1524573726
 10
132.5005348168
 20
220.1778196915
 10
133.3507538329
 20
220.2031820103
 10
134.2103111216
 20
220.2285443292
 10
135.0574249095
 20
220.253906648
 10
135.8706287503
 20
220.2792689668
 10
136.629315499
 20
220.3046312857
 10
137.3142595115
 20
220.3299936045
 10
137.9081038349
 20
220.3553559234
 10
138.3958000455
 20
220.3807182422
  0
LWPOLYLINE
  5
762
330
22
100
AcDbEntity
  8
0
  6
Continuous
 62
     7
100
AcDbPolyline
 90
       11
 70
     0
 43
0.0
 10
127.7192628725
 20
219.3104696289
 10
127.734409061
 20
219.321772781
 10
127.8635224408
 20
219.3454325594
 10
128.1263386446999
 20
219.369425296
 10
128.517524984
 20
219.3934982731
 10
129.0230989919
 20
219.417384238
 10
129.6248804181
 20
219.4409305035
 10
130.3220511431
 20
219.4646678515
 10
131.1015271035
 20
219.4886079536
 10
131.9378243712
 20
219.5124842658
 10
132.8045317254
 20
219.5361027501
  0
LWPOLYLINE
  5
76F
330
22
100
AcDbEntity
  8
0
  6
Continuous
 62
     7
100
AcDbPolyline
 90
       11
 70
     0
 43
0.0
 10
127.7192628695
 20
221.3104556406
 10
127.7345074144
 20
221.3218094618
 10
127.8643867868
 20
221.3455375935
 10
128.1287535245
 20
221.3696019655
 10
128.5221671437
 20
221.3937450132
 10
129.0304561547
 20
221.4176973994
 10
129.6359397597
 20
221.4413313535
 10
130.3308959767
 20
221.4649523137
 10
131.1034466288
 20
221.4886645353
 10
131.9366532394
 20
221.5124517325
 10
132.8049399718
 20
221.5361137072
  0
LWPOLYLINE
  5
77C
330
22
100
AcDbEntity
  8
0
  6
Continuous
 62
     7
100
AcDbPolyline
 90
       12
 70
     0
 43
0.0
 10
127.7192629656
 20
218.3104908623
 10
127.7371869751
 20
218.3227668748
 10
127.8711755722
 20
218.3463520427
 10
128.1377615426
 20
218.3702565887
 10
128.5319901054
 20
218.3942649504
 10
129.0402100267
 20
218.4181113922
 10
129.646958083
 20
218.4417297864
 10
130.3514250233
 20
218.465611221
 10
131.1338922463
 20
218.4895606841
 10
131.9676439637
 20
218.5133119424
 10
132.8327302678
 20
218.5368593122
 10
134.6338942459
 20
218.5848180466
  0
LWPOLYLINE
  5
78A
330
22
100
AcDbEntity
  8
0
  6
Continuous
 62
     7
100
AcDbPolyline
 90
       12
 70
     0
 43
0.0
 10
127.7192629435
 20
217.3104874714
 10
127.7371998803
 20
217.322771306
 10
127.8716985352
 20
217.3464140298
 10
128.1382545759
 20
217.370292221
 10
128.5298135426
 20
217.3941499957
 10
129.0317107116
 20
217.4177507232
 10
129.6364396453
 20
217.4413494499
 10
130.341687677
 20
217.4652989194
 10
131.1277302211
 20
217.4893795041
 10
131.9680423216
 20
217.5133229903
 10
132.8357309532
 20
217.5369397882
 10
134.6177013149
 20
217.5843835274
  0
LWPOLYLINE
  5
798
330
22
100
AcDbEntity
  8
0
  6
Continuous
 62
     7
100
AcDbPolyline
 90
        5
 70
     0
 43
0.0
 10
139.7192628577
 20
221.8826384126
 10
139.7010746021
 20
221.8702349968
 10
139.5648694684
 20
221.8464471043
 10
139.300720747
 20
221.8228325287
 10
138.9154152878
 20
221.7992971874
  0
LINE
  5
79F
330
22
100
AcDbEntity
  8
0
  6
Continuous
 62
     7
100
AcDbLine
 10
139.1192628651
 20
221.4599934635
 30
0.0
 11
139.7129403047
 21
221.8031546524
 31
0.0
  0
LINE
  5
7A0
330
22
100
AcDbEntity
  8
0
  6
Continuous
 62
     7
100
AcDbLine
 10
139.1122403999
 20
221.4559339292
 30
0.0
 11
139.1192628651
 21
221.4599934635
 31
0.0
  0
LINE
  5
7A1
330
22
100
AcDbEntity
  8
0
  6
Continuous
 62
     7
100
AcDbLine
 10
139.1192628651
 20
220.4599934635
 30
0.0
 11
139.7129403047
 21
220.8031546524
 31
0.0
  0
LINE
  5
7A2
330
22
100
AcDbEntity
  8
0
  6
Continuous
 62
     7
100
AcDbLine
 10
139.1122403999
 20
220.4559339292
 30
0.0
 11
139.1192628651
 21
220.4599934635
 31
0.0
  0
LINE
  5
7A3
330
22
100
AcDbEntity
  8
0
  6
Continuous
 62
     7
100
AcDbLine
 10
139.1192628651
 20
219.4599934635
 30
0.0
 11
139.7129403047
 21
219.8031546524
 31
0.0
  0
LINE
  5
7A4
330
22
100
AcDbEntity
  8
0
  6
Continuous
 62
     7
100
AcDbLine
 10
139.1122403999
 20
219.4559339292
 30
0.0
 11
139.1192628651
 21
219.4599934635
 31
0.0
  0
LINE
  5
7A5
330
22
100
AcDbEntity
  8
0
  6
Continuous
 62
     7
100
AcDbLine
 10
139.1192628651
 20
218.4599934635
 30
0.0
 11
139.7129403047
 21
218.8031546524
 31
0.0
  0
LINE
  5
7A6
330
22
100
AcDbEntity
  8
0
  6
Continuous
 62
     7
100
AcDbLine
 10
139.1122403999
 20
218.4559339292
 30
0.0
 11
139.1192628651
 21
218.4599934635
 31
0.0
  0
LINE
  5
7A7
330
22
100
AcDbEntity
  8
0
  6
Continuous
 62
     7
100
AcDbLine
 10
139.1192628651
 20
217.4599934635
 30
0.0
 11
139.7129403047
 21
217.8031546524
 31
0.0
  0
LINE
  5
7A8
330
22
100
AcDbEntity
  8
0
  6
Continuous
 62
     7
100
AcDbLine
 10
139.1122403999
 20
217.4559339292
 30
0.0
 11
139.1192628651
 21
217.4599934635
 31
0.0
  0
LINE
  5
7A9
330
22
100
AcDbEntity
  8
0
  6
Continuous
 62
     7
100
AcDbLine
 10
139.1192628651
 20
216.4599934635
 30
0.0
 11
139.7129403047
 21
216.8031546524
 31
0.0
  0
LINE
  5
7AA
330
22
100
AcDbEntity
  8
0
  6
Continuous
 62
     7
100
AcDbLine
 10
139.1122403999
 20
216.4559339292
 30
0.0
 11
139.1192628651
 21
216.4599934635
 31
0.0
  0
LINE
  5
7AB
330
22
100
AcDbEntity
  8
0
  6
Continuous
 62
     7
100
AcDbLine
 10
171.0292628651
 20
167.3632127955
 30
0.0
 11
165.7192628651
 21
167.3632127955
 31
0.0
  0
LINE
  5
7AC
330
22
100
AcDbEntity
  8
0
  6
Continuous
 62
     7
100
AcDbLine
 10
135.0475750286
 20
167.8832127955
 30
0.0
 11
136.4909507016
 21
167.8832127955
 31
0.0
  0
LINE
  5
7AD
330
22
100
AcDbEntity
  8
0
  6
Continuous
 62
     7
100
AcDbLine
 10
173.8269069626
 20
168.0632127955
 30
0.0
 11
173.6292628651
 21
168.0632127955
 31
0.0
  0
LINE
  5
7AE
330
22
100
AcDbEntity
  8
0
  6
Continuous
 62
     7
100
AcDbLine
 10
173.4292628651
 20
168.2632127955
 30
0.0
 11
171.2292628651
 21
168.2632127955
 31
0.0
  0
LINE
  5
7AF
330
22
100
AcDbEntity
  8
0
  6
Continuous
 62
     7
100
AcDbLine
 10
28.5237290261
 20
168.7632127955
 30
0.0
 11
28.5814634391
 21
168.7632127955
 31
0.0
  0
LINE
  5
7B0
330
22
100
AcDbEntity
  8
0
  6
Continuous
 62
     7
100
AcDbLine
 10
29.5237284122
 20
168.7632127955
 30
0.0
 11
29.5814636144
 21
168.7632127955
 31
0.0
  0
LINE
  5
7B1
330
22
100
AcDbEntity
  8
0
  6
Continuous
 62
     7
100
AcDbLine
 10
30.5237285875
 20
168.7632127955
 30
0.0
 11
30.581464053
 21
168.7632127955
 31
0.0
  0
LINE
  5
7B2
330
22
100
AcDbEntity
  8
0
  6
Continuous
 62
     7
100
AcDbLine
 10
31.523729026
 20
168.7632127955
 30
0.0
 11
31.5814634391
 21
168.7632127955
 31
0.0
  0
LINE
  5
7B3
330
22
100
AcDbEntity
  8
0
  6
Continuous
 62
     7
100
AcDbLine
 10
32.5237284122
 20
168.7632127955
 30
0.0
 11
32.5814636144
 21
168.7632127955
 31
0.0
  0
LINE
  5
7B4
330
22
100
AcDbEntity
  8
0
  6
Continuous
 62
     7
100
AcDbLine
 10
33.5237285875
 20
168.7632127955
 30
0.0
 11
33.58146405300001
 21
168.7632127955
 31
0.0
  0
LINE
  5
7B5
330
22
100
AcDbEntity
  8
0
  6
Continuous
 62
     7
100
AcDbLine
 10
34.5237290261
 20
168.7632127955
 30
0.0
 11
34.7192628651
 21
168.7632127955
 31
0.0
  0
LINE
  5
7B6
330
22
100
AcDbEntity
  8
0
  6
Continuous
 62
     7
100
AcDbLine
 10
28.0144767549
 20
169.4132127955
 30
0.0
 11
28.0907163242
 21
169.4132127955
 31
0.0
  0
LINE
  5
7B7
330
22
100
AcDbEntity
  8
0
  6
Continuous
 62
     7
100
AcDbLine
 10
29.0144761408
 20
169.4132127955
 30
0.0
 11
29.09071571010001
 21
169.4132127955
 31
0.0
  0
LINE
  5
7B8
330
22
100
AcDbEntity
  8
0
  6
Continuous
 62
     7
100
AcDbLine
 10
30.0144763163
 20
169.4132127955
 30
0.0
 11
30.0907158856
 21
169.4132127955
 31
0.0
  0
LINE
  5
7B9
330
22
100
AcDbEntity
  8
0
  6
Continuous
 62
     7
100
AcDbLine
 10
31.0144767549
 20
169.4132127955
 30
0.0
 11
31.0907163242
 21
169.4132127955
 31
0.0
  0
LINE
  5
7BA
330
22
100
AcDbEntity
  8
0
  6
Continuous
 62
     7
100
AcDbLine
 10
32.0144761408
 20
169.4132127955
 30
0.0
 11
32.0907157101
 21
169.4132127955
 31
0.0
  0
LINE
  5
7BB
330
22
100
AcDbEntity
  8
0
  6
Continuous
 62
     7
100
AcDbLine
 10
33.0144763163
 20
169.4132127955
 30
0.0
 11
33.0907158856
 21
169.4132127955
 31
0.0
  0
LINE
  5
7BC
330
22
100
AcDbEntity
  8
0
  6
Continuous
 62
     7
100
AcDbLine
 10
34.0144767549
 20
169.4132127955
 30
0.0
 11
34.0907163242
 21
169.4132127955
 31
0.0
  0
LINE
  5
7BD
330
22
100
AcDbEntity
  8
0
  6
Continuous
 62
     7
100
AcDbLine
 10
28.0144767549
 20
169.4132127955
 30
0.0
 11
28.0144308543
 21
169.413213018
 31
0.0
  0
LINE
  5
7BE
330
22
100
AcDbEntity
  8
0
  6
Continuous
 62
     7
100
AcDbLine
 10
30.0144763163
 20
169.4132127955
 30
0.0
 11
30.0144303417
 21
169.4132130188
 31
0.0
  0
LINE
  5
7BF
330
22
100
AcDbEntity
  8
0
  6
Continuous
 62
     7
100
AcDbLine
 10
31.0144767549
 20
169.4132127955
 30
0.0
 11
31.0144307314
 21
169.4132130192
 31
0.0
  0
LINE
  5
7C0
330
22
100
AcDbEntity
  8
0
  6
Continuous
 62
     7
100
AcDbLine
 10
33.0144763163
 20
169.4132127955
 30
0.0
 11
33.0144303417
 21
169.4132130188
 31
0.0
  0
LINE
  5
7C1
330
22
100
AcDbEntity
  8
0
  6
Continuous
 62
     7
100
AcDbLine
 10
34.0144767549
 20
169.4132127955
 30
0.0
 11
34.0144307314
 21
169.4132130192
 31
0.0
  0
LINE
  5
7C2
330
22
100
AcDbEntity
  8
0
  6
Continuous
 62
     7
100
AcDbLine
 10
28.0907163242
 20
169.4132127955
 30
0.0
 11
28.0906585009
 21
169.4132131486
 31
0.0
  0
LINE
  5
7C3
330
22
100
AcDbEntity
  8
0
  6
Continuous
 62
     7
100
AcDbLine
 10
30.0907158856
 20
169.4132127955
 30
0.0
 11
30.0906572579
 21
169.4132131585
 31
0.0
  0
LINE
  5
7C4
330
22
100
AcDbEntity
  8
0
  6
Continuous
 62
     7
100
AcDbLine
 10
29.09071571010001
 20
169.4132127955
 30
0.0
 11
29.0906377183
 21
169.4132134379
 31
0.0
  0
LINE
  5
7C5
330
22
100
AcDbEntity
  8
0
  6
Continuous
 62
     7
100
AcDbLine
 10
31.0907163242
 20
169.4132127955
 30
0.0
 11
31.0906383322
 21
169.4132134379
 31
0.0
  0
LINE
  5
7C6
330
22
100
AcDbEntity
  8
0
  6
Continuous
 62
     7
100
AcDbLine
 10
32.0907157101
 20
169.4132127955
 30
0.0
 11
32.0906377183
 21
169.4132134379
 31
0.0
  0
LINE
  5
7C7
330
22
100
AcDbEntity
  8
0
  6
Continuous
 62
     7
100
AcDbLine
 10
33.0907158856
 20
169.4132127955
 30
0.0
 11
33.09063789350001
 21
169.4132134379
 31
0.0
  0
LINE
  5
7C8
330
22
100
AcDbEntity
  8
0
  6
Continuous
 62
     7
100
AcDbLine
 10
34.0907163242
 20
169.4132127955
 30
0.0
 11
34.0906383322
 21
169.4132134379
 31
0.0
  0
LWPOLYLINE
  5
7C9
330
22
100
AcDbEntity
  8
0
  6
Continuous
 62
     7
100
AcDbPolyline
 90
        3
 70
     0
 43
0.0
 10
29.5144292773
 20
180.1132125641
 10
29.4776124778
 20
180.1209471796
 10
29.4412695704
 20
180.1484335759999
  0
LWPOLYLINE
  5
7CE
330
22
100
AcDbEntity
  8
0
  6
Continuous
 62
     7
100
AcDbPolyline
 90
        3
 70
     0
 43
0.0
 10
32.5144292773
 20
180.1132125641
 10
32.4776124778
 20
180.1209471796
 10
32.44126957040001
 20
180.1484335759999
  0
LWPOLYLINE
  5
7D3
330
22
100
AcDbEntity
  8
0
  6
Continuous
 62
     7
100
AcDbPolyline
 90
        3
 70
     0
 43
0.0
 10
30.5144783016
 20
180.1132127952
 10
30.4733621912
 20
180.1228965041
 10
30.4400762957
 20
180.1500021731
  0
LWPOLYLINE
  5
7D8
330
22
100
AcDbEntity
  8
0
  6
Continuous
 62
     7
100
AcDbPolyline
 90
        3
 70
     0
 43
0.0
 10
31.5144782796
 20
180.1132127952
 10
31.4733621842
 20
180.1228964954
 10
31.4400762633
 20
180.150002176
  0
LWPOLYLINE
  5
7DD
330
22
100
AcDbEntity
  8
0
  6
Continuous
 62
     7
100
AcDbPolyline
 90
        3
 70
     0
 43
0.0
 10
33.5144783016
 20
180.1132127952
 10
33.4733621912
 20
180.1228965041
 10
33.4400762957
 20
180.1500021731
  0
LWPOLYLINE
  5
7E2
330
22
100
AcDbEntity
  8
0
  6
Continuous
 62
     7
100
AcDbPolyline
 90
        3
 70
     0
 43
0.0
 10
34.5144782796
 20
180.1132127952
 10
34.4733621842
 20
180.1228964954
 10
34.4400762633
 20
180.150002176
  0
LINE
  5
7E7
330
22
100
AcDbEntity
  8
0
  6
Continuous
 62
     7
100
AcDbLine
 10
75.2758871921
 20
195.1632127955
 30
0.0
 11
75.9975750286
 21
193.9132127955
 31
0.0
  0
LINE
  5
7E8
330
22
100
AcDbEntity
  8
0
  6
Continuous
 62
     7
100
AcDbLine
 10
78.16263853809999
 20
195.1632127955
 30
0.0
 11
77.4409507016
 21
196.4132127955
 31
0.0
  0
LINE
  5
7E9
330
22
100
AcDbEntity
  8
0
  6
Continuous
 62
     7
100
AcDbLine
 10
93.04529653899999
 20
216.3632127955
 30
0.0
 11
93.04529653899999
 21
213.7632127955
 31
0.0
  0
LINE
  5
7EA
330
22
100
AcDbEntity
  8
0
  6
Continuous
 62
     7
100
AcDbLine
 10
93.6192628651
 20
226.1632127955
 30
0.0
 11
93.6192628651
 21
223.1632127955
 31
0.0
  0
LINE
  5
7EB
330
22
100
AcDbEntity
  8
0
  6
Continuous
 62
     7
100
AcDbLine
 10
94.11842385459999
 20
216.3632127955
 30
0.0
 11
94.11842385459999
 21
213.7632127955
 31
0.0
  0
LINE
  5
7EC
330
22
100
AcDbEntity
  8
0
  6
Continuous
 62
     7
100
AcDbLine
 10
127.7255854251
 20
220.3899376052
 30
0.0
 11
127.7192628695
 21
220.3826244242
 31
0.0
  0
LINE
  5
7ED
330
22
100
AcDbEntity
  8
0
  6
Continuous
 62
     7
100
AcDbLine
 10
127.7192628651
 20
223.3826305727
 30
0.0
 11
127.7255854251
 21
223.3899376052
 31
0.0
  0
LINE
  5
7EE
330
22
100
AcDbEntity
  8
0
  6
Continuous
 62
     7
100
AcDbLine
 10
127.7255854251
 20
222.3899376052
 30
0.0
 11
127.7192628714
 21
222.3826378111
 31
0.0
  0
LINE
  5
7EF
330
22
100
AcDbEntity
  8
0
  6
Continuous
 62
     7
100
AcDbLine
 10
127.7255854251
 20
221.3899376052
 30
0.0
 11
127.7192629638
 21
221.3826593908
 31
0.0
  0
LINE
  5
7F0
330
22
100
AcDbEntity
  8
0
  6
Continuous
 62
     7
100
AcDbLine
 10
127.7255854251
 20
219.3899376052
 30
0.0
 11
127.7192629849
 21
219.3826623312
 31
0.0
  0
LWPOLYLINE
  5
7F1
330
22
100
AcDbEntity
  8
0
  6
Continuous
 62
     7
100
AcDbPolyline
 90
        5
 70
     0
 43
0.0
 10
139.7192627664
 20
217.8826593908
 10
139.7038906336
 20
217.8712353528
 10
139.5707963603
 20
217.8471513576
 10
139.3041405598
 20
217.8230802305
 10
138.9154152878
 20
217.7992971874
  0
LWPOLYLINE
  5
7F8
330
22
100
AcDbEntity
  8
0
  6
Continuous
 62
     7
100
AcDbPolyline
 90
        5
 70
     0
 43
0.0
 10
139.7192627452
 20
222.8826623312
 10
139.7036537732
 20
222.8711478603
 10
139.5703072372
 20
222.8470927189
 10
139.3037390616
 20
222.8230510986
 10
138.9154152878
 20
222.7992971874
  0
LWPOLYLINE
  5
7FF
330
22
100
AcDbEntity
  8
0
  6
Continuous
 62
     7
100
AcDbPolyline
 90
        5
 70
     0
 43
0.0
 10
139.7192627646
 20
220.882659646
 10
139.7036164814
 20
220.8711341459
 10
139.5702306655
 20
220.8470835477
 10
139.3036762489
 20
220.8230465422
 10
138.9154152878
 20
220.7992971874
  0
LWPOLYLINE
  5
806
330
22
100
AcDbEntity
  8
0
  6
Continuous
 62
     7
100
AcDbPolyline
 90
        5
 70
     0
 43
0.0
 10
139.7192627867
 20
219.882656255
 10
139.7036222821
 20
219.8711362781
 10
139.5702369799
 20
219.8470843039
 10
139.3036801561
 20
219.8230468256
 10
138.9154152878
 20
219.7992971874
  0
LWPOLYLINE
  5
80D
330
22
100
AcDbEntity
  8
0
  6
Continuous
 62
     7
100
AcDbPolyline
 90
        5
 70
     0
 43
0.0
 10
139.7192628588
 20
218.8826378111
 10
139.7028003692
 20
218.8708379988
 10
139.5694599903
 20
218.846991371
 10
139.3037844602
 20
218.8230543919
 10
138.9154152878
 20
218.7992971874
  0
LWPOLYLINE
  5
814
330
22
100
AcDbEntity
  8
0
  6
Continuous
 62
     7
100
AcDbPolyline
 90
        5
 70
     0
 43
0.0
 10
139.7192628606999
 20
216.8826244242
 10
139.7012665168
 20
216.8703005992
 10
139.5667580361
 20
216.8466700384
 10
139.302609727
 20
216.822969229
 10
138.9154152878
 20
216.7992971874
  0
LINE
  5
81B
330
22
100
AcDbEntity
  8
0
  6
Continuous
 62
     7
100
AcDbLine
 10
34.7192628651
 20
169.4632127955
 30
0.0
 11
35.7192628651
 21
169.4632127955
 31
0.0
  0
LINE
  5
81C
330
22
100
AcDbEntity
  8
0
  6
Continuous
 62
     7
100
AcDbLine
 10
25.7192628651
 20
169.6632127955
 30
0.0
 11
25.01926286510001
 21
169.6632127955
 31
0.0
  0
LINE
  5
81D
330
22
100
AcDbEntity
  8
0
  6
Continuous
 62
     7
100
AcDbLine
 10
26.71926286510001
 20
169.7632127955
 30
0.0
 11
27.7192628651
 21
169.7632127955
 31
0.0
  0
LINE
  5
81E
330
22
100
AcDbEntity
  8
0
  6
Continuous
 62
     7
100
AcDbLine
 10
136.4909507016
 20
170.3832127955
 30
0.0
 11
135.0475750286
 21
170.3832127955
 31
0.0
  0
LINE
  5
81F
330
22
100
AcDbEntity
  8
0
  6
Continuous
 62
     7
100
AcDbLine
 10
176.8192628650999
 20
170.7632127954999
 30
0.0
 11
175.7192628651
 21
170.7632127954999
 31
0.0
  0
LINE
  5
820
330
22
100
AcDbEntity
  8
0
  6
Continuous
 62
     2
100
AcDbLine
 10
177.2515904055
 20
172.3143229395
 30
0.0
 11
182.2515904055
 21
172.3143229395
 31
0.0
  0
LINE
  5
821
330
22
100
AcDbEntity
  8
0
  6
Continuous
 62
     2
100
AcDbLine
 10
176.8192628650999
 20
172.3276490812
 30
0.0
 11
177.2515904055
 21
172.3143229395
 31
0.0
  0
LINE
  5
822
330
22
100
AcDbEntity
  8
0
  6
Continuous
 62
     7
100
AcDbLine
 10
155.5805854861
 20
148.912378816
 30
0.0
 11
155.8728767092
 21
148.7913078272
 31
0.0
  0
LINE
  5
823
330
22
100
AcDbEntity
  8
0
  6
Continuous
 62
     7
100
AcDbLine
 10
159.1911678334
 20
147.4168266397
 30
0.0
 11
159.4858019008
 21
147.294785213
 31
0.0
  0
LINE
  5
824
330
22
100
AcDbEntity
  8
0
  6
Continuous
 62
     7
100
AcDbLine
 10
40.5805854861
 20
198.9123788159999
 30
0.0
 11
40.8728767092
 21
198.7913078272
 31
0.0
  0
LINE
  5
825
330
22
100
AcDbEntity
  8
0
  6
Continuous
 62
     7
100
AcDbLine
 10
44.1911678334
 20
197.4168266397
 30
0.0
 11
44.4858019008
 21
197.294785213
 31
0.0
  0
LINE
  5
826
330
22
100
AcDbEntity
  8
0
  6
Continuous
 62
     7
100
AcDbLine
 10
96.46926286510002
 20
222.6632127955
 30
0.0
 11
96.46926286510002
 21
216.5632127955
 31
0.0
  0
LINE
  5
827
330
22
100
AcDbEntity
  8
0
  6
Continuous
 62
     7
100
AcDbLine
 10
97.44445752850001
 20
216.3632127955
 30
0.0
 11
97.44445752850001
 21
213.86859409
 31
0.0
  0
LINE
  5
828
330
22
100
AcDbEntity
  8
0
  6
Continuous
 62
     7
100
AcDbLine
 10
97.46926286510001
 20
216.3632127955
 30
0.0
 11
97.46926286510001
 21
213.8700263901
 31
0.0
  0
LWPOLYLINE
  5
829
330
22
100
AcDbEntity
  8
0
  6
Continuous
 62
     7
100
AcDbPolyline
 90
       21
 70
     0
 43
0.0
 10
128.3192628651
 20
217.9640515755
 10
128.3248590274
 20
217.9712979524
 10
128.4322087916
 20
217.9966602712
 10
128.6735361444
 20
218.02202259
 10
129.0427256847
 20
218.0473849089
 10
129.5304218953
 20
218.0727472277
 10
130.1242662187
 20
218.0981095466
 10
130.8092102311
 20
218.1234718654
 10
131.5678969799
 20
218.1488341842
 10
132.3811008207
 20
218.1741965031
 10
133.2282146086
 20
218.1995588219
 10
134.0877718973
 20
218.2249211408
 10
134.9379909134
 20
218.2502834596
 10
135.7573265222
 20
218.2756457784
 10
136.5250161953
 20
218.3010080973
 10
137.2216061482
 20
218.3263704161
 10
137.8294443121
 20
218.351732735
 10
138.3331276496
 20
218.3770950538
 10
138.7198924784
 20
218.4024573727
 10
138.9799379115
 20
218.4278196915
 10
139.1066742187
 20
218.4531820103
  0
LINE
  5
840
330
22
100
AcDbEntity
  8
0
  6
Continuous
 62
     7
100
AcDbLine
 10
127.7255854251
 20
218.3899376052
 30
0.0
 11
127.7192628725
 21
218.3826384126
 31
0.0
  0
LINE
  5
841
330
22
100
AcDbEntity
  8
0
  6
Continuous
 62
     7
100
AcDbLine
 10
127.7255854251
 20
216.3899376052
 30
0.0
 11
127.7192629435
 21
216.382656255
 31
0.0
  0
LINE
  5
842
330
22
100
AcDbEntity
  8
0
  6
Continuous
 62
     7
100
AcDbLine
 10
127.7255854251
 20
217.3899376052
 30
0.0
 11
127.7192629656
 21
217.382659646
 31
0.0
  0
LINE
  5
843
330
22
100
AcDbEntity
  8
0
  6
Continuous
 62
     7
100
AcDbLine
 10
33.5907161707
 20
180.1132127955
 30
0.0
 11
33.5906377458
 21
180.113212146
 31
0.0
  0
LINE
  5
844
330
22
100
AcDbEntity
  8
0
  6
Continuous
 62
     7
100
AcDbLine
 10
30.5907161707
 20
180.1132127955
 30
0.0
 11
30.5906415384
 21
180.1132122073
 31
0.0
  0
LINE
  5
845
330
22
100
AcDbEntity
  8
0
  6
Continuous
 62
     7
100
AcDbLine
 10
34.5907161488
 20
180.1132127955
 30
0.0
 11
34.59064494
 21
180.1132122601
 31
0.0
  0
LINE
  5
846
330
22
100
AcDbEntity
  8
0
  6
Continuous
 62
     7
100
AcDbLine
 10
28.5907161488
 20
180.1132127955
 30
0.0
 11
28.5906547965
 21
180.113212398
 31
0.0
  0
LINE
  5
847
330
22
100
AcDbEntity
  8
0
  6
Continuous
 62
     7
100
AcDbLine
 10
29.5907156663
 20
180.1132127955
 30
0.0
 11
29.5906566382
 21
180.1132124276
 31
0.0
  0
LINE
  5
848
330
22
100
AcDbEntity
  8
0
  6
Continuous
 62
     7
100
AcDbLine
 10
32.5907156663
 20
180.1132127955
 30
0.0
 11
32.5906597044
 21
180.1132124648
 31
0.0
  0
LINE
  5
849
330
22
100
AcDbEntity
  8
0
  6
Continuous
 62
     7
100
AcDbLine
 10
31.5907161488
 20
180.1132127955
 30
0.0
 11
31.5906606433
 21
180.1132124702
 31
0.0
  0
LINE
  5
84A
330
22
100
AcDbEntity
  8
0
  6
Continuous
 62
     7
100
AcDbLine
 10
32.514476097
 20
180.1132127955
 30
0.0
 11
32.5144292773
 21
180.1132125641
 31
0.0
  0
LINE
  5
84B
330
22
100
AcDbEntity
  8
0
  6
Continuous
 62
     7
100
AcDbLine
 10
29.514476097
 20
180.1132127955
 30
0.0
 11
29.5144292773
 21
180.1132125641
 31
0.0
  0
LINE
  5
84C
330
22
100
AcDbEntity
  8
0
  6
Continuous
 62
     2
100
AcDbLine
 10
23.7155757629
 20
175.9469803409
 30
0.0
 11
18.7155757629
 21
175.9469803409
 31
0.0
  0
LINE
  5
84D
330
22
100
AcDbEntity
  8
0
  6
Continuous
 62
     7
100
AcDbLine
 10
34.2481303785
 20
177.7632127955
 30
0.0
 11
34.7192628651
 21
177.7632127955
 31
0.0
  0
LINE
  5
84E
330
22
100
AcDbEntity
  8
0
  6
Continuous
 62
     7
100
AcDbLine
 10
176.8192628650999
 20
178.7632127954999
 30
0.0
 11
175.7192628651
 21
178.7632127954999
 31
0.0
  0
LINE
  5
84F
330
22
100
AcDbEntity
  8
0
  6
Continuous
 62
     7
100
AcDbLine
 10
26.71926286510001
 20
179.7632127955
 30
0.0
 11
27.7192628651
 21
179.7632127955
 31
0.0
  0
LINE
  5
850
330
22
100
AcDbEntity
  8
0
  6
Continuous
 62
     7
100
AcDbLine
 10
25.7192628651
 20
179.8632127955
 30
0.0
 11
25.01926286510001
 21
179.8632127955
 31
0.0
  0
LINE
  5
851
330
22
100
AcDbEntity
  8
0
  6
Continuous
 62
     7
100
AcDbLine
 10
34.7192628651
 20
180.0632127955
 30
0.0
 11
35.7192628651
 21
180.0632127955
 31
0.0
  0
LINE
  5
852
330
22
100
AcDbEntity
  8
0
  6
Continuous
 62
     7
100
AcDbLine
 10
34.5907161488
 20
180.1132127955
 30
0.0
 11
34.5144765795
 21
180.1132127955
 31
0.0
  0
LINE
  5
853
330
22
100
AcDbEntity
  8
0
  6
Continuous
 62
     7
100
AcDbLine
 10
33.5907161707
 20
180.1132127955
 30
0.0
 11
33.5144766014
 21
180.1132127955
 31
0.0
  0
LINE
  5
854
330
22
100
AcDbEntity
  8
0
  6
Continuous
 62
     7
100
AcDbLine
 10
32.5907156663
 20
180.1132127955
 30
0.0
 11
32.514476097
 21
180.1132127955
 31
0.0
  0
LINE
  5
855
330
22
100
AcDbEntity
  8
0
  6
Continuous
 62
     7
100
AcDbLine
 10
31.5907161488
 20
180.1132127955
 30
0.0
 11
31.5144765795
 21
180.1132127955
 31
0.0
  0
LINE
  5
856
330
22
100
AcDbEntity
  8
0
  6
Continuous
 62
     7
100
AcDbLine
 10
30.5907161707
 20
180.1132127955
 30
0.0
 11
30.5144766014
 21
180.1132127955
 31
0.0
  0
LINE
  5
857
330
22
100
AcDbEntity
  8
0
  6
Continuous
 62
     7
100
AcDbLine
 10
29.5907156663
 20
180.1132127955
 30
0.0
 11
29.514476097
 21
180.1132127955
 31
0.0
  0
LINE
  5
858
330
22
100
AcDbEntity
  8
0
  6
Continuous
 62
     7
100
AcDbLine
 10
28.5907161488
 20
180.1132127955
 30
0.0
 11
28.5144765795
 21
180.1132127955
 31
0.0
  0
LINE
  5
859
330
22
100
AcDbEntity
  8
0
  6
Continuous
 62
     7
100
AcDbLine
 10
29.02372885050001
 20
180.7632127955
 30
0.0
 11
29.0814633952
 21
180.7632127955
 31
0.0
  0
LINE
  5
85A
330
22
100
AcDbEntity
  8
0
  6
Continuous
 62
     7
100
AcDbLine
 10
30.0237283682
 20
180.7632127955
 30
0.0
 11
30.0814638995
 21
180.7632127955
 31
0.0
  0
LINE
  5
85B
330
22
100
AcDbEntity
  8
0
  6
Continuous
 62
     7
100
AcDbLine
 10
31.0237288726
 20
180.7632127955
 30
0.0
 11
31.0814638775
 21
180.7632127955
 31
0.0
  0
LINE
  5
85C
330
22
100
AcDbEntity
  8
0
  6
Continuous
 62
     7
100
AcDbLine
 10
32.0237288505
 20
180.7632127955
 30
0.0
 11
32.0814633952
 21
180.7632127955
 31
0.0
  0
LINE
  5
85D
330
22
100
AcDbEntity
  8
0
  6
Continuous
 62
     7
100
AcDbLine
 10
33.0237283682
 20
180.7632127955
 30
0.0
 11
33.0814638995
 21
180.7632127955
 31
0.0
  0
LINE
  5
85E
330
22
100
AcDbEntity
  8
0
  6
Continuous
 62
     7
100
AcDbLine
 10
34.0237288726
 20
180.7632127955
 30
0.0
 11
34.0814638775
 21
180.7632127955
 31
0.0
  0
LINE
  5
85F
330
22
100
AcDbEntity
  8
0
  6
Continuous
 62
     7
100
AcDbLine
 10
173.4292628651
 20
181.2632127955
 30
0.0
 11
171.2292628651
 21
181.2632127955
 31
0.0
  0
LINE
  5
860
330
22
100
AcDbEntity
  8
0
  6
Continuous
 62
     7
100
AcDbLine
 10
160.8579402441
 20
150.6140467751
 30
0.0
 11
160.565649021
 21
150.7351177639
 31
0.0
  0
LINE
  5
861
330
22
100
AcDbEntity
  8
0
  6
Continuous
 62
     7
100
AcDbLine
 10
157.2473578968
 20
152.1095989514
 30
0.0
 11
156.9527238294
 21
152.2316403781
 31
0.0
  0
LINE
  5
862
330
22
100
AcDbEntity
  8
0
  6
Continuous
 62
     7
100
AcDbLine
 10
45.8579402441
 20
200.6140467751
 30
0.0
 11
45.565649021
 21
200.7351177639
 31
0.0
  0
LINE
  5
863
330
22
100
AcDbEntity
  8
0
  6
Continuous
 62
     7
100
AcDbLine
 10
42.24735789679999
 20
202.1095989514
 30
0.0
 11
41.95272382939999
 21
202.2316403781
 31
0.0
  0
LINE
  5
864
330
22
100
AcDbEntity
  8
0
  6
Continuous
 62
     7
100
AcDbLine
 10
103.9692628651
 20
216.3632127955
 30
0.0
 11
103.9692628651
 21
213.8700263994
 31
0.0
  0
LINE
  5
865
330
22
100
AcDbEntity
  8
0
  6
Continuous
 62
     7
100
AcDbLine
 10
103.9940682016
 20
216.3632127955
 30
0.0
 11
103.9940682016
 21
213.8685940985
 31
0.0
  0
LINE
  5
866
330
22
100
AcDbEntity
  8
0
  6
Continuous
 62
     7
100
AcDbLine
 10
104.9692628651
 20
222.6632127955
 30
0.0
 11
104.9692628651
 21
216.5632127955
 31
0.0
  0
LINE
  5
867
330
22
100
AcDbEntity
  8
0
  6
Continuous
 62
     7
100
AcDbLine
 10
107.3201018756
 20
216.3632127955
 30
0.0
 11
107.3201018756
 21
213.7632127955
 31
0.0
  0
LINE
  5
868
330
22
100
AcDbEntity
  8
0
  6
Continuous
 62
     7
100
AcDbLine
 10
139.7129403047
 20
216.8031546524
 30
0.0
 11
139.7192627452
 21
216.8104935475
 31
0.0
  0
LINE
  5
869
330
22
100
AcDbEntity
  8
0
  6
Continuous
 62
     7
100
AcDbLine
 10
139.7129403047
 20
221.8031546524
 30
0.0
 11
139.7192627646
 21
221.8104908623
 31
0.0
  0
LINE
  5
86A
330
22
100
AcDbEntity
  8
0
  6
Continuous
 62
     7
100
AcDbLine
 10
139.7129403047
 20
218.8031546524
 30
0.0
 11
139.7192627664
 21
218.8104906071
 31
0.0
  0
LINE
  5
86B
330
22
100
AcDbEntity
  8
0
  6
Continuous
 62
     7
100
AcDbLine
 10
139.7129403047
 20
220.8031546524
 30
0.0
 11
139.7192627867
 21
220.8104874714
 31
0.0
  0
LINE
  5
86C
330
22
100
AcDbEntity
  8
0
  6
Continuous
 62
     7
100
AcDbLine
 10
139.7129403047
 20
222.8031546524
 30
0.0
 11
139.7192628577
 21
222.8104696289
 31
0.0
  0
LINE
  5
86D
330
22
100
AcDbEntity
  8
0
  6
Continuous
 62
     7
100
AcDbLine
 10
139.7129403047
 20
219.8031546524
 30
0.0
 11
139.7192628588
 21
219.8104690274
 31
0.0
  0
LINE
  5
86E
330
22
100
AcDbEntity
  8
0
  6
Continuous
 62
     7
100
AcDbLine
 10
139.7192628651
 20
223.8104618021
 30
0.0
 11
139.7129403047
 21
223.8031546524
 31
0.0
  0
LINE
  5
86F
330
22
100
AcDbEntity
  8
0
  6
Continuous
 62
     7
100
AcDbLine
 10
139.7129403047
 20
217.8031546524
 30
0.0
 11
139.7192628606999
 21
217.8104556406
 31
0.0
  0
LINE
  5
870
330
22
100
AcDbEntity
  8
0
  6
Continuous
 62
     2
100
AcDbLine
 10
25.01926286510001
 20
176.0783765646
 30
0.0
 11
23.7155757629
 21
175.9469803409
 31
0.0
  0
LINE
  5
871
330
22
100
AcDbEntity
  8
0
  6
Continuous
 62
     7
100
AcDbLine
 10
173.8269069626
 20
181.4632127955
 30
0.0
 11
173.6292628651
 21
181.4632127955
 31
0.0
  0
LINE
  5
872
330
22
100
AcDbEntity
  8
0
  6
Continuous
 62
     7
100
AcDbLine
 10
171.0292628651
 20
182.1632127955
 30
0.0
 11
165.7192628651
 21
182.1632127955
 31
0.0
  0
LINE
  5
873
330
22
100
AcDbEntity
  8
0
  6
Continuous
 62
     7
100
AcDbLine
 10
107.8192628651
 20
226.1632127955
 30
0.0
 11
107.8192628651
 21
223.1632127955
 31
0.0
  0
LINE
  5
874
330
22
100
AcDbEntity
  8
0
  6
Continuous
 62
     7
100
AcDbLine
 10
108.3932291912
 20
216.3632127955
 30
0.0
 11
108.3932291912
 21
213.7632127955
 31
0.0
  0
LWPOLYLINE
  5
875
330
22
100
AcDbEntity
  8
0
  6
Continuous
 62
     7
100
AcDbPolyline
 90
       12
 70
     0
 43
0.0
 10
128.3192628651
 20
222.9640515755
 10
128.3206620869
 20
222.9676747639
 10
128.4085696763
 20
222.9930370828
 10
128.6310538856
 20
223.0183994016
 10
128.9824768121
 20
223.0437617205
 10
129.4539331568
 20
223.0691240393
 10
130.0334758916
 20
223.0944863582
 10
130.7064190048
 20
223.119848677
 10
131.4557096548
 20
223.1452109958
 10
132.2623603008
 20
223.1705733147
 10
133.1059298603
 20
223.1959356335
 10
134.8179253355
 20
223.2466602712
  0
LINE
  5
883
330
22
100
AcDbEntity
  8
0
  6
Continuous
 62
     7
100
AcDbLine
 10
165.7192628651
 20
189.7632127955
 30
0.0
 11
158.2192628651
 21
189.7632127955
 31
0.0
  0
LINE
  5
884
330
22
100
AcDbEntity
  8
0
  6
Continuous
 62
     7
100
AcDbLine
 10
35.7192628651
 20
189.7632127955
 30
0.0
 11
43.2192628651
 21
189.7632127955
 31
0.0
  0
LINE
  5
885
330
22
100
AcDbEntity
  8
0
  6
Continuous
 62
     7
100
AcDbLine
 10
37.51926286510001
 20
192.9632127955
 30
0.0
 11
43.2192628651
 21
192.9632127955
 31
0.0
  0
LINE
  5
886
330
22
100
AcDbEntity
  8
0
  6
Continuous
 62
     7
100
AcDbLine
 10
40.89194395039999
 20
198.2582676416
 30
0.0
 11
41.2043753945
 21
198.2171352615999
 31
0.0
  0
LINE
  5
887
330
22
100
AcDbEntity
  8
0
  6
Continuous
 62
     7
100
AcDbLine
 10
44.76534039899999
 20
197.748325325
 30
0.0
 11
45.07856636999999
 21
197.7070883436
 31
0.0
  0
LINE
  5
888
330
22
100
AcDbEntity
  8
0
  6
Continuous
 62
     7
100
AcDbLine
 10
173.8786707807
 20
181.4563979582
 30
0.0
 11
173.8269069618
 21
181.4632127955
 31
0.0
  0
LINE
  5
889
330
22
100
AcDbEntity
  8
0
  6
Continuous
 62
     7
100
AcDbLine
 10
155.4477628278
 20
149.6262449568
 30
0.0
 11
155.7012803628
 21
149.4317141102
 31
0.0
  0
LINE
  5
88A
330
22
100
AcDbEntity
  8
0
  6
Continuous
 62
     7
100
AcDbLine
 10
158.5507615504
 20
147.2452302933
 30
0.0
 11
158.8079822986
 21
147.0478578713
 31
0.0
  0
LINE
  5
88B
330
22
100
AcDbEntity
  8
0
  6
Continuous
 62
     7
100
AcDbLine
 10
160.9907629024
 20
149.9001806343
 30
0.0
 11
160.7372453673
 21
150.0947114809
 31
0.0
  0
LINE
  5
88C
330
22
100
AcDbEntity
  8
0
  6
Continuous
 62
     7
100
AcDbLine
 10
157.8877641798
 20
152.2811952978
 30
0.0
 11
157.6305434316
 21
152.4785677198
 31
0.0
  0
LINE
  5
88D
330
22
100
AcDbEntity
  8
0
  6
Continuous
 62
     7
100
AcDbLine
 10
73.96926286510001
 20
223.1632127955
 30
0.0
 11
74.4692628651
 21
222.6632127955
 31
0.0
  0
LINE
  5
88E
330
22
100
AcDbEntity
  8
0
  6
Continuous
 62
     7
100
AcDbLine
 10
115.045296539
 20
216.3632127955
 30
0.0
 11
115.045296539
 21
213.7632127955
 31
0.0
  0
LINE
  5
88F
330
22
100
AcDbEntity
  8
0
  6
Continuous
 62
     7
100
AcDbLine
 10
115.6192628651
 20
226.1632127955
 30
0.0
 11
115.6192628651
 21
223.1632127955
 31
0.0
  0
LINE
  5
890
330
22
100
AcDbEntity
  8
0
  6
Continuous
 62
     7
100
AcDbLine
 10
116.1184238546
 20
216.3632127955
 30
0.0
 11
116.1184238546
 21
213.7632127955
 31
0.0
  0
LINE
  5
891
330
22
100
AcDbEntity
  8
0
  6
Continuous
 62
     7
100
AcDbLine
 10
118.4692628651
 20
222.6632127955
 30
0.0
 11
118.4692628651
 21
216.5632127955
 31
0.0
  0
LINE
  5
892
330
22
100
AcDbEntity
  8
0
  6
Continuous
 62
     7
100
AcDbLine
 10
25.7192628651
 20
179.7632127955
 30
0.0
 11
26.6037928113
 21
179.9632127955
 31
0.0
  0
LINE
  5
893
330
22
100
AcDbEntity
  8
0
  6
Continuous
 62
     7
100
AcDbLine
 10
75.9975750286
 20
193.9132127955
 30
0.0
 11
77.4409507016
 21
193.9132127955
 31
0.0
  0
LINE
  5
894
330
22
100
AcDbEntity
  8
0
  6
Continuous
 62
     7
100
AcDbLine
 10
77.4409507016
 20
196.4132127955
 30
0.0
 11
75.9975750286
 21
196.4132127955
 31
0.0
  0
LINE
  5
895
330
22
100
AcDbEntity
  8
0
  6
Continuous
 62
     7
100
AcDbLine
 10
45.54658177979999
 20
201.2681579495
 30
0.0
 11
45.23415033569999
 21
201.3092903295
 31
0.0
  0
LINE
  5
896
330
22
100
AcDbEntity
  8
0
  6
Continuous
 62
     7
100
AcDbLine
 10
41.67318533119999
 20
201.7781002661
 30
0.0
 11
41.3599593602
 21
201.8193372475
 31
0.0
  0
LINE
  5
897
330
22
100
AcDbEntity
  8
0
  6
Continuous
 62
     7
100
AcDbLine
 10
119.4444575285
 20
216.3632127955
 30
0.0
 11
119.4444575285
 21
213.86859409
 31
0.0
  0
LINE
  5
898
330
22
100
AcDbEntity
  8
0
  6
Continuous
 62
     7
100
AcDbLine
 10
119.4692628651
 20
216.3632127955
 30
0.0
 11
119.4692628651
 21
213.8700263901
 31
0.0
  0
LINE
  5
899
330
22
100
AcDbEntity
  8
0
  6
Continuous
 62
     2
100
AcDbLine
 10
119.6692628651
 20
158.2632127954999
 30
0.0
 11
119.6692628651
 21
162.2632127954999
 31
0.0
  0
LINE
  5
89A
330
22
100
AcDbEntity
  8
0
  6
Continuous
 62
     2
100
AcDbLine
 10
147.5692628651
 20
204.4132127955
 30
0.0
 11
145.5692628651
 21
204.4132127955
 31
0.0
  0
LINE
  5
89B
330
22
100
AcDbEntity
  8
0
  6
Continuous
 62
     7
100
AcDbLine
 10
175.7192628651
 20
180.9632127955
 30
0.0
 11
173.8786707807
 21
181.4563979582
 31
0.0
  0
LINE
  5
89C
330
22
100
AcDbEntity
  8
0
  6
Continuous
 62
     7
100
AcDbLine
 10
134.3258871921
 20
169.1332127955
 30
0.0
 11
135.0475750286
 21
167.8832127955
 31
0.0
  0
LINE
  5
89D
330
22
100
AcDbEntity
  8
0
  6
Continuous
 62
     7
100
AcDbLine
 10
126.2192628651
 20
216.2132127955
 30
0.0
 11
126.2192628651
 21
213.855590988
 31
0.0
  0
LINE
  5
89E
330
22
100
AcDbEntity
  8
0
  6
Continuous
 62
     7
100
AcDbLine
 10
126.3107938368
 20
216.2132127955
 30
0.0
 11
126.3107938368
 21
213.850305839
 31
0.0
  0
LINE
  5
89F
330
22
100
AcDbEntity
  8
0
  6
Continuous
 62
     7
100
AcDbLine
 10
127.7192628651
 20
216.3632127955
 30
0.0
 11
127.7192628651
 21
216.3826305207
 31
0.0
  0
LINE
  5
8A0
330
22
100
AcDbEntity
  8
0
  6
Continuous
 62
     7
100
AcDbLine
 10
127.7192628651
 20
217.3104617371
 30
0.0
 11
127.7192628651
 21
217.3826305207
 31
0.0
  0
LINE
  5
8A1
330
22
100
AcDbEntity
  8
0
  6
Continuous
 62
     7
100
AcDbLine
 10
127.7192628651
 20
218.3104617371
 30
0.0
 11
127.7192628651
 21
218.3826305207
 31
0.0
  0
LINE
  5
8A2
330
22
100
AcDbEntity
  8
0
  6
Continuous
 62
     7
100
AcDbLine
 10
127.7192628651
 20
219.3104617371
 30
0.0
 11
127.7192628651
 21
219.3826305207
 31
0.0
  0
LINE
  5
8A3
330
22
100
AcDbEntity
  8
0
  6
Continuous
 62
     7
100
AcDbLine
 10
127.7192628651
 20
220.3104617371
 30
0.0
 11
127.7192628651
 21
220.3826305207
 31
0.0
  0
LINE
  5
8A4
330
22
100
AcDbEntity
  8
0
  6
Continuous
 62
     7
100
AcDbLine
 10
127.7192628651
 20
221.3104617371
 30
0.0
 11
127.7192628651
 21
221.3826305207
 31
0.0
  0
LINE
  5
8A5
330
22
100
AcDbEntity
  8
0
  6
Continuous
 62
     7
100
AcDbLine
 10
127.7192628651
 20
222.3104617371
 30
0.0
 11
127.7192628651
 21
222.3826305207
 31
0.0
  0
LINE
  5
8A6
330
22
100
AcDbEntity
  8
0
  6
Continuous
 62
     7
100
AcDbLine
 10
127.7192628651
 20
223.3104617371
 30
0.0
 11
127.7192628651
 21
223.3826305207
 31
0.0
  0
LINE
  5
8A7
330
22
100
AcDbEntity
  8
0
  6
Continuous
 62
     7
100
AcDbLine
 10
128.3192628651
 20
223.9640515755
 30
0.0
 11
128.3192628651
 21
223.7330987973
 31
0.0
  0
LINE
  5
8A8
330
22
100
AcDbEntity
  8
0
  6
Continuous
 62
     7
100
AcDbLine
 10
128.3192628651
 20
222.9640515755
 30
0.0
 11
128.3192628651
 21
222.7330987973
 31
0.0
  0
LINE
  5
8A9
330
22
100
AcDbEntity
  8
0
  6
Continuous
 62
     7
100
AcDbLine
 10
128.3192628651
 20
221.9640515755
 30
0.0
 11
128.3192628651
 21
221.7330987973
 31
0.0
  0
LINE
  5
8AA
330
22
100
AcDbEntity
  8
0
  6
Continuous
 62
     7
100
AcDbLine
 10
128.3192628651
 20
220.9640515755
 30
0.0
 11
128.3192628651
 21
220.7330987973
 31
0.0
  0
LINE
  5
8AB
330
22
100
AcDbEntity
  8
0
  6
Continuous
 62
     7
100
AcDbLine
 10
128.3192628651
 20
219.9640515755
 30
0.0
 11
128.3192628651
 21
219.7330987973
 31
0.0
  0
LINE
  5
8AC
330
22
100
AcDbEntity
  8
0
  6
Continuous
 62
     7
100
AcDbLine
 10
128.3192628651
 20
218.9640515755
 30
0.0
 11
128.3192628651
 21
218.7330987973
 31
0.0
  0
LINE
  5
8AD
330
22
100
AcDbEntity
  8
0
  6
Continuous
 62
     7
100
AcDbLine
 10
128.3192628651
 20
217.9640515755
 30
0.0
 11
128.3192628651
 21
217.7330987973
 31
0.0
  0
LINE
  5
8AE
330
22
100
AcDbEntity
  8
0
  6
Continuous
 62
     7
100
AcDbLine
 10
128.3192628651
 20
216.9640515755
 30
0.0
 11
128.3192628651
 21
216.7330987973
 31
0.0
  0
LINE
  5
8AF
330
22
100
AcDbEntity
  8
0
  6
Continuous
 62
     7
100
AcDbLine
 10
128.4692628651
 20
224.5632127955
 30
0.0
 11
128.4692628651
 21
225.7632127955
 31
0.0
  0
LINE
  5
8B0
330
22
100
AcDbEntity
  8
0
  6
Continuous
 62
     7
100
AcDbLine
 10
129.0033762404
 20
216.2132127955
 30
0.0
 11
129.0033762404
 21
213.7520077014
 31
0.0
  0
LINE
  5
8B1
330
22
100
AcDbEntity
  8
0
  6
Continuous
 62
     7
100
AcDbLine
 10
131.0266804615
 20
216.2132127955
 30
0.0
 11
131.0266804615
 21
213.7175972344
 31
0.0
  0
LWPOLYLINE
  5
8B2
330
22
100
AcDbEntity
  8
0
  6
Continuous
 62
     7
100
AcDbPolyline
 90
       21
 70
     0
 43
0.0
 10
128.3262853306
 20
217.7371583287
 10
128.4322087916
 20
217.7616493779
 10
128.6735361444
 20
217.7870116967
 10
129.0427256847
 20
217.8123740156
 10
129.5304218953
 20
217.8377363344
 10
130.1242662187
 20
217.8630986532
 10
130.8092102311
 20
217.8884609721
 10
131.5678969799
 20
217.9138232909
 10
132.3811008207
 20
217.9391856098
 10
133.2282146086
 20
217.9645479286
 10
134.0877718973
 20
217.9899102474
 10
134.9379909134
 20
218.0152725663
 10
135.7573265222
 20
218.0406348851
 10
136.5250161953
 20
218.065997204
 10
137.2216061482
 20
218.0913595228
 10
137.8294443121
 20
218.1167218416
 10
138.3331276496
 20
218.1420841605
 10
138.7198924784
 20
218.1674464793
 10
138.9799379115
 20
218.1928087982
 10
139.1066742187
 20
218.218171117
 10
139.1192628651
 20
218.2290406822
  0
LWPOLYLINE
  5
8C9
330
22
100
AcDbEntity
  8
0
  6
Continuous
 62
     7
100
AcDbPolyline
 90
        4
 70
     0
 43
0.0
 10
139.2251089493
 20
216.3632127955
 10
138.9614014048
 20
216.3262015703
 10
138.6983602912
 20
216.2759977512
 10
138.4351494898
 20
216.2132127955
  0
LINE
  5
8CF
330
22
100
AcDbEntity
  8
0
  6
Continuous
 62
     7
100
AcDbLine
 10
41.3599593602
 20
197.7070883436
 30
0.0
 11
41.67318533119999
 21
197.748325325
 31
0.0
  0
LINE
  5
8D0
330
22
100
AcDbEntity
  8
0
  6
Continuous
 62
     7
100
AcDbLine
 10
45.23415033569999
 20
198.2171352615999
 30
0.0
 11
45.54658177979999
 21
198.2582676416
 31
0.0
  0
LINE
  5
8D1
330
22
100
AcDbEntity
  8
0
  6
Continuous
 62
     7
100
AcDbLine
 10
45.07856636999999
 20
201.8193372475
 30
0.0
 11
44.76534039899999
 21
201.7781002661
 31
0.0
  0
LINE
  5
8D2
330
22
100
AcDbEntity
  8
0
  6
Continuous
 62
     7
100
AcDbLine
 10
41.2043753945
 20
201.3092903295
 30
0.0
 11
40.89194395039999
 21
201.2681579495
 31
0.0
  0
LINE
  5
8D3
330
22
100
AcDbEntity
  8
0
  6
Continuous
 62
     7
100
AcDbLine
 10
37.51926286510001
 20
206.4432127955
 30
0.0
 11
50.0192628651
 21
206.4432127955
 31
0.0
  0
LINE
  5
8D4
330
22
100
AcDbEntity
  8
0
  6
Continuous
 62
     9
100
AcDbLine
 10
37.51926286510001
 20
207.3092332233
 30
0.0
 11
35.7192628651
 21
207.3092332231
 31
0.0
  0
LINE
  5
8D5
330
22
100
AcDbEntity
  8
0
  6
Continuous
 62
     9
100
AcDbLine
 10
163.7192628651
 20
207.3092332231
 30
0.0
 11
165.7192628651
 21
207.3092332144
 31
0.0
  0
LINE
  5
8D6
330
22
100
AcDbEntity
  8
0
  6
Continuous
 62
     2
100
AcDbLine
 10
145.5692628651
 20
208.4132127955
 30
0.0
 11
147.5692628651
 21
208.4132127955
 31
0.0
  0
LWPOLYLINE
  5
8D7
330
22
100
AcDbEntity
  8
0
  6
Continuous
 62
     7
100
AcDbPolyline
 90
        3
 70
     0
 43
0.0
 10
59.9545594856
 20
213.8708753967
 10
59.4051294701
 20
213.9272475749
 10
59.2192628651
 20
213.9862010727
  0
LINE
  5
8DC
330
22
100
AcDbEntity
  8
0
  6
Continuous
 62
     7
100
AcDbLine
 10
64.8013502455
 20
213.7209417363
 30
0.0
 11
64.39322919119999
 21
213.7632127955
 31
0.0
  0
LWPOLYLINE
  5
8DD
330
22
100
AcDbEntity
  8
0
  6
Continuous
 62
     7
100
AcDbPolyline
 90
        5
 70
     0
 43
0.0
 10
63.3201018756
 20
216.3632127955
 10
62.9317591204
 20
216.4436573292
 10
62.5456585896
 20
216.5046720153
 10
62.1583846126
 20
216.5450335102
 10
61.7691905979
 20
216.5632127955
  0
LWPOLYLINE
  5
8E4
330
22
100
AcDbEntity
  8
0
  6
Continuous
 62
     7
100
AcDbPolyline
 90
        5
 70
     0
 43
0.0
 10
75.44445752850001
 20
216.3632127955
 10
75.0561147734
 20
216.4436573292
 10
74.67001424260001
 20
216.5046720153
 10
74.2827402656
 20
216.5450335102
 10
73.8935462509
 20
216.5632127955
  0
LINE
  5
8EB
330
22
100
AcDbEntity
  8
0
  6
Continuous
 62
     7
100
AcDbLine
 10
74.7228527036
 20
216.5632127955
 30
0.0
 11
75.4692628651
 21
216.3632127955
 31
0.0
  0
LINE
  5
8EC
330
22
100
AcDbEntity
  8
0
  6
Continuous
 62
     7
100
AcDbLine
 10
95.96926286510001
 20
223.1632127955
 30
0.0
 11
96.46926286510002
 21
222.6632127955
 31
0.0
  0
LINE
  5
8ED
330
22
100
AcDbEntity
  8
0
  6
Continuous
 62
     7
100
AcDbLine
 10
155.5037009273
 20
150.3522020144
 30
0.0
 11
155.7012803628
 21
150.0947114809
 31
0.0
  0
LINE
  5
8EE
330
22
100
AcDbEntity
  8
0
  6
Continuous
 62
     7
100
AcDbLine
 10
157.8877641798
 20
147.2452302933
 30
0.0
 11
158.0898908543
 21
146.9818136826
 31
0.0
  0
LINE
  5
8EF
330
22
100
AcDbEntity
  8
0
  6
Continuous
 62
     7
100
AcDbLine
 10
160.9348248029
 20
149.1742235767
 30
0.0
 11
160.7372453673
 21
149.4317141102
 31
0.0
  0
LINE
  5
8F0
330
22
100
AcDbEntity
  8
0
  6
Continuous
 62
     7
100
AcDbLine
 10
158.5507615504
 20
152.2811952978
 30
0.0
 11
158.3486348759
 21
152.5446119085
 31
0.0
  0
LINE
  5
8F1
330
22
100
AcDbEntity
  8
0
  6
Continuous
 62
     7
100
AcDbLine
 10
137.2126385380999
 20
169.1332127955
 30
0.0
 11
136.4909507016
 21
170.3832127955
 31
0.0
  0
LINE
  5
8F2
330
22
100
AcDbEntity
  8
0
  6
Continuous
 62
     2
100
AcDbLine
 10
134.5017347625
 20
225.7632127955
 30
0.0
 11
134.3467107051
 21
236.2632127955
 31
0.0
  0
LINE
  5
8F3
330
22
100
AcDbEntity
  8
0
  6
Continuous
 62
     2
100
AcDbLine
 10
132.6692628651
 20
162.2632127954999
 30
0.0
 11
132.6692628651
 21
158.2632127954999
 31
0.0
  0
LINE
  5
8F4
330
22
100
AcDbEntity
  8
0
  6
Continuous
 62
     7
100
AcDbLine
 10
136.4118452687
 20
216.2132127955
 30
0.0
 11
136.4118452687
 21
213.7175972614
 31
0.0
  0
LWPOLYLINE
  5
8F5
330
22
100
AcDbEntity
  8
0
  6
Continuous
 62
     7
100
AcDbPolyline
 90
        4
 70
     0
 43
0.0
 10
139.555024784
 20
223.9774508759
 10
139.5449657262999
 20
223.9206960873
 10
139.4111750227
 20
223.8669114086
 10
139.1575352113
 20
223.8132127955
  0
LINE
  5
8FB
330
22
100
AcDbEntity
  8
0
  6
Continuous
 62
     7
100
AcDbLine
 10
135.0475750286
 20
170.3832127955
 30
0.0
 11
134.3258871921
 21
169.1332127955
 31
0.0
  0
LWPOLYLINE
  5
8FC
330
22
100
AcDbEntity
  8
0
  6
Continuous
 62
     7
100
AcDbPolyline
 90
       11
 70
     0
 43
0.0
 10
128.3262853306
 20
220.7371583287
 10
128.3876827231
 20
220.7544030011
 10
128.591208491
 20
220.7797653199
 10
128.9246826857
 20
220.8051276387
 10
129.3796548416
 20
220.8304899576
 10
129.9445956512
 20
220.8558522764
 10
130.6051891256
 20
220.8812145953
 10
131.3446953716
 20
220.9065769141
 10
132.144374792
 20
220.9319392329
 10
132.9839629599
 20
220.9573015518
 10
134.6972903975
 20
221.0080261895
  0
LINE
  5
909
330
22
100
AcDbEntity
  8
0
  6
Continuous
 62
     7
100
AcDbLine
 10
104.7156730266
 20
216.5632127955
 30
0.0
 11
103.9692628651
 21
216.3632127955
 31
0.0
  0
LWPOLYLINE
  5
90A
330
22
100
AcDbEntity
  8
0
  6
Continuous
 62
     7
100
AcDbPolyline
 90
        8
 70
     0
 43
0.0
 10
128.0345203676
 20
224.1284702414
 10
128.0752604607
 20
224.1388912266
 10
128.2496237319
 20
224.1546054481
 10
128.5584907023
 20
224.1704624563
 10
128.9908849434
 20
224.1862659592
 10
129.5301524669
 20
224.2019050652
 10
130.1729464264
 20
224.2176890359
 10
130.9088097893
 20
224.2336858562
  0
LWPOLYLINE
  5
914
330
22
100
AcDbEntity
  8
0
  6
Continuous
 62
     7
100
AcDbPolyline
 90
       11
 70
     0
 43
0.0
 10
128.3262853306
 20
222.7371583287
 10
128.4085696763
 20
222.7580261895
 10
128.6310538856
 20
222.7833885083
 10
128.9824768121
 20
222.8087508271
 10
129.4539331568
 20
222.834113146
 10
130.0334758916
 20
222.8594754648
 10
130.7064190048
 20
222.8848377837
 10
131.4557096548
 20
222.9102001025
 10
132.2623603008
 20
222.9355624213
 10
133.1059298603
 20
222.9609247402
 10
134.8179253355
 20
223.0116493779
  0
LWPOLYLINE
  5
921
330
22
100
AcDbEntity
  8
0
  6
Continuous
 62
     7
100
AcDbPolyline
 90
        9
 70
     0
 43
0.0
 10
128.3416359154
 20
221.7435334358
 10
128.487693087
 20
221.7688957547
 10
128.7663218369
 20
221.7942580735
 10
129.170461521
 20
221.8196203924
 10
129.6898709615
 20
221.8449827112
 10
130.3113879657
 20
221.87034503
 10
131.019262865
 20
221.8957073489
 10
131.7955576224
 20
221.9210696677
 10
132.6206003945
 20
221.9464319866
  0
LWPOLYLINE
  5
92C
330
22
100
AcDbEntity
  8
0
  6
Continuous
 62
     7
100
AcDbPolyline
 90
        4
 70
     0
 43
0.0
 10
127.1007532963
 20
216.3632127955
 10
126.8370457518
 20
216.3262015703
 10
126.5740046382
 20
216.2759977512
 10
126.3107938368
 20
216.2132127955
  0
LINE
  5
932
330
22
100
AcDbEntity
  8
0
  6
Continuous
 62
     7
100
AcDbLine
 10
128.0591296898
 20
216.3632127955
 30
0.0
 11
128.1352027481
 21
216.3700713348
 31
0.0
  0
LWPOLYLINE
  5
933
330
22
100
AcDbEntity
  8
0
  6
Continuous
 62
     7
100
AcDbPolyline
 90
        4
 70
     0
 43
0.0
 10
132.6065993804
 20
216.3632127955
 10
132.0791842915
 20
216.3262015703
 10
131.5531020644
 20
216.2759977512
 10
131.0266804615
 20
216.2132127955
  0
LWPOLYLINE
  5
939
330
22
100
AcDbEntity
  8
0
  6
Continuous
 62
     7
100
AcDbPolyline
 90
        5
 70
     0
 43
0.0
 10
138.9154152878
 20
216.7271284037
 10
139.3037390616
 20
216.7508823149
 10
139.5703072372
 20
216.7749239353
 10
139.7036537732
 20
216.7989790767
 10
139.7129403047
 20
216.8031546524
  0
LWPOLYLINE
  5
940
330
22
100
AcDbEntity
  8
0
  6
Continuous
 62
     7
100
AcDbPolyline
 90
        5
 70
     0
 43
0.0
 10
138.9154152878
 20
217.7271284037
 10
139.302609727
 20
217.7508004454
 10
139.5667580361
 20
217.7745012548
 10
139.7012665168
 20
217.7981318156
 10
139.7129403047
 20
217.8031546524
  0
LWPOLYLINE
  5
947
330
22
100
AcDbEntity
  8
0
  6
Continuous
 62
     7
100
AcDbPolyline
 90
        5
 70
     0
 43
0.0
 10
138.9154152878
 20
218.7271284037
 10
139.3041405598
 20
218.7509114468
 10
139.5707963603
 20
218.7749825739
 10
139.7038906336
 20
218.7990665691
 10
139.7129403047
 20
218.8031546524
  0
LWPOLYLINE
  5
94E
330
22
100
AcDbEntity
  8
0
  6
Continuous
 62
     7
100
AcDbPolyline
 90
        9
 70
     0
 43
0.0
 10
128.1352027481
 20
216.3700713348
 10
128.530977751
 20
216.3942115009
 10
129.0412647591
 20
216.4181560788
 10
129.6493734305
 20
216.4418170044
 10
130.3513256326
 20
216.4656080353
 10
131.1259864794
 20
216.4893282154
 10
131.9543680519
 20
216.5129436181
 10
132.8221599009
 20
216.5365757749
 10
134.6283534017
 20
216.5846693438
  0
LINE
  5
959
330
22
100
AcDbEntity
  8
0
  6
Continuous
 62
     7
100
AcDbLine
 10
141.4839656728
 20
213.8708753539
 30
0.0
 11
140.5951051833
 21
213.8195511166
 31
0.0
  0
LWPOLYLINE
  5
95A
330
22
100
AcDbEntity
  8
0
  6
Continuous
 62
     7
100
AcDbPolyline
 90
       11
 70
     0
 43
0.0
 10
119.4839656728
 20
213.8708753539
 10
118.5951051833
 20
213.8195511166
 10
117.4058119076
 20
213.7755179695
 10
115.9681854496
 20
213.7406974534
 10
114.3451024966
 20
213.7166066227
 10
112.6074543619
 20
213.7042936268
 10
110.8310630256
 20
213.7042936561
 10
109.0934159397
 20
213.7166067017
 10
107.4703347742
 20
213.7406975594
 10
106.032710347
 20
213.7755180738
 10
104.8434188254
 20
213.8195511956
  0
LWPOLYLINE
  5
967
330
22
100
AcDbEntity
  8
0
  6
Continuous
 62
     7
100
AcDbPolyline
 90
       11
 70
     0
 43
0.0
 10
97.48396567280002
 20
213.8708753539
 10
96.5951051833
 20
213.8195511166
 10
95.40581190759999
 20
213.7755179695
 10
93.96818544959998
 20
213.7406974534
 10
92.34510249659999
 20
213.7166066227
 10
90.60745436190002
 20
213.7042936268
 10
88.83106302559999
 20
213.7042936561
 10
87.0934159397
 20
213.7166067017
 10
85.47033477419999
 20
213.7406975594
 10
84.03271034699999
 20
213.7755180738
 10
82.84341882539999
 20
213.8195511956
  0
LWPOLYLINE
  5
974
330
22
100
AcDbEntity
  8
0
  6
Continuous
 62
     7
100
AcDbPolyline
 90
       11
 70
     0
 43
0.0
 10
75.4839656728
 20
213.8708753539
 10
74.59510518329999
 20
213.8195511166
 10
73.4058119076
 20
213.7755179695
 10
71.9681854496
 20
213.7406974534
 10
70.34510249659999
 20
213.7166066227
 10
68.6074543619
 20
213.7042936268
 10
66.8310630256
 20
213.7042936561
 10
65.09341593970001
 20
213.7166067017
 10
63.4703347742
 20
213.7406975594
 10
62.032710347
 20
213.7755180738
 10
60.8434188254
 20
213.8195511956
  0
LWPOLYLINE
  5
981
330
22
100
AcDbEntity
  8
0
  6
Continuous
 62
     7
100
AcDbPolyline
 90
        5
 70
     0
 43
0.0
 10
138.0579628472
 20
216.3632127955
 10
138.2680642092
 20
216.3734718654
 10
138.6722038932
 20
216.3988341842
 10
138.9508326432
 20
216.4241965031
 10
139.0968898148
 20
216.4495588219
  0
LWPOLYLINE
  5
988
330
22
100
AcDbEntity
  8
0
  6
Continuous
 62
     7
100
AcDbPolyline
 90
        7
 70
     0
 43
0.0
 10
138.9154152878
 20
216.7992971874
 10
138.4116292836
 20
216.7755462826
 10
137.7955682358
 20
216.7515070296
 10
137.0862278621
 20
216.7274530628
 10
136.3086005594
 20
216.703648205
 10
135.4826163042
 20
216.6801058627
 10
134.6177013149
 20
216.656552311
  0
LWPOLYLINE
  5
991
330
22
100
AcDbEntity
  8
0
  6
Continuous
 62
     7
100
AcDbPolyline
 90
        7
 70
     0
 43
0.0
 10
138.9154152878
 20
217.7992971874
 10
138.4167549461
 20
217.7757646382
 10
137.8130879312
 20
217.7521415292
 10
137.1140463332
 20
217.7283462755
 10
136.3421712712
 20
217.7046368265
 10
135.5140224558
 20
217.6809781656
 10
134.6338942459
 20
217.6569868302
  0
LWPOLYLINE
  5
99A
330
22
100
AcDbEntity
  8
0
  6
Continuous
 62
     7
100
AcDbPolyline
 90
        5
 70
     0
 43
0.0
 10
117.6693351322
 20
216.5632127955
 10
117.2801243848
 20
216.5450322388
 10
116.8928394725
 20
216.5046683666
 10
116.506744818
 20
216.4436533328
 10
116.1184238546
 20
216.3632127955
  0
LWPOLYLINE
  5
9A1
330
22
100
AcDbEntity
  8
0
  6
Continuous
 62
     7
100
AcDbPolyline
 90
        5
 70
     0
 43
0.0
 10
105.5449794793
 20
216.5632127955
 10
105.1557687318
 20
216.5450322388
 10
104.7684838195
 20
216.5046683666
 10
104.382389165
 20
216.4436533328
 10
103.9940682016
 20
216.3632127955
  0
LWPOLYLINE
  5
9A8
330
22
100
AcDbEntity
  8
0
  6
Continuous
 62
     7
100
AcDbPolyline
 90
        5
 70
     0
 43
0.0
 10
95.66933513219998
 20
216.5632127955
 10
95.28012438479999
 20
216.5450322388
 10
94.89283947249999
 20
216.5046683666
 10
94.50674481799998
 20
216.4436533328
 10
94.11842385459999
 20
216.3632127955
  0
LWPOLYLINE
  5
9AF
330
22
100
AcDbEntity
  8
0
  6
Continuous
 62
     7
100
AcDbPolyline
 90
       10
 70
     0
 43
0.0
 10
140.5951051833
 20
213.8195511166
 10
139.4058119076
 20
213.7755179695
 10
137.9681854496
 20
213.7406974534
 10
136.3451024966
 20
213.7166066227
 10
134.6074543619
 20
213.7042936268
 10
132.8310630256
 20
213.7042936561
 10
131.0934159397
 20
213.7166067017
 10
129.4703347742
 20
213.7406975594
 10
128.032710347
 20
213.7755180738
 10
126.8434188254
 20
213.8195511956
  0
LWPOLYLINE
  5
9BB
330
22
100
AcDbEntity
  8
0
  6
Continuous
 62
     7
100
AcDbPolyline
 90
       11
 70
     0
 43
0.0
 10
132.7412353326
 20
216.950055175
 10
134.4545627702
 20
217.0007798127
 10
135.2941509381
 20
217.0261421315
 10
136.0938303585
 20
217.0515044503
 10
136.8333366045
 20
217.0768667692
 10
137.4939300789
 20
217.102229088
 10
138.0588708885
 20
217.1275914069
 10
138.5138430445
 20
217.1529537257
 10
138.8473172391
 20
217.1783160445
 10
139.050843007
 20
217.2036783634
 10
139.1192628651
 20
217.2290406822
  0
LWPOLYLINE
  5
9C8
330
22
100
AcDbEntity
  8
0
  6
Continuous
 62
     7
100
AcDbPolyline
 90
       11
 70
     0
 43
0.0
 10
132.7412353326
 20
217.1850660683
 10
134.4545627702
 20
217.235790706
 10
135.2941509381
 20
217.2611530248
 10
136.0938303585
 20
217.2865153437
 10
136.8333366045
 20
217.3118776625
 10
137.4939300789
 20
217.3372399813
 10
138.0588708885
 20
217.3626023002
 10
138.5138430445
 20
217.387964619
 10
138.8473172391
 20
217.4133269379
 10
139.050843007
 20
217.4386892567
 10
139.1122403999
 20
217.4559339292
  0
LWPOLYLINE
  5
9D5
330
22
100
AcDbEntity
  8
0
  6
Continuous
 62
     7
100
AcDbPolyline
 90
        7
 70
     0
 43
0.0
 10
134.6283534017
 20
216.5846693438
 10
135.511203819
 20
216.6087310338
 10
136.3417804635
 20
216.6324565169
 10
137.1127484457
 20
216.6561357422
 10
137.8074568784
 20
216.6797685527
 10
138.4135863839
 20
216.7034608279
 10
138.9154152878
 20
216.7271284037
  0
LWPOLYLINE
  5
9DE
330
22
100
AcDbEntity
  8
0
  6
Continuous
 62
     7
100
AcDbPolyline
 90
        7
 70
     0
 43
0.0
 10
134.6177013149
 20
217.5843835274
 10
135.4826163042
 20
217.607937079
 10
136.3086005594
 20
217.6314794213
 10
137.0862278621
 20
217.6552842791
 10
137.7955682358
 20
217.679338246
 10
138.4116292836
 20
217.703377499
 10
138.9154152878
 20
217.7271284037
  0
LWPOLYLINE
  5
9E7
330
22
100
AcDbEntity
  8
0
  6
Continuous
 62
     7
100
AcDbPolyline
 90
       12
 70
     0
 43
0.0
 10
134.6177013149
 20
216.656552311
 10
132.8357309532
 20
216.6091085718
 10
131.9680423216
 20
216.5854917739
 10
131.1277302211
 20
216.5615482877
 10
130.341687677
 20
216.5374677031
 10
129.6364396453
 20
216.5135182335
 10
129.0317107116
 20
216.4899195069
 10
128.5298135426
 20
216.4663187794
 10
128.1382545759
 20
216.4424610046
 10
127.8716985352
 20
216.4185828134
 10
127.7371998803
 20
216.3949400896
 10
127.7255854251
 20
216.3899376052
  0
LWPOLYLINE
  5
9F5
330
22
100
AcDbEntity
  8
0
  6
Continuous
 62
     7
100
AcDbPolyline
 90
       12
 70
     0
 43
0.0
 10
134.6338942459
 20
217.6569868302
 10
132.8327302678
 20
217.6090280959
 10
131.9676439637
 20
217.585480726
 10
131.1338922463
 20
217.5617294678
 10
130.3514250233
 20
217.5377800046
 10
129.646958083
 20
217.51389857
 10
129.0402100267
 20
217.4902801759
 10
128.5319901054
 20
217.4664337341
 10
128.1377615426
 20
217.4424253724
 10
127.8711755722
 20
217.4185208263
 10
127.7371869751
 20
217.3949356585
 10
127.7255854251
 20
217.3899376052
  0
LWPOLYLINE
  5
A03
330
22
100
AcDbEntity
  8
0
  6
Continuous
 62
     7
100
AcDbPolyline
 90
        5
 70
     0
 43
0.0
 10
111.4950517464
 20
216.5632127955
 10
110.7166302514
 20
216.5450322388
 10
109.942060427
 20
216.5046683666
 10
109.1698711179
 20
216.4436533328
 10
108.3932291912
 20
216.3632127955
  0
LWPOLYLINE
  5
A0A
330
22
100
AcDbEntity
  8
0
  6
Continuous
 62
     7
100
AcDbPolyline
 90
        5
 70
     0
 43
0.0
 10
89.4950517464
 20
216.5632127955
 10
88.7166302514
 20
216.5450322388
 10
87.942060427
 20
216.5046683666
 10
87.16987111790002
 20
216.4436533328
 10
86.39322919120001
 20
216.3632127955
  0
LINE
  5
A11
330
22
100
AcDbEntity
  8
0
  6
Continuous
 62
     9
100
AcDbLine
 10
159.7192628651
 20
211.3114568023
 30
0.0
 11
148.2192628651
 21
211.3114568023
 31
0.0
  0
LINE
  5
A12
330
22
100
AcDbEntity
  8
0
  6
Continuous
 62
     9
100
AcDbLine
 10
53.2192628651
 20
211.3114568023
 30
0.0
 11
50.0192628651
 21
211.3114568023
 31
0.0
  0
LINE
  5
A13
330
22
100
AcDbEntity
  8
0
  6
Continuous
 62
     9
100
AcDbLine
 10
148.2192628651
 20
211.3281308736
 30
0.0
 11
53.2192628651
 21
211.3281308736
 31
0.0
  0
LINE
  5
A14
330
22
100
AcDbEntity
  8
0
  6
Continuous
 62
     7
100
AcDbLine
 10
39.5192628651
 20
211.7632127955
 30
0.0
 11
50.0192628651
 21
211.7632127955
 31
0.0
  0
LINE
  5
A15
330
22
100
AcDbEntity
  8
0
  6
Continuous
 62
     9
100
AcDbLine
 10
159.7192628651
 20
213.3103456304
 30
0.0
 11
148.2192628651
 21
213.3103456304
 31
0.0
  0
LINE
  5
A16
330
22
100
AcDbEntity
  8
0
  6
Continuous
 62
     9
100
AcDbLine
 10
53.2192628651
 20
213.3103456304
 30
0.0
 11
41.71926286509999
 21
213.3103456304
 31
0.0
  0
LINE
  5
A17
330
22
100
AcDbEntity
  8
0
  6
Continuous
 62
     9
100
AcDbLine
 10
148.2192628651
 20
213.3270197017
 30
0.0
 11
53.2192628651
 21
213.3270197017
 31
0.0
  0
LINE
  5
A18
330
22
100
AcDbEntity
  8
0
  6
Continuous
 62
     7
100
AcDbLine
 10
63.3201018756
 20
213.7632127955
 30
0.0
 11
64.39322919119999
 21
213.7632127955
 31
0.0
  0
LINE
  5
A19
330
22
100
AcDbEntity
  8
0
  6
Continuous
 62
     7
100
AcDbLine
 10
71.04529653899999
 20
213.7632127955
 30
0.0
 11
72.11842385459999
 21
213.7632127955
 31
0.0
  0
LINE
  5
A1A
330
22
100
AcDbEntity
  8
0
  6
Continuous
 62
     7
100
AcDbLine
 10
85.3201018756
 20
213.7632127955
 30
0.0
 11
86.39322919120001
 21
213.7632127955
 31
0.0
  0
LINE
  5
A1B
330
22
100
AcDbEntity
  8
0
  6
Continuous
 62
     7
100
AcDbLine
 10
93.04529653899999
 20
213.7632127955
 30
0.0
 11
94.11842385459999
 21
213.7632127955
 31
0.0
  0
LINE
  5
A1C
330
22
100
AcDbEntity
  8
0
  6
Continuous
 62
     7
100
AcDbLine
 10
107.3201018756
 20
213.7632127955
 30
0.0
 11
108.3932291912
 21
213.7632127955
 31
0.0
  0
LINE
  5
A1D
330
22
100
AcDbEntity
  8
0
  6
Continuous
 62
     7
100
AcDbLine
 10
115.045296539
 20
213.7632127955
 30
0.0
 11
116.1184238546
 21
213.7632127955
 31
0.0
  0
LINE
  5
A1E
330
22
100
AcDbEntity
  8
0
  6
Continuous
 62
     7
100
AcDbLine
 10
41.71834903599999
 20
214.7632127955
 30
0.0
 11
59.96926286509999
 21
214.7632127955
 31
0.0
  0
LINE
  5
A1F
330
22
100
AcDbEntity
  8
0
  6
Continuous
 62
     7
100
AcDbLine
 10
75.4692628651
 20
214.7632127955
 30
0.0
 11
81.9692628651
 21
214.7632127955
 31
0.0
  0
LINE
  5
A20
330
22
100
AcDbEntity
  8
0
  6
Continuous
 62
     7
100
AcDbLine
 10
97.46926286510001
 20
214.7632127955
 30
0.0
 11
103.9692628651
 21
214.7632127955
 31
0.0
  0
LINE
  5
A21
330
22
100
AcDbEntity
  8
0
  6
Continuous
 62
     7
100
AcDbLine
 10
119.4692628651
 20
214.7632127955
 30
0.0
 11
126.2192628651
 21
214.7632127955
 31
0.0
  0
LINE
  5
A22
330
22
100
AcDbEntity
  8
0
  6
Continuous
 62
     7
100
AcDbLine
 10
141.2192628651
 20
214.7632127955
 30
0.0
 11
159.7201766942
 21
214.7632127955
 31
0.0
  0
LINE
  5
A23
330
22
100
AcDbEntity
  8
0
  6
Continuous
 62
     7
100
AcDbLine
 10
141.2192628651
 20
216.2132127955
 30
0.0
 11
141.1277318934
 21
216.2132127955
 31
0.0
  0
LINE
  5
A24
330
22
100
AcDbEntity
  8
0
  6
Continuous
 62
     7
100
AcDbLine
 10
138.4351494898
 20
216.2132127955
 30
0.0
 11
136.4118452687
 21
216.2132127955
 31
0.0
  0
LINE
  5
A25
330
22
100
AcDbEntity
  8
0
  6
Continuous
 62
     7
100
AcDbLine
 10
131.0266804615
 20
216.2132127955
 30
0.0
 11
129.0033762404
 21
216.2132127955
 31
0.0
  0
LINE
  5
A26
330
22
100
AcDbEntity
  8
0
  6
Continuous
 62
     7
100
AcDbLine
 10
126.3107938368
 20
216.2132127955
 30
0.0
 11
126.2192628651
 21
216.2132127955
 31
0.0
  0
LINE
  5
A27
330
22
100
AcDbEntity
  8
0
  6
Continuous
 62
     7
100
AcDbLine
 10
119.4692628651
 20
216.3632127955
 30
0.0
 11
119.4444575285
 21
216.3632127955
 31
0.0
  0
LINE
  5
A28
330
22
100
AcDbEntity
  8
0
  6
Continuous
 62
     7
100
AcDbLine
 10
97.46926286510001
 20
216.3632127955
 30
0.0
 11
97.44445752850001
 21
216.3632127955
 31
0.0
  0
LINE
  5
A29
330
22
100
AcDbEntity
  8
0
  6
Continuous
 62
     7
100
AcDbLine
 10
75.4692628651
 20
216.3632127955
 30
0.0
 11
75.44445752850001
 21
216.3632127955
 31
0.0
  0
LINE
  5
A2A
330
22
100
AcDbEntity
  8
0
  6
Continuous
 62
     7
100
AcDbLine
 10
59.96926286509999
 20
216.3632127955
 30
0.0
 11
59.9940682016
 21
216.3632127955
 31
0.0
  0
LINE
  5
A2B
330
22
100
AcDbEntity
  8
0
  6
Continuous
 62
     7
100
AcDbLine
 10
63.3201018756
 20
216.3632127955
 30
0.0
 11
64.39322919119999
 21
216.3632127955
 31
0.0
  0
LINE
  5
A2C
330
22
100
AcDbEntity
  8
0
  6
Continuous
 62
     7
100
AcDbLine
 10
71.04529653899999
 20
216.3632127955
 30
0.0
 11
72.11842385459999
 21
216.3632127955
 31
0.0
  0
LINE
  5
A2D
330
22
100
AcDbEntity
  8
0
  6
Continuous
 62
     7
100
AcDbLine
 10
81.9692628651
 20
216.3632127955
 30
0.0
 11
81.9940682016
 21
216.3632127955
 31
0.0
  0
LINE
  5
A2E
330
22
100
AcDbEntity
  8
0
  6
Continuous
 62
     7
100
AcDbLine
 10
85.3201018756
 20
216.3632127955
 30
0.0
 11
86.39322919120001
 21
216.3632127955
 31
0.0
  0
LINE
  5
A2F
330
22
100
AcDbEntity
  8
0
  6
Continuous
 62
     7
100
AcDbLine
 10
93.04529653899999
 20
216.3632127955
 30
0.0
 11
94.11842385459999
 21
216.3632127955
 31
0.0
  0
LINE
  5
A30
330
22
100
AcDbEntity
  8
0
  6
Continuous
 62
     7
100
AcDbLine
 10
103.9692628651
 20
216.3632127955
 30
0.0
 11
103.9940682016
 21
216.3632127955
 31
0.0
  0
LINE
  5
A31
330
22
100
AcDbEntity
  8
0
  6
Continuous
 62
     7
100
AcDbLine
 10
107.3201018756
 20
216.3632127955
 30
0.0
 11
108.3932291912
 21
216.3632127955
 31
0.0
  0
LINE
  5
A32
330
22
100
AcDbEntity
  8
0
  6
Continuous
 62
     7
100
AcDbLine
 10
115.045296539
 20
216.3632127955
 30
0.0
 11
116.1184238546
 21
216.3632127955
 31
0.0
  0
LINE
  5
A33
330
22
100
AcDbEntity
  8
0
  6
Continuous
 62
     7
100
AcDbLine
 10
126.6313844796
 20
216.3632127955
 30
0.0
 11
140.8071412506
 21
216.3632127955
 31
0.0
  0
LINE
  5
A34
330
22
100
AcDbEntity
  8
0
  6
Continuous
 62
     7
100
AcDbLine
 10
60.7156961735
 20
216.5632127955
 30
0.0
 11
74.7228295567
 21
216.5632127955
 31
0.0
  0
LINE
  5
A35
330
22
100
AcDbEntity
  8
0
  6
Continuous
 62
     7
100
AcDbLine
 10
82.71569617350001
 20
216.5632127955
 30
0.0
 11
96.7228295567
 21
216.5632127955
 31
0.0
  0
LINE
  5
A36
330
22
100
AcDbEntity
  8
0
  6
Continuous
 62
     7
100
AcDbLine
 10
104.7156961735
 20
216.5632127955
 30
0.0
 11
118.7228295567
 21
216.5632127955
 31
0.0
  0
LINE
  5
A37
330
22
100
AcDbEntity
  8
0
  6
Continuous
 62
     7
100
AcDbLine
 10
60.8434188254
 20
213.8195511956
 30
0.0
 11
59.9545594856
 21
213.8708753967
 31
0.0
  0
LWPOLYLINE
  5
A38
330
22
100
AcDbEntity
  8
0
  6
Continuous
 62
     7
100
AcDbPolyline
 90
        4
 70
     0
 43
0.0
 10
75.4692628651
 20
214.102375746
 10
75.4839662446
 20
214.1015267486
 10
76.03339626010001
 20
214.0451545705
 10
76.2192628651
 20
213.9862010727
  0
LINE
  5
A3E
330
22
100
AcDbEntity
  8
0
  6
Continuous
 62
     7
100
AcDbLine
 10
82.84341882539999
 20
213.8195511956
 30
0.0
 11
81.95455948560001
 21
213.8708753967
 31
0.0
  0
LWPOLYLINE
  5
A3F
330
22
100
AcDbEntity
  8
0
  6
Continuous
 62
     7
100
AcDbPolyline
 90
        4
 70
     0
 43
0.0
 10
97.46926286510001
 20
214.102375746
 10
97.48396624459999
 20
214.1015267486
 10
98.0333962601
 20
214.0451545705
 10
98.2192628651
 20
213.9862010727
  0
LINE
  5
A45
330
22
100
AcDbEntity
  8
0
  6
Continuous
 62
     7
100
AcDbLine
 10
104.8434188254
 20
213.8195511956
 30
0.0
 11
103.9545594856
 21
213.8708753967
 31
0.0
  0
LWPOLYLINE
  5
A46
330
22
100
AcDbEntity
  8
0
  6
Continuous
 62
     7
100
AcDbPolyline
 90
        4
 70
     0
 43
0.0
 10
119.4692628651
 20
214.102375746
 10
119.4839662446
 20
214.1015267486
 10
120.0333962601
 20
214.0451545705
 10
120.2192628651
 20
213.9862010727
  0
LWPOLYLINE
  5
A4C
330
22
100
AcDbEntity
  8
0
  6
Continuous
 62
     7
100
AcDbPolyline
 90
        4
 70
     0
 43
0.0
 10
126.8434188254
 20
213.8195511956
 10
125.9545594856
 20
213.8708753967
 10
125.4051294701
 20
213.9272475749
 10
125.2192628651
 20
213.9862010727
  0
LWPOLYLINE
  5
A52
330
22
100
AcDbEntity
  8
0
  6
Continuous
 62
     7
100
AcDbPolyline
 90
        4
 70
     0
 43
0.0
 10
141.2192628651
 20
214.1168111574
 10
141.4839662446
 20
214.1015267486
 10
142.0333962601
 20
214.0451545705
 10
142.2192628651
 20
213.9862010727
  0
LWPOLYLINE
  5
A58
330
22
100
AcDbEntity
  8
0
  6
Continuous
 62
     7
100
AcDbPolyline
 90
        3
 70
     0
 43
0.0
 10
81.95455948560001
 20
213.8708753967
 10
81.4051294701
 20
213.9272475749
 10
81.21926286510001
 20
213.9862010727
  0
LWPOLYLINE
  5
A5D
330
22
100
AcDbEntity
  8
0
  6
Continuous
 62
     7
100
AcDbPolyline
 90
        3
 70
     0
 43
0.0
 10
103.9545594856
 20
213.8708753967
 10
103.4051294701
 20
213.9272475749
 10
103.2192628651
 20
213.9862010727
  0
LINE
  5
A62
330
22
100
AcDbEntity
  8
0
  6
Continuous
 62
     7
100
AcDbLine
 10
86.80135024549999
 20
213.7209417363
 30
0.0
 11
86.39322919120001
 21
213.7632127955
 31
0.0
  0
LWPOLYLINE
  5
A63
330
22
100
AcDbEntity
  8
0
  6
Continuous
 62
     7
100
AcDbPolyline
 90
        5
 70
     0
 43
0.0
 10
71.04529653899999
 20
216.3632127955
 10
70.26861102869999
 20
216.4436573292
 10
69.49640996710001
 20
216.5046720153
 10
68.7218620131
 20
216.5450335102
 10
67.94347398380001
 20
216.5632127955
  0
LINE
  5
A6A
330
22
100
AcDbEntity
  8
0
  6
Continuous
 62
     7
100
AcDbLine
 10
108.8013502455
 20
213.7209417363
 30
0.0
 11
108.3932291912
 21
213.7632127955
 31
0.0
  0
LWPOLYLINE
  5
A6B
330
22
100
AcDbEntity
  8
0
  6
Continuous
 62
     7
100
AcDbPolyline
 90
        5
 70
     0
 43
0.0
 10
93.04529653899999
 20
216.3632127955
 10
92.26861102870001
 20
216.4436573292
 10
91.49640996709999
 20
216.5046720153
 10
90.7218620131
 20
216.5450335102
 10
89.94347398379998
 20
216.5632127955
  0
LWPOLYLINE
  5
A72
330
22
100
AcDbEntity
  8
0
  6
Continuous
 62
     7
100
AcDbPolyline
 90
        5
 70
     0
 43
0.0
 10
85.3201018756
 20
216.3632127955
 10
84.93175912039999
 20
216.4436573292
 10
84.5456585896
 20
216.5046720153
 10
84.15838461259999
 20
216.5450335102
 10
83.76919059789999
 20
216.5632127955
  0
LWPOLYLINE
  5
A79
330
22
100
AcDbEntity
  8
0
  6
Continuous
 62
     7
100
AcDbPolyline
 90
        5
 70
     0
 43
0.0
 10
97.44445752850001
 20
216.3632127955
 10
97.05611477339999
 20
216.4436573292
 10
96.6700142426
 20
216.5046720153
 10
96.28274026559999
 20
216.5450335102
 10
95.89354625090001
 20
216.5632127955
  0
LINE
  5
A80
330
22
100
AcDbEntity
  8
0
  6
Continuous
 62
     7
100
AcDbLine
 10
96.72285270360001
 20
216.5632127955
 30
0.0
 11
97.46926286510001
 21
216.3632127955
 31
0.0
  0
LINE
  5
A81
330
22
100
AcDbEntity
  8
0
  6
Continuous
 62
     7
100
AcDbLine
 10
138.4351494898
 20
216.2132127955
 30
0.0
 11
138.4351494898
 21
213.7520077133
 31
0.0
  0
LINE
  5
A82
330
22
100
AcDbEntity
  8
0
  6
Continuous
 62
     7
100
AcDbLine
 10
138.9692628651
 20
224.5632127955
 30
0.0
 11
138.9692628651
 21
225.7632127955
 31
0.0
  0
LINE
  5
A83
330
22
100
AcDbEntity
  8
0
  6
Continuous
 62
     7
100
AcDbLine
 10
139.1192628651
 20
216.3632127955
 30
0.0
 11
139.1192628651
 21
216.4599934635
 31
0.0
  0
LINE
  5
A84
330
22
100
AcDbEntity
  8
0
  6
Continuous
 62
     7
100
AcDbLine
 10
139.1192628651
 20
217.2290406822
 30
0.0
 11
139.1192628651
 21
217.4599934635
 31
0.0
  0
LINE
  5
A85
330
22
100
AcDbEntity
  8
0
  6
Continuous
 62
     7
100
AcDbLine
 10
139.1192628651
 20
218.2290406822
 30
0.0
 11
139.1192628651
 21
218.4599934635
 31
0.0
  0
LINE
  5
A86
330
22
100
AcDbEntity
  8
0
  6
Continuous
 62
     7
100
AcDbLine
 10
139.1192628651
 20
219.2290406822
 30
0.0
 11
139.1192628651
 21
219.4599934635
 31
0.0
  0
LINE
  5
A87
330
22
100
AcDbEntity
  8
0
  6
Continuous
 62
     7
100
AcDbLine
 10
139.1192628651
 20
220.2290406822
 30
0.0
 11
139.1192628651
 21
220.4599934635
 31
0.0
  0
LINE
  5
A88
330
22
100
AcDbEntity
  8
0
  6
Continuous
 62
     7
100
AcDbLine
 10
139.1192628651
 20
221.2290406822
 30
0.0
 11
139.1192628651
 21
221.4599934635
 31
0.0
  0
LINE
  5
A89
330
22
100
AcDbEntity
  8
0
  6
Continuous
 62
     7
100
AcDbLine
 10
139.1192628651
 20
222.2290406822
 30
0.0
 11
139.1192628651
 21
222.4599934635
 31
0.0
  0
LINE
  5
A8A
330
22
100
AcDbEntity
  8
0
  6
Continuous
 62
     7
100
AcDbLine
 10
139.1192628651
 20
223.2290406822
 30
0.0
 11
139.1192628651
 21
223.4599934635
 31
0.0
  0
LINE
  5
A8B
330
22
100
AcDbEntity
  8
0
  6
Continuous
 62
     7
100
AcDbLine
 10
139.1192628651
 20
224.2290406822
 30
0.0
 11
139.1192628651
 21
224.4132127955
 31
0.0
  0
LINE
  5
A8C
330
22
100
AcDbEntity
  8
0
  6
Continuous
 62
     7
100
AcDbLine
 10
139.7192628651
 20
216.8104617371
 30
0.0
 11
139.7192628651
 21
216.8826305207
 31
0.0
  0
LINE
  5
A8D
330
22
100
AcDbEntity
  8
0
  6
Continuous
 62
     7
100
AcDbLine
 10
139.7192628651
 20
217.8104617371
 30
0.0
 11
139.7192628651
 21
217.8826305207
 31
0.0
  0
LINE
  5
A8E
330
22
100
AcDbEntity
  8
0
  6
Continuous
 62
     7
100
AcDbLine
 10
139.7192628651
 20
218.8104617371
 30
0.0
 11
139.7192628651
 21
218.8826305207
 31
0.0
  0
LINE
  5
A8F
330
22
100
AcDbEntity
  8
0
  6
Continuous
 62
     7
100
AcDbLine
 10
139.7192628651
 20
219.8104617371
 30
0.0
 11
139.7192628651
 21
219.8826305207
 31
0.0
  0
LINE
  5
A90
330
22
100
AcDbEntity
  8
0
  6
Continuous
 62
     7
100
AcDbLine
 10
139.7192628651
 20
220.8104617371
 30
0.0
 11
139.7192628651
 21
220.8826305207
 31
0.0
  0
LINE
  5
A91
330
22
100
AcDbEntity
  8
0
  6
Continuous
 62
     7
100
AcDbLine
 10
139.7192628651
 20
221.8104617371
 30
0.0
 11
139.7192628651
 21
221.8826305207
 31
0.0
  0
LINE
  5
A92
330
22
100
AcDbEntity
  8
0
  6
Continuous
 62
     7
100
AcDbLine
 10
139.7192628651
 20
222.8104617371
 30
0.0
 11
139.7192628651
 21
222.8826305207
 31
0.0
  0
LINE
  5
A93
330
22
100
AcDbEntity
  8
0
  6
Continuous
 62
     7
100
AcDbLine
 10
141.1277318934
 20
216.2132127955
 30
0.0
 11
141.1277318934
 21
213.8503058413
 31
0.0
  0
LINE
  5
A94
330
22
100
AcDbEntity
  8
0
  6
Continuous
 62
     7
100
AcDbLine
 10
141.2192628651
 20
216.2132127955
 30
0.0
 11
141.2192628651
 21
213.8555909872
 31
0.0
  0
LINE
  5
A95
330
22
100
AcDbEntity
  8
0
  6
Continuous
 62
     7
100
AcDbLine
 10
136.4909507016
 20
167.8832127955
 30
0.0
 11
137.2126385380999
 21
169.1332127955
 31
0.0
  0
LINE
  5
A96
330
22
100
AcDbEntity
  8
0
  6
Continuous
 62
     7
100
AcDbLine
 10
82.71567302660001
 20
216.5632127955
 30
0.0
 11
81.9692628651
 21
216.3632127955
 31
0.0
  0
LWPOLYLINE
  5
A97
330
22
100
AcDbEntity
  8
0
  6
Continuous
 62
     7
100
AcDbPolyline
 90
       21
 70
     0
 43
0.0
 10
128.3455141164
 20
223.7447403097
 10
128.4927988527
 20
223.76949855
 10
128.7663044896
 20
223.7942567902
 10
129.1594257719
 20
223.8190150304
 10
129.6626686857
 20
223.8437732706
 10
130.2638797419
 20
223.8685315108
 10
130.948539487
 20
223.893289751
 10
131.700113153
 20
223.9180479913
 10
132.5004499779
 20
223.9428062315
 10
133.3302215526
 20
223.9675644717
 10
134.1693886085
 20
223.9923227119
 10
134.9976849731
 20
224.0170809521
 10
135.7951070049
 20
224.0418391923
 10
136.5423966879
 20
224.0665974325
 10
137.2215067197
 20
224.0913556728
 10
137.8160363599
 20
224.116113913
 10
138.3116275134
 20
224.1408721532
 10
138.6963114839
 20
224.1656303934
 10
138.9607980212
 20
224.1903886336
 10
139.0986996847
 20
224.2151468738
 10
139.1192628651
 20
224.2290406822
  0
LWPOLYLINE
  5
AAE
330
22
100
AcDbEntity
  8
0
  6
Continuous
 62
     7
100
AcDbPolyline
 90
        9
 70
     0
 43
0.0
 10
139.6637626605
 20
223.7887975631
 10
139.469525659
 20
223.7643810295
 10
139.1402039855
 20
223.7399636762
 10
138.683500601
 20
223.7155445572
 10
138.1101191727
 20
223.6911236715
 10
137.4335626531
 20
223.6667028232
 10
136.6697282053
 20
223.6422819841
 10
135.8365622341
 20
223.6178610925
 10
134.953629844
 20
223.5934398171
  0
LWPOLYLINE
  5
AB9
330
22
100
AcDbEntity
  8
0
  6
Continuous
 62
     7
100
AcDbPolyline
 90
        6
 70
     0
 43
0.0
 10
41.71926286509999
 20
213.3103456304
 10
40.38419113049999
 20
213.159897526
 10
39.1162457522
 20
212.7161861126
 10
37.9784715918
 20
212.0012095246
 10
37.0286899022
 20
211.0513872301
 10
36.3136102426
 20
209.9133517298
  0
LINE
  5
AC1
330
22
100
AcDbEntity
  8
0
  6
Continuous
 62
     7
100
AcDbLine
 10
40.3826966372
 20
214.6126730436
 30
0.0
 11
41.71926286509999
 21
214.7632127955
 31
0.0
  0
LWPOLYLINE
  5
AC2
330
22
100
AcDbEntity
  8
0
  6
Continuous
 62
     7
100
AcDbPolyline
 90
        5
 70
     0
 43
0.0
 10
138.3958000455
 20
220.1457073489
 10
138.7649895858
 20
220.1710696677
 10
139.0063169386
 20
220.1964319866
 10
139.1136667028
 20
220.2217943054
 10
139.1192628651
 20
220.2290406822
  0
LWPOLYLINE
  5
AC9
330
22
100
AcDbEntity
  8
0
  6
Continuous
 62
     7
100
AcDbPolyline
 90
        4
 70
     0
 43
0.0
 10
138.3958000455
 20
220.3807182422
 10
138.7649895858
 20
220.4060805611
 10
139.0063169386
 20
220.4314428799
 10
139.1122403999
 20
220.4559339292
  0
LWPOLYLINE
  5
ACF
330
22
100
AcDbEntity
  8
0
  6
Continuous
 62
     7
100
AcDbPolyline
 90
        5
 70
     0
 43
0.0
 10
138.9154152878
 20
219.7271284037
 10
139.3037844602
 20
219.7508856083
 10
139.5694599903
 20
219.7748225873
 10
139.7028003692
 20
219.7986692151
 10
139.7129403047
 20
219.8031546524
  0
LWPOLYLINE
  5
AD6
330
22
100
AcDbEntity
  8
0
  6
Continuous
 62
     7
100
AcDbPolyline
 90
        5
 70
     0
 43
0.0
 10
138.9154152878
 20
220.7271284037
 10
139.3036801561
 20
220.750878042
 10
139.5702369799
 20
220.7749155203
 10
139.7036222821
 20
220.7989674945
 10
139.7129403047
 20
220.8031546524
  0
LWPOLYLINE
  5
ADD
330
22
100
AcDbEntity
  8
0
  6
Continuous
 62
     7
100
AcDbPolyline
 90
        5
 70
     0
 43
0.0
 10
138.9154152878
 20
221.7271284037
 10
139.3036762489
 20
221.7508777586
 10
139.5702306655
 20
221.7749147641
 10
139.7036164814
 20
221.7989653623
 10
139.7129403047
 20
221.8031546524
  0
LWPOLYLINE
  5
AE4
330
22
100
AcDbEntity
  8
0
  6
Continuous
 62
     7
100
AcDbPolyline
 90
        5
 70
     0
 43
0.0
 10
138.9154152878
 20
222.7271284037
 10
139.300720747
 20
222.7506637451
 10
139.5648694684
 20
222.7742783206
 10
139.7010746021
 20
222.7980662132
 10
139.7129403047
 20
222.8031546524
  0
LWPOLYLINE
  5
AEB
330
22
100
AcDbEntity
  8
0
  6
Continuous
 62
     7
100
AcDbPolyline
 90
        8
 70
     0
 43
0.0
 10
138.9154152878
 20
218.7992971874
 10
138.4116797045
 20
218.7755484288
 10
137.7956876106
 20
218.751511345
 10
137.0864293534
 20
218.7274595201
 10
136.3088708738
 20
218.7036561537
 10
135.4809651132
 20
218.6800600419
 10
134.6023862051
 20
218.6561415125
 10
132.8045317254
 20
218.6082715337
  0
LWPOLYLINE
  5
AF5
330
22
100
AcDbEntity
  8
0
  6
Continuous
 62
     7
100
AcDbPolyline
 90
        8
 70
     0
 43
0.0
 10
138.9154152878
 20
219.7992971874
 10
138.4115888478
 20
219.7755445615
 10
137.7954722744
 20
219.7515035607
 10
137.0860674784
 20
219.7274479229
 10
136.3083294814
 20
219.703640234
 10
135.4787441934
 20
219.6799984175
 10
134.6017856267
 20
219.6561254063
 10
132.8198487842
 20
219.6086825555
  0
LWPOLYLINE
  5
AFF
330
22
100
AcDbEntity
  8
0
  6
Continuous
 62
     7
100
AcDbPolyline
 90
        8
 70
     0
 43
0.0
 10
138.9154152878
 20
220.7992971874
 10
138.4115234549
 20
220.7755417782
 10
137.7984355564
 20
220.7516107129
 10
137.0962201227
 20
220.7277735073
 10
136.326352708
 20
220.7041706177
 10
135.4946444939
 20
220.6804397693
 10
134.6109872049
 20
220.6563721983
 10
132.8049399718
 20
220.6082824908
  0
LWPOLYLINE
  5
B09
330
22
100
AcDbEntity
  8
0
  6
Continuous
 62
     7
100
AcDbPolyline
 90
        8
 70
     0
 43
0.0
 10
138.9154152878
 20
221.7992971874
 10
138.4109043349
 20
221.7755154298
 10
137.7938498153
 20
221.7514449209
 10
137.0833349214
 20
221.7273603699
 10
136.3044438437
 20
221.7035259993
 10
135.475362463
 20
221.6799045978
 10
134.604206062
 20
221.6561903183
 10
132.8306003251
 20
221.6089709688
  0
LWPOLYLINE
  5
B13
330
22
100
AcDbEntity
  8
0
  6
Continuous
 62
     7
100
AcDbPolyline
 90
        7
 70
     0
 43
0.0
 10
138.9154152878
 20
222.7992971874
 10
138.4135863839
 20
222.7756296116
 10
137.8074568783
 20
222.7519373363
 10
137.1127484457
 20
222.7283045259
 10
136.3417804635
 20
222.7046253005
 10
135.511203819
 20
222.6808998174
 10
134.6283534017
 20
222.6568381274
  0
LWPOLYLINE
  5
B1C
330
22
100
AcDbEntity
  8
0
  6
Continuous
 62
     7
100
AcDbPolyline
 90
        5
 70
     0
 43
0.0
 10
83.54497947929999
 20
216.5632127955
 10
83.15576873180001
 20
216.5450322388
 10
82.76848381949999
 20
216.5046683666
 10
82.382389165
 20
216.4436533328
 10
81.9940682016
 20
216.3632127955
  0
LWPOLYLINE
  5
B23
330
22
100
AcDbEntity
  8
0
  6
Continuous
 62
     7
100
AcDbPolyline
 90
        5
 70
     0
 43
0.0
 10
73.66933513220001
 20
216.5632127955
 10
73.28012438479999
 20
216.5450322388
 10
72.8928394725
 20
216.5046683666
 10
72.506744818
 20
216.4436533328
 10
72.11842385459999
 20
216.3632127955
  0
LWPOLYLINE
  5
B2A
330
22
100
AcDbEntity
  8
0
  6
Continuous
 62
     7
100
AcDbPolyline
 90
        5
 70
     0
 43
0.0
 10
61.5449794793
 20
216.5632127955
 10
61.1557687318
 20
216.5450322388
 10
60.7684838195
 20
216.5046683666
 10
60.382389165
 20
216.4436533328
 10
59.9940682016
 20
216.3632127955
  0
LWPOLYLINE
  5
B31
330
22
100
AcDbEntity
  8
0
  6
Continuous
 62
     7
100
AcDbPolyline
 90
        3
 70
     0
 43
0.0
 10
138.4136407935
 20
224.3926120742
 10
138.655759092
 20
224.4029008692
 10
138.8461024153
 20
224.4132127955
  0
LWPOLYLINE
  5
B36
330
22
100
AcDbEntity
  8
0
  6
Continuous
 62
     7
100
AcDbPolyline
 90
       10
 70
     0
 43
0.0
 10
134.8179253355
 20
223.0116493779
 10
135.6429681076
 20
223.0370116967
 10
136.419262865
 20
223.0623740156
 10
137.1271377644
 20
223.0877363344
 10
137.7486547686
 20
223.1130986532
 10
138.2680642091
 20
223.1384609721
 10
138.6722038932
 20
223.1638232909
 10
138.9508326432
 20
223.1891856098
 10
139.0968898148
 20
223.2145479286
 10
139.1192628651
 20
223.2290406822
  0
LWPOLYLINE
  5
B42
330
22
100
AcDbEntity
  8
0
  6
Continuous
 62
     7
100
AcDbPolyline
 90
        9
 70
     0
 43
0.0
 10
134.8179253355
 20
223.2466602712
 10
135.6429681076
 20
223.27202259
 10
136.419262865
 20
223.2973849089
 10
137.1271377644
 20
223.3227472277
 10
137.7486547686
 20
223.3481095466
 10
138.2680642091
 20
223.3734718654
 10
138.6722038932
 20
223.3988341842
 10
138.9508326432
 20
223.4241965031
 10
139.0968898148
 20
223.4495588219
  0
LWPOLYLINE
  5
B4D
330
22
100
AcDbEntity
  8
0
  6
Continuous
 62
     7
100
AcDbPolyline
 90
       10
 70
     0
 43
0.0
 10
134.6972903975
 20
221.0080261895
 10
135.5276127708
 20
221.0333885083
 10
136.312110313
 20
221.0587508271
 10
137.0309033166
 20
221.084113146
 10
137.6657770722
 20
221.1094754648
 10
138.2006434419
 20
221.1348377837
 10
138.6219485438
 20
221.1602001025
 10
138.9190162168
 20
221.1855624213
 10
139.0843185615
 20
221.2109247402
 10
139.1192628651
 20
221.2290406822
  0
LWPOLYLINE
  5
B59
330
22
100
AcDbEntity
  8
0
  6
Continuous
 62
     7
100
AcDbPolyline
 90
       10
 70
     0
 43
0.0
 10
134.6972903975
 20
221.2430370828
 10
135.5276127708
 20
221.2683994016
 10
136.312110313
 20
221.2937617205
 10
137.0309033166
 20
221.3191240393
 10
137.6657770722
 20
221.3444863582
 10
138.2006434419
 20
221.369848677
 10
138.6219485438
 20
221.3952109958
 10
138.9190162168
 20
221.4205733147
 10
139.0843185615
 20
221.4459356335
 10
139.1122403999
 20
221.4559339292
  0
LWPOLYLINE
  5
B65
330
22
100
AcDbEntity
  8
0
  6
Continuous
 62
     7
100
AcDbPolyline
 90
       11
 70
     0
 43
0.0
 10
132.8623771143
 20
218.9536783634
 10
134.576148616
 20
219.0044030011
 10
135.4113202922
 20
219.0297653199
 10
136.2036140689
 20
219.0551276387
 10
136.9329526763
 20
219.0804899576
 10
137.5808541724
 20
219.1058522764
 10
138.1309002874
 20
219.1312145953
 10
138.5691524741
 20
219.1565769141
 10
138.8845051205
 20
219.1819392329
 10
139.0689669737
 20
219.2073015518
 10
139.1192628651
 20
219.2290406822
  0
LWPOLYLINE
  5
B72
330
22
100
AcDbEntity
  8
0
  6
Continuous
 62
     7
100
AcDbPolyline
 90
       11
 70
     0
 43
0.0
 10
132.8623771143
 20
219.1886892567
 10
134.576148616
 20
219.2394138944
 10
135.4113202922
 20
219.2647762132
 10
136.2036140689
 20
219.2901385321
 10
136.9329526763
 20
219.3155008509
 10
137.5808541724
 20
219.3408631698
 10
138.1309002874
 20
219.3662254886
 10
138.5691524741
 20
219.3915878074
 10
138.8845051205
 20
219.4169501263
 10
139.0689669737
 20
219.4423124451
 10
139.1122403999
 20
219.4559339292
  0
LWPOLYLINE
  5
B7F
330
22
100
AcDbEntity
  8
0
  6
Continuous
 62
     7
100
AcDbPolyline
 90
       12
 70
     0
 43
0.0
 10
132.6206003945
 20
221.9464319866
 10
134.3325958697
 20
221.9971566242
 10
135.1761654293
 20
222.0225189431
 10
135.9828160753
 20
222.0478812619
 10
136.7321067252
 20
222.0732435808
 10
137.4050498384
 20
222.0986058996
 10
137.9845925732
 20
222.1239682184
 10
138.456048918
 20
222.1493305373
 10
138.8074718445
 20
222.1746928561
 10
139.0299560539
 20
222.200055175
 10
139.1178636432
 20
222.2254174938
 10
139.1192628651
 20
222.2290406822
  0
LWPOLYLINE
  5
B8D
330
22
100
AcDbEntity
  8
0
  6
Continuous
 62
     7
100
AcDbPolyline
 90
       11
 70
     0
 43
0.0
 10
132.6206003945
 20
222.1814428799
 10
134.3325958697
 20
222.2321675176
 10
135.1761654293
 20
222.2575298364
 10
135.9828160753
 20
222.2828921553
 10
136.7321067252
 20
222.3082544741
 10
137.4050498384
 20
222.3336167929
 10
137.9845925732
 20
222.3589791118
 10
138.456048918
 20
222.3843414306
 10
138.8074718445
 20
222.4097037495
 10
139.0299560539
 20
222.4350660683
 10
139.1122403999
 20
222.4559339292
  0
LWPOLYLINE
  5
B9A
330
22
100
AcDbEntity
  8
0
  6
Continuous
 62
     7
100
AcDbPolyline
 90
        7
 70
     0
 43
0.0
 10
134.9823464441
 20
223.6663873861
 10
135.8658157674
 20
223.6908600233
 10
136.6986378942
 20
223.7153328445
 10
137.4611650915
 20
223.7398060671
 10
138.135392934
 20
223.7642794574
 10
138.7053994144
 20
223.7887525868
 10
139.1575352113
 20
223.8132127955
  0
LWPOLYLINE
  5
BA3
330
22
100
AcDbEntity
  8
0
  6
Continuous
 62
     7
100
AcDbPolyline
 90
        7
 70
     0
 43
0.0
 10
134.6338942459
 20
218.5848180466
 10
135.5140224558
 20
218.608809382
 10
136.3421712712
 20
218.6324680428
 10
137.1140463332
 20
218.6561774919
 10
137.8130879312
 20
218.6799727456
 10
138.4167549461
 20
218.7035958546
 10
138.9154152878
 20
218.7271284037
  0
LWPOLYLINE
  5
BAC
330
22
100
AcDbEntity
  8
0
  6
Continuous
 62
     7
100
AcDbPolyline
 90
       11
 70
     0
 43
0.0
 10
132.8045317254
 20
218.6082715337
 10
131.9378243712
 20
218.5846530494
 10
131.1015271035
 20
218.5607767373
 10
130.3220511431
 20
218.5368366351
 10
129.6248804181
 20
218.5130992872
 10
129.0230989919
 20
218.4895530216
 10
128.517524984
 20
218.4656670568
 10
128.1263386446999
 20
218.4415940797
 10
127.8635224408
 20
218.4176013431
 10
127.734409061
 20
218.3939415647
 10
127.7255854251
 20
218.3899376052
  0
LWPOLYLINE
  5
BB9
330
22
100
AcDbEntity
  8
0
  6
Continuous
 62
     7
100
AcDbPolyline
 90
       11
 70
     0
 43
0.0
 10
132.8198487842
 20
219.6086825555
 10
131.9533070702
 20
219.5850829548
 10
131.1136162978
 20
219.5611329274
 10
130.3287028578
 20
219.537050596
 10
129.6250177964
 20
219.5131042723
 10
129.02151689
 20
219.4894855774
 10
128.519422502
 20
219.4657679939
 10
128.1326105695
 20
219.4420518865
 10
127.8709857013
 20
219.4184982947
 10
127.737237841
 20
219.3949531148
 10
127.7255854251
 20
219.3899376052
  0
LWPOLYLINE
  5
BC6
330
22
100
AcDbEntity
  8
0
  6
Continuous
 62
     7
100
AcDbPolyline
 90
       11
 70
     0
 43
0.0
 10
132.8049399718
 20
220.6082824908
 10
131.9366532394
 20
220.5846205161
 10
131.1034466288
 20
220.560833319
 10
130.3308959767
 20
220.5371210973
 10
129.6359397597
 20
220.5135001372
 10
129.0304561547
 20
220.489866183
 10
128.5221671437
 20
220.4659137969
 10
128.1287535245
 20
220.4417707491
 10
127.8643867868
 20
220.4177063771
 10
127.7345074144
 20
220.3939782455
 10
127.7255854251
 20
220.3899376052
  0
LWPOLYLINE
  5
BD3
330
22
100
AcDbEntity
  8
0
  6
Continuous
 62
     7
100
AcDbPolyline
 90
       11
 70
     0
 43
0.0
 10
132.8306003251
 20
221.6089709688
 10
131.9623507773
 20
221.5853339042
 10
131.1212432889
 20
221.5613574477
 10
130.334777552
 20
221.5372458244
 10
129.6295402089
 20
221.5132682977
 10
129.0249238638
 20
221.4896307704
 10
128.5240017635
 20
221.4660111279
 10
128.1375790462
 20
221.4424121779
 10
127.8726192399
 20
221.4186916906
 10
127.7375765922
 20
221.3950687455
 10
127.7255854251
 20
221.3899376052
  0
LWPOLYLINE
  5
BE0
330
22
100
AcDbEntity
  8
0
  6
Continuous
 62
     7
100
AcDbPolyline
 90
        8
 70
     0
 43
0.0
 10
132.8045317254
 20
219.5361027501
 10
134.6023862051
 20
219.5839727288
 10
135.4809651132
 20
219.6078912583
 10
136.3088708738
 20
219.63148737
 10
137.0864293534
 20
219.6552907365
 10
137.7956876106
 20
219.6793425613
 10
138.4116797045
 20
219.7033796451
 10
138.9154152878
 20
219.7271284037
  0
LWPOLYLINE
  5
BEA
330
22
100
AcDbEntity
  8
0
  6
Continuous
 62
     7
100
AcDbPolyline
 90
        8
 70
     0
 43
0.0
 10
132.8198487842
 20
220.5365137719
 10
134.6017856267
 20
220.5839566227
 10
135.4787441934
 20
220.6078296338
 10
136.3083294814
 20
220.6314714504
 10
137.0860674784
 20
220.6552791393
 10
137.7954722744
 20
220.679334777
 10
138.4115888478
 20
220.7033757779
 10
138.9154152878
 20
220.7271284037
  0
LWPOLYLINE
  5
BF4
330
22
100
AcDbEntity
  8
0
  6
Continuous
 62
     7
100
AcDbPolyline
 90
        8
 70
     0
 43
0.0
 10
132.8049399718
 20
221.5361137072
 10
134.6109872049
 20
221.5842034146
 10
135.4946444939
 20
221.6082709857
 10
136.326352708
 20
221.6320018341
 10
137.0962201227
 20
221.6556047237
 10
137.7984355564
 20
221.6794419292
 10
138.4115234549
 20
221.7033729946
 10
138.9154152878
 20
221.7271284037
  0
LWPOLYLINE
  5
BFE
330
22
100
AcDbEntity
  8
0
  6
Continuous
 62
     7
100
AcDbPolyline
 90
        8
 70
     0
 43
0.0
 10
132.8306003251
 20
222.5368021852
 10
134.604206062
 20
222.5840215347
 10
135.475362463
 20
222.6077358141
 10
136.3044438437
 20
222.6313572156
 10
137.0833349214
 20
222.6551915863
 10
137.7938498153
 20
222.6792761373
 10
138.4109043349
 20
222.7033466462
 10
138.9154152878
 20
222.7271284037
  0
LWPOLYLINE
  5
C08
330
22
100
AcDbEntity
  8
0
  6
Continuous
 62
     7
100
AcDbPolyline
 90
       12
 70
     0
 43
0.0
 10
134.6283534017
 20
222.6568381274
 10
132.8221599009
 20
222.6087445586
 10
131.9543680519
 20
222.5851124017
 10
131.1259864794
 20
222.5614969991
 10
130.3513256326
 20
222.537776819
 10
129.6493734305
 20
222.513985788
 10
129.0412647591
 20
222.4903248625
 10
128.530977751
 20
222.4663802846
 10
128.1352027481
 20
222.4422401184
 10
127.8682598288
 20
222.4181732737
 10
127.7357810533
 20
222.3944429819
 10
127.7255854251
 20
222.3899376052
  0
LWPOLYLINE
  5
C16
330
22
100
AcDbEntity
  8
0
  6
Continuous
 62
     7
100
AcDbPolyline
 90
       12
 70
     0
 43
0.0
 10
134.953629844
 20
223.5934398171
 10
133.1221672927
 20
223.5445970254
 10
132.2167012799
 20
223.5201762449
 10
131.3465484175
 20
223.4957556466
 10
130.5321452027
 20
223.4713349541
 10
129.7926291936
 20
223.4469141774
 10
129.1453871345
 20
223.4224936819
 10
128.6056093179
 20
223.3980727242
 10
128.1859868753
 20
223.3736513688
 10
127.8963915812
 20
223.3492301693
 10
127.7436280576
 20
223.3248097416
 10
127.7192628651
 20
223.310461751
  0
LWPOLYLINE
  5
C24
330
22
100
AcDbEntity
  8
0
  6
Continuous
 62
     7
100
AcDbPolyline
 90
        5
 70
     0
 43
0.0
 10
67.49505174640001
 20
216.5632127955
 10
66.7166302514
 20
216.5450322388
 10
65.942060427
 20
216.5046683666
 10
65.1698711179
 20
216.4436533328
 10
64.39322919119999
 20
216.3632127955
  0
LINE
  5
C2B
330
22
100
AcDbEntity
  8
0
  6
Continuous
 62
     7
100
AcDbLine
 10
60.9692628651
 20
222.6632127955
 30
0.0
 11
74.4692628651
 21
222.6632127955
 31
0.0
  0
LINE
  5
C2C
330
22
100
AcDbEntity
  8
0
  6
Continuous
 62
     7
100
AcDbLine
 10
82.9692628651
 20
222.6632127955
 30
0.0
 11
96.46926286510002
 21
222.6632127955
 31
0.0
  0
LINE
  5
C2D
330
22
100
AcDbEntity
  8
0
  6
Continuous
 62
     7
100
AcDbLine
 10
104.9692628651
 20
222.6632127955
 30
0.0
 11
118.4692628651
 21
222.6632127955
 31
0.0
  0
LWPOLYLINE
  5
C2E
330
22
100
AcDbEntity
  8
0
  6
Continuous
 62
     7
100
AcDbPolyline
 90
        5
 70
     0
 43
0.0
 10
115.045296539
 20
216.3632127955
 10
114.2686110287
 20
216.4436573292
 10
113.4964099671
 20
216.5046720153
 10
112.7218620131
 20
216.5450335102
 10
111.9434739838
 20
216.5632127955
  0
LINE
  5
C35
330
22
100
AcDbEntity
  8
0
  6
Continuous
 62
     7
100
AcDbLine
 10
159.7192628651
 20
214.7632127955
 30
0.0
 11
161.0387879251
 21
214.6162374601
 31
0.0
  0
LINE
  5
C36
330
22
100
AcDbEntity
  8
0
  6
Continuous
 62
     7
100
AcDbLine
 10
161.055829093
 20
214.6126730436
 30
0.0
 11
159.7970694075
 21
214.7545463117
 31
0.0
  0
LWPOLYLINE
  5
C37
330
22
100
AcDbEntity
  8
0
  6
Continuous
 62
     7
100
AcDbPolyline
 90
        4
 70
     0
 43
0.0
 10
136.4118452687
 20
216.2132127955
 10
135.8848782456
 20
216.2760564302
 10
135.3588393674
 20
216.3262432505
 10
134.8319263497
 20
216.3632127955
  0
LWPOLYLINE
  5
C3D
330
22
100
AcDbEntity
  8
0
  6
Continuous
 62
     7
100
AcDbPolyline
 90
        5
 70
     0
 43
0.0
 10
107.3201018756
 20
216.3632127955
 10
106.9317591204
 20
216.4436573292
 10
106.5456585896
 20
216.5046720153
 10
106.1583846126
 20
216.5450335102
 10
105.7691905979
 20
216.5632127955
  0
LWPOLYLINE
  5
C44
330
22
100
AcDbEntity
  8
0
  6
Continuous
 62
     7
100
AcDbPolyline
 90
        5
 70
     0
 43
0.0
 10
119.4444575285
 20
216.3632127955
 10
119.0561147734
 20
216.4436573292
 10
118.6700142426
 20
216.5046720153
 10
118.2827402656
 20
216.5450335102
 10
117.8935462509
 20
216.5632127955
  0
LWPOLYLINE
  5
C4B
330
22
100
AcDbEntity
  8
0
  6
Continuous
 62
     7
100
AcDbPolyline
 90
        4
 70
     0
 43
0.0
 10
129.0033762404
 20
216.2132127955
 10
128.7398927289
 20
216.2760564302
 10
128.4768732897999
 20
216.3262432505
 10
128.2134167809
 20
216.3632127955
  0
LINE
  5
C51
330
22
100
AcDbEntity
  8
0
  6
Continuous
 62
     7
100
AcDbLine
 10
118.7228527036
 20
216.5632127955
 30
0.0
 11
119.4692628651
 21
216.3632127955
 31
0.0
  0
LINE
  5
C52
330
22
100
AcDbEntity
  8
0
  6
Continuous
 62
     7
100
AcDbLine
 10
117.9692628651
 20
223.1632127955
 30
0.0
 11
118.4692628651
 21
222.6632127955
 31
0.0
  0
LINE
  5
C53
330
22
100
AcDbEntity
  8
0
  6
Continuous
 62
     7
100
AcDbLine
 10
155.746090802
 20
151.0412060206
 30
0.0
 11
155.8728767092
 21
150.7351177639
 31
0.0
  0
LINE
  5
C54
330
22
100
AcDbEntity
  8
0
  6
Continuous
 62
     7
100
AcDbLine
 10
157.2473578968
 20
147.4168266397
 30
0.0
 11
157.3784396404
 21
147.1003673164999
 31
0.0
  0
LINE
  5
C55
330
22
100
AcDbEntity
  8
0
  6
Continuous
 62
     7
100
AcDbLine
 10
128.0362875125
 20
224.1235711753
 30
0.0
 11
128.0345203676
 21
224.1284702414
 31
0.0
  0
LINE
  5
C56
330
22
100
AcDbEntity
  8
0
  6
Continuous
 62
     2
100
AcDbLine
 10
145.5692628651
 20
204.4132127955
 30
0.0
 11
145.5692628651
 21
208.4132127955
 31
0.0
  0
LINE
  5
C57
330
22
100
AcDbEntity
  8
0
  6
Continuous
 62
     2
100
AcDbLine
 10
147.5692628651
 20
208.4132127955
 30
0.0
 11
147.5692628651
 21
204.4132127955
 31
0.0
  0
LINE
  5
C58
330
22
100
AcDbEntity
  8
0
  6
Continuous
 62
     7
100
AcDbLine
 10
148.2192628651
 20
136.1994058894
 30
0.0
 11
148.2192628651
 21
149.7632127954999
 31
0.0
  0
LINE
  5
C59
330
22
100
AcDbEntity
  8
0
  6
Continuous
 62
     7
100
AcDbLine
 10
148.2192628651
 20
199.7632127954999
 30
0.0
 11
148.2192628651
 21
213.3270197017
 31
0.0
  0
LINE
  5
C5A
330
22
100
AcDbEntity
  8
0
  6
Continuous
 62
     7
100
AcDbLine
 10
60.7156730266
 20
216.5632127955
 30
0.0
 11
59.96926286509999
 21
216.3632127955
 31
0.0
  0
LWPOLYLINE
  5
C5B
330
22
100
AcDbEntity
  8
0
  6
Continuous
 62
     7
100
AcDbPolyline
 90
        7
 70
     0
 43
0.0
 10
135.2915047356
 20
224.2610714946
 10
136.0911799237
 20
224.2864283781
 10
136.8307748063
 20
224.3117852616
 10
137.4915555554
 20
224.3371421451
 10
138.0567846932
 20
224.3624990286
 10
138.5121450498
 20
224.3878559121
 10
138.8461024153
 20
224.4132127955
  0
LINE
  5
C64
330
22
100
AcDbEntity
  8
0
  6
Continuous
 62
     7
100
AcDbLine
 10
134.4520048954
 20
224.2357146111
 30
0.0
 11
135.2915047356
 21
224.2610714946
 31
0.0
  0
LINE
  5
C65
330
22
100
AcDbEntity
  8
0
  6
Continuous
 62
     7
100
AcDbLine
 10
132.73905901
 20
224.1850008441
 30
0.0
 11
134.4520048954
 21
224.2357146111
 31
0.0
  0
LWPOLYLINE
  5
C66
330
22
100
AcDbEntity
  8
0
  6
Continuous
 62
     7
100
AcDbPolyline
 90
        5
 70
     0
 43
0.0
 10
135.9209782583
 20
224.328630044
 10
136.6719290987999
 20
224.3444972055
 10
137.3544695662
 20
224.3605822727
 10
137.9417153509
 20
224.3766884099
 10
138.4136407935
 20
224.3926120742
  0
LINE
  5
C6D
330
22
100
AcDbEntity
  8
0
  6
Continuous
 62
     7
100
AcDbLine
 10
130.9088097893
 20
224.2336858562
 30
0.0
 11
131.7115429824
 21
224.2496969613
 31
0.0
  0
LWPOLYLINE
  5
C6E
330
22
100
AcDbEntity
  8
0
  6
Continuous
 62
     7
100
AcDbPolyline
 90
        5
 70
     0
 43
0.0
 10
131.7115429824
 20
224.2496969613
 10
132.5501407244
 20
224.2655252665
 10
133.4092531039
 20
224.281292214
 10
134.275478179
 20
224.2971412743
 10
134.9783828048
 20
224.3102832448
  0
LINE
  5
C75
330
22
100
AcDbEntity
  8
0
  6
Continuous
 62
     7
100
AcDbLine
 10
134.9783828048
 20
224.3102832448
 30
0.0
 11
135.9209782583
 21
224.328630044
 31
0.0
  0
LINE
  5
C76
330
22
100
AcDbEntity
  8
0
  6
Continuous
 62
     7
100
AcDbLine
 10
61.4692741208
 20
223.1632127955
 30
0.0
 11
73.96925160939999
 21
223.1632127955
 31
0.0
  0
LINE
  5
C77
330
22
100
AcDbEntity
  8
0
  6
Continuous
 62
     7
100
AcDbLine
 10
83.46927412079999
 20
223.1632127955
 30
0.0
 11
95.96925160940001
 21
223.1632127955
 31
0.0
  0
LINE
  5
C78
330
22
100
AcDbEntity
  8
0
  6
Continuous
 62
     7
100
AcDbLine
 10
105.4692741208
 20
223.1632127955
 30
0.0
 11
117.9692516094
 21
223.1632127955
 31
0.0
  0
LINE
  5
C79
330
22
100
AcDbEntity
  8
0
  6
Continuous
 62
     7
100
AcDbLine
 10
139.1575352113
 20
223.8132127955
 30
0.0
 11
139.7192628651
 21
223.8132127955
 31
0.0
  0
LINE
  5
C7A
330
22
100
AcDbEntity
  8
0
  6
Continuous
 62
     7
100
AcDbLine
 10
138.8461024153
 20
224.4132127955
 30
0.0
 11
139.1192628631
 21
224.4132127955
 31
0.0
  0
LINE
  5
C7B
330
22
100
AcDbEntity
  8
0
  6
Continuous
 62
     7
100
AcDbLine
 10
128.4692628651
 20
224.5632127955
 30
0.0
 11
138.9692628651
 21
224.5632127955
 31
0.0
  0
LINE
  5
C7C
330
22
100
AcDbEntity
  8
0
  6
Continuous
 62
     7
100
AcDbLine
 10
128.4693243804
 20
225.7632127955
 30
0.0
 11
138.9692013498
 21
225.7632127955
 31
0.0
  0
LINE
  5
C7D
330
22
100
AcDbEntity
  8
0
  6
Continuous
 62
     9
100
AcDbLine
 10
115.6192628651
 20
226.1632127955
 30
0.0
 11
107.8192628651
 21
226.1632127955
 31
0.0
  0
LINE
  5
C7E
330
22
100
AcDbEntity
  8
0
  6
Continuous
 62
     9
100
AcDbLine
 10
93.6192628651
 20
226.1632127955
 30
0.0
 11
85.8192628651
 21
226.1632127955
 31
0.0
  0
LINE
  5
C7F
330
22
100
AcDbEntity
  8
0
  6
Continuous
 62
     9
100
AcDbLine
 10
71.61926286509999
 20
226.1632127955
 30
0.0
 11
63.8192628651
 21
226.1632127955
 31
0.0
  0
LINE
  5
C80
330
22
100
AcDbEntity
  8
0
  6
Continuous
 62
     7
100
AcDbLine
 10
115.5192471555
 20
226.2632127955
 30
0.0
 11
107.9192785957
 21
226.2632127955
 31
0.0
  0
LINE
  5
C81
330
22
100
AcDbEntity
  8
0
  6
Continuous
 62
     7
100
AcDbLine
 10
93.5192471555
 20
226.2632127955
 30
0.0
 11
85.91927859569999
 21
226.2632127955
 31
0.0
  0
LINE
  5
C82
330
22
100
AcDbEntity
  8
0
  6
Continuous
 62
     7
100
AcDbLine
 10
71.51924715549999
 20
226.2632127955
 30
0.0
 11
63.91927859569999
 21
226.2632127955
 31
0.0
  0
LWPOLYLINE
  5
C83
330
22
100
AcDbEntity
  8
0
  6
Continuous
 62
     7
100
AcDbPolyline
 90
        4
 70
     0
 43
0.0
 10
141.1277318934
 20
216.2132127955
 10
140.8642483818
 20
216.2760564302
 10
140.6012289428
 20
216.3262432505
 10
140.3377724339
 20
216.3632127955
  0
LINE
  5
C89
330
22
100
AcDbEntity
  8
0
  6
Continuous
 62
     7
100
AcDbLine
 10
140.8071412522
 20
216.3632127955
 30
0.0
 11
141.2192628651
 21
216.2132127955
 31
0.0
  0
LINE
  5
C8A
330
22
100
AcDbEntity
  8
0
  6
Continuous
 62
     2
100
AcDbLine
 10
111.3666950675
 20
226.1632127955
 30
0.0
 11
89.58791644979999
 21
236.2632127955
 31
0.0
  0
LINE
  5
C8B
330
22
100
AcDbEntity
  8
0
  6
Continuous
 62
     7
100
AcDbLine
 10
127.7255854255
 20
217.3031546524
 30
0.0
 11
128.3175045446
 21
216.9610099102
 31
0.0
  0
LINE
  5
C8C
330
22
100
AcDbEntity
  8
0
  6
Continuous
 62
     7
100
AcDbLine
 10
127.7255854255
 20
218.3031546524
 30
0.0
 11
128.3175045446
 21
217.9610099102
 31
0.0
  0
LINE
  5
C8D
330
22
100
AcDbEntity
  8
0
  6
Continuous
 62
     7
100
AcDbLine
 10
127.7255854255
 20
219.3031546524
 30
0.0
 11
128.3175045446
 21
218.9610099102
 31
0.0
  0
LINE
  5
C8E
330
22
100
AcDbEntity
  8
0
  6
Continuous
 62
     7
100
AcDbLine
 10
127.7255854255
 20
220.3031546524
 30
0.0
 11
128.3175045446
 21
219.9610099102
 31
0.0
  0
LINE
  5
C8F
330
22
100
AcDbEntity
  8
0
  6
Continuous
 62
     7
100
AcDbLine
 10
127.7255854255
 20
221.3031546524
 30
0.0
 11
127.7192628695
 21
221.3104556406
 31
0.0
  0
LINE
  5
C90
330
22
100
AcDbEntity
  8
0
  6
Continuous
 62
     7
100
AcDbLine
 10
127.7255854255
 20
219.3031546524
 30
0.0
 11
127.7192628725
 21
219.3104696289
 31
0.0
  0
LINE
  5
C91
330
22
100
AcDbEntity
  8
0
  6
Continuous
 62
     7
100
AcDbLine
 10
127.7255854255
 20
217.3031546524
 30
0.0
 11
127.7192629435
 21
217.3104874714
 31
0.0
  0
LINE
  5
C92
330
22
100
AcDbEntity
  8
0
  6
Continuous
 62
     7
100
AcDbLine
 10
127.7255854255
 20
218.3031546524
 30
0.0
 11
127.7192629656
 21
218.3104908623
 31
0.0
  0
LINE
  5
C93
330
22
100
AcDbEntity
  8
0
  6
Continuous
 62
     7
100
AcDbLine
 10
127.7255854255
 20
222.3031546524
 30
0.0
 11
127.7192629638
 21
222.3104906071
 31
0.0
  0
LINE
  5
C94
330
22
100
AcDbEntity
  8
0
  6
Continuous
 62
     7
100
AcDbLine
 10
127.7255854255
 20
220.3031546524
 30
0.0
 11
127.7192629849
 21
220.3104935475
 31
0.0
  0
LINE
  5
C95
330
22
100
AcDbEntity
  8
0
  6
Continuous
 62
     7
100
AcDbLine
 10
160.6924349282
 20
148.4852195705
 30
0.0
 11
160.565649021
 21
148.7913078272
 31
0.0
  0
LINE
  5
C96
330
22
100
AcDbEntity
  8
0
  6
Continuous
 62
     7
100
AcDbLine
 10
159.1911678334
 20
152.1095989514
 30
0.0
 11
159.0600860898
 21
152.4260582746
 31
0.0
  0
LINE
  5
C97
330
22
100
AcDbEntity
  8
0
  6
Continuous
 62
     7
100
AcDbLine
 10
151.4192628651
 20
137.7632127955
 30
0.0
 11
151.4192628651
 21
149.7632127954999
 31
0.0
  0
LINE
  5
C98
330
22
100
AcDbEntity
  8
0
  6
Continuous
 62
     7
100
AcDbLine
 10
159.4858019008
 20
152.2316403781
 30
0.0
 11
159.1911678334
 21
152.1095989514
 31
0.0
  0
LINE
  5
C99
330
22
100
AcDbEntity
  8
0
  6
Continuous
 62
     7
100
AcDbLine
 10
155.8728767092
 20
150.7351177639
 30
0.0
 11
155.5805854861
 21
150.6140467751
 31
0.0
  0
LINE
  5
C9A
330
22
100
AcDbEntity
  8
0
  6
Continuous
 62
     7
100
AcDbLine
 10
156.9527238294
 20
147.294785213
 30
0.0
 11
157.2473578968
 21
147.4168266397
 31
0.0
  0
LINE
  5
C9B
330
22
100
AcDbEntity
  8
0
  6
Continuous
 62
     7
100
AcDbLine
 10
160.565649021
 20
148.7913078272
 30
0.0
 11
160.8579402441
 21
148.912378816
 31
0.0
  0
LWPOLYLINE
  5
C9C
330
22
100
AcDbEntity
  8
0
  6
Continuous
 62
     7
100
AcDbPolyline
 90
        5
 70
     0
 43
0.0
 10
161.0387879251
 20
214.6162374601
 10
162.3236065381
 20
214.1681938613
 10
163.4681792824
 20
213.447097434
 10
164.4042167845999
 20
212.5104551289
 10
165.1245546964
 20
211.3657099969
  0
LINE
  5
CA3
330
22
100
AcDbEntity
  8
0
  6
Continuous
 62
     7
100
AcDbLine
 10
127.7255854255
 20
221.3031546524
 30
0.0
 11
128.3175045446
 21
220.9610099102
 31
0.0
  0
LINE
  5
CA4
330
22
100
AcDbEntity
  8
0
  6
Continuous
 62
     7
100
AcDbLine
 10
127.7255854255
 20
222.3031546524
 30
0.0
 11
128.3175045446
 21
221.9610099102
 31
0.0
  0
LINE
  5
CA5
330
22
100
AcDbEntity
  8
0
  6
Continuous
 62
     7
100
AcDbLine
 10
127.7255854255
 20
223.3031546524
 30
0.0
 11
128.3175045446
 21
222.9610099102
 31
0.0
  0
LINE
  5
CA6
330
22
100
AcDbEntity
  8
0
  6
Continuous
 62
     7
100
AcDbLine
 10
139.7129403051
 20
216.8899376052
 30
0.0
 11
139.1210211862
 21
217.2320823509
 31
0.0
  0
LINE
  5
CA7
330
22
100
AcDbEntity
  8
0
  6
Continuous
 62
     7
100
AcDbLine
 10
128.0362875125
 20
224.1235711753
 30
0.0
 11
128.3175045612
 21
223.961009996
 31
0.0
  0
LINE
  5
CA8
330
22
100
AcDbEntity
  8
0
  6
Continuous
 62
     7
100
AcDbLine
 10
139.7129403051
 20
217.8899376052
 30
0.0
 11
139.1210211862
 21
218.2320823509
 31
0.0
  0
LINE
  5
CA9
330
22
100
AcDbEntity
  8
0
  6
Continuous
 62
     7
100
AcDbLine
 10
139.7129403051
 20
218.8899376052
 30
0.0
 11
139.1210211862
 21
219.2320823509
 31
0.0
  0
LINE
  5
CAA
330
22
100
AcDbEntity
  8
0
  6
Continuous
 62
     7
100
AcDbLine
 10
139.7129403051
 20
219.8899376052
 30
0.0
 11
139.1210211862
 21
220.2320823509
 31
0.0
  0
LINE
  5
CAB
330
22
100
AcDbEntity
  8
0
  6
Continuous
 62
     7
100
AcDbLine
 10
139.7129403051
 20
217.8899376052
 30
0.0
 11
139.7192627664
 21
217.8826593908
 31
0.0
  0
LINE
  5
CAC
330
22
100
AcDbEntity
  8
0
  6
Continuous
 62
     7
100
AcDbLine
 10
127.7192628651
 20
223.310461751
 30
0.0
 11
127.7255854255
 21
223.3031546524
 31
0.0
  0
LINE
  5
CAD
330
22
100
AcDbEntity
  8
0
  6
Continuous
 62
     7
100
AcDbLine
 10
139.7129403051
 20
216.8899376052
 30
0.0
 11
139.7192628606999
 21
216.8826244242
 31
0.0
  0
LINE
  5
CAE
330
22
100
AcDbEntity
  8
0
  6
Continuous
 62
     7
100
AcDbLine
 10
156.1600334945
 20
151.6461004988
 30
0.0
 11
156.2043753945
 21
151.3092903295
 31
0.0
  0
LINE
  5
CAF
330
22
100
AcDbEntity
  8
0
  6
Continuous
 62
     7
100
AcDbLine
 10
156.6731853312
 20
147.748325325
 30
0.0
 11
156.7188326191
 21
147.4015997497
 31
0.0
  0
LINE
  5
CB0
330
22
100
AcDbEntity
  8
0
  6
Continuous
 62
     9
100
AcDbLine
 10
159.7192628917
 20
137.7632127955
 30
0.0
 11
159.7192628651
 21
134.7632127955
 31
0.0
  0
LINE
  5
CB1
330
22
100
AcDbEntity
  8
0
  6
Continuous
 62
     9
100
AcDbLine
 10
159.7192628651
 20
211.3114568023
 30
0.0
 11
159.7192628651
 21
214.7632127955
 31
0.0
  0
LINE
  5
CB2
330
22
100
AcDbEntity
  8
0
  6
Continuous
 62
     7
100
AcDbLine
 10
156.7188326191
 20
152.1248258414
 30
0.0
 11
156.6731853312
 21
151.7781002661
 31
0.0
  0
LINE
  5
CB3
330
22
100
AcDbEntity
  8
0
  6
Continuous
 62
     7
100
AcDbLine
 10
156.2043753945
 20
148.2171352616
 30
0.0
 11
156.1600334945
 21
147.8803250922999
 31
0.0
  0
LINE
  5
CB4
330
22
100
AcDbEntity
  8
0
  6
Continuous
 62
     7
100
AcDbLine
 10
158.8079822986
 20
152.4785677198
 30
0.0
 11
158.5507615504
 21
152.2811952978
 31
0.0
  0
LINE
  5
CB5
330
22
100
AcDbEntity
  8
0
  6
Continuous
 62
     7
100
AcDbLine
 10
155.7012803628
 20
150.0947114809
 30
0.0
 11
155.4477628278
 21
149.9001806343
 31
0.0
  0
LINE
  5
CB6
330
22
100
AcDbEntity
  8
0
  6
Continuous
 62
     2
100
AcDbLine
 10
134.3467107051
 20
236.2632127955
 30
0.0
 11
129.3467107051
 21
236.2632127955
 31
0.0
  0
LINE
  5
CB7
330
22
100
AcDbEntity
  8
0
  6
Continuous
 62
     2
100
AcDbLine
 10
89.58791644979999
 20
236.2632127955
 30
0.0
 11
94.58791644979999
 21
236.2632127955
 31
0.0
  0
LINE
  5
CB8
330
22
100
AcDbEntity
  8
0
  6
Continuous
 62
     7
100
AcDbLine
 10
139.7129403051
 20
220.8899376052
 30
0.0
 11
139.1210211862
 21
221.2320823509
 31
0.0
  0
LINE
  5
CB9
330
22
100
AcDbEntity
  8
0
  6
Continuous
 62
     7
100
AcDbLine
 10
139.7129403051
 20
221.8899376052
 30
0.0
 11
139.1210211862
 21
222.2320823509
 31
0.0
  0
LINE
  5
CBA
330
22
100
AcDbEntity
  8
0
  6
Continuous
 62
     7
100
AcDbLine
 10
139.7129403051
 20
222.8899376052
 30
0.0
 11
139.1210211862
 21
223.2320823509
 31
0.0
  0
LINE
  5
CBB
330
22
100
AcDbEntity
  8
0
  6
Continuous
 62
     7
100
AcDbLine
 10
139.5306699743
 20
223.9952859102
 30
0.0
 11
139.1210211862
 21
224.2320823509
 31
0.0
  0
LINE
  5
CBC
330
22
100
AcDbEntity
  8
0
  6
Continuous
 62
     7
100
AcDbLine
 10
139.5306699743
 20
223.9952859102
 30
0.0
 11
139.555024784
 21
223.9774508759
 31
0.0
  0
LINE
  5
CBD
330
22
100
AcDbEntity
  8
0
  6
Continuous
 62
     7
100
AcDbLine
 10
139.7192628651
 20
223.8132127955
 30
0.0
 11
139.5550187639
 21
223.9774568967
 31
0.0
  0
LINE
  5
CBE
330
22
100
AcDbEntity
  8
0
  6
Continuous
 62
     7
100
AcDbLine
 10
139.1192628651
 20
224.4132127955
 30
0.0
 11
138.9692628651
 21
224.5632127955
 31
0.0
  0
LINE
  5
CBF
330
22
100
AcDbEntity
  8
0
  6
Continuous
 62
     7
100
AcDbLine
 10
139.7129403051
 20
222.8899376052
 30
0.0
 11
139.7192627452
 21
222.8826623312
 31
0.0
  0
LINE
  5
CC0
330
22
100
AcDbEntity
  8
0
  6
Continuous
 62
     7
100
AcDbLine
 10
139.7129403051
 20
220.8899376052
 30
0.0
 11
139.7192627646
 21
220.882659646
 31
0.0
  0
LINE
  5
CC1
330
22
100
AcDbEntity
  8
0
  6
Continuous
 62
     7
100
AcDbLine
 10
139.7129403051
 20
219.8899376052
 30
0.0
 11
139.7192627867
 21
219.882656255
 31
0.0
  0
LINE
  5
CC2
330
22
100
AcDbEntity
  8
0
  6
Continuous
 62
     7
100
AcDbLine
 10
139.7129403051
 20
221.8899376052
 30
0.0
 11
139.7192628577
 21
221.8826384126
 31
0.0
  0
LINE
  5
CC3
330
22
100
AcDbEntity
  8
0
  6
Continuous
 62
     7
100
AcDbLine
 10
139.7129403051
 20
218.8899376052
 30
0.0
 11
139.7192628588
 21
218.8826378111
 31
0.0
  0
LINE
  5
CC4
330
22
100
AcDbEntity
  8
0
  6
Continuous
 62
     7
100
AcDbLine
 10
160.2784922357
 20
147.8803250922999
 30
0.0
 11
160.2341503357
 21
148.2171352616
 31
0.0
  0
LINE
  5
CC5
330
22
100
AcDbEntity
  8
0
  6
Continuous
 62
     7
100
AcDbLine
 10
159.765340399
 20
151.7781002661
 30
0.0
 11
159.719693111
 21
152.1248258414
 31
0.0
  0
LINE
  5
CC6
330
22
100
AcDbEntity
  8
0
  6
Continuous
 62
     9
100
AcDbLine
 10
163.7192628651
 20
156.5632127955
 30
0.0
 11
163.7192628651
 21
207.3092332231
 31
0.0
  0
LINE
  5
CC7
330
22
100
AcDbEntity
  8
0
  6
Continuous
 62
     7
100
AcDbLine
 10
163.9192628651
 20
139.7632127955
 30
0.0
 11
163.9192628651
 21
156.5632127955
 31
0.0
  0
LINE
  5
CC8
330
22
100
AcDbEntity
  8
0
  6
Continuous
 62
     7
100
AcDbLine
 10
165.7192628651
 20
140.7665481643
 30
0.0
 11
165.7192628651
 21
208.7598774268
 31
0.0
  0
LINE
  5
CC9
330
22
100
AcDbEntity
  8
0
  6
Continuous
 62
     7
100
AcDbLine
 10
159.719693111
 20
147.4015997497
 30
0.0
 11
159.765340399
 21
147.748325325
 31
0.0
  0
LINE
  5
CCA
330
22
100
AcDbEntity
  8
0
  6
Continuous
 62
     7
100
AcDbLine
 10
160.2341503357
 20
151.3092903295
 30
0.0
 11
160.2784922357
 21
151.6461004988
 31
0.0
  0
LINE
  5
CCB
330
22
100
AcDbEntity
  8
0
  6
Continuous
 62
     7
100
AcDbLine
 10
157.3784396404
 20
152.4260582746
 30
0.0
 11
157.2473578968
 21
152.1095989514
 31
0.0
  0
LINE
  5
CCC
330
22
100
AcDbEntity
  8
0
  6
Continuous
 62
     7
100
AcDbLine
 10
155.8728767092
 20
148.7913078272
 30
0.0
 11
155.746090802
 21
148.4852195705
 31
0.0
  0
LINE
  5
CCD
330
22
100
AcDbEntity
  8
0
  6
Continuous
 62
     7
100
AcDbLine
 10
158.0898908543
 20
152.5446119085
 30
0.0
 11
157.8877641798
 21
152.2811952978
 31
0.0
  0
LINE
  5
CCE
330
22
100
AcDbEntity
  8
0
  6
Continuous
 62
     7
100
AcDbLine
 10
155.7012803628
 20
149.4317141102
 30
0.0
 11
155.5037009273
 21
149.1742235767
 31
0.0
  0
LINE
  5
CCF
330
22
100
AcDbEntity
  8
0
  6
Continuous
 62
     7
100
AcDbLine
 10
157.6305434316
 20
147.0478578713
 30
0.0
 11
157.8877641798
 21
147.2452302933
 31
0.0
  0
LINE
  5
CD0
330
22
100
AcDbEntity
  8
0
  6
Continuous
 62
     7
100
AcDbLine
 10
160.7372453673
 20
149.4317141102
 30
0.0
 11
160.9907629024
 21
149.6262449568
 31
0.0
  0
LWPOLYLINE
  5
CD1
330
22
100
AcDbEntity
  8
0
  6
Continuous
 62
     7
100
AcDbPolyline
 90
        6
 70
     0
 43
0.0
 10
161.055829093
 20
134.9137525475
 10
162.3221106683
 20
135.3567275137
 10
163.4617517609
 20
136.0727945297
 10
164.4096811309
 20
137.0207238998
 10
165.125748147
 20
138.1603649924
 10
165.5687231131
 20
139.4266465676
  0
LWPOLYLINE
  5
CD9
330
22
100
AcDbEntity
  8
0
  6
Continuous
 62
     7
100
AcDbPolyline
 90
        3
 70
     0
 43
0.0
 10
162.3236065381
 20
135.3582317298
 10
161.0387879251
 20
134.910188131
 10
159.7970694075
 20
134.7718792794
  0
LWPOLYLINE
  5
CDE
330
22
100
AcDbEntity
  8
0
  6
Continuous
 62
     9
100
AcDbPolyline
 90
        8
 70
     0
 43
0.0
 10
163.7192628651
 20
207.3092332231
 10
163.6194485227
 20
208.197764378
 10
163.3235814684
 20
209.0448012882
 10
162.8463309176
 20
209.804901955
 10
162.2122053939
 20
210.4391082495
 10
161.4526157313
 20
210.9161473629
 10
160.6063096752
 20
211.2118116553
 10
159.7192628651
 20
211.3114568023
  0
LINE
  5
CE8
330
22
100
AcDbEntity
  8
0
  6
Continuous
 62
     9
100
AcDbLine
 10
171.0292628651
 20
182.1632127954
 30
0.0
 11
171.0292628651
 21
167.3632127957
 31
0.0
  0
LINE
  5
CE9
330
22
100
AcDbEntity
  8
0
  6
Continuous
 62
     7
100
AcDbLine
 10
171.2292628651
 20
181.963115755
 30
0.0
 11
171.2292628651
 21
167.5633098361
 31
0.0
  0
LINE
  5
CEA
330
22
100
AcDbEntity
  8
0
  6
Continuous
 62
     7
100
AcDbLine
 10
165.7192628651
 20
140.7665481643
 30
0.0
 11
165.5723039718
 21
139.4460001803
 31
0.0
  0
LINE
  5
CEB
330
22
100
AcDbEntity
  8
0
  6
Continuous
 62
     7
100
AcDbLine
 10
165.5687488587
 20
140.8814622236
 30
0.0
 11
165.7192628651
 21
142.217192368
 31
0.0
  0
LINE
  5
CEC
330
22
100
AcDbEntity
  8
0
  6
Continuous
 62
     7
100
AcDbLine
 10
165.5687231131
 20
139.4266465676
 30
0.0
 11
165.6817949995
 21
140.4298682037
 31
0.0
  0
LINE
  5
CED
330
22
100
AcDbEntity
  8
0
  6
Continuous
 62
     7
100
AcDbLine
 10
159.0600860898
 20
147.1003673164999
 30
0.0
 11
159.1911678334
 21
147.4168266397
 31
0.0
  0
LINE
  5
CEE
330
22
100
AcDbEntity
  8
0
  6
Continuous
 62
     7
100
AcDbLine
 10
160.565649021
 20
150.7351177639
 30
0.0
 11
160.6924349282
 21
151.0412060206
 31
0.0
  0
LINE
  5
CEF
330
22
100
AcDbEntity
  8
0
  6
Continuous
 62
     7
100
AcDbLine
 10
158.3486348759
 20
146.9818136826
 30
0.0
 11
158.5507615504
 21
147.2452302933
 31
0.0
  0
LINE
  5
CF0
330
22
100
AcDbEntity
  8
0
  6
Continuous
 62
     7
100
AcDbLine
 10
160.7372453673
 20
150.0947114809
 30
0.0
 11
160.9348248029
 21
150.3522020144
 31
0.0
  0
LWPOLYLINE
  5
CF1
330
22
100
AcDbEntity
  8
0
  6
Continuous
 62
     7
100
AcDbPolyline
 90
        7
 70
     0
 43
0.0
 10
165.5687488587
 20
208.6449633675
 10
165.1249154875
 20
209.9133517298
 10
164.409835828
 20
211.0513872301
 10
163.4600541384
 20
212.0012095246
 10
162.322279978
 20
212.7161861126
 10
161.0543345996
 20
213.159897526
 10
159.7192628651
 20
213.3103456304
  0
LINE
  5
CFA
330
22
100
AcDbEntity
  8
0
  6
Continuous
 62
     7
100
AcDbLine
 10
165.1245546964
 20
211.3657099969
 30
0.0
 11
165.5723039718
 21
210.0804254108
 31
0.0
  0
LINE
  5
CFB
330
22
100
AcDbEntity
  8
0
  6
Continuous
 62
     7
100
AcDbLine
 10
165.7192628651
 20
207.3092332231
 30
0.0
 11
165.5687488587
 21
208.6449633675
 31
0.0
  0
LWPOLYLINE
  5
CFC
330
22
100
AcDbEntity
  8
0
  6
Continuous
 62
     7
100
AcDbPolyline
 90
        7
 70
     0
 43
0.0
 10
165.6817949995
 20
209.0965573874
 10
165.5687231131
 20
210.0997790235
 10
165.125748147
 20
211.3660605987
 10
164.4096811309
 20
212.5057016913
 10
163.4617517609
 20
213.4536310614
 10
162.3221106683
 20
214.1696980774
 10
161.055829093
 20
214.6126730436
  0
LINE
  5
D05
330
22
100
AcDbEntity
  8
0
  6
Continuous
 62
     7
100
AcDbLine
 10
165.5723039718
 20
210.0804254108
 30
0.0
 11
165.7192628651
 21
208.7598774268
 31
0.0
  0
LINE
  5
D06
330
22
100
AcDbEntity
  8
0
  6
Continuous
 62
     7
100
AcDbLine
 10
173.4292628651
 20
181.2632127955
 30
0.0
 11
173.4292628651
 21
168.2632127956
 31
0.0
  0
LINE
  5
D07
330
22
100
AcDbEntity
  8
0
  6
Continuous
 62
     9
100
AcDbLine
 10
173.6292628651
 20
181.4632048473
 30
0.0
 11
173.6292628651
 21
168.0632207438
 31
0.0
  0
LINE
  5
D08
330
22
100
AcDbEntity
  8
0
  6
Continuous
 62
     9
100
AcDbLine
 10
173.8269069614
 20
181.4632127955
 30
0.0
 11
173.8269069614
 21
168.0632127956
 31
0.0
  0
LINE
  5
D09
330
22
100
AcDbEntity
  8
0
  6
Continuous
 62
     9
100
AcDbLine
 10
173.8786707594
 20
181.4563979639
 30
0.0
 11
173.8786707594
 21
168.0700276272
 31
0.0
  0
LINE
  5
D0A
330
22
100
AcDbEntity
  8
0
  6
Continuous
 62
     7
100
AcDbLine
 10
175.7192628651
 20
168.5632825432
 30
0.0
 11
175.7192628651
 21
180.9631430479
 31
0.0
  0
LINE
  5
D0B
330
22
100
AcDbEntity
  8
0
  6
Continuous
 62
     9
100
AcDbLine
 10
176.8192628650999
 20
170.7632127956
 30
0.0
 11
176.8192628650999
 21
178.7632127954999
 31
0.0
  0
LINE
  5
D0C
330
22
100
AcDbEntity
  8
0
  6
Continuous
 62
     7
100
AcDbLine
 10
177.0192628651
 20
170.9632596313
 30
0.0
 11
177.0192628651
 21
178.5631355455
 31
0.0
  0
LWPOLYLINE
  5
D0D
330
22
100
AcDbEntity
  8
0
  6
Continuous
 62
     7
100
AcDbPolyline
 90
        5
 70
     0
 43
0.0
 10
165.5723039718
 20
139.4460001803
 10
165.1245546964
 20
138.1607155942
 10
164.4042167845999
 20
137.0159704622
 10
163.4681792824
 20
136.0793281570999
 10
162.3236065381
 20
135.3582317298
  0
LINE
  5
D14
330
22
100
AcDbEntity
  8
0
  6
Continuous
 62
     7
100
AcDbLine
 10
165.1249154875
 20
139.6130738613
 30
0.0
 11
165.5687488587
 21
140.8814622236
 31
0.0
  0
ARC
  5
D15
330
22
100
AcDbEntity
  8
0
  6
Continuous
 62
     2
100
AcDbCircle
 10
158.2192628651
 20
149.7632127954999
 30
0.0
 40
2.0
100
AcDbArc
 50
255.0
 51
195.0
  0
ARC
  5
D16
330
22
100
AcDbEntity
  8
0
  6
Continuous
 62
     2
100
AcDbCircle
 10
43.2192628651
 20
199.7632127954999
 30
0.0
 40
2.0
100
AcDbArc
 50
255.0
 51
195.0
  0
CIRCLE
  5
D17
330
22
100
AcDbEntity
  8
0
  6
Continuous
 62
     7
100
AcDbCircle
 10
135.7692628651
 20
169.1332127955
 30
0.0
 40
3.0
  0
CIRCLE
  5
D18
330
22
100
AcDbEntity
  8
0
  6
Continuous
 62
     7
100
AcDbCircle
 10
76.7192628651
 20
195.1632127955
 30
0.0
 40
3.0
  0
CIRCLE
  5
D19
330
22
100
AcDbEntity
  8
0
  6
Continuous
 62
     7
100
AcDbCircle
 10
158.2192628651
 20
149.7632127954999
 30
0.0
 40
1.8
  0
ARC
  5
D1A
330
22
100
AcDbEntity
  8
0
  6
Continuous
 62
     7
100
AcDbCircle
 10
158.2192628651
 20
149.7632127954999
 30
0.0
 40
2.649999999999999
100
AcDbArc
 50
249.8375550843
 51
260.1624449157
  0
ARC
  5
D1B
330
22
100
AcDbEntity
  8
0
  6
Continuous
 62
     7
100
AcDbCircle
 10
158.2192628651
 20
149.7632127954999
 30
0.0
 40
2.649999999999999
100
AcDbArc
 50
234.8375550843
 51
245.1624449157
  0
ARC
  5
D1C
330
22
100
AcDbEntity
  8
0
  6
Continuous
 62
     7
100
AcDbCircle
 10
158.2192628651
 20
149.7632127954999
 30
0.0
 40
2.649999999999999
100
AcDbArc
 50
219.8375550843
 51
230.1624449157
  0
ARC
  5
D1D
330
22
100
AcDbEntity
  8
0
  6
Continuous
 62
     7
100
AcDbCircle
 10
158.2192628651
 20
149.7632127954999
 30
0.0
 40
2.649999999999999
100
AcDbArc
 50
204.8375550843
 51
215.1624449157
  0
ARC
  5
D1E
330
22
100
AcDbEntity
  8
0
  6
Continuous
 62
     7
100
AcDbCircle
 10
158.2192628651
 20
149.7632127954999
 30
0.0
 40
2.649999999999999
100
AcDbArc
 50
189.8375550843
 51
200.1624449157
  0
ARC
  5
D1F
330
22
100
AcDbEntity
  8
0
  6
Continuous
 62
     7
100
AcDbCircle
 10
158.2192628651
 20
149.7632127954999
 30
0.0
 40
2.649999999999999
100
AcDbArc
 50
174.8375550843
 51
185.1624449157
  0
ARC
  5
D20
330
22
100
AcDbEntity
  8
0
  6
Continuous
 62
     7
100
AcDbCircle
 10
158.2192628651
 20
149.7632127954999
 30
0.0
 40
2.649999999999999
100
AcDbArc
 50
159.8375550843
 51
170.1624449157
  0
ARC
  5
D21
330
22
100
AcDbEntity
  8
0
  6
Continuous
 62
     7
100
AcDbCircle
 10
158.2192628651
 20
149.7632127954999
 30
0.0
 40
2.649999999999999
100
AcDbArc
 50
144.8375550843
 51
155.1624449157
  0
ARC
  5
D22
330
22
100
AcDbEntity
  8
0
  6
Continuous
 62
     7
100
AcDbCircle
 10
158.2192628651
 20
149.7632127954999
 30
0.0
 40
2.649999999999999
100
AcDbArc
 50
129.8375550843
 51
140.1624449157
  0
ARC
  5
D23
330
22
100
AcDbEntity
  8
0
  6
Continuous
 62
     7
100
AcDbCircle
 10
158.2192628651
 20
149.7632127954999
 30
0.0
 40
2.649999999999999
100
AcDbArc
 50
114.8375550843
 51
125.1624449157
  0
ARC
  5
D24
330
22
100
AcDbEntity
  8
0
  6
Continuous
 62
     7
100
AcDbCircle
 10
158.2192628651
 20
149.7632127954999
 30
0.0
 40
2.649999999999999
100
AcDbArc
 50
99.8375550843
 51
110.1624449157
  0
ARC
  5
D25
330
22
100
AcDbEntity
  8
0
  6
Continuous
 62
     7
100
AcDbCircle
 10
158.2192628651
 20
149.7632127954999
 30
0.0
 40
2.649999999999999
100
AcDbArc
 50
69.8375550843
 51
80.16244491569999
  0
ARC
  5
D26
330
22
100
AcDbEntity
  8
0
  6
Continuous
 62
     7
100
AcDbCircle
 10
158.2192628651
 20
149.7632127954999
 30
0.0
 40
2.649999999999999
100
AcDbArc
 50
54.8375550843
 51
65.16244491570001
  0
ARC
  5
D27
330
22
100
AcDbEntity
  8
0
  6
Continuous
 62
     7
100
AcDbCircle
 10
158.2192628651
 20
149.7632127954999
 30
0.0
 40
2.649999999999999
100
AcDbArc
 50
39.8375550843
 51
50.1624449157
  0
ARC
  5
D28
330
22
100
AcDbEntity
  8
0
  6
Continuous
 62
     7
100
AcDbCircle
 10
158.2192628651
 20
149.7632127954999
 30
0.0
 40
2.649999999999999
100
AcDbArc
 50
24.83755508430001
 51
35.1624449157
  0
ARC
  5
D29
330
22
100
AcDbEntity
  8
0
  6
Continuous
 62
     7
100
AcDbCircle
 10
158.2192628651
 20
149.7632127954999
 30
0.0
 40
2.649999999999999
100
AcDbArc
 50
9.837555084299999
 51
20.1624449157
  0
ARC
  5
D2A
330
22
100
AcDbEntity
  8
0
  6
Continuous
 62
     7
100
AcDbCircle
 10
158.2192628651
 20
149.7632127954999
 30
0.0
 40
2.649999999999999
100
AcDbArc
 50
354.8375550843
 51
5.1624449157
  0
ARC
  5
D2B
330
22
100
AcDbEntity
  8
0
  6
Continuous
 62
     7
100
AcDbCircle
 10
158.2192628651
 20
149.7632127954999
 30
0.0
 40
2.649999999999999
100
AcDbArc
 50
339.8375550843001
 51
350.1624449157
  0
ARC
  5
D2C
330
22
100
AcDbEntity
  8
0
  6
Continuous
 62
     7
100
AcDbCircle
 10
158.2192628651
 20
149.7632127954999
 30
0.0
 40
2.649999999999999
100
AcDbArc
 50
324.8375550843
 51
335.1624449157
  0
ARC
  5
D2D
330
22
100
AcDbEntity
  8
0
  6
Continuous
 62
     7
100
AcDbCircle
 10
158.2192628651
 20
149.7632127954999
 30
0.0
 40
2.649999999999999
100
AcDbArc
 50
309.8375550843
 51
320.1624449157
  0
ARC
  5
D2E
330
22
100
AcDbEntity
  8
0
  6
Continuous
 62
     7
100
AcDbCircle
 10
158.2192628651
 20
149.7632127954999
 30
0.0
 40
2.649999999999999
100
AcDbArc
 50
294.8375550843
 51
305.1624449157
  0
ARC
  5
D2F
330
22
100
AcDbEntity
  8
0
  6
Continuous
 62
     7
100
AcDbCircle
 10
158.2192628651
 20
149.7632127954999
 30
0.0
 40
2.649999999999999
100
AcDbArc
 50
279.8375550843
 51
290.1624449157
  0
ARC
  5
D30
330
22
100
AcDbEntity
  8
0
  6
Continuous
 62
     7
100
AcDbCircle
 10
158.2192628651
 20
149.7632127954999
 30
0.0
 40
2.649999999999999
100
AcDbArc
 50
264.8375550843
 51
275.1624449157
  0
ARC
  5
D31
330
22
100
AcDbEntity
  8
0
  6
Continuous
 62
     7
100
AcDbCircle
 10
158.2192628651
 20
149.7632127954999
 30
0.0
 40
2.649999999999999
100
AcDbArc
 50
84.8375550843
 51
95.16244491569999
  0
ARC
  5
D32
330
22
100
AcDbEntity
  8
0
  6
Continuous
 62
     9
100
AcDbCircle
 10
158.2192628651
 20
149.7632127954999
 30
0.0
 40
2.7397099779
100
AcDbArc
 50
273.4541849944
 51
281.331567851
  0
ARC
  5
D33
330
22
100
AcDbEntity
  8
0
  6
Continuous
 62
     9
100
AcDbCircle
 10
158.2192628651
 20
149.7632127954999
 30
0.0
 40
2.7397099779
100
AcDbArc
 50
288.5401966335
 51
296.4072954217
  0
ARC
  5
D34
330
22
100
AcDbEntity
  8
0
  6
Continuous
 62
     9
100
AcDbCircle
 10
158.2192628651
 20
149.7632127954999
 30
0.0
 40
2.7397099779
100
AcDbArc
 50
303.4973974625
 51
311.531801899
  0
ARC
  5
D35
330
22
100
AcDbEntity
  8
0
  6
Continuous
 62
     9
100
AcDbCircle
 10
158.2192628651
 20
149.7632127954999
 30
0.0
 40
2.7397099779
100
AcDbArc
 50
318.5575977869
 51
326.412946627
  0
ARC
  5
D36
330
22
100
AcDbEntity
  8
0
  6
Continuous
 62
     9
100
AcDbCircle
 10
158.2192628651
 20
149.7632127954999
 30
0.0
 40
2.7397099779
100
AcDbArc
 50
333.6017302298
 51
341.4049325951
  0
ARC
  5
D37
330
22
100
AcDbEntity
  8
0
  6
Continuous
 62
     9
100
AcDbCircle
 10
158.2192628651
 20
149.7632127954999
 30
0.0
 40
2.7397099779
100
AcDbArc
 50
348.5490613095
 51
356.4918795254001
  0
ARC
  5
D38
330
22
100
AcDbEntity
  8
0
  6
Continuous
 62
     9
100
AcDbCircle
 10
158.2192628651
 20
149.7632127954999
 30
0.0
 40
2.7397099779
100
AcDbArc
 50
3.5107802021
 51
11.4486801352
  0
ARC
  5
D39
330
22
100
AcDbEntity
  8
0
  6
Continuous
 62
     9
100
AcDbCircle
 10
158.2192628651
 20
149.7632127954999
 30
0.0
 40
2.7397099779
100
AcDbArc
 50
18.5959129866
 51
26.3982921791
  0
ARC
  5
D3A
330
22
100
AcDbEntity
  8
0
  6
Continuous
 62
     9
100
AcDbCircle
 10
158.2192628651
 20
149.7632127954999
 30
0.0
 40
2.7397099779
100
AcDbArc
 50
33.5856843654
 51
41.44424072519999
  0
ARC
  5
D3B
330
22
100
AcDbEntity
  8
0
  6
Continuous
 62
     9
100
AcDbCircle
 10
158.2192628651
 20
149.7632127954999
 30
0.0
 40
2.7397099779
100
AcDbArc
 50
48.46478205109999
 51
56.49920975949999
  0
ARC
  5
D3C
330
22
100
AcDbEntity
  8
0
  6
Continuous
 62
     9
100
AcDbCircle
 10
158.2192628651
 20
149.7632127954999
 30
0.0
 40
2.7397099779
100
AcDbArc
 50
63.59496771579999
 51
71.4604604221
  0
ARC
  5
D3D
330
22
100
AcDbEntity
  8
0
  6
Continuous
 62
     9
100
AcDbCircle
 10
158.2192628651
 20
149.7632127954999
 30
0.0
 40
2.7397099779
100
AcDbArc
 50
78.66830855090002
 51
86.54706720530001
  0
ARC
  5
D3E
330
22
100
AcDbEntity
  8
0
  6
Continuous
 62
     9
100
AcDbCircle
 10
158.2192628651
 20
149.7632127954999
 30
0.0
 40
2.7397099779
100
AcDbArc
 50
93.4541849944
 51
101.331567851
  0
ARC
  5
D3F
330
22
100
AcDbEntity
  8
0
  6
Continuous
 62
     9
100
AcDbCircle
 10
158.2192628651
 20
149.7632127954999
 30
0.0
 40
2.7397099779
100
AcDbArc
 50
108.5401966335
 51
116.4072954217
  0
ARC
  5
D40
330
22
100
AcDbEntity
  8
0
  6
Continuous
 62
     9
100
AcDbCircle
 10
158.2192628651
 20
149.7632127954999
 30
0.0
 40
2.7397099779
100
AcDbArc
 50
123.4973974625
 51
131.531801899
  0
ARC
  5
D41
330
22
100
AcDbEntity
  8
0
  6
Continuous
 62
     9
100
AcDbCircle
 10
158.2192628651
 20
149.7632127954999
 30
0.0
 40
2.7397099779
100
AcDbArc
 50
138.5575977869
 51
146.412946627
  0
ARC
  5
D42
330
22
100
AcDbEntity
  8
0
  6
Continuous
 62
     9
100
AcDbCircle
 10
158.2192628651
 20
149.7632127954999
 30
0.0
 40
2.7397099779
100
AcDbArc
 50
153.6017302298
 51
161.4049325951
  0
ARC
  5
D43
330
22
100
AcDbEntity
  8
0
  6
Continuous
 62
     9
100
AcDbCircle
 10
158.2192628651
 20
149.7632127954999
 30
0.0
 40
2.7397099779
100
AcDbArc
 50
168.5490613095
 51
176.4918795254
  0
ARC
  5
D44
330
22
100
AcDbEntity
  8
0
  6
Continuous
 62
     9
100
AcDbCircle
 10
158.2192628651
 20
149.7632127954999
 30
0.0
 40
2.7397099779
100
AcDbArc
 50
183.5107802020999
 51
191.4486801352
  0
ARC
  5
D45
330
22
100
AcDbEntity
  8
0
  6
Continuous
 62
     9
100
AcDbCircle
 10
158.2192628651
 20
149.7632127954999
 30
0.0
 40
2.7397099779
100
AcDbArc
 50
198.5959129866
 51
206.3982921791
  0
ARC
  5
D46
330
22
100
AcDbEntity
  8
0
  6
Continuous
 62
     9
100
AcDbCircle
 10
158.2192628651
 20
149.7632127954999
 30
0.0
 40
2.7397099779
100
AcDbArc
 50
213.5856843654
 51
221.4442407252
  0
ARC
  5
D47
330
22
100
AcDbEntity
  8
0
  6
Continuous
 62
     9
100
AcDbCircle
 10
158.2192628651
 20
149.7632127954999
 30
0.0
 40
2.7397099779
100
AcDbArc
 50
228.4647820511
 51
236.4992097595
  0
ARC
  5
D48
330
22
100
AcDbEntity
  8
0
  6
Continuous
 62
     9
100
AcDbCircle
 10
158.2192628651
 20
149.7632127954999
 30
0.0
 40
2.7397099779
100
AcDbArc
 50
243.5949677158
 51
251.4604604221
  0
ARC
  5
D49
330
22
100
AcDbEntity
  8
0
  6
Continuous
 62
     9
100
AcDbCircle
 10
158.2192628651
 20
149.7632127954999
 30
0.0
 40
2.7397099779
100
AcDbArc
 50
258.6683085509
 51
266.5470672053
  0
CIRCLE
  5
D4A
330
22
100
AcDbEntity
  8
0
  6
Continuous
 62
     7
100
AcDbCircle
 10
158.2192628651
 20
149.7632127954999
 30
0.0
 40
2.35
  0
CIRCLE
  5
D4B
330
22
100
AcDbEntity
  8
0
  6
Continuous
 62
     7
100
AcDbCircle
 10
43.2192628651
 20
199.7632127954999
 30
0.0
 40
1.8
  0
ARC
  5
D4C
330
22
100
AcDbEntity
  8
0
  6
Continuous
 62
     7
100
AcDbCircle
 10
43.2192628651
 20
199.7632127954999
 30
0.0
 40
2.649999999999999
100
AcDbArc
 50
249.8375550843
 51
260.1624449157
  0
ARC
  5
D4D
330
22
100
AcDbEntity
  8
0
  6
Continuous
 62
     7
100
AcDbCircle
 10
43.2192628651
 20
199.7632127954999
 30
0.0
 40
2.649999999999999
100
AcDbArc
 50
234.8375550843
 51
245.1624449157
  0
ARC
  5
D4E
330
22
100
AcDbEntity
  8
0
  6
Continuous
 62
     7
100
AcDbCircle
 10
43.2192628651
 20
199.7632127954999
 30
0.0
 40
2.649999999999999
100
AcDbArc
 50
219.8375550843
 51
230.1624449157
  0
ARC
  5
D4F
330
22
100
AcDbEntity
  8
0
  6
Continuous
 62
     7
100
AcDbCircle
 10
43.2192628651
 20
199.7632127954999
 30
0.0
 40
2.649999999999999
100
AcDbArc
 50
204.8375550843
 51
215.1624449157
  0
ARC
  5
D50
330
22
100
AcDbEntity
  8
0
  6
Continuous
 62
     7
100
AcDbCircle
 10
43.2192628651
 20
199.7632127954999
 30
0.0
 40
2.649999999999999
100
AcDbArc
 50
189.8375550843
 51
200.1624449157
  0
ARC
  5
D51
330
22
100
AcDbEntity
  8
0
  6
Continuous
 62
     7
100
AcDbCircle
 10
43.2192628651
 20
199.7632127954999
 30
0.0
 40
2.649999999999999
100
AcDbArc
 50
174.8375550843
 51
185.1624449157
  0
ARC
  5
D52
330
22
100
AcDbEntity
  8
0
  6
Continuous
 62
     7
100
AcDbCircle
 10
43.2192628651
 20
199.7632127954999
 30
0.0
 40
2.649999999999999
100
AcDbArc
 50
159.8375550843
 51
170.1624449157
  0
ARC
  5
D53
330
22
100
AcDbEntity
  8
0
  6
Continuous
 62
     7
100
AcDbCircle
 10
43.2192628651
 20
199.7632127954999
 30
0.0
 40
2.649999999999999
100
AcDbArc
 50
144.8375550843
 51
155.1624449157
  0
ARC
  5
D54
330
22
100
AcDbEntity
  8
0
  6
Continuous
 62
     7
100
AcDbCircle
 10
43.2192628651
 20
199.7632127954999
 30
0.0
 40
2.649999999999999
100
AcDbArc
 50
129.8375550843
 51
140.1624449157
  0
ARC
  5
D55
330
22
100
AcDbEntity
  8
0
  6
Continuous
 62
     7
100
AcDbCircle
 10
43.2192628651
 20
199.7632127954999
 30
0.0
 40
2.649999999999999
100
AcDbArc
 50
114.8375550843
 51
125.1624449157
  0
ARC
  5
D56
330
22
100
AcDbEntity
  8
0
  6
Continuous
 62
     7
100
AcDbCircle
 10
43.2192628651
 20
199.7632127954999
 30
0.0
 40
2.649999999999999
100
AcDbArc
 50
99.8375550843
 51
110.1624449157
  0
ARC
  5
D57
330
22
100
AcDbEntity
  8
0
  6
Continuous
 62
     7
100
AcDbCircle
 10
43.2192628651
 20
199.7632127954999
 30
0.0
 40
2.649999999999999
100
AcDbArc
 50
69.8375550843
 51
80.16244491569999
  0
ARC
  5
D58
330
22
100
AcDbEntity
  8
0
  6
Continuous
 62
     7
100
AcDbCircle
 10
43.2192628651
 20
199.7632127954999
 30
0.0
 40
2.649999999999999
100
AcDbArc
 50
54.8375550843
 51
65.16244491570001
  0
ARC
  5
D59
330
22
100
AcDbEntity
  8
0
  6
Continuous
 62
     7
100
AcDbCircle
 10
43.2192628651
 20
199.7632127954999
 30
0.0
 40
2.649999999999999
100
AcDbArc
 50
39.8375550843
 51
50.1624449157
  0
ARC
  5
D5A
330
22
100
AcDbEntity
  8
0
  6
Continuous
 62
     7
100
AcDbCircle
 10
43.2192628651
 20
199.7632127954999
 30
0.0
 40
2.649999999999999
100
AcDbArc
 50
24.83755508430001
 51
35.1624449157
  0
ARC
  5
D5B
330
22
100
AcDbEntity
  8
0
  6
Continuous
 62
     7
100
AcDbCircle
 10
43.2192628651
 20
199.7632127954999
 30
0.0
 40
2.649999999999999
100
AcDbArc
 50
9.837555084299999
 51
20.1624449157
  0
ARC
  5
D5C
330
22
100
AcDbEntity
  8
0
  6
Continuous
 62
     7
100
AcDbCircle
 10
43.2192628651
 20
199.7632127954999
 30
0.0
 40
2.649999999999999
100
AcDbArc
 50
354.8375550843
 51
5.1624449157
  0
ARC
  5
D5D
330
22
100
AcDbEntity
  8
0
  6
Continuous
 62
     7
100
AcDbCircle
 10
43.2192628651
 20
199.7632127954999
 30
0.0
 40
2.649999999999999
100
AcDbArc
 50
339.8375550843001
 51
350.1624449157
  0
ARC
  5
D5E
330
22
100
AcDbEntity
  8
0
  6
Continuous
 62
     7
100
AcDbCircle
 10
43.2192628651
 20
199.7632127954999
 30
0.0
 40
2.649999999999999
100
AcDbArc
 50
324.8375550843
 51
335.1624449157
  0
ARC
  5
D5F
330
22
100
AcDbEntity
  8
0
  6
Continuous
 62
     7
100
AcDbCircle
 10
43.2192628651
 20
199.7632127954999
 30
0.0
 40
2.649999999999999
100
AcDbArc
 50
309.8375550843
 51
320.1624449157
  0
ARC
  5
D60
330
22
100
AcDbEntity
  8
0
  6
Continuous
 62
     7
100
AcDbCircle
 10
43.2192628651
 20
199.7632127954999
 30
0.0
 40
2.649999999999999
100
AcDbArc
 50
294.8375550843
 51
305.1624449157
  0
ARC
  5
D61
330
22
100
AcDbEntity
  8
0
  6
Continuous
 62
     7
100
AcDbCircle
 10
43.2192628651
 20
199.7632127954999
 30
0.0
 40
2.649999999999999
100
AcDbArc
 50
279.8375550843
 51
290.1624449157
  0
ARC
  5
D62
330
22
100
AcDbEntity
  8
0
  6
Continuous
 62
     7
100
AcDbCircle
 10
43.2192628651
 20
199.7632127954999
 30
0.0
 40
2.649999999999999
100
AcDbArc
 50
264.8375550843
 51
275.1624449157
  0
ARC
  5
D63
330
22
100
AcDbEntity
  8
0
  6
Continuous
 62
     7
100
AcDbCircle
 10
43.2192628651
 20
199.7632127954999
 30
0.0
 40
2.649999999999999
100
AcDbArc
 50
84.8375550843
 51
95.16244491569999
  0
ARC
  5
D64
330
22
100
AcDbEntity
  8
0
  6
Continuous
 62
     9
100
AcDbCircle
 10
43.2192628651
 20
199.7632127954999
 30
0.0
 40
2.7397099779
100
AcDbArc
 50
273.4541849944
 51
281.331567851
  0
ARC
  5
D65
330
22
100
AcDbEntity
  8
0
  6
Continuous
 62
     9
100
AcDbCircle
 10
43.2192628651
 20
199.7632127954999
 30
0.0
 40
2.7397099779
100
AcDbArc
 50
288.5401966335
 51
296.4072954217
  0
ARC
  5
D66
330
22
100
AcDbEntity
  8
0
  6
Continuous
 62
     9
100
AcDbCircle
 10
43.2192628651
 20
199.7632127954999
 30
0.0
 40
2.7397099779
100
AcDbArc
 50
303.4973974625
 51
311.531801899
  0
ARC
  5
D67
330
22
100
AcDbEntity
  8
0
  6
Continuous
 62
     9
100
AcDbCircle
 10
43.2192628651
 20
199.7632127954999
 30
0.0
 40
2.7397099779
100
AcDbArc
 50
318.5575977869
 51
326.412946627
  0
ARC
  5
D68
330
22
100
AcDbEntity
  8
0
  6
Continuous
 62
     9
100
AcDbCircle
 10
43.2192628651
 20
199.7632127954999
 30
0.0
 40
2.7397099779
100
AcDbArc
 50
333.6017302298
 51
341.4049325951
  0
ARC
  5
D69
330
22
100
AcDbEntity
  8
0
  6
Continuous
 62
     9
100
AcDbCircle
 10
43.2192628651
 20
199.7632127954999
 30
0.0
 40
2.7397099779
100
AcDbArc
 50
348.5490613095
 51
356.4918795254001
  0
ARC
  5
D6A
330
22
100
AcDbEntity
  8
0
  6
Continuous
 62
     9
100
AcDbCircle
 10
43.2192628651
 20
199.7632127954999
 30
0.0
 40
2.7397099779
100
AcDbArc
 50
3.5107802021
 51
11.4486801352
  0
ARC
  5
D6B
330
22
100
AcDbEntity
  8
0
  6
Continuous
 62
     9
100
AcDbCircle
 10
43.2192628651
 20
199.7632127954999
 30
0.0
 40
2.7397099779
100
AcDbArc
 50
18.5959129867
 51
26.3982921791
  0
ARC
  5
D6C
330
22
100
AcDbEntity
  8
0
  6
Continuous
 62
     9
100
AcDbCircle
 10
43.2192628651
 20
199.7632127954999
 30
0.0
 40
2.7397099779
100
AcDbArc
 50
33.5856843654
 51
41.44424072519999
  0
ARC
  5
D6D
330
22
100
AcDbEntity
  8
0
  6
Continuous
 62
     9
100
AcDbCircle
 10
43.2192628651
 20
199.7632127954999
 30
0.0
 40
2.7397099779
100
AcDbArc
 50
48.46478205109999
 51
56.49920975949999
  0
ARC
  5
D6E
330
22
100
AcDbEntity
  8
0
  6
Continuous
 62
     9
100
AcDbCircle
 10
43.2192628651
 20
199.7632127954999
 30
0.0
 40
2.7397099779
100
AcDbArc
 50
63.59496771579999
 51
71.4604604221
  0
ARC
  5
D6F
330
22
100
AcDbEntity
  8
0
  6
Continuous
 62
     9
100
AcDbCircle
 10
43.2192628651
 20
199.7632127954999
 30
0.0
 40
2.7397099779
100
AcDbArc
 50
78.66830855090002
 51
86.54706720530001
  0
ARC
  5
D70
330
22
100
AcDbEntity
  8
0
  6
Continuous
 62
     9
100
AcDbCircle
 10
43.2192628651
 20
199.7632127954999
 30
0.0
 40
2.7397099779
100
AcDbArc
 50
93.4541849944
 51
101.331567851
  0
ARC
  5
D71
330
22
100
AcDbEntity
  8
0
  6
Continuous
 62
     9
100
AcDbCircle
 10
43.2192628651
 20
199.7632127954999
 30
0.0
 40
2.7397099779
100
AcDbArc
 50
108.5401966335
 51
116.4072954217
  0
ARC
  5
D72
330
22
100
AcDbEntity
  8
0
  6
Continuous
 62
     9
100
AcDbCircle
 10
43.2192628651
 20
199.7632127954999
 30
0.0
 40
2.7397099779
100
AcDbArc
 50
123.4973974625
 51
131.531801899
  0
ARC
  5
D73
330
22
100
AcDbEntity
  8
0
  6
Continuous
 62
     9
100
AcDbCircle
 10
43.2192628651
 20
199.7632127954999
 30
0.0
 40
2.7397099779
100
AcDbArc
 50
138.5575977869
 51
146.412946627
  0
ARC
  5
D74
330
22
100
AcDbEntity
  8
0
  6
Continuous
 62
     9
100
AcDbCircle
 10
43.2192628651
 20
199.7632127954999
 30
0.0
 40
2.7397099779
100
AcDbArc
 50
153.6017302298
 51
161.4049325951
  0
ARC
  5
D75
330
22
100
AcDbEntity
  8
0
  6
Continuous
 62
     9
100
AcDbCircle
 10
43.2192628651
 20
199.7632127954999
 30
0.0
 40
2.7397099779
100
AcDbArc
 50
168.5490613095
 51
176.4918795254
  0
ARC
  5
D76
330
22
100
AcDbEntity
  8
0
  6
Continuous
 62
     9
100
AcDbCircle
 10
43.2192628651
 20
199.7632127954999
 30
0.0
 40
2.7397099779
100
AcDbArc
 50
183.5107802020999
 51
191.4486801352
  0
ARC
  5
D77
330
22
100
AcDbEntity
  8
0
  6
Continuous
 62
     9
100
AcDbCircle
 10
43.2192628651
 20
199.7632127954999
 30
0.0
 40
2.7397099779
100
AcDbArc
 50
198.5959129866999
 51
206.3982921791
  0
ARC
  5
D78
330
22
100
AcDbEntity
  8
0
  6
Continuous
 62
     9
100
AcDbCircle
 10
43.2192628651
 20
199.7632127954999
 30
0.0
 40
2.7397099779
100
AcDbArc
 50
213.5856843654
 51
221.4442407252
  0
ARC
  5
D79
330
22
100
AcDbEntity
  8
0
  6
Continuous
 62
     9
100
AcDbCircle
 10
43.2192628651
 20
199.7632127954999
 30
0.0
 40
2.7397099779
100
AcDbArc
 50
228.4647820511
 51
236.4992097595
  0
ARC
  5
D7A
330
22
100
AcDbEntity
  8
0
  6
Continuous
 62
     9
100
AcDbCircle
 10
43.2192628651
 20
199.7632127954999
 30
0.0
 40
2.7397099779
100
AcDbArc
 50
243.5949677158
 51
251.4604604221
  0
ARC
  5
D7B
330
22
100
AcDbEntity
  8
0
  6
Continuous
 62
     9
100
AcDbCircle
 10
43.2192628651
 20
199.7632127954999
 30
0.0
 40
2.7397099779
100
AcDbArc
 50
258.6683085509
 51
266.5470672053
  0
CIRCLE
  5
D7C
330
22
100
AcDbEntity
  8
0
  6
Continuous
 62
     7
100
AcDbCircle
 10
43.2192628651
 20
199.7632127954999
 30
0.0
 40
2.35
  0
CIRCLE
  5
D7D
330
22
100
AcDbEntity
  8
0
  6
Continuous
 62
     7
100
AcDbCircle
 10
41.71926286509999
 20
208.7632127955
 30
0.0
 40
1.566987298099999
  0
CIRCLE
  5
D7E
330
22
100
AcDbEntity
  8
0
  6
Continuous
 62
     7
100
AcDbCircle
 10
41.71926286509999
 20
140.7632127955
 30
0.0
 40
1.566987298099999
  0
CIRCLE
  5
D7F
330
22
100
AcDbEntity
  8
0
  6
Continuous
 62
     7
100
AcDbCircle
 10
159.7192628651
 20
140.7632127955
 30
0.0
 40
1.566987298099999
  0
CIRCLE
  5
D80
330
22
100
AcDbEntity
  8
0
  6
Continuous
 62
     7
100
AcDbCircle
 10
159.7192628651
 20
208.7632127955
 30
0.0
 40
1.566987298099999
  0
ARC
  5
D81
330
22
100
AcDbEntity
  8
0
  6
Continuous
 62
     7
100
AcDbCircle
 10
71.51926286510001
 20
226.1632127955
 30
0.0
 40
0.1
100
AcDbArc
 50
0.0
 51
90.0
  0
ARC
  5
D82
330
22
100
AcDbEntity
  8
0
  6
Continuous
 62
     7
100
AcDbCircle
 10
63.9192628651
 20
226.1632127955
 30
0.0
 40
0.1
100
AcDbArc
 50
90.0
 51
180.0
  0
ARC
  5
D83
330
22
100
AcDbEntity
  8
0
  6
Continuous
 62
     7
100
AcDbCircle
 10
93.5192628651
 20
226.1632127955
 30
0.0
 40
0.1
100
AcDbArc
 50
0.0
 51
90.0
  0
ARC
  5
D84
330
22
100
AcDbEntity
  8
0
  6
Continuous
 62
     7
100
AcDbCircle
 10
85.9192628651
 20
226.1632127955
 30
0.0
 40
0.1
100
AcDbArc
 50
90.0
 51
180.0
  0
ARC
  5
D85
330
22
100
AcDbEntity
  8
0
  6
Continuous
 62
     7
100
AcDbCircle
 10
115.5192628651
 20
226.1632127955
 30
0.0
 40
0.1
100
AcDbArc
 50
0.0
 51
90.0
  0
ARC
  5
D86
330
22
100
AcDbEntity
  8
0
  6
Continuous
 62
     7
100
AcDbCircle
 10
107.9192628651
 20
226.1632127955
 30
0.0
 40
0.1
100
AcDbArc
 50
90.0
 51
180.0
  0
ARC
  5
D87
330
22
100
AcDbEntity
  8
0
  6
Continuous
 62
     7
100
AcDbCircle
 10
25.01926286510001
 20
179.5632127955
 30
0.0
 40
0.3
100
AcDbArc
 50
90.0
 51
180.0
  0
ARC
  5
D88
330
22
100
AcDbEntity
  8
0
  6
Continuous
 62
     7
100
AcDbCircle
 10
25.01926286510001
 20
169.9632127955
 30
0.0
 40
0.3
100
AcDbArc
 50
180.0
 51
270.0
  0
ARC
  5
D89
330
22
100
AcDbEntity
  8
0
  6
Continuous
 62
     7
100
AcDbCircle
 10
176.8192628650999
 20
170.9632127955
 30
0.0
 40
0.2
100
AcDbArc
 50
270.0
 51
0.0
  0
ARC
  5
D8A
330
22
100
AcDbEntity
  8
0
  6
Continuous
 62
     7
100
AcDbCircle
 10
176.8192628650999
 20
178.5632127955
 30
0.0
 40
0.2
100
AcDbArc
 50
0.0
 51
90.0
  0
ARC
  5
D8B
330
22
100
AcDbEntity
  8
0
  6
Continuous
 62
     7
100
AcDbCircle
 10
173.6292628651
 20
181.2632127955
 30
0.0
 40
0.2
100
AcDbArc
 50
90.0
 51
180.0
  0
ARC
  5
D8C
330
22
100
AcDbEntity
  8
0
  6
Continuous
 62
     7
100
AcDbCircle
 10
173.6292628651
 20
168.2632127955
 30
0.0
 40
0.2
100
AcDbArc
 50
180.0
 51
270.0
  0
ARC
  5
D8D
330
22
100
AcDbEntity
  8
0
  6
Continuous
 62
     7
100
AcDbCircle
 10
171.0292628651
 20
181.9632127955
 30
0.0
 40
0.2
100
AcDbArc
 50
0.0
 51
90.0
  0
ARC
  5
D8E
330
22
100
AcDbEntity
  8
0
  6
Continuous
 62
     7
100
AcDbCircle
 10
171.0292628651
 20
167.5632127955
 30
0.0
 40
0.2
100
AcDbArc
 50
270.0
 51
0.0
  0
CIRCLE
  5
D8F
330
22
100
AcDbEntity
  8
0
  6
Continuous
 62
     7
100
AcDbCircle
 10
41.71926286509999
 20
140.7632127955
 30
0.0
 40
2.0
  0
CIRCLE
  5
D90
330
22
100
AcDbEntity
  8
0
  6
Continuous
 62
     7
100
AcDbCircle
 10
159.7192628651
 20
208.7632127955
 30
0.0
 40
2.0
  0
ARC
  5
D91
330
22
100
AcDbEntity
  8
0
  6
Continuous
 62
     7
100
AcDbCircle
 10
43.2192628651
 20
149.7632127954999
 30
0.0
 40
10.0
100
AcDbArc
 50
0.0
 51
90.0
  0
ARC
  5
D92
330
22
100
AcDbEntity
  8
0
  6
Continuous
 62
     7
100
AcDbCircle
 10
158.2192628651
 20
199.7632127954999
 30
0.0
 40
10.0
100
AcDbArc
 50
180.0
 51
270.0
  0
ARC
  5
D93
330
22
100
AcDbEntity
  8
0
  6
Continuous
 62
     7
100
AcDbCircle
 10
43.2192628651
 20
199.7632127954999
 30
0.0
 40
6.799999999999999
100
AcDbArc
 50
270.0
 51
0.0
  0
ARC
  5
D94
330
22
100
AcDbEntity
  8
0
  6
Continuous
 62
     7
100
AcDbCircle
 10
43.2192628651
 20
199.7632127954999
 30
0.0
 40
10.0
100
AcDbArc
 50
270.0
 51
0.0
  0
ARC
  5
D95
330
22
100
AcDbEntity
  8
0
  6
Continuous
 62
     7
100
AcDbCircle
 10
158.2192628651
 20
149.7632127954999
 30
0.0
 40
6.799999999999999
100
AcDbArc
 50
90.0
 51
180.0
  0
ARC
  5
D96
330
22
100
AcDbEntity
  8
0
  6
Continuous
 62
     7
100
AcDbCircle
 10
158.2192628651
 20
149.7632127954999
 30
0.0
 40
10.0
100
AcDbArc
 50
90.0
 51
180.0
  0
CIRCLE
  5
D97
330
22
100
AcDbEntity
  8
0
  6
Continuous
 62
     7
100
AcDbCircle
 10
159.7192628651
 20
140.7632127955
 30
0.0
 40
2.0
  0
CIRCLE
  5
D98
330
22
100
AcDbEntity
  8
0
  6
Continuous
 62
     7
100
AcDbCircle
 10
41.71926286509999
 20
208.7632127955
 30
0.0
 40
2.0
  0
CIRCLE
  5
D99
330
22
100
AcDbEntity
  8
0
  6
Continuous
 62
     7
100
AcDbCircle
 10
43.2192628651
 20
199.7632127954999
 30
0.0
 40
2.799999999999999
  0
CIRCLE
  5
D9A
330
22
100
AcDbEntity
  8
0
  6
Continuous
 62
     7
100
AcDbCircle
 10
158.2192628651
 20
149.7632127954999
 30
0.0
 40
2.799999999999999
  0
ARC
  5
D9B
330
22
100
AcDbEntity
  8
0
  6
Continuous
 62
     7
100
AcDbCircle
 10
161.9192628651
 20
139.7632127955
 30
0.0
 40
2.0
100
AcDbArc
 50
270.0
 51
0.0
  0
ARC
  5
D9C
330
22
100
AcDbEntity
  8
0
  6
Continuous
 62
     7
100
AcDbCircle
 10
39.5192628651
 20
209.7632127955
 30
0.0
 40
2.0
100
AcDbArc
 50
90.0
 51
180.0
  0
CIRCLE
  5
D9D
330
22
100
AcDbEntity
  8
0
  6
Continuous
 62
     7
100
AcDbCircle
 10
76.7192628651
 20
195.1632127955
 30
0.0
 40
3.25
  0
CIRCLE
  5
D9E
330
22
100
AcDbEntity
  8
0
  6
Continuous
 62
     7
100
AcDbCircle
 10
135.7692628651
 20
169.1332127955
 30
0.0
 40
3.25
  0
ENDSEC
  0
SECTION
  2
OBJECTS
  0
DICTIONARY
  5
C
330
0
100
AcDbDictionary
281
     1
  3
ACAD_COLOR
350
1B
  3
ACAD_GROUP
350
D
  3
ACAD_LAYOUT
350
19
  3
ACAD_MATERIAL
350
1A
  3
ACAD_MLINESTYLE
350
16
  3
ACAD_PLOTSETTINGS
350
18
  3
ACAD_PLOTSTYLENAME
350
E
  3
ACAD_TABLESTYLE
350
1C
  3
AcDbVariableDictionary
350
DA2
  0
DICTIONARY
  5
1B
102
{ACAD_REACTORS
330
C
102
}
330
C
100
AcDbDictionary
281
     1
  0
DICTIONARY
  5
D
102
{ACAD_REACTORS
330
C
102
}
330
C
100
AcDbDictionary
281
     1
  0
DICTIONARY
  5
19
102
{ACAD_REACTORS
330
C
102
}
330
C
100
AcDbDictionary
281
     1
  3
Model
350
25
  3
Présentation1
350
21
  0
DICTIONARY
  5
1A
102
{ACAD_REACTORS
330
C
102
}
330
C
100
AcDbDictionary
281
     1
  0
DICTIONARY
  5
16
102
{ACAD_REACTORS
330
C
102
}
330
C
100
AcDbDictionary
281
     1
  3
Standard
350
17
  0
DICTIONARY
  5
18
102
{ACAD_REACTORS
330
C
102
}
330
C
100
AcDbDictionary
281
     1
  0
ACDBDICTIONARYWDFLT
  5
E
102
{ACAD_REACTORS
330
C
102
}
330
C
100
AcDbDictionary
281
     1
  3
Normal
350
F
100
AcDbDictionaryWithDefault
340
F
  0
DICTIONARY
  5
1C
102
{ACAD_REACTORS
330
C
102
}
330
C
100
AcDbDictionary
281
     1
  3
Standard
350
1D
  0
DICTIONARY
  5
DA2
102
{ACAD_REACTORS
330
C
102
}
330
C
100
AcDbDictionary
281
     1
  3
CTABLESTYLE
350
DA3
  0
LAYOUT
  5
25
102
{ACAD_REACTORS
330
19
102
}
330
19
100
AcDbPlotSettings
  1

  2
Lexmark W820 Multi-Fonctions
  4

  6

 40
0.0
 41
0.0
 42
0.0
 43
0.0
 44
0.0
 45
0.0
 46
0.0
 47
0.0
 48
0.0
 49
0.0
140
0.0
141
0.0
142
1.0
143
1.0
 70
  1712
 72
     0
 73
     0
 74
     0
  7

 75
     0
147
1.0
 76
     0
 77
     2
 78
   300
148
0.0
149
0.0
100
AcDbLayout
  1
Model
 70
     1
 71
     0
 10
0.0
 20
0.0
 11
12.0
 21
9.0
 12
0.0
 22
0.0
 32
0.0
 14
0.0
 24
0.0
 34
0.0
 15
0.0
 25
0.0
 35
0.0
146
0.0
 13
0.0
 23
0.0
 33
0.0
 16
1.0
 26
0.0
 36
0.0
 17
0.0
 27
1.0
 37
0.0
 76
     0
330
22
  0
LAYOUT
  5
21
102
{ACAD_REACTORS
330
19
102
}
330
19
100
AcDbPlotSettings
  1

  2
Lexmark W820 Multi-Fonctions
  4

  6

 40
0.0
 41
0.0
 42
0.0
 43
0.0
 44
0.0
 45
0.0
 46
0.0
 47
0.0
 48
0.0
 49
0.0
140
0.0
141
0.0
142
1.0
143
1.0
 70
   688
 72
     0
 73
     0
 74
     5
  7

 75
    16
147
1.0
 76
     0
 77
     2
 78
   300
148
0.0
149
0.0
100
AcDbLayout
  1
Présentation1
 70
     1
 71
     1
 10
0.0
 20
0.0
 11
12.0
 21
9.0
 12
0.0
 22
0.0
 32
0.0
 14
1.000000000000000E+20
 24
1.000000000000000E+20
 34
1.000000000000000E+20
 15
-1.000000000000000E+20
 25
-1.000000000000000E+20
 35
-1.000000000000000E+20
146
0.0
 13
0.0
 23
0.0
 33
0.0
 16
1.0
 26
0.0
 36
0.0
 17
0.0
 27
1.0
 37
0.0
 76
     0
330
1E
  0
MLINESTYLE
  5
17
102
{ACAD_REACTORS
330
16
102
}
330
16
100
AcDbMlineStyle
  2
STANDARD
 70
     0
  3

 62
   256
 51
90.0
 52
90.0
 71
     2
 49
0.5
 62
   256
  6
BYLAYER
 49
-0.5
 62
   256
  6
BYLAYER
  0
ACDBPLACEHOLDER
  5
F
102
{ACAD_REACTORS
330
E
102
}
330
E
  0
TABLESTYLE
  5
1D
102
{ACAD_REACTORS
330
1C
102
}
330
1C
100
AcDbTableStyle
  3
Standard
 70
     0
 71
     0
 40
0.06
 41
0.06
280
     0
281
     0
  7
Standard
140
0.18
170
     2
 62
     0
 63
     7
283
     0
274
    -2
284
     1
 64
     0
275
    -2
285
     1
 65
     0
276
    -2
286
     1
 66
     0
277
    -2
287
     1
 67
     0
278
    -2
288
     1
 68
     0
279
    -2
289
     1
 69
     0
  7
Standard
140
0.25
170
     5
 62
     0
 63
     7
283
     0
274
    -2
284
     1
 64
     0
275
    -2
285
     1
 65
     0
276
    -2
286
     1
 66
     0
277
    -2
287
     1
 67
     0
278
    -2
288
     1
 68
     0
279
    -2
289
     1
 69
     0
  7
Standard
140
0.18
170
     5
 62
     0
 63
     7
283
     0
274
    -2
284
     1
 64
     0
275
    -2
285
     1
 65
     0
276
    -2
286
     1
 66
     0
277
    -2
287
     1
 67
     0
278
    -2
288
     1
 68
     0
279
    -2
289
     1
 69
     0
  0
DICTIONARYVAR
  5
DA3
102
{ACAD_REACTORS
330
DA2
102
}
330
DA2
100
DictionaryVariables
280
     0
  1
STANDARD
  0
ENDSEC
  0
EOF
