  0
SECTION
  2
HEADER
  9
$ACADVER
  1
AC1009
  9
$INSBASE
 10
402.590624
 20
-1.041018
 30
0.0
  9
$EXTMIN
 10
105.871238
 20
1.896444
 30
0.0
  9
$EXTMAX
 10
163.906952
 20
169.189336
 30
0.0
  9
$LIMMIN
 10
-407.970438
 20
-367.832444
  9
$LIMMAX
 10
429.804077
 20
234.370848
  9
$ORTHOMODE
 70
     0
  9
$REGENMODE
 70
     1
  9
$FILLMODE
 70
     1
  9
$QTEXTMODE
 70
     0
  9
$MIRRTEXT
 70
     1
  9
$DRAGMODE
 70
     2
  9
$LTSCALE
 40
10.0
  9
$OSMODE
 70
    35
  9
$ATTMODE
 70
     1
  9
$TEXTSIZE
 40
6.0
  9
$TRACEWID
 40
1.0
  9
$TEXTSTYLE
  7
ROMANS
  9
$CLAYER
  8
ALPHA
  9
$CELTYPE
  6
BYLAYER
  9
$CECOLOR
 62
   256
  9
$DIMSCALE
 40
1.0
  9
$DIMASZ
 40
5.0
  9
$DIMEXO
 40
2.0
  9
$DIMDLI
 40
0.38
  9
$DIMRND
 40
0.0
  9
$DIMDLE
 40
0.0
  9
$DIMEXE
 40
2.5
  9
$DIMTP
 40
0.0
  9
$DIMTM
 40
0.0
  9
$DIMTXT
 40
2.5
  9
$DIMCEN
 40
0.0
  9
$DIMTSZ
 40
0.0
  9
$DIMTOL
 70
     0
  9
$DIMLIM
 70
     0
  9
$DIMTIH
 70
     1
  9
$DIMTOH
 70
     1
  9
$DIMSE1
 70
     0
  9
$DIMSE2
 70
     0
  9
$DIMTAD
 70
     1
  9
$DIMZIN
 70
    12
  9
$DIMBLK
  1
OPEN30
  9
$DIMASO
 70
     1
  9
$DIMSHO
 70
     1
  9
$DIMPOST
  1

  9
$DIMAPOST
  1

  9
$DIMALT
 70
     0
  9
$DIMALTD
 70
     2
  9
$DIMALTF
 40
25.4
  9
$DIMLFAC
 40
1.0
  9
$DIMTOFL
 70
     0
  9
$DIMTVP
 40
0.0
  9
$DIMTIX
 70
     0
  9
$DIMSOXD
 70
     0
  9
$DIMSAH
 70
     0
  9
$DIMBLK1
  1

  9
$DIMBLK2
  1

  9
$DIMSTYLE
  2
SC_DEFAUT
  9
$DIMCLRD
 70
     0
  9
$DIMCLRE
 70
     0
  9
$DIMCLRT
 70
     0
  9
$DIMTFAC
 40
1.0
  9
$DIMGAP
 40
2.0
  9
$LUNITS
 70
     2
  9
$LUPREC
 70
     1
  9
$SKETCHINC
 40
0.1
  9
$FILLETRAD
 40
0.0
  9
$AUNITS
 70
     0
  9
$AUPREC
 70
     0
  9
$MENU
  1
acad
  9
$ELEVATION
 40
0.0
  9
$PELEVATION
 40
0.0
  9
$THICKNESS
 40
0.0
  9
$LIMCHECK
 70
     0
  9
$BLIPMODE
 70
     0
  9
$CHAMFERA
 40
0.0
  9
$CHAMFERB
 40
0.0
  9
$SKPOLY
 70
     0
  9
$TDCREATE
 40
2450373.687919
  9
$TDUPDATE
 40
2453032.66028
  9
$TDINDWG
 40
1.111737
  9
$TDUSRTIMER
 40
1.111737
  9
$USRTIMER
 70
     1
  9
$ANGBASE
 50
0.0
  9
$ANGDIR
 70
     0
  9
$PDMODE
 70
    32
  9
$PDSIZE
 40
0.0
  9
$PLINEWID
 40
0.0
  9
$COORDS
 70
     1
  9
$SPLFRAME
 70
     0
  9
$SPLINETYPE
 70
     6
  9
$SPLINESEGS
 70
     8
  9
$ATTDIA
 70
     0
  9
$ATTREQ
 70
     1
  9
$HANDLING
 70
     1
  9
$HANDSEED
  5
C780
  9
$SURFTAB1
 70
     6
  9
$SURFTAB2
 70
     6
  9
$SURFTYPE
 70
     6
  9
$SURFU
 70
     6
  9
$SURFV
 70
     6
  9
$UCSNAME
  2

  9
$UCSORG
 10
0.0
 20
0.0
 30
0.0
  9
$UCSXDIR
 10
1.0
 20
0.0
 30
0.0
  9
$UCSYDIR
 10
0.0
 20
1.0
 30
0.0
  9
$PUCSNAME
  2

  9
$PUCSORG
 10
0.0
 20
0.0
 30
0.0
  9
$PUCSXDIR
 10
1.0
 20
0.0
 30
0.0
  9
$PUCSYDIR
 10
0.0
 20
1.0
 30
0.0
  9
$USERI1
 70
     0
  9
$USERI2
 70
     0
  9
$USERI3
 70
     0
  9
$USERI4
 70
     0
  9
$USERI5
 70
     0
  9
$USERR1
 40
0.0
  9
$USERR2
 40
0.0
  9
$USERR3
 40
0.0
  9
$USERR4
 40
0.0
  9
$USERR5
 40
0.0
  9
$WORLDVIEW
 70
     1
  9
$SHADEDGE
 70
     3
  9
$SHADEDIF
 70
    70
  9
$TILEMODE
 70
     1
  9
$MAXACTVP
 70
    16
  9
$PLIMCHECK
 70
     0
  9
$PEXTMIN
 10
-1.452248
 20
-0.437698
 30
0.0
  9
$PEXTMAX
 10
12.749749
 20
8.310198
 30
0.0
  9
$PLIMMIN
 10
0.0
 20
0.0
  9
$PLIMMAX
 10
12.0
 20
9.0
  9
$UNITMODE
 70
     0
  9
$VISRETAIN
 70
     0
  9
$PLINEGEN
 70
     0
  9
$PSLTSCALE
 70
     0
  0
ENDSEC
  0
SECTION
  2
TABLES
  0
TABLE
  2
VPORT
 70
     2
  0
VPORT
  2
*ACTIVE
 70
     0
 10
0.0
 20
0.0
 11
1.0
 21
1.0
 12
134.884082
 22
85.529161
 13
0.0
 23
0.0
 14
1.0
 24
1.0
 15
10.0
 25
10.0
 16
0.0
 26
0.0
 36
1.0
 17
0.0
 27
0.0
 37
0.0
 40
168.534997
 41
1.466346
 42
50.0
 43
0.0
 44
0.0
 50
0.0
 51
0.0
 71
     0
 72
   100
 73
     1
 74
     0
 75
     0
 76
     0
 77
     0
 78
     0
  0
ENDTAB
  0
TABLE
  2
LTYPE
 70
     2
  0
LTYPE
  2
CONTINUOUS
 70
     0
  3
Solid line
 72
    65
 73
     0
 40
0.0
  0
LTYPE
  2
AXES2
 70
     0
  3
___ _ ___ _ ___ _ ___ _ ___ _ ___ _ ___ _ ___ _
 72
    65
 73
     4
 40
1.125
 49
0.75
 49
-0.125
 49
0.125
 49
-0.125
  0
ENDTAB
  0
TABLE
  2
LAYER
 70
     5
  0
LAYER
  2
0
 70
     0
 62
   255
  6
CONTINUOUS
  0
LAYER
  2
COTATION1
 70
     0
 62
     2
  6
CONTINUOUS
  0
LAYER
  2
AXE
 70
     0
 62
    80
  6
AXES2
  0
LAYER
  2
DEFPOINTS
 70
     0
 62
     7
  6
CONTINUOUS
  0
LAYER
  2
ALPHA
 70
     0
 62
   254
  6
CONTINUOUS
  0
ENDTAB
  0
TABLE
  2
STYLE
 70
     2
  0
STYLE
  2
ROMANS
 70
     0
 40
0.0
 41
1.0
 50
0.0
 71
     0
 42
6.0
  3
romans
  4

  0
STYLE
  2
STANDARD
 70
     0
 40
0.0
 41
1.0
 50
0.0
 71
     0
 42
0.2
  3
txt
  4

  0
ENDTAB
  0
TABLE
  2
VIEW
 70
     0
  0
ENDTAB
  0
TABLE
  2
UCS
 70
     0
  0
ENDTAB
  0
TABLE
  2
APPID
 70
     1
  0
APPID
  2
ACAD
 70
     0
  0
ENDTAB
  0
TABLE
  2
DIMSTYLE
 70
     2
  0
DIMSTYLE
  2
SC_DEFAUT
 70
     0
  3

  4

  5
OPEN30
  6

  7

 40
1.0
 41
5.0
 42
2.0
 43
0.38
 44
2.5
 45
0.0
 46
0.0
 47
0.0
 48
0.0
140
2.5
141
0.0
142
0.0
143
25.4
144
1.0
145
0.0
146
1.0
147
2.0
 71
     0
 72
     0
 73
     1
 74
     1
 75
     0
 76
     0
 77
     1
 78
    12
170
     0
171
     2
172
     0
173
     0
174
     0
175
     0
176
     0
177
     0
178
     0
  0
DIMSTYLE
  2
STANDARD
 70
     0
  3

  4

  5

  6

  7

 40
1.0
 41
0.18
 42
0.0625
 43
0.38
 44
0.18
 45
0.0
 46
0.0
 47
0.0
 48
0.0
140
0.18
141
0.09
142
0.0
143
25.4
144
1.0
145
0.0
146
1.0
147
0.09
 71
     0
 72
     0
 73
     1
 74
     1
 75
     0
 76
     0
 77
     0
 78
     0
170
     0
171
     2
172
     0
173
     0
174
     0
175
     0
176
     0
177
     0
178
     0
  0
ENDTAB
  0
ENDSEC
  0
SECTION
  2
BLOCKS
  0
BLOCK
  8
0
  2
$MODEL_SPACE
 70
     0
 10
0.0
 20
0.0
 30
0.0
  3
$MODEL_SPACE
  1

  0
ENDBLK
  5
C779
  8
0
  0
BLOCK
 67
     1
  8
0
  2
$PAPER_SPACE
 70
     0
 10
0.0
 20
0.0
 30
0.0
  3
$PAPER_SPACE
  1

  0
ENDBLK
  5
C777
 67
     1
  8
0
  0
BLOCK
  8
0
  2
COTE
 70
     0
 10
0.0
 20
0.0
 30
0.0
  3
COTE
  1

  0
ENDBLK
  5
F
  8
0
  0
BLOCK
  8
0
  2
FOND
 70
     0
 10
0.0
 20
0.0
 30
0.0
  3
FOND
  1

  0
ENDBLK
  5
75
  8
0
  0
BLOCK
  8
0
  2
_OPEN30
 70
     0
 10
0.0
 20
0.0
 30
0.0
  3
_OPEN30
  1

  0
LINE
  5
4B05
  8
COTATION1
 62
     0
 10
-1.0
 20
0.267949
 30
0.0
 11
0.0
 21
0.0
 31
0.0
1001
ACAD
1000
RTLwPs
1070
   158
  0
LINE
  5
4B06
  8
COTATION1
 62
     0
 10
0.0
 20
0.0
 30
0.0
 11
-1.0
 21
-0.267949
 31
0.0
1001
ACAD
1000
RTLwPs
1070
   158
  0
LINE
  5
4B07
  8
COTATION1
 62
     0
 10
0.0
 20
0.0
 30
0.0
 11
-1.0
 21
0.0
 31
0.0
1001
ACAD
1000
RTLwPs
1070
   158
  0
ENDBLK
  5
4B09
  8
0
  0
BLOCK
  8
0
  2
*D3
 70
     1
 10
0.0
 20
0.0
 30
0.0
  3
*D3
  1

  0
LINE
  5
C679
  8
COTATION1
 62
     0
 10
110.871238
 20
51.182597
 30
0.0
 11
110.871238
 21
1.896444
 31
0.0
1001
ACAD
1000
RTLwPs
1070
   158
  0
LINE
  5
C67A
  8
COTATION1
 62
     0
 10
130.871238
 20
44.682597
 30
0.0
 11
130.871238
 21
1.896444
 31
0.0
1001
ACAD
1000
RTLwPs
1070
   158
  0
LINE
  5
C67B
  8
COTATION1
 62
     0
 10
115.871238
 20
4.396444
 30
0.0
 11
125.871238
 21
4.396444
 31
0.0
1001
ACAD
1000
RTLwPs
1070
   158
  0
INSERT
  5
C67C
  8
COTATION1
 62
     0
  2
_OPEN30
 10
110.871238
 20
4.396444
 30
0.0
 41
5.0
 42
5.0
 43
5.0
 50
180.0
1001
ACAD
1000
RTLwPs
1070
   158
  0
INSERT
  5
C67D
  8
COTATION1
 62
     0
  2
_OPEN30
 10
130.871238
 20
4.396444
 30
0.0
 41
5.0
 42
5.0
 43
5.0
1001
ACAD
1000
RTLwPs
1070
   158
  0
TEXT
  5
C67E
  8
COTATION1
 62
     0
 10
118.490286
 20
6.396444
 30
0.0
 40
2.5
  1
20
1001
ACAD
1000
MTEXTBEGIN
1070
    73
1070
     1
1070
    44
1040
1.0
1070
    74
1070
     0
1000
MTEXTEND
  0
POINT
  5
C67F
  8
DEFPOINTS
 62
     0
 10
110.871238
 20
53.182597
 30
0.0
  0
POINT
  5
C680
  8
DEFPOINTS
 62
     0
 10
130.871238
 20
46.682597
 30
0.0
  0
POINT
  5
C681
  8
DEFPOINTS
 62
     0
 10
130.871238
 20
4.396444
 30
0.0
  0
ENDBLK
  5
C478
  8
0
  0
BLOCK
  8
0
  2
*D4
 70
     1
 10
0.0
 20
0.0
 30
0.0
  3
*D4
  1

  0
LINE
  5
C665
  8
COTATION1
 62
     0
 10
131.371238
 20
150.182597
 30
0.0
 11
163.371238
 21
150.182597
 31
0.0
1001
ACAD
1000
RTLwPs
1070
   158
  0
LINE
  5
C666
  8
COTATION1
 62
     0
 10
131.371238
 20
25.182597
 30
0.0
 11
163.371238
 21
25.182597
 31
0.0
1001
ACAD
1000
RTLwPs
1070
   158
  0
LINE
  5
C667
  8
COTATION1
 62
     0
 10
160.871238
 20
145.182597
 30
0.0
 11
160.871238
 21
90.932597
 31
0.0
1001
ACAD
1000
RTLwPs
1070
   158
  0
LINE
  5
C668
  8
COTATION1
 62
     0
 10
160.871238
 20
30.182597
 30
0.0
 11
160.871238
 21
84.432597
 31
0.0
1001
ACAD
1000
RTLwPs
1070
   158
  0
INSERT
  5
C669
  8
COTATION1
 62
     0
  2
_OPEN30
 10
160.871238
 20
150.182597
 30
0.0
 41
5.0
 42
5.0
 43
5.0
 50
90.0
1001
ACAD
1000
RTLwPs
1070
   158
  0
INSERT
  5
C66A
  8
COTATION1
 62
     0
  2
_OPEN30
 10
160.871238
 20
25.182597
 30
0.0
 41
5.0
 42
5.0
 43
5.0
 50
270.0
1001
ACAD
1000
RTLwPs
1070
   158
  0
TEXT
  5
C66B
  8
COTATION1
 62
     0
 10
157.121238
 20
86.432597
 30
0.0
 40
2.5
  1
125
1001
ACAD
1000
MTEXTBEGIN
1070
    73
1070
     1
1070
    44
1040
1.0
1070
    74
1070
     0
1000
MTEXTEND
  0
POINT
  5
C66C
  8
DEFPOINTS
 62
     0
 10
129.371238
 20
150.182597
 30
0.0
  0
POINT
  5
C66D
  8
DEFPOINTS
 62
     0
 10
129.371238
 20
25.182597
 30
0.0
  0
POINT
  5
C66E
  8
DEFPOINTS
 62
     0
 10
160.871238
 20
25.182597
 30
0.0
  0
ENDBLK
  5
C485
  8
0
  0
BLOCK
  8
0
  2
*D5
 70
     1
 10
0.0
 20
0.0
 30
0.0
  3
*D5
  1

  0
LINE
  5
C66F
  8
COTATION1
 62
     0
 10
131.371238
 20
61.182597
 30
0.0
 11
153.371238
 21
61.182597
 31
0.0
1001
ACAD
1000
RTLwPs
1070
   158
  0
LINE
  5
C670
  8
COTATION1
 62
     0
 10
131.371238
 20
45.182597
 30
0.0
 11
153.371238
 21
45.182597
 31
0.0
1001
ACAD
1000
RTLwPs
1070
   158
  0
LINE
  5
C671
  8
COTATION1
 62
     0
 10
150.871238
 20
66.182597
 30
0.0
 11
150.871238
 21
71.182597
 31
0.0
1001
ACAD
1000
RTLwPs
1070
   158
  0
LINE
  5
C672
  8
COTATION1
 62
     0
 10
150.871238
 20
40.182597
 30
0.0
 11
150.871238
 21
35.182597
 31
0.0
1001
ACAD
1000
RTLwPs
1070
   158
  0
TEXT
  5
C673
  8
COTATION1
 62
     0
 10
148.311714
 20
51.932597
 30
0.0
 40
2.5
  1
16
1001
ACAD
1000
MTEXTBEGIN
1070
    73
1070
     1
1070
    44
1040
1.0
1070
    74
1070
     0
1000
MTEXTEND
  0
INSERT
  5
C674
  8
COTATION1
 62
     0
  2
_OPEN30
 10
150.871238
 20
61.182597
 30
0.0
 41
5.0
 42
5.0
 43
5.0
 50
270.0
1001
ACAD
1000
RTLwPs
1070
   158
  0
INSERT
  5
C675
  8
COTATION1
 62
     0
  2
_OPEN30
 10
150.871238
 20
45.182597
 30
0.0
 41
5.0
 42
5.0
 43
5.0
 50
90.0
1001
ACAD
1000
RTLwPs
1070
   158
  0
POINT
  5
C676
  8
DEFPOINTS
 62
     0
 10
129.371238
 20
61.182597
 30
0.0
  0
POINT
  5
C677
  8
DEFPOINTS
 62
     0
 10
129.371238
 20
45.182597
 30
0.0
  0
POINT
  5
C678
  8
DEFPOINTS
 62
     0
 10
150.871238
 20
45.182597
 30
0.0
  0
ENDBLK
  5
C546
  8
0
  0
BLOCK
  8
0
  2
*D6
 70
     1
 10
0.0
 20
0.0
 30
0.0
  3
*D6
  1

  0
LINE
  5
C68C
  8
COTATION1
 62
     0
 10
126.371238
 20
152.182597
 30
0.0
 11
126.371238
 21
167.682597
 31
0.0
1001
ACAD
1000
RTLwPs
1070
   158
  0
LINE
  5
C68D
  8
COTATION1
 62
     0
 10
129.371238
 20
152.182597
 30
0.0
 11
129.371238
 21
167.682597
 31
0.0
1001
ACAD
1000
RTLwPs
1070
   158
  0
LINE
  5
C68E
  8
COTATION1
 62
     0
 10
121.371238
 20
165.182597
 30
0.0
 11
116.371238
 21
165.182597
 31
0.0
1001
ACAD
1000
RTLwPs
1070
   158
  0
LINE
  5
C68F
  8
COTATION1
 62
     0
 10
134.371238
 20
165.182597
 30
0.0
 11
139.371238
 21
165.182597
 31
0.0
1001
ACAD
1000
RTLwPs
1070
   158
  0
TEXT
  5
C690
  8
COTATION1
 62
     0
 10
135.596169
 20
166.689336
 30
0.0
 40
2.5
  1
%%c
1001
ACAD
1000
MTEXTBEGIN
1070
    73
1070
     1
1070
    44
1040
1.0
1070
    74
1070
     0
1000
MTEXTEND
  0
TEXT
  5
C748
  8
COTATION1
 62
     0
 10
137.858074
 20
166.689336
 30
0.0
 40
2.5
  1
3
1001
ACAD
1000
R13OBJECT
1002
{
1005
C690
1002
}
  0
INSERT
  5
C691
  8
COTATION1
 62
     0
  2
_OPEN30
 10
126.371238
 20
165.182597
 30
0.0
 41
5.0
 42
5.0
 43
5.0
1001
ACAD
1000
RTLwPs
1070
   158
  0
INSERT
  5
C692
  8
COTATION1
 62
     0
  2
_OPEN30
 10
129.371238
 20
165.182597
 30
0.0
 41
5.0
 42
5.0
 43
5.0
 50
180.0
1001
ACAD
1000
RTLwPs
1070
   158
  0
POINT
  5
C693
  8
DEFPOINTS
 62
     0
 10
126.371238
 20
150.182597
 30
0.0
  0
POINT
  5
C694
  8
DEFPOINTS
 62
     0
 10
129.371238
 20
150.182597
 30
0.0
  0
POINT
  5
C695
  8
DEFPOINTS
 62
     0
 10
129.371238
 20
165.182597
 30
0.0
  0
ENDBLK
  5
C5C3
  8
0
  0
ENDSEC
  0
SECTION
  2
ENTITIES
  0
INSERT
  5
A
  8
0
  2
COTE
 10
0.0
 20
0.0
 30
0.0
  0
INSERT
  5
17
  8
0
  2
COTE
 10
284.010391
 20
6.373258
 30
0.0
  0
INSERT
  5
72
  8
0
  2
FOND
 10
0.0
 20
0.0
 30
0.0
  0
LINE
  5
C05B
  8
ALPHA
 10
129.371238
 20
61.182597
 30
0.0
 11
129.371238
 21
150.182597
 31
0.0
  0
LINE
  5
C05C
  8
ALPHA
 10
126.371238
 20
61.182597
 30
0.0
 11
126.371238
 21
150.182597
 31
0.0
  0
LINE
  5
C079
  8
ALPHA
 10
115.028878
 20
50.964213
 30
0.0
 11
114.676392
 21
50.854016
 31
0.0
  0
LINE
  5
C07A
  8
ALPHA
 10
115.028881
 20
55.400987
 30
0.0
 11
114.757205
 21
55.65115
 31
0.0
  0
LINE
  5
C07B
  8
ALPHA
 10
114.757205
 20
50.714045
 30
0.0
 11
115.028878
 21
50.964213
 31
0.0
  0
LINE
  5
C07C
  8
ALPHA
 10
114.676392
 20
55.511179
 30
0.0
 11
115.028881
 21
55.400987
 31
0.0
  0
ARC
  5
C07D
  8
ALPHA
 10
114.998555
 20
50.019952
 30
0.0
 40
0.399997
 50
219.236966
 51
302.0
  0
ARC
  5
C07E
  8
ALPHA
 10
114.998555
 20
56.345243
 30
0.0
 40
0.399997
 50
58.0
 51
140.763034
  0
ARC
  5
C07F
  8
ALPHA
 10
114.998555
 20
56.345243
 30
0.0
 40
0.2
 50
58.0
 51
140.763034
  0
ARC
  5
C080
  8
ALPHA
 10
118.871238
 20
53.182597
 30
0.0
 40
8.0
 50
90.0
 51
270.0
  0
ARC
  5
C081
  8
ALPHA
 10
114.998555
 20
50.019952
 30
0.0
 40
0.2
 50
219.236966
 51
302.0
  0
LINE
  5
C082
  8
ALPHA
 10
115.001163
 20
51.131612
 30
0.0
 11
114.370435
 21
50.938779
 31
0.0
  0
LINE
  5
C083
  8
ALPHA
 10
114.677633
 20
50.406697
 30
0.0
 11
115.159995
 21
50.856506
 31
0.0
  0
LINE
  5
C084
  8
ALPHA
 10
115.159995
 20
55.508689
 30
0.0
 11
114.677633
 21
55.958498
 31
0.0
  0
LINE
  5
C085
  8
ALPHA
 10
114.370435
 20
55.426416
 30
0.0
 11
115.001163
 21
55.233583
 31
0.0
  0
ARC
  5
C086
  8
ALPHA
 10
114.814033
 20
50.260426
 30
0.0
 40
0.399997
 50
133.0
 51
215.763034
  0
LINE
  5
C087
  8
ALPHA
 10
114.541234
 20
50.552968
 30
0.0
 11
114.677633
 21
50.406697
 31
0.0
  0
ARC
  5
C088
  8
ALPHA
 10
118.871238
 20
53.182597
 30
0.0
 40
5.399995
 50
215.763034
 51
219.236966
  0
ARC
  5
C089
  8
ALPHA
 10
118.871238
 20
53.182597
 30
0.0
 40
5.2
 50
215.763034
 51
219.236966
  0
ARC
  5
C08A
  8
ALPHA
 10
114.814033
 20
50.260426
 30
0.0
 40
0.2
 50
133.0
 51
215.763034
  0
LINE
  5
C08B
  8
ALPHA
 10
114.489457
 20
50.026652
 30
0.0
 11
114.651745
 21
50.143539
 31
0.0
  0
LINE
  5
C08C
  8
ALPHA
 10
114.688741
 20
49.76694
 30
0.0
 11
114.843648
 21
49.893446
 31
0.0
  0
ARC
  5
C08D
  8
ALPHA
 10
114.814033
 20
56.104769
 30
0.0
 40
0.399997
 50
144.236966
 51
227.0
  0
ARC
  5
C08E
  8
ALPHA
 10
118.871238
 20
53.182597
 30
0.0
 40
5.2
 50
140.763034
 51
144.236966
  0
LINE
  5
C08F
  8
ALPHA
 10
114.489457
 20
56.338543
 30
0.0
 11
114.651745
 21
56.221656
 31
0.0
  0
LINE
  5
C090
  8
ALPHA
 10
114.513088
 20
53.327881
 30
0.0
 11
114.474919
 21
53.345872
 31
0.0
  0
LINE
  5
C091
  8
ALPHA
 10
114.543818
 20
53.29407
 30
0.0
 11
114.513088
 21
53.327881
 31
0.0
  0
LINE
  5
C092
  8
ALPHA
 10
114.564363
 20
53.247461
 30
0.0
 11
114.543818
 21
53.29407
 31
0.0
  0
LINE
  5
C093
  8
ALPHA
 10
114.526634
 20
53.182597
 30
0.0
 11
114.564363
 21
53.247462
 31
0.0
  0
LINE
  5
C094
  8
ALPHA
 10
114.434479
 20
53.182597
 30
0.0
 11
114.526634
 21
53.182597
 31
0.0
  0
LINE
  5
C095
  8
ALPHA
 10
114.074105
 20
53.26341
 30
0.0
 11
114.071511
 21
53.233746
 31
0.0
  0
LINE
  5
C096
  8
ALPHA
 10
114.676392
 20
55.511179
 30
0.0
 11
114.688978
 21
55.538166
 31
0.0
  0
LINE
  5
C097
  8
ALPHA
 10
114.216647
 20
54.346128
 30
0.0
 11
114.221819
 21
54.375453
 31
0.0
  0
LINE
  5
C098
  8
ALPHA
 10
114.074105
 20
53.101785
 30
0.0
 11
114.071511
 21
53.131449
 31
0.0
  0
LINE
  5
C099
  8
ALPHA
 10
114.258479
 20
51.862949
 30
0.0
 11
114.248296
 21
51.890931
 31
0.0
  0
LINE
  5
C09A
  8
ALPHA
 10
114.757205
 20
50.714045
 30
0.0
 11
114.740126
 21
50.738438
 31
0.0
  0
LINE
  5
C09B
  8
ALPHA
 10
114.216647
 20
54.346128
 30
0.0
 11
114.130108
 21
54.178534
 31
0.0
  0
LINE
  5
C09C
  8
ALPHA
 10
114.216647
 20
54.346128
 30
0.0
 11
114.585645
 21
54.330922
 31
0.0
  0
LINE
  5
C09D
  8
ALPHA
 10
114.623986
 20
54.170232
 30
0.0
 11
114.582462
 21
54.162731
 31
0.0
  0
LINE
  5
C09E
  8
ALPHA
 10
114.662421
 20
54.194939
 30
0.0
 11
114.623986
 21
54.170232
 31
0.0
  0
LINE
  5
C09F
  8
ALPHA
 10
114.694327
 20
54.234641
 30
0.0
 11
114.662421
 21
54.194939
 31
0.0
  0
LINE
  5
C0A0
  8
ALPHA
 10
114.567073
 20
53.255852
 30
0.0
 11
114.569385
 21
53.265233
 31
0.0
  0
LINE
  5
C0A1
  8
ALPHA
 10
114.564363
 20
53.247462
 30
0.0
 11
114.567073
 21
53.255852
 31
0.0
  0
LINE
  5
C0A2
  8
ALPHA
 10
114.567048
 20
53.109431
 30
0.0
 11
114.569385
 21
53.099962
 31
0.0
  0
LINE
  5
C0A3
  8
ALPHA
 10
114.564363
 20
53.117731
 30
0.0
 11
114.567048
 21
53.109431
 31
0.0
  0
LINE
  5
C0A4
  8
ALPHA
 10
114.526634
 20
53.182597
 30
0.0
 11
114.564363
 21
53.117731
 31
0.0
  0
LINE
  5
C0A5
  8
ALPHA
 10
114.585643
 20
52.034279
 30
0.0
 11
114.216647
 21
52.019067
 31
0.0
  0
LINE
  5
C0A6
  8
ALPHA
 10
114.216647
 20
52.019067
 30
0.0
 11
114.130108
 21
52.186661
 31
0.0
  0
LINE
  5
C0A7
  8
ALPHA
 10
114.623986
 20
52.194958
 30
0.0
 11
114.582462
 21
52.202458
 31
0.0
  0
LINE
  5
C0A8
  8
ALPHA
 10
114.66242
 20
52.170253
 30
0.0
 11
114.623986
 21
52.194958
 31
0.0
  0
LINE
  5
C0A9
  8
ALPHA
 10
114.694328
 20
52.130549
 30
0.0
 11
114.66242
 21
52.170253
 31
0.0
  0
LINE
  5
C0AA
  8
ALPHA
 10
114.687879
 20
52.096976
 30
0.0
 11
114.694328
 21
52.130551
 31
0.0
  0
LINE
  5
C0AB
  8
ALPHA
 10
114.674673
 20
52.058131
 30
0.0
 11
114.687879
 21
52.096976
 31
0.0
  0
LINE
  5
C0AC
  8
ALPHA
 10
114.585658
 20
52.03428
 30
0.0
 11
114.674673
 21
52.058131
 31
0.0
  0
LINE
  5
C0AD
  8
ALPHA
 10
114.216647
 20
52.019067
 30
0.0
 11
114.221819
 21
51.989742
 31
0.0
  0
LINE
  5
C0AE
  8
ALPHA
 10
114.074105
 20
53.101785
 30
0.0
 11
114.033891
 21
52.917503
 31
0.0
  0
LINE
  5
C0AF
  8
ALPHA
 10
114.074105
 20
53.101785
 30
0.0
 11
114.434465
 21
53.182601
 31
0.0
  0
LINE
  5
C0B0
  8
ALPHA
 10
114.513089
 20
53.03731
 30
0.0
 11
114.474921
 21
53.019317
 31
0.0
  0
LINE
  5
C0B1
  8
ALPHA
 10
114.54382
 20
53.071122
 30
0.0
 11
114.513089
 21
53.03731
 31
0.0
  0
LINE
  5
C0B2
  8
ALPHA
 10
114.564363
 20
53.11773
 30
0.0
 11
114.54382
 21
53.071122
 31
0.0
  0
LINE
  5
C0B3
  8
ALPHA
 10
114.694774
 20
52.139356
 30
0.0
 11
114.694579
 21
52.149016
 31
0.0
  0
LINE
  5
C0B4
  8
ALPHA
 10
114.694328
 20
52.130551
 30
0.0
 11
114.694774
 21
52.139356
 31
0.0
  0
LINE
  5
C0B5
  8
ALPHA
 10
114.732646
 20
51.997918
 30
0.0
 11
114.737355
 21
51.989376
 31
0.0
  0
LINE
  5
C0B6
  8
ALPHA
 10
114.727905
 20
52.00524
 30
0.0
 11
114.732646
 21
51.997918
 31
0.0
  0
LINE
  5
C0B7
  8
ALPHA
 10
114.674673
 20
52.058131
 30
0.0
 11
114.727905
 21
52.00524
 31
0.0
  0
LINE
  5
C0B8
  8
ALPHA
 10
114.676392
 20
50.854016
 30
0.0
 11
114.549425
 21
50.993502
 31
0.0
  0
LINE
  5
C0B9
  8
ALPHA
 10
114.676392
 20
50.854016
 30
0.0
 11
114.688978
 21
50.827029
 31
0.0
  0
LINE
  5
C0BA
  8
ALPHA
 10
114.258479
 20
51.862949
 30
0.0
 11
114.267331
 21
51.674538
 31
0.0
  0
LINE
  5
C0BB
  8
ALPHA
 10
114.258479
 20
51.862949
 30
0.0
 11
114.585643
 21
52.034279
 31
0.0
  0
LINE
  5
C0BC
  8
ALPHA
 10
114.699193
 20
51.914288
 30
0.0
 11
114.666982
 21
51.88703
 31
0.0
  0
LINE
  5
C0BD
  8
ALPHA
 10
114.720125
 20
51.954902
 30
0.0
 11
114.699193
 21
51.914288
 31
0.0
  0
LINE
  5
C0BE
  8
ALPHA
 10
114.727905
 20
52.005239
 30
0.0
 11
114.720125
 21
51.954902
 31
0.0
  0
LINE
  5
C0BF
  8
ALPHA
 10
114.757205
 20
55.65115
 30
0.0
 11
114.814519
 21
55.83085
 31
0.0
  0
LINE
  5
C0C0
  8
ALPHA
 10
114.757205
 20
55.65115
 30
0.0
 11
114.740126
 21
55.626757
 31
0.0
  0
LINE
  5
C0C1
  8
ALPHA
 10
114.757205
 20
50.714045
 30
0.0
 11
114.814519
 21
50.534345
 31
0.0
  0
LINE
  5
C0C2
  8
ALPHA
 10
114.585645
 20
54.330922
 30
0.0
 11
114.258479
 21
54.502246
 31
0.0
  0
LINE
  5
C0C3
  8
ALPHA
 10
114.258479
 20
54.502246
 30
0.0
 11
114.267331
 21
54.690657
 31
0.0
  0
LINE
  5
C0C4
  8
ALPHA
 10
114.69919
 20
54.450903
 30
0.0
 11
114.666979
 21
54.47816
 31
0.0
  0
LINE
  5
C0C5
  8
ALPHA
 10
114.720122
 20
54.41029
 30
0.0
 11
114.69919
 21
54.450903
 31
0.0
  0
LINE
  5
C0C6
  8
ALPHA
 10
114.727904
 20
54.359952
 30
0.0
 11
114.720122
 21
54.41029
 31
0.0
  0
LINE
  5
C0C7
  8
ALPHA
 10
114.674673
 20
54.307064
 30
0.0
 11
114.727904
 21
54.359954
 31
0.0
  0
LINE
  5
C0C8
  8
ALPHA
 10
114.585658
 20
54.330915
 30
0.0
 11
114.674673
 21
54.307064
 31
0.0
  0
LINE
  5
C0C9
  8
ALPHA
 10
114.258479
 20
54.502246
 30
0.0
 11
114.248296
 21
54.474264
 31
0.0
  0
LINE
  5
C0CA
  8
ALPHA
 10
114.676392
 20
55.511179
 30
0.0
 11
114.549425
 21
55.371693
 31
0.0
  0
LINE
  5
C0CB
  8
ALPHA
 10
114.732693
 20
54.367356
 30
0.0
 11
114.737355
 21
54.375819
 31
0.0
  0
LINE
  5
C0CC
  8
ALPHA
 10
114.727904
 20
54.359954
 30
0.0
 11
114.732693
 21
54.367356
 31
0.0
  0
LINE
  5
C0CD
  8
ALPHA
 10
114.694773
 20
54.225931
 30
0.0
 11
114.694579
 21
54.216179
 31
0.0
  0
LINE
  5
C0CE
  8
ALPHA
 10
114.694328
 20
54.234643
 30
0.0
 11
114.694773
 21
54.225931
 31
0.0
  0
LINE
  5
C0CF
  8
ALPHA
 10
114.687936
 20
54.268005
 30
0.0
 11
114.694328
 21
54.234643
 31
0.0
  0
LINE
  5
C0D0
  8
ALPHA
 10
114.674673
 20
54.307064
 30
0.0
 11
114.687936
 21
54.268005
 31
0.0
  0
LINE
  5
C0D1
  8
ALPHA
 10
114.434465
 20
53.182601
 30
0.0
 11
114.074105
 21
53.26341
 31
0.0
  0
LINE
  5
C0D2
  8
ALPHA
 10
114.074105
 20
53.26341
 30
0.0
 11
114.033891
 21
53.447692
 31
0.0
  0
ARC
  5
C0D3
  8
ALPHA
 10
113.89651
 20
53.684669
 30
0.0
 40
0.399997
 50
174.236966
 51
257.0
  0
ARC
  5
C0D4
  8
ALPHA
 10
118.871238
 20
53.182597
 30
0.0
 40
5.399994
 50
170.763034
 51
174.236966
  0
ARC
  5
C0D5
  8
ALPHA
 10
113.936074
 20
53.985188
 30
0.0
 40
0.399997
 50
88.0
 51
170.763034
  0
ARC
  5
C0D6
  8
ALPHA
 10
118.871238
 20
53.182597
 30
0.0
 40
4.8
 50
149.389452
 51
150.610548
  0
ARC
  5
C0D7
  8
ALPHA
 10
118.871238
 20
53.182597
 30
0.0
 40
4.8
 50
164.389452
 51
165.610548
  0
ARC
  5
C0D8
  8
ALPHA
 10
118.871238
 20
53.182597
 30
0.0
 40
4.8
 50
179.389452
 51
180.610548
  0
ARC
  5
C0D9
  8
ALPHA
 10
118.871238
 20
53.182597
 30
0.0
 40
4.8
 50
194.389452
 51
195.610548
  0
ARC
  5
C0DA
  8
ALPHA
 10
118.871238
 20
53.182597
 30
0.0
 40
4.8
 50
209.389452
 51
210.610548
  0
ARC
  5
C0DB
  8
ALPHA
 10
113.936074
 20
52.380007
 30
0.0
 40
0.399997
 50
189.236966
 51
272.0
  0
ARC
  5
C0DC
  8
ALPHA
 10
118.871238
 20
53.182597
 30
0.0
 40
5.399993
 50
185.763034
 51
189.236966
  0
ARC
  5
C0DD
  8
ALPHA
 10
113.89651
 20
52.680525
 30
0.0
 40
0.399997
 50
103.0
 51
185.763034
  0
ARC
  5
C0DE
  8
ALPHA
 10
114.311961
 20
51.13004
 30
0.0
 40
0.399997
 50
204.236966
 51
287.0
  0
ARC
  5
C0DF
  8
ALPHA
 10
118.871238
 20
53.182597
 30
0.0
 40
5.4
 50
200.763034
 51
204.236966
  0
ARC
  5
C0E0
  8
ALPHA
 10
114.195965
 20
51.410079
 30
0.0
 40
0.399997
 50
118.0
 51
200.763034
  0
ARC
  5
C0E1
  8
ALPHA
 10
114.195965
 20
54.955116
 30
0.0
 40
0.399997
 50
159.236966
 51
242.0
  0
ARC
  5
C0E2
  8
ALPHA
 10
118.871238
 20
53.182597
 30
0.0
 40
5.4
 50
155.763034
 51
159.236966
  0
ARC
  5
C0E3
  8
ALPHA
 10
114.311961
 20
55.235155
 30
0.0
 40
0.399997
 50
73.0
 51
155.763034
  0
ARC
  5
C0E4
  8
ALPHA
 10
114.814033
 20
56.104769
 30
0.0
 40
0.2
 50
144.236966
 51
227.0
  0
ARC
  5
C0E5
  8
ALPHA
 10
114.195965
 20
54.955116
 30
0.0
 40
0.2
 50
159.236966
 51
242.0
  0
ARC
  5
C0E6
  8
ALPHA
 10
118.871238
 20
53.182597
 30
0.0
 40
5.2
 50
155.763034
 51
159.236966
  0
ARC
  5
C0E7
  8
ALPHA
 10
114.311961
 20
55.235155
 30
0.0
 40
0.2
 50
73.0
 51
155.763034
  0
ARC
  5
C0E8
  8
ALPHA
 10
114.637469
 20
54.380594
 30
0.0
 40
0.1
 50
344.200498
 51
62.0
  0
ARC
  5
C0E9
  8
ALPHA
 10
118.871238
 20
53.182597
 30
0.0
 40
4.3
 50
164.200498
 51
165.799502
  0
ARC
  5
C0EA
  8
ALPHA
 10
114.605688
 20
54.261987
 30
0.0
 40
0.1
 50
268.0
 51
345.799502
  0
ARC
  5
C0EB
  8
ALPHA
 10
113.89651
 20
53.684669
 30
0.0
 40
0.2
 50
174.236966
 51
257.0
  0
ARC
  5
C0EC
  8
ALPHA
 10
118.871238
 20
53.182597
 30
0.0
 40
5.2
 50
170.763034
 51
174.236966
  0
ARC
  5
C0ED
  8
ALPHA
 10
113.936074
 20
53.985188
 30
0.0
 40
0.2
 50
88.0
 51
170.763034
  0
ARC
  5
C0EE
  8
ALPHA
 10
114.471667
 20
53.243993
 30
0.0
 40
0.1
 50
359.200498
 51
77.0
  0
ARC
  5
C0EF
  8
ALPHA
 10
118.871238
 20
53.182597
 30
0.0
 40
4.3
 50
179.200498
 51
180.799502
  0
ARC
  5
C0F0
  8
ALPHA
 10
114.471667
 20
53.121202
 30
0.0
 40
0.1
 50
283.0
 51
0.799502
  0
ARC
  5
C0F1
  8
ALPHA
 10
113.936074
 20
52.380007
 30
0.0
 40
0.2
 50
189.236966
 51
272.0
  0
ARC
  5
C0F2
  8
ALPHA
 10
118.871238
 20
53.182597
 30
0.0
 40
5.2
 50
185.763034
 51
189.236966
  0
ARC
  5
C0F3
  8
ALPHA
 10
113.89651
 20
52.680525
 30
0.0
 40
0.2
 50
103.0
 51
185.763034
  0
ARC
  5
C0F4
  8
ALPHA
 10
114.605688
 20
52.103208
 30
0.0
 40
0.1
 50
14.200498
 51
92.0
  0
ARC
  5
C0F5
  8
ALPHA
 10
114.637469
 20
51.984601
 30
0.0
 40
0.1
 50
298.0
 51
15.799502
  0
ARC
  5
C0F6
  8
ALPHA
 10
118.871238
 20
53.182597
 30
0.0
 40
4.3
 50
194.200498
 51
195.799502
  0
ARC
  5
C0F7
  8
ALPHA
 10
114.311961
 20
51.13004
 30
0.0
 40
0.2
 50
204.236966
 51
287.0
  0
ARC
  5
C0F8
  8
ALPHA
 10
118.871238
 20
53.182597
 30
0.0
 40
5.2
 50
200.763034
 51
204.236966
  0
ARC
  5
C0F9
  8
ALPHA
 10
114.195965
 20
51.410079
 30
0.0
 40
0.2
 50
118.0
 51
200.763034
  0
LINE
  5
C0FA
  8
ALPHA
 10
114.688978
 20
50.827029
 30
0.0
 11
114.42891
 21
50.747518
 31
0.0
  0
LINE
  5
C0FB
  8
ALPHA
 10
113.821943
 20
51.268277
 30
0.0
 11
114.008954
 21
51.339178
 31
0.0
  0
LINE
  5
C0FC
  8
ALPHA
 10
113.947219
 20
50.965836
 30
0.0
 11
114.12959
 21
51.047938
 31
0.0
  0
LINE
  5
C0FD
  8
ALPHA
 10
114.102071
 20
51.586668
 30
0.0
 11
114.684416
 21
51.896306
 31
0.0
  0
LINE
  5
C0FE
  8
ALPHA
 10
114.008177
 20
51.763258
 30
0.0
 11
114.248296
 21
51.890931
 31
0.0
  0
LINE
  5
C0FF
  8
ALPHA
 10
114.541234
 20
50.552968
 30
0.0
 11
114.740126
 21
50.738438
 31
0.0
  0
LINE
  5
C100
  8
ALPHA
 10
114.541234
 20
55.812227
 30
0.0
 11
114.677633
 21
55.958498
 31
0.0
  0
LINE
  5
C101
  8
ALPHA
 10
114.008177
 20
54.601937
 30
0.0
 11
114.102071
 21
54.778527
 31
0.0
  0
LINE
  5
C102
  8
ALPHA
 10
114.42891
 20
55.617676
 30
0.0
 11
114.370435
 21
55.426416
 31
0.0
  0
LINE
  5
C103
  8
ALPHA
 10
113.806529
 20
53.294921
 30
0.0
 11
113.851519
 21
53.489795
 31
0.0
  0
LINE
  5
C104
  8
ALPHA
 10
113.950033
 20
54.384944
 30
0.0
 11
113.943054
 21
54.185066
 31
0.0
  0
LINE
  5
C105
  8
ALPHA
 10
113.950033
 20
51.980251
 30
0.0
 11
113.943054
 21
52.180129
 31
0.0
  0
LINE
  5
C106
  8
ALPHA
 10
113.806529
 20
53.070273
 30
0.0
 11
113.851519
 21
52.875399
 31
0.0
  0
LINE
  5
C107
  8
ALPHA
 10
114.42891
 20
50.747518
 30
0.0
 11
114.370435
 21
50.938779
 31
0.0
  0
LINE
  5
C108
  8
ALPHA
 10
114.008177
 20
51.763258
 30
0.0
 11
114.102071
 21
51.586668
 31
0.0
  0
LINE
  5
C109
  8
ALPHA
 10
114.740126
 20
55.626757
 30
0.0
 11
114.541234
 21
55.812227
 31
0.0
  0
LINE
  5
C10A
  8
ALPHA
 10
114.684416
 20
54.468888
 30
0.0
 11
114.102071
 21
54.778527
 31
0.0
  0
LINE
  5
C10B
  8
ALPHA
 10
114.248296
 20
54.474264
 30
0.0
 11
114.008177
 21
54.601937
 31
0.0
  0
LINE
  5
C10C
  8
ALPHA
 10
113.947219
 20
55.399359
 30
0.0
 11
114.12959
 21
55.317257
 31
0.0
  0
LINE
  5
C10D
  8
ALPHA
 10
113.821943
 20
55.096918
 30
0.0
 11
114.008954
 21
55.026017
 31
0.0
  0
LINE
  5
C10E
  8
ALPHA
 10
114.42891
 20
55.617676
 30
0.0
 11
114.688978
 21
55.538166
 31
0.0
  0
LINE
  5
C10F
  8
ALPHA
 10
113.806529
 20
53.070273
 30
0.0
 11
114.071511
 21
53.131449
 31
0.0
  0
LINE
  5
C110
  8
ALPHA
 10
113.851519
 20
52.875399
 30
0.0
 11
114.494162
 21
53.023765
 31
0.0
  0
LINE
  5
C111
  8
ALPHA
 10
114.494162
 20
53.34143
 30
0.0
 11
113.851519
 21
53.489795
 31
0.0
  0
LINE
  5
C112
  8
ALPHA
 10
114.071511
 20
53.233746
 30
0.0
 11
113.806529
 21
53.294921
 31
0.0
  0
LINE
  5
C113
  8
ALPHA
 10
113.541261
 20
54.049395
 30
0.0
 11
113.738667
 21
54.017291
 31
0.0
  0
LINE
  5
C114
  8
ALPHA
 10
113.498531
 20
53.724835
 30
0.0
 11
113.697521
 21
53.704752
 31
0.0
  0
LINE
  5
C115
  8
ALPHA
 10
113.950033
 20
54.384944
 30
0.0
 11
114.221819
 21
54.375453
 31
0.0
  0
LINE
  5
C116
  8
ALPHA
 10
113.943054
 20
54.185066
 30
0.0
 11
114.602198
 21
54.162048
 31
0.0
  0
LINE
  5
C117
  8
ALPHA
 10
114.602198
 20
52.203147
 30
0.0
 11
113.943054
 21
52.180129
 31
0.0
  0
LINE
  5
C118
  8
ALPHA
 10
114.221819
 20
51.989742
 30
0.0
 11
113.950033
 21
51.980251
 31
0.0
  0
LINE
  5
C119
  8
ALPHA
 10
113.498531
 20
52.64036
 30
0.0
 11
113.697521
 21
52.660443
 31
0.0
  0
LINE
  5
C11A
  8
ALPHA
 10
113.541261
 20
52.3158
 30
0.0
 11
113.738667
 21
52.347904
 31
0.0
  0
ARC
  5
C11B
  8
ALPHA
 10
118.871238
 20
53.182597
 30
0.0
 40
5.399993
 50
140.763034
 51
144.236966
  0
LINE
  5
C11C
  8
ALPHA
 10
114.688741
 20
56.598255
 30
0.0
 11
114.843648
 21
56.471749
 31
0.0
  0
LINE
  5
C11D
  8
ALPHA
 10
129.371238
 20
25.182597
 30
0.0
 11
129.371238
 21
45.182597
 31
0.0
  0
LINE
  5
C11E
  8
ALPHA
 10
126.371238
 20
25.182597
 30
0.0
 11
126.371238
 21
45.182597
 31
0.0
  0
LINE
  5
C11F
  8
ALPHA
 10
126.371238
 20
25.182597
 30
0.0
 11
129.371238
 21
25.182597
 31
0.0
  0
LINE
  5
C120
  8
ALPHA
 10
123.066084
 20
55.511179
 30
0.0
 11
123.193051
 21
55.371693
 31
0.0
  0
LINE
  5
C121
  8
ALPHA
 10
123.156818
 20
54.330915
 30
0.0
 11
123.067804
 21
54.307064
 31
0.0
  0
LINE
  5
C122
  8
ALPHA
 10
123.118491
 20
54.170237
 30
0.0
 11
123.160015
 21
54.162737
 31
0.0
  0
LINE
  5
C123
  8
ALPHA
 10
123.11849
 20
52.194963
 30
0.0
 11
123.160015
 21
52.202464
 31
0.0
  0
LINE
  5
C124
  8
ALPHA
 10
123.066084
 20
50.854016
 30
0.0
 11
123.193051
 21
50.993502
 31
0.0
  0
LINE
  5
C125
  8
ALPHA
 10
123.156818
 20
52.03428
 30
0.0
 11
123.067804
 21
52.058131
 31
0.0
  0
ARC
  5
C126
  8
ALPHA
 10
118.871238
 20
53.182597
 30
0.0
 40
5.399993
 50
35.763034
 51
39.236966
  0
ARC
  5
C127
  8
ALPHA
 10
118.871238
 20
53.182597
 30
0.0
 40
5.399995
 50
320.763034
 51
324.236966
  0
ARC
  5
C128
  8
ALPHA
 10
123.27081
 20
53.243993
 30
0.0
 40
0.1
 50
103.0
 51
180.799502
  0
ARC
  5
C129
  8
ALPHA
 10
123.27081
 20
53.121202
 30
0.0
 40
0.1
 50
179.200498
 51
257.0
  0
LINE
  5
C12A
  8
ALPHA
 10
122.741314
 20
55.233583
 30
0.0
 11
123.372041
 21
55.426416
 31
0.0
  0
LINE
  5
C12B
  8
ALPHA
 10
123.053498
 20
55.538166
 30
0.0
 11
123.313567
 21
55.617676
 31
0.0
  0
LINE
  5
C12C
  8
ALPHA
 10
123.640405
 20
54.778527
 30
0.0
 11
123.058061
 21
54.468888
 31
0.0
  0
LINE
  5
C12D
  8
ALPHA
 10
123.25302
 20
56.338543
 30
0.0
 11
123.090732
 21
56.221656
 31
0.0
  0
LINE
  5
C12E
  8
ALPHA
 10
123.201243
 20
55.812227
 30
0.0
 11
123.00235
 21
55.626757
 31
0.0
  0
LINE
  5
C12F
  8
ALPHA
 10
123.201243
 20
50.552968
 30
0.0
 11
123.064843
 21
50.406697
 31
0.0
  0
LINE
  5
C130
  8
ALPHA
 10
123.201243
 20
55.812227
 30
0.0
 11
123.064843
 21
55.958498
 31
0.0
  0
LINE
  5
C131
  8
ALPHA
 10
123.00235
 20
50.738438
 30
0.0
 11
123.201243
 21
50.552968
 31
0.0
  0
LINE
  5
C132
  8
ALPHA
 10
123.25302
 20
50.026652
 30
0.0
 11
123.090732
 21
50.143539
 31
0.0
  0
LINE
  5
C133
  8
ALPHA
 10
118.871238
 20
61.182597
 30
0.0
 11
129.371238
 21
61.182597
 31
0.0
  0
LINE
  5
C134
  8
ALPHA
 10
123.058061
 20
51.896306
 30
0.0
 11
123.640405
 21
51.586668
 31
0.0
  0
LINE
  5
C135
  8
ALPHA
 10
123.372041
 20
50.938779
 30
0.0
 11
122.741314
 21
51.131612
 31
0.0
  0
LINE
  5
C136
  8
ALPHA
 10
123.313567
 20
50.747518
 30
0.0
 11
123.053498
 21
50.827029
 31
0.0
  0
LINE
  5
C137
  8
ALPHA
 10
123.799423
 20
52.180129
 30
0.0
 11
123.140278
 21
52.203147
 31
0.0
  0
LINE
  5
C138
  8
ALPHA
 10
123.140278
 20
54.162048
 30
0.0
 11
123.799423
 21
54.185066
 31
0.0
  0
LINE
  5
C139
  8
ALPHA
 10
118.871238
 20
45.182597
 30
0.0
 11
129.371238
 21
45.182597
 31
0.0
  0
LINE
  5
C13A
  8
ALPHA
 10
122.582482
 20
50.856506
 30
0.0
 11
123.064843
 21
50.406697
 31
0.0
  0
LINE
  5
C13B
  8
ALPHA
 10
118.952051
 20
48.385464
 30
0.0
 11
119.136333
 21
48.34525
 31
0.0
  0
ARC
  5
C13C
  8
ALPHA
 10
119.37331
 20
48.207869
 30
0.0
 40
0.399997
 50
193.0
 51
275.763034
  0
LINE
  5
C13D
  8
ALPHA
 10
119.178436
 20
48.162879
 30
0.0
 11
119.030071
 21
48.805521
 31
0.0
  0
LINE
  5
C13E
  8
ALPHA
 10
118.983562
 20
48.117889
 30
0.0
 11
119.178436
 21
48.162879
 31
0.0
  0
ARC
  5
C13F
  8
ALPHA
 10
117.098719
 20
48.507325
 30
0.0
 40
0.399997
 50
249.236966
 51
332.0
  0
ARC
  5
C140
  8
ALPHA
 10
118.871238
 20
53.182597
 30
0.0
 40
5.2
 50
245.763034
 51
249.236966
  0
LINE
  5
C141
  8
ALPHA
 10
116.956918
 20
48.133303
 30
0.0
 11
117.027819
 21
48.320314
 31
0.0
  0
LINE
  5
C142
  8
ALPHA
 10
116.566343
 20
49.48097
 30
0.0
 11
116.531679
 21
49.456911
 31
0.0
  0
LINE
  5
C143
  8
ALPHA
 10
116.61099
 20
49.490678
 30
0.0
 11
116.566343
 21
49.48097
 31
0.0
  0
LINE
  5
C144
  8
ALPHA
 10
116.647824
 20
49.488115
 30
0.0
 11
116.61099
 21
49.490678
 31
0.0
  0
LINE
  5
C145
  8
ALPHA
 10
116.661627
 20
49.485165
 30
0.0
 11
116.647824
 21
49.488115
 31
0.0
  0
LINE
  5
C146
  8
ALPHA
 10
116.698936
 20
49.42006
 30
0.0
 11
116.661626
 21
49.485166
 31
0.0
  0
LINE
  5
C147
  8
ALPHA
 10
116.652859
 20
49.340251
 30
0.0
 11
116.698936
 21
49.42006
 31
0.0
  0
LINE
  5
C148
  8
ALPHA
 10
115.536295
 20
49.733369
 30
0.0
 11
115.513486
 21
49.75251
 31
0.0
  0
LINE
  5
C149
  8
ALPHA
 10
116.542657
 20
48.987752
 30
0.0
 11
116.51567
 21
49.000337
 31
0.0
  0
LINE
  5
C14A
  8
ALPHA
 10
116.402686
 20
49.068564
 30
0.0
 11
116.427079
 21
49.051486
 31
0.0
  0
LINE
  5
C14B
  8
ALPHA
 10
115.536295
 20
49.733369
 30
0.0
 11
115.638167
 21
49.574626
 31
0.0
  0
LINE
  5
C14C
  8
ALPHA
 10
115.536295
 20
49.733369
 30
0.0
 11
115.733963
 21
50.045327
 31
0.0
  0
LINE
  5
C14D
  8
ALPHA
 10
115.890116
 20
50.043826
 30
0.0
 11
115.878029
 21
49.958475
 31
0.0
  0
LINE
  5
C14E
  8
ALPHA
 10
115.878106
 20
50.078742
 30
0.0
 11
115.890116
 21
50.043826
 31
0.0
  0
LINE
  5
C14F
  8
ALPHA
 10
115.871686
 20
50.091308
 30
0.0
 11
115.878106
 21
50.078742
 31
0.0
  0
LINE
  5
C150
  8
ALPHA
 10
116.655715
 20
49.491708
 30
0.0
 11
116.648747
 21
49.498401
 31
0.0
  0
LINE
  5
C151
  8
ALPHA
 10
116.661626
 20
49.485166
 30
0.0
 11
116.655715
 21
49.491708
 31
0.0
  0
LINE
  5
C152
  8
ALPHA
 10
116.782507
 20
49.418476
 30
0.0
 11
116.791876
 21
49.415765
 31
0.0
  0
LINE
  5
C153
  8
ALPHA
 10
116.773977
 20
49.420301
 30
0.0
 11
116.782507
 21
49.418476
 31
0.0
  0
LINE
  5
C154
  8
ALPHA
 10
116.740097
 20
49.422762
 30
0.0
 11
116.773977
 21
49.420301
 31
0.0
  0
LINE
  5
C155
  8
ALPHA
 10
116.698936
 20
49.42006
 30
0.0
 11
116.740097
 21
49.422762
 31
0.0
  0
LINE
  5
C156
  8
ALPHA
 10
115.733963
 20
50.045327
 30
0.0
 11
115.422009
 21
49.847655
 31
0.0
  0
LINE
  5
C157
  8
ALPHA
 10
115.422009
 20
49.847655
 30
0.0
 11
115.263267
 21
49.949526
 31
0.0
  0
LINE
  5
C158
  8
ALPHA
 10
115.732467
 20
50.201472
 30
0.0
 11
115.647119
 21
50.189383
 31
0.0
  0
LINE
  5
C159
  8
ALPHA
 10
115.767382
 20
50.189463
 30
0.0
 11
115.732467
 21
50.201472
 31
0.0
  0
LINE
  5
C15A
  8
ALPHA
 10
115.779952
 20
50.183042
 30
0.0
 11
115.767382
 21
50.189463
 31
0.0
  0
LINE
  5
C15B
  8
ALPHA
 10
115.791154
 20
50.150742
 30
0.0
 11
115.779951
 21
50.183043
 31
0.0
  0
LINE
  5
C15C
  8
ALPHA
 10
115.799139
 20
50.110498
 30
0.0
 11
115.791154
 21
50.150742
 31
0.0
  0
LINE
  5
C15D
  8
ALPHA
 10
115.733976
 20
50.045335
 30
0.0
 11
115.799139
 21
50.110498
 31
0.0
  0
LINE
  5
C15E
  8
ALPHA
 10
115.422009
 20
49.847655
 30
0.0
 11
115.441151
 21
49.824845
 31
0.0
  0
LINE
  5
C15F
  8
ALPHA
 10
116.542657
 20
48.987752
 30
0.0
 11
116.682143
 21
48.860784
 31
0.0
  0
LINE
  5
C160
  8
ALPHA
 10
116.542657
 20
48.987752
 30
0.0
 11
116.652849
 21
49.34024
 31
0.0
  0
LINE
  5
C161
  8
ALPHA
 10
116.817987
 20
49.335686
 30
0.0
 11
116.814485
 21
49.293635
 31
0.0
  0
LINE
  5
C162
  8
ALPHA
 10
116.804069
 20
49.379205
 30
0.0
 11
116.817987
 21
49.335686
 31
0.0
  0
LINE
  5
C163
  8
ALPHA
 10
116.783432
 20
49.409824
 30
0.0
 11
116.804069
 21
49.379205
 31
0.0
  0
LINE
  5
C164
  8
ALPHA
 10
116.773978
 20
49.4203
 30
0.0
 11
116.783432
 21
49.409824
 31
0.0
  0
LINE
  5
C165
  8
ALPHA
 10
115.775935
 20
50.190891
 30
0.0
 11
115.770936
 21
50.19916
 31
0.0
  0
LINE
  5
C166
  8
ALPHA
 10
115.779951
 20
50.183043
 30
0.0
 11
115.775935
 21
50.190891
 31
0.0
  0
LINE
  5
C167
  8
ALPHA
 10
115.879452
 20
50.087339
 30
0.0
 11
115.887801
 21
50.082295
 31
0.0
  0
LINE
  5
C168
  8
ALPHA
 10
115.871685
 20
50.091309
 30
0.0
 11
115.879452
 21
50.087339
 31
0.0
  0
LINE
  5
C169
  8
ALPHA
 10
115.839597
 20
50.102456
 30
0.0
 11
115.871685
 21
50.091309
 31
0.0
  0
LINE
  5
C16A
  8
ALPHA
 10
115.799139
 20
50.110498
 30
0.0
 11
115.839597
 21
50.102456
 31
0.0
  0
LINE
  5
C16B
  8
ALPHA
 10
116.652849
 20
49.34024
 30
0.0
 11
116.402686
 21
49.068564
 31
0.0
  0
LINE
  5
C16C
  8
ALPHA
 10
116.402686
 20
49.068564
 30
0.0
 11
116.222986
 21
49.125879
 31
0.0
  0
ARC
  5
C16D
  8
ALPHA
 10
118.871238
 20
53.182597
 30
0.0
 40
4.8
 50
224.389452
 51
225.610548
  0
ARC
  5
C16E
  8
ALPHA
 10
118.871238
 20
53.182597
 30
0.0
 40
4.8
 50
239.389452
 51
240.610548
  0
ARC
  5
C16F
  8
ALPHA
 10
115.949067
 20
49.125392
 30
0.0
 40
0.399997
 50
234.236966
 51
317.0
  0
ARC
  5
C170
  8
ALPHA
 10
118.871238
 20
53.182597
 30
0.0
 40
5.399993
 50
230.763034
 51
234.236966
  0
ARC
  5
C171
  8
ALPHA
 10
115.708592
 20
49.309915
 30
0.0
 40
0.399997
 50
148.0
 51
230.763034
  0
ARC
  5
C172
  8
ALPHA
 10
118.871238
 20
53.182597
 30
0.0
 40
5.400001
 50
245.763034
 51
249.236966
  0
ARC
  5
C173
  8
ALPHA
 10
116.818681
 20
48.62332
 30
0.0
 40
0.399997
 50
163.0
 51
245.763034
  0
ARC
  5
C174
  8
ALPHA
 10
116.618282
 20
49.403154
 30
0.0
 40
0.1
 50
59.200498
 51
137.0
  0
ARC
  5
C175
  8
ALPHA
 10
116.724622
 20
49.341759
 30
0.0
 40
0.1
 50
343.0
 51
60.799502
  0
ARC
  5
C176
  8
ALPHA
 10
115.716858
 20
50.115044
 30
0.0
 40
0.1
 50
44.200498
 51
122.0
  0
ARC
  5
C177
  8
ALPHA
 10
115.803684
 20
50.028217
 30
0.0
 40
0.1
 50
328.0
 51
45.799502
  0
ARC
  5
C178
  8
ALPHA
 10
118.871238
 20
53.182597
 30
0.0
 40
4.3
 50
224.200498
 51
225.799502
  0
ARC
  5
C179
  8
ALPHA
 10
115.949067
 20
49.125392
 30
0.0
 40
0.2
 50
234.236966
 51
317.0
  0
ARC
  5
C17A
  8
ALPHA
 10
118.871238
 20
53.182597
 30
0.0
 40
5.2
 50
230.763034
 51
234.236966
  0
ARC
  5
C17B
  8
ALPHA
 10
115.708592
 20
49.309915
 30
0.0
 40
0.2
 50
148.0
 51
230.763034
  0
ARC
  5
C17C
  8
ALPHA
 10
118.871238
 20
53.182597
 30
0.0
 40
4.3
 50
239.200498
 51
240.799502
  0
ARC
  5
C17D
  8
ALPHA
 10
116.818681
 20
48.62332
 30
0.0
 40
0.2
 50
163.0
 51
245.763034
  0
LINE
  5
C17E
  8
ALPHA
 10
115.441151
 20
49.824845
 30
0.0
 11
115.210523
 21
49.680732
 31
0.0
  0
LINE
  5
C17F
  8
ALPHA
 10
115.663866
 20
50.199848
 30
0.0
 11
115.104539
 21
49.850342
 31
0.0
  0
LINE
  5
C180
  8
ALPHA
 10
116.427079
 20
49.051486
 30
0.0
 11
116.241608
 21
48.852593
 31
0.0
  0
LINE
  5
C181
  8
ALPHA
 10
116.545147
 20
49.471354
 30
0.0
 11
116.095338
 21
48.988993
 31
0.0
  0
LINE
  5
C182
  8
ALPHA
 10
115.455581
 20
49.0001
 30
0.0
 11
115.582087
 21
49.155007
 31
0.0
  0
LINE
  5
C183
  8
ALPHA
 10
115.715293
 20
48.800816
 30
0.0
 11
115.83218
 21
48.963104
 31
0.0
  0
LINE
  5
C184
  8
ALPHA
 10
115.538983
 20
49.415899
 30
0.0
 11
115.888489
 21
49.975226
 31
0.0
  0
LINE
  5
C185
  8
ALPHA
 10
115.369373
 20
49.521882
 30
0.0
 11
115.513486
 21
49.75251
 31
0.0
  0
LINE
  5
C186
  8
ALPHA
 10
116.654476
 20
48.258578
 30
0.0
 11
116.736579
 21
48.440949
 31
0.0
  0
LINE
  5
C187
  8
ALPHA
 10
116.62742
 20
48.681795
 30
0.0
 11
116.820253
 21
49.312522
 31
0.0
  0
LINE
  5
C188
  8
ALPHA
 10
116.436159
 20
48.740269
 30
0.0
 11
116.51567
 21
49.000337
 31
0.0
  0
LINE
  5
C189
  8
ALPHA
 10
115.210523
 20
49.680732
 30
0.0
 11
115.104539
 21
49.850342
 31
0.0
  0
LINE
  5
C18A
  8
ALPHA
 10
116.241608
 20
48.852593
 30
0.0
 11
116.095338
 21
48.988993
 31
0.0
  0
LINE
  5
C18B
  8
ALPHA
 10
115.369373
 20
49.521882
 30
0.0
 11
115.538983
 21
49.415899
 31
0.0
  0
LINE
  5
C18C
  8
ALPHA
 10
116.436159
 20
48.740269
 30
0.0
 11
116.62742
 21
48.681795
 31
0.0
  0
LINE
  5
C18D
  8
ALPHA
 10
118.871235
 20
48.745824
 30
0.0
 11
118.790426
 21
48.385464
 31
0.0
  0
LINE
  5
C18E
  8
ALPHA
 10
118.952051
 20
48.385464
 30
0.0
 11
118.871235
 21
48.745824
 31
0.0
  0
LINE
  5
C18F
  8
ALPHA
 10
118.790426
 20
48.385464
 30
0.0
 11
118.606144
 21
48.34525
 31
0.0
  0
LINE
  5
C190
  8
ALPHA
 10
117.707707
 20
48.528006
 30
0.0
 11
117.678383
 21
48.533179
 31
0.0
  0
LINE
  5
C191
  8
ALPHA
 10
119.016526
 20
48.824449
 30
0.0
 11
119.034519
 21
48.78628
 31
0.0
  0
LINE
  5
C192
  8
ALPHA
 10
118.982713
 20
48.855179
 30
0.0
 11
119.016526
 21
48.824449
 31
0.0
  0
LINE
  5
C193
  8
ALPHA
 10
118.936106
 20
48.875722
 30
0.0
 11
118.982713
 21
48.855179
 31
0.0
  0
LINE
  5
C194
  8
ALPHA
 10
118.725954
 20
48.824447
 30
0.0
 11
118.707963
 21
48.786279
 31
0.0
  0
LINE
  5
C195
  8
ALPHA
 10
118.759766
 20
48.855177
 30
0.0
 11
118.725954
 21
48.824447
 31
0.0
  0
LINE
  5
C196
  8
ALPHA
 10
118.806375
 20
48.875722
 30
0.0
 11
118.759766
 21
48.855177
 31
0.0
  0
LINE
  5
C197
  8
ALPHA
 10
118.871238
 20
48.837993
 30
0.0
 11
118.806373
 21
48.875722
 31
0.0
  0
LINE
  5
C198
  8
ALPHA
 10
118.871238
 20
48.745838
 30
0.0
 11
118.871238
 21
48.837993
 31
0.0
  0
LINE
  5
C199
  8
ALPHA
 10
118.790426
 20
48.385464
 30
0.0
 11
118.82009
 21
48.38287
 31
0.0
  0
LINE
  5
C19A
  8
ALPHA
 10
118.952051
 20
48.385464
 30
0.0
 11
118.922386
 21
48.38287
 31
0.0
  0
LINE
  5
C19B
  8
ALPHA
 10
117.722914
 20
48.897004
 30
0.0
 11
117.55159
 21
48.569838
 31
0.0
  0
LINE
  5
C19C
  8
ALPHA
 10
117.55159
 20
48.569838
 30
0.0
 11
117.363179
 21
48.57869
 31
0.0
  0
LINE
  5
C19D
  8
ALPHA
 10
117.602933
 20
49.010549
 30
0.0
 11
117.575676
 21
48.978338
 31
0.0
  0
LINE
  5
C19E
  8
ALPHA
 10
117.643545
 20
49.031482
 30
0.0
 11
117.602933
 21
49.010549
 31
0.0
  0
LINE
  5
C19F
  8
ALPHA
 10
117.693883
 20
49.039263
 30
0.0
 11
117.643545
 21
49.031482
 31
0.0
  0
LINE
  5
C1A0
  8
ALPHA
 10
117.746772
 20
48.986032
 30
0.0
 11
117.693882
 21
49.039263
 31
0.0
  0
LINE
  5
C1A1
  8
ALPHA
 10
117.72292
 20
48.897017
 30
0.0
 11
117.746772
 21
48.986032
 31
0.0
  0
LINE
  5
C1A2
  8
ALPHA
 10
117.55159
 20
48.569838
 30
0.0
 11
117.579572
 21
48.559655
 31
0.0
  0
LINE
  5
C1A3
  8
ALPHA
 10
117.707707
 20
48.528006
 30
0.0
 11
117.875302
 21
48.441467
 31
0.0
  0
LINE
  5
C1A4
  8
ALPHA
 10
117.707707
 20
48.528006
 30
0.0
 11
117.722914
 21
48.897004
 31
0.0
  0
LINE
  5
C1A5
  8
ALPHA
 10
117.883604
 20
48.935346
 30
0.0
 11
117.891105
 21
48.893821
 31
0.0
  0
LINE
  5
C1A6
  8
ALPHA
 10
117.858897
 20
48.97378
 30
0.0
 11
117.883604
 21
48.935346
 31
0.0
  0
LINE
  5
C1A7
  8
ALPHA
 10
117.819194
 20
49.005687
 30
0.0
 11
117.858897
 21
48.97378
 31
0.0
  0
LINE
  5
C1A8
  8
ALPHA
 10
118.797984
 20
48.878432
 30
0.0
 11
118.788602
 21
48.880744
 31
0.0
  0
LINE
  5
C1A9
  8
ALPHA
 10
118.806373
 20
48.875722
 30
0.0
 11
118.797984
 21
48.878432
 31
0.0
  0
LINE
  5
C1AA
  8
ALPHA
 10
118.944404
 20
48.878407
 30
0.0
 11
118.953874
 21
48.880744
 31
0.0
  0
LINE
  5
C1AB
  8
ALPHA
 10
118.936105
 20
48.875722
 30
0.0
 11
118.944404
 21
48.878407
 31
0.0
  0
LINE
  5
C1AC
  8
ALPHA
 10
117.68648
 20
49.044052
 30
0.0
 11
117.678016
 21
49.048714
 31
0.0
  0
LINE
  5
C1AD
  8
ALPHA
 10
117.693882
 20
49.039263
 30
0.0
 11
117.68648
 21
49.044052
 31
0.0
  0
LINE
  5
C1AE
  8
ALPHA
 10
118.871238
 20
48.837993
 30
0.0
 11
118.936105
 21
48.875722
 31
0.0
  0
LINE
  5
C1AF
  8
ALPHA
 10
117.827905
 20
49.006132
 30
0.0
 11
117.837657
 21
49.005938
 31
0.0
  0
LINE
  5
C1B0
  8
ALPHA
 10
117.819193
 20
49.005687
 30
0.0
 11
117.827905
 21
49.006132
 31
0.0
  0
LINE
  5
C1B1
  8
ALPHA
 10
117.78583
 20
48.999296
 30
0.0
 11
117.819193
 21
49.005687
 31
0.0
  0
LINE
  5
C1B2
  8
ALPHA
 10
117.746772
 20
48.986032
 30
0.0
 11
117.78583
 21
48.999296
 31
0.0
  0
ARC
  5
C1B3
  8
ALPHA
 10
118.871238
 20
53.182597
 30
0.0
 40
4.8
 50
254.389452
 51
255.610548
  0
ARC
  5
C1B4
  8
ALPHA
 10
118.871238
 20
53.182597
 30
0.0
 40
4.8
 50
269.389452
 51
270.610548
  0
ARC
  5
C1B5
  8
ALPHA
 10
118.369166
 20
48.207869
 30
0.0
 40
0.399997
 50
264.236966
 51
347.0
  0
ARC
  5
C1B6
  8
ALPHA
 10
118.871238
 20
53.182597
 30
0.0
 40
5.399987
 50
260.763034
 51
264.236966
  0
ARC
  5
C1B7
  8
ALPHA
 10
118.068648
 20
48.247433
 30
0.0
 40
0.399997
 50
178.0
 51
260.763034
  0
ARC
  5
C1B8
  8
ALPHA
 10
117.673242
 20
48.948828
 30
0.0
 40
0.1
 50
74.200498
 51
152.0
  0
ARC
  5
C1B9
  8
ALPHA
 10
117.791849
 20
48.917047
 30
0.0
 40
0.1
 50
358.0
 51
75.799502
  0
ARC
  5
C1BA
  8
ALPHA
 10
117.098719
 20
48.507325
 30
0.0
 40
0.2
 50
249.236966
 51
332.0
  0
ARC
  5
C1BB
  8
ALPHA
 10
118.871238
 20
53.182597
 30
0.0
 40
4.3
 50
254.200498
 51
255.799502
  0
ARC
  5
C1BC
  8
ALPHA
 10
118.809843
 20
48.783026
 30
0.0
 40
0.1
 50
89.200498
 51
167.0
  0
ARC
  5
C1BD
  8
ALPHA
 10
118.932634
 20
48.783026
 30
0.0
 40
0.1
 50
13.0
 51
90.799502
  0
ARC
  5
C1BE
  8
ALPHA
 10
118.369166
 20
48.207869
 30
0.0
 40
0.2
 50
264.236966
 51
347.0
  0
ARC
  5
C1BF
  8
ALPHA
 10
118.871238
 20
53.182597
 30
0.0
 40
5.2
 50
260.763034
 51
264.236966
  0
ARC
  5
C1C0
  8
ALPHA
 10
118.068648
 20
48.247433
 30
0.0
 40
0.2
 50
178.0
 51
260.763034
  0
ARC
  5
C1C1
  8
ALPHA
 10
118.871238
 20
53.182597
 30
0.0
 40
4.3
 50
269.200498
 51
270.799502
  0
LINE
  5
C1C2
  8
ALPHA
 10
117.579572
 20
48.559655
 30
0.0
 11
117.451898
 21
48.319536
 31
0.0
  0
LINE
  5
C1C3
  8
ALPHA
 10
117.584947
 20
48.995775
 30
0.0
 11
117.275309
 21
48.41343
 31
0.0
  0
LINE
  5
C1C4
  8
ALPHA
 10
118.82009
 20
48.38287
 30
0.0
 11
118.758914
 21
48.117889
 31
0.0
  0
LINE
  5
C1C5
  8
ALPHA
 10
118.712406
 20
48.805521
 30
0.0
 11
118.56404
 21
48.162879
 31
0.0
  0
LINE
  5
C1C6
  8
ALPHA
 10
118.004441
 20
47.85262
 30
0.0
 11
118.036544
 21
48.050026
 31
0.0
  0
LINE
  5
C1C7
  8
ALPHA
 10
118.329
 20
47.809891
 30
0.0
 11
118.349083
 21
48.00888
 31
0.0
  0
LINE
  5
C1C8
  8
ALPHA
 10
117.86877
 20
48.254413
 30
0.0
 11
117.891788
 21
48.913557
 31
0.0
  0
LINE
  5
C1C9
  8
ALPHA
 10
117.668892
 20
48.261393
 30
0.0
 11
117.678383
 21
48.533179
 31
0.0
  0
LINE
  5
C1CA
  8
ALPHA
 10
118.983562
 20
48.117889
 30
0.0
 11
118.922386
 21
48.38287
 31
0.0
  0
LINE
  5
C1CB
  8
ALPHA
 10
117.451898
 20
48.319536
 30
0.0
 11
117.275309
 21
48.41343
 31
0.0
  0
LINE
  5
C1CC
  8
ALPHA
 10
118.758914
 20
48.117889
 30
0.0
 11
118.56404
 21
48.162879
 31
0.0
  0
LINE
  5
C1CD
  8
ALPHA
 10
117.668892
 20
48.261393
 30
0.0
 11
117.86877
 21
48.254413
 31
0.0
  0
LINE
  5
C1CE
  8
ALPHA
 10
121.094653
 20
49.488117
 30
0.0
 11
121.131488
 21
49.490681
 31
0.0
  0
LINE
  5
C1CF
  8
ALPHA
 10
121.339791
 20
49.068564
 30
0.0
 11
121.089622
 21
49.340237
 31
0.0
  0
LINE
  5
C1D0
  8
ALPHA
 10
121.199819
 20
48.987752
 30
0.0
 11
121.060334
 21
48.860784
 31
0.0
  0
LINE
  5
C1D1
  8
ALPHA
 10
121.089622
 20
49.340237
 30
0.0
 11
121.199819
 21
48.987752
 31
0.0
  0
ARC
  5
C1D2
  8
ALPHA
 10
120.923795
 20
48.62332
 30
0.0
 40
0.399997
 50
294.236966
 51
17.0
  0
ARC
  5
C1D3
  8
ALPHA
 10
121.124194
 20
49.403154
 30
0.0
 40
0.1
 50
43.0
 51
120.799502
  0
ARC
  5
C1D4
  8
ALPHA
 10
120.923795
 20
48.62332
 30
0.0
 40
0.2
 50
294.236966
 51
17.0
  0
LINE
  5
C1D5
  8
ALPHA
 10
120.922224
 20
49.312522
 30
0.0
 11
121.115056
 21
48.681795
 31
0.0
  0
LINE
  5
C1D6
  8
ALPHA
 10
120.190887
 20
48.569838
 30
0.0
 11
120.162904
 21
48.559655
 31
0.0
  0
LINE
  5
C1D7
  8
ALPHA
 10
119.858877
 20
48.935345
 30
0.0
 11
119.851378
 21
48.893821
 31
0.0
  0
LINE
  5
C1D8
  8
ALPHA
 10
119.883583
 20
48.973779
 30
0.0
 11
119.858877
 21
48.935345
 31
0.0
  0
LINE
  5
C1D9
  8
ALPHA
 10
119.923286
 20
49.005687
 30
0.0
 11
119.883583
 21
48.973779
 31
0.0
  0
LINE
  5
C1DA
  8
ALPHA
 10
120.034769
 20
48.528006
 30
0.0
 11
120.064094
 21
48.533179
 31
0.0
  0
LINE
  5
C1DB
  8
ALPHA
 10
121.080853
 20
49.485168
 30
0.0
 11
121.094653
 21
49.488117
 31
0.0
  0
LINE
  5
C1DC
  8
ALPHA
 10
121.04354
 20
49.42006
 30
0.0
 11
121.080852
 21
49.485167
 31
0.0
  0
LINE
  5
C1DD
  8
ALPHA
 10
121.086697
 20
49.491642
 30
0.0
 11
121.09373
 21
49.498401
 31
0.0
  0
LINE
  5
C1DE
  8
ALPHA
 10
121.080852
 20
49.485167
 30
0.0
 11
121.086697
 21
49.491642
 31
0.0
  0
LINE
  5
C1DF
  8
ALPHA
 10
120.959881
 20
49.418453
 30
0.0
 11
120.9506
 21
49.415765
 31
0.0
  0
LINE
  5
C1E0
  8
ALPHA
 10
120.968501
 20
49.420301
 30
0.0
 11
120.959881
 21
49.418453
 31
0.0
  0
LINE
  5
C1E1
  8
ALPHA
 10
120.139548
 20
49.010552
 30
0.0
 11
120.166806
 21
48.978341
 31
0.0
  0
LINE
  5
C1E2
  8
ALPHA
 10
120.098933
 20
49.031484
 30
0.0
 11
120.139548
 21
49.010552
 31
0.0
  0
LINE
  5
C1E3
  8
ALPHA
 10
120.048597
 20
49.039265
 30
0.0
 11
120.098933
 21
49.031484
 31
0.0
  0
LINE
  5
C1E4
  8
ALPHA
 10
119.995705
 20
48.986032
 30
0.0
 11
120.019556
 21
48.897017
 31
0.0
  0
LINE
  5
C1E5
  8
ALPHA
 10
120.190887
 20
48.569838
 30
0.0
 11
120.019556
 21
48.897017
 31
0.0
  0
LINE
  5
C1E6
  8
ALPHA
 10
120.190887
 20
48.569838
 30
0.0
 11
120.379297
 21
48.57869
 31
0.0
  0
LINE
  5
C1E7
  8
ALPHA
 10
121.089618
 20
49.340251
 30
0.0
 11
121.04354
 21
49.42006
 31
0.0
  0
LINE
  5
C1E8
  8
ALPHA
 10
121.002601
 20
49.422762
 30
0.0
 11
120.968501
 21
49.420301
 31
0.0
  0
LINE
  5
C1E9
  8
ALPHA
 10
121.04354
 20
49.42006
 30
0.0
 11
121.002601
 21
49.422762
 31
0.0
  0
LINE
  5
C1EA
  8
ALPHA
 10
120.924494
 20
49.335686
 30
0.0
 11
120.927997
 21
49.293636
 31
0.0
  0
LINE
  5
C1EB
  8
ALPHA
 10
120.93841
 20
49.379205
 30
0.0
 11
120.924494
 21
49.335686
 31
0.0
  0
LINE
  5
C1EC
  8
ALPHA
 10
120.959047
 20
49.409823
 30
0.0
 11
120.93841
 21
49.379205
 31
0.0
  0
LINE
  5
C1ED
  8
ALPHA
 10
120.968503
 20
49.420302
 30
0.0
 11
120.959047
 21
49.409823
 31
0.0
  0
LINE
  5
C1EE
  8
ALPHA
 10
119.90482
 20
49.005938
 30
0.0
 11
119.923285
 21
49.005687
 31
0.0
  0
LINE
  5
C1EF
  8
ALPHA
 10
119.956797
 20
48.999255
 30
0.0
 11
119.995705
 21
48.986032
 31
0.0
  0
LINE
  5
C1F0
  8
ALPHA
 10
119.923285
 20
49.005687
 30
0.0
 11
119.956797
 21
48.999255
 31
0.0
  0
LINE
  5
C1F1
  8
ALPHA
 10
119.995705
 20
48.986032
 30
0.0
 11
120.048596
 21
49.039264
 31
0.0
  0
LINE
  5
C1F2
  8
ALPHA
 10
120.055918
 20
49.044006
 30
0.0
 11
120.06446
 21
49.048714
 31
0.0
  0
LINE
  5
C1F3
  8
ALPHA
 10
120.048596
 20
49.039264
 30
0.0
 11
120.055918
 21
49.044006
 31
0.0
  0
LINE
  5
C1F4
  8
ALPHA
 10
120.019556
 20
48.897017
 30
0.0
 11
120.034769
 21
48.528006
 31
0.0
  0
LINE
  5
C1F5
  8
ALPHA
 10
120.034769
 20
48.528006
 30
0.0
 11
119.867174
 21
48.441467
 31
0.0
  0
ARC
  5
C1F6
  8
ALPHA
 10
118.871238
 20
53.182597
 30
0.0
 40
4.8
 50
284.389452
 51
285.610548
  0
ARC
  5
C1F7
  8
ALPHA
 10
120.643757
 20
48.507325
 30
0.0
 40
0.399997
 50
208.0
 51
290.763034
  0
ARC
  5
C1F8
  8
ALPHA
 10
118.871238
 20
53.182597
 30
0.0
 40
5.400001
 50
290.763034
 51
294.236966
  0
ARC
  5
C1F9
  8
ALPHA
 10
118.871238
 20
53.182597
 30
0.0
 40
5.399988
 50
275.763034
 51
279.236966
  0
ARC
  5
C1FA
  8
ALPHA
 10
119.673828
 20
48.247433
 30
0.0
 40
0.399997
 50
279.236966
 51
2.0
  0
ARC
  5
C1FB
  8
ALPHA
 10
118.871238
 20
53.182597
 30
0.0
 40
4.3
 50
299.200498
 51
300.799502
  0
ARC
  5
C1FC
  8
ALPHA
 10
121.017854
 20
49.341759
 30
0.0
 40
0.1
 50
119.200498
 51
197.0
  0
ARC
  5
C1FD
  8
ALPHA
 10
120.643757
 20
48.507325
 30
0.0
 40
0.2
 50
208.0
 51
290.763034
  0
ARC
  5
C1FE
  8
ALPHA
 10
118.871238
 20
53.182597
 30
0.0
 40
5.2
 50
290.763034
 51
294.236966
  0
ARC
  5
C1FF
  8
ALPHA
 10
120.069234
 20
48.948828
 30
0.0
 40
0.1
 50
28.0
 51
105.799502
  0
ARC
  5
C200
  8
ALPHA
 10
118.871238
 20
53.182597
 30
0.0
 40
4.3
 50
284.200498
 51
285.799502
  0
ARC
  5
C201
  8
ALPHA
 10
119.950628
 20
48.917047
 30
0.0
 40
0.1
 50
104.200498
 51
182.0
  0
ARC
  5
C202
  8
ALPHA
 10
119.37331
 20
48.207869
 30
0.0
 40
0.2
 50
193.0
 51
275.763034
  0
ARC
  5
C203
  8
ALPHA
 10
118.871238
 20
53.182597
 30
0.0
 40
5.2
 50
275.763034
 51
279.236966
  0
ARC
  5
C204
  8
ALPHA
 10
119.673828
 20
48.247433
 30
0.0
 40
0.2
 50
279.236966
 51
2.0
  0
LINE
  5
C205
  8
ALPHA
 10
120.290578
 20
48.319536
 30
0.0
 11
120.467167
 21
48.41343
 31
0.0
  0
LINE
  5
C206
  8
ALPHA
 10
120.064094
 20
48.533179
 30
0.0
 11
120.073585
 21
48.261393
 31
0.0
  0
LINE
  5
C207
  8
ALPHA
 10
119.850689
 20
48.913557
 30
0.0
 11
119.873707
 21
48.254413
 31
0.0
  0
LINE
  5
C208
  8
ALPHA
 10
119.413476
 20
47.809891
 30
0.0
 11
119.393393
 21
48.00888
 31
0.0
  0
LINE
  5
C209
  8
ALPHA
 10
119.738036
 20
47.85262
 30
0.0
 11
119.705932
 21
48.050026
 31
0.0
  0
LINE
  5
C20A
  8
ALPHA
 10
120.785559
 20
48.133303
 30
0.0
 11
120.714658
 21
48.320314
 31
0.0
  0
LINE
  5
C20B
  8
ALPHA
 10
121.088
 20
48.258578
 30
0.0
 11
121.005898
 21
48.440949
 31
0.0
  0
LINE
  5
C20C
  8
ALPHA
 10
120.467167
 20
48.41343
 30
0.0
 11
120.157529
 21
48.995775
 31
0.0
  0
LINE
  5
C20D
  8
ALPHA
 10
120.290578
 20
48.319536
 30
0.0
 11
120.162904
 21
48.559655
 31
0.0
  0
LINE
  5
C20E
  8
ALPHA
 10
120.073585
 20
48.261393
 30
0.0
 11
119.873707
 21
48.254413
 31
0.0
  0
LINE
  5
C20F
  8
ALPHA
 10
121.339791
 20
49.068564
 30
0.0
 11
121.315398
 21
49.051486
 31
0.0
  0
LINE
  5
C210
  8
ALPHA
 10
122.320467
 20
49.847655
 30
0.0
 11
122.301325
 21
49.824845
 31
0.0
  0
LINE
  5
C211
  8
ALPHA
 10
122.01001
 20
50.201475
 30
0.0
 11
122.095361
 21
50.189389
 31
0.0
  0
LINE
  5
C212
  8
ALPHA
 10
121.975093
 20
50.189466
 30
0.0
 11
122.01001
 21
50.201475
 31
0.0
  0
LINE
  5
C213
  8
ALPHA
 10
121.962527
 20
50.183045
 30
0.0
 11
121.975093
 21
50.189466
 31
0.0
  0
LINE
  5
C214
  8
ALPHA
 10
122.320467
 20
49.847655
 30
0.0
 11
122.008509
 21
50.045323
 31
0.0
  0
LINE
  5
C215
  8
ALPHA
 10
122.320467
 20
49.847655
 30
0.0
 11
122.479209
 21
49.949526
 31
0.0
  0
LINE
  5
C216
  8
ALPHA
 10
121.95138
 20
50.150956
 30
0.0
 11
121.962526
 21
50.183044
 31
0.0
  0
LINE
  5
C217
  8
ALPHA
 10
121.943337
 20
50.110498
 30
0.0
 11
121.95138
 21
50.150956
 31
0.0
  0
LINE
  5
C218
  8
ALPHA
 10
121.966497
 20
50.190811
 30
0.0
 11
121.97154
 21
50.19916
 31
0.0
  0
LINE
  5
C219
  8
ALPHA
 10
121.962526
 20
50.183044
 30
0.0
 11
121.966497
 21
50.190811
 31
0.0
  0
LINE
  5
C21A
  8
ALPHA
 10
121.862944
 20
50.087294
 30
0.0
 11
121.854676
 21
50.082295
 31
0.0
  0
LINE
  5
C21B
  8
ALPHA
 10
121.870793
 20
50.09131
 30
0.0
 11
121.862944
 21
50.087294
 31
0.0
  0
LINE
  5
C21C
  8
ALPHA
 10
121.176136
 20
49.480974
 30
0.0
 11
121.210802
 21
49.456915
 31
0.0
  0
LINE
  5
C21D
  8
ALPHA
 10
121.131488
 20
49.490681
 30
0.0
 11
121.176136
 21
49.480974
 31
0.0
  0
LINE
  5
C21E
  8
ALPHA
 10
121.339791
 20
49.068564
 30
0.0
 11
121.51949
 21
49.125879
 31
0.0
  0
LINE
  5
C21F
  8
ALPHA
 10
122.206181
 20
49.733369
 30
0.0
 11
122.228991
 21
49.75251
 31
0.0
  0
LINE
  5
C220
  8
ALPHA
 10
122.008501
 20
50.045335
 30
0.0
 11
121.943337
 21
50.110498
 31
0.0
  0
LINE
  5
C221
  8
ALPHA
 10
121.903094
 20
50.102513
 30
0.0
 11
121.870793
 21
50.09131
 31
0.0
  0
LINE
  5
C222
  8
ALPHA
 10
121.943337
 20
50.110498
 30
0.0
 11
121.903094
 21
50.102513
 31
0.0
  0
LINE
  5
C223
  8
ALPHA
 10
121.852364
 20
50.043826
 30
0.0
 11
121.864452
 21
49.958478
 31
0.0
  0
LINE
  5
C224
  8
ALPHA
 10
121.864372
 20
50.078742
 30
0.0
 11
121.852364
 21
50.043826
 31
0.0
  0
LINE
  5
C225
  8
ALPHA
 10
121.870794
 20
50.091311
 30
0.0
 11
121.864372
 21
50.078742
 31
0.0
  0
LINE
  5
C226
  8
ALPHA
 10
122.206181
 20
49.733369
 30
0.0
 11
122.10431
 21
49.574626
 31
0.0
  0
LINE
  5
C227
  8
ALPHA
 10
122.008509
 20
50.045323
 30
0.0
 11
122.206181
 21
49.733369
 31
0.0
  0
LINE
  5
C228
  8
ALPHA
 10
121.199819
 20
48.987752
 30
0.0
 11
121.226806
 21
49.000337
 31
0.0
  0
ARC
  5
C229
  8
ALPHA
 10
118.871238
 20
53.182597
 30
0.0
 40
4.8
 50
299.389452
 51
300.610548
  0
ARC
  5
C22A
  8
ALPHA
 10
118.871238
 20
53.182597
 30
0.0
 40
4.8
 50
314.389452
 51
315.610548
  0
ARC
  5
C22B
  8
ALPHA
 10
122.743921
 20
50.019952
 30
0.0
 40
0.399997
 50
238.0
 51
320.763034
  0
ARC
  5
C22C
  8
ALPHA
 10
121.79341
 20
49.125392
 30
0.0
 40
0.399997
 50
223.0
 51
305.763034
  0
ARC
  5
C22D
  8
ALPHA
 10
118.871238
 20
53.182597
 30
0.0
 40
5.399993
 50
305.763034
 51
309.236966
  0
ARC
  5
C22E
  8
ALPHA
 10
122.033884
 20
49.309915
 30
0.0
 40
0.399997
 50
309.236966
 51
32.0
  0
ARC
  5
C22F
  8
ALPHA
 10
122.743921
 20
50.019952
 30
0.0
 40
0.2
 50
238.0
 51
320.763034
  0
ARC
  5
C230
  8
ALPHA
 10
118.871238
 20
53.182597
 30
0.0
 40
5.2
 50
320.763034
 51
324.236966
  0
ARC
  5
C231
  8
ALPHA
 10
122.928443
 20
50.260426
 30
0.0
 40
0.2
 50
324.236966
 51
47.0
  0
ARC
  5
C232
  8
ALPHA
 10
122.025618
 20
50.115044
 30
0.0
 40
0.1
 50
58.0
 51
135.799502
  0
ARC
  5
C233
  8
ALPHA
 10
118.871238
 20
53.182597
 30
0.0
 40
4.3
 50
314.200498
 51
315.799502
  0
ARC
  5
C234
  8
ALPHA
 10
121.938792
 20
50.028217
 30
0.0
 40
0.1
 50
134.200498
 51
212.0
  0
ARC
  5
C235
  8
ALPHA
 10
121.79341
 20
49.125392
 30
0.0
 40
0.2
 50
223.0
 51
305.763034
  0
ARC
  5
C236
  8
ALPHA
 10
118.871238
 20
53.182597
 30
0.0
 40
5.2
 50
305.763034
 51
309.236966
  0
ARC
  5
C237
  8
ALPHA
 10
122.033884
 20
49.309915
 30
0.0
 40
0.2
 50
309.236966
 51
32.0
  0
LINE
  5
C238
  8
ALPHA
 10
121.306317
 20
48.740269
 30
0.0
 11
121.115056
 21
48.681795
 31
0.0
  0
LINE
  5
C239
  8
ALPHA
 10
122.373103
 20
49.521882
 30
0.0
 11
122.203494
 21
49.415899
 31
0.0
  0
LINE
  5
C23A
  8
ALPHA
 10
121.500868
 20
48.852593
 30
0.0
 11
121.647139
 21
48.988993
 31
0.0
  0
LINE
  5
C23B
  8
ALPHA
 10
122.531953
 20
49.680732
 30
0.0
 11
122.637937
 21
49.850342
 31
0.0
  0
LINE
  5
C23C
  8
ALPHA
 10
121.226806
 20
49.000337
 30
0.0
 11
121.306317
 21
48.740269
 31
0.0
  0
LINE
  5
C23D
  8
ALPHA
 10
122.228991
 20
49.75251
 30
0.0
 11
122.373103
 21
49.521882
 31
0.0
  0
LINE
  5
C23E
  8
ALPHA
 10
121.853987
 20
49.975226
 30
0.0
 11
122.203494
 21
49.415899
 31
0.0
  0
LINE
  5
C23F
  8
ALPHA
 10
122.027183
 20
48.800816
 30
0.0
 11
121.910296
 21
48.963104
 31
0.0
  0
LINE
  5
C240
  8
ALPHA
 10
122.286896
 20
49.0001
 30
0.0
 11
122.16039
 21
49.155007
 31
0.0
  0
LINE
  5
C241
  8
ALPHA
 10
121.647139
 20
48.988993
 30
0.0
 11
121.197329
 21
49.471354
 31
0.0
  0
LINE
  5
C242
  8
ALPHA
 10
121.500868
 20
48.852593
 30
0.0
 11
121.315398
 21
49.051486
 31
0.0
  0
LINE
  5
C243
  8
ALPHA
 10
123.053736
 20
49.76694
 30
0.0
 11
122.898828
 21
49.893446
 31
0.0
  0
LINE
  5
C244
  8
ALPHA
 10
122.637937
 20
49.850342
 30
0.0
 11
122.07861
 21
50.199848
 31
0.0
  0
LINE
  5
C245
  8
ALPHA
 10
122.531953
 20
49.680732
 30
0.0
 11
122.301325
 21
49.824845
 31
0.0
  0
LINE
  5
C246
  8
ALPHA
 10
118.952051
 20
57.979731
 30
0.0
 11
119.136333
 21
58.019945
 31
0.0
  0
ARC
  5
C247
  8
ALPHA
 10
119.37331
 20
58.157326
 30
0.0
 40
0.399997
 50
84.236966
 51
167.0
  0
CIRCLE
  5
C248
  8
ALPHA
 10
118.871238
 20
53.182597
 30
0.0
 40
2.15
  0
LINE
  5
C249
  8
ALPHA
 10
119.030071
 20
57.559674
 30
0.0
 11
119.178436
 21
58.202316
 31
0.0
  0
LINE
  5
C24A
  8
ALPHA
 10
118.983562
 20
58.247306
 30
0.0
 11
119.178436
 21
58.202316
 31
0.0
  0
LINE
  5
C24B
  8
ALPHA
 10
115.799139
 20
56.254697
 30
0.0
 11
115.791096
 21
56.214239
 31
0.0
  0
ARC
  5
C24C
  8
ALPHA
 10
118.871238
 20
53.182597
 30
0.0
 40
4.3
 50
134.200498
 51
135.799502
  0
LINE
  5
C24D
  8
ALPHA
 10
115.104539
 20
56.514853
 30
0.0
 11
115.663866
 21
56.165347
 31
0.0
  0
LINE
  5
C24E
  8
ALPHA
 10
115.024327
 20
51.129342
 30
0.0
 11
114.982277
 21
51.125838
 31
0.0
  0
LINE
  5
C24F
  8
ALPHA
 10
115.067846
 20
51.115425
 30
0.0
 11
115.024327
 21
51.129342
 31
0.0
  0
LINE
  5
C250
  8
ALPHA
 10
115.098464
 20
51.094789
 30
0.0
 11
115.067846
 21
51.115425
 31
0.0
  0
LINE
  5
C251
  8
ALPHA
 10
115.108943
 20
51.085333
 30
0.0
 11
115.098464
 21
51.094789
 31
0.0
  0
LINE
  5
C252
  8
ALPHA
 10
115.111403
 20
51.051234
 30
0.0
 11
115.108942
 21
51.085334
 31
0.0
  0
LINE
  5
C253
  8
ALPHA
 10
115.108701
 20
51.010295
 30
0.0
 11
115.111403
 21
51.051234
 31
0.0
  0
LINE
  5
C254
  8
ALPHA
 10
115.028892
 20
50.964218
 30
0.0
 11
115.108701
 21
51.010295
 31
0.0
  0
LINE
  5
C255
  8
ALPHA
 10
115.107094
 20
51.093955
 30
0.0
 11
115.104406
 21
51.103236
 31
0.0
  0
LINE
  5
C256
  8
ALPHA
 10
115.108942
 20
51.085334
 30
0.0
 11
115.107094
 21
51.093955
 31
0.0
  0
LINE
  5
C257
  8
ALPHA
 10
115.180283
 20
50.967139
 30
0.0
 11
115.187042
 21
50.960106
 31
0.0
  0
LINE
  5
C258
  8
ALPHA
 10
115.173808
 20
50.972984
 30
0.0
 11
115.180283
 21
50.967139
 31
0.0
  0
LINE
  5
C259
  8
ALPHA
 10
115.108701
 20
51.010295
 30
0.0
 11
115.173808
 21
50.972984
 31
0.0
  0
LINE
  5
C25A
  8
ALPHA
 10
115.77598
 20
56.174383
 30
0.0
 11
115.770936
 21
56.166035
 31
0.0
  0
LINE
  5
C25B
  8
ALPHA
 10
115.77995
 20
56.182151
 30
0.0
 11
115.77598
 21
56.174383
 31
0.0
  0
LINE
  5
C25C
  8
ALPHA
 10
115.791096
 20
56.214239
 30
0.0
 11
115.77995
 21
56.182151
 31
0.0
  0
LINE
  5
C25D
  8
ALPHA
 10
115.169611
 20
55.487492
 30
0.0
 11
115.145552
 21
55.522157
 31
0.0
  0
LINE
  5
C25E
  8
ALPHA
 10
115.179319
 20
55.442845
 30
0.0
 11
115.169611
 21
55.487492
 31
0.0
  0
LINE
  5
C25F
  8
ALPHA
 10
115.176756
 20
55.406012
 30
0.0
 11
115.179319
 21
55.442845
 31
0.0
  0
LINE
  5
C260
  8
ALPHA
 10
115.173806
 20
55.392209
 30
0.0
 11
115.176756
 21
55.406012
 31
0.0
  0
LINE
  5
C261
  8
ALPHA
 10
115.108701
 20
55.3549
 30
0.0
 11
115.173807
 21
55.39221
 31
0.0
  0
LINE
  5
C262
  8
ALPHA
 10
115.028892
 20
55.400977
 30
0.0
 11
115.108701
 21
55.3549
 31
0.0
  0
LINE
  5
C263
  8
ALPHA
 10
115.732466
 20
56.16372
 30
0.0
 11
115.647115
 21
56.175806
 31
0.0
  0
LINE
  5
C264
  8
ALPHA
 10
115.767383
 20
56.175729
 30
0.0
 11
115.732466
 21
56.16372
 31
0.0
  0
LINE
  5
C265
  8
ALPHA
 10
115.779949
 20
56.182149
 30
0.0
 11
115.767383
 21
56.175729
 31
0.0
  0
LINE
  5
C266
  8
ALPHA
 10
115.180349
 20
55.39812
 30
0.0
 11
115.187042
 21
55.405089
 31
0.0
  0
LINE
  5
C267
  8
ALPHA
 10
115.173807
 20
55.39221
 30
0.0
 11
115.180349
 21
55.39812
 31
0.0
  0
LINE
  5
C268
  8
ALPHA
 10
115.169615
 20
50.8777
 30
0.0
 11
115.145556
 21
50.843033
 31
0.0
  0
LINE
  5
C269
  8
ALPHA
 10
115.179321
 20
50.922348
 30
0.0
 11
115.169615
 21
50.8777
 31
0.0
  0
LINE
  5
C26A
  8
ALPHA
 10
115.176758
 20
50.959183
 30
0.0
 11
115.179321
 21
50.922348
 31
0.0
  0
LINE
  5
C26B
  8
ALPHA
 10
115.173809
 20
50.972983
 30
0.0
 11
115.176758
 21
50.959183
 31
0.0
  0
LINE
  5
C26C
  8
ALPHA
 10
115.107117
 20
55.271329
 30
0.0
 11
115.104406
 21
55.261959
 31
0.0
  0
LINE
  5
C26D
  8
ALPHA
 10
115.108942
 20
55.279859
 30
0.0
 11
115.107117
 21
55.271329
 31
0.0
  0
LINE
  5
C26E
  8
ALPHA
 10
115.111403
 20
55.313739
 30
0.0
 11
115.108942
 21
55.279859
 31
0.0
  0
LINE
  5
C26F
  8
ALPHA
 10
115.108701
 20
55.3549
 30
0.0
 11
115.111403
 21
55.313739
 31
0.0
  0
LINE
  5
C270
  8
ALPHA
 10
115.024327
 20
55.235849
 30
0.0
 11
114.982275
 21
55.239351
 31
0.0
  0
LINE
  5
C271
  8
ALPHA
 10
115.067846
 20
55.249766
 30
0.0
 11
115.024327
 21
55.235849
 31
0.0
  0
LINE
  5
C272
  8
ALPHA
 10
115.098465
 20
55.270404
 30
0.0
 11
115.067846
 21
55.249766
 31
0.0
  0
LINE
  5
C273
  8
ALPHA
 10
115.108941
 20
55.279858
 30
0.0
 11
115.098465
 21
55.270404
 31
0.0
  0
ARC
  5
C274
  8
ALPHA
 10
115.716858
 20
56.250151
 30
0.0
 40
0.1
 50
238.0
 51
315.799502
  0
ARC
  5
C275
  8
ALPHA
 10
115.091795
 20
55.435553
 30
0.0
 40
0.1
 50
329.200498
 51
47.0
  0
ARC
  5
C276
  8
ALPHA
 10
118.871238
 20
53.182597
 30
0.0
 40
4.3
 50
149.200498
 51
150.799502
  0
ARC
  5
C277
  8
ALPHA
 10
115.0304
 20
55.329213
 30
0.0
 40
0.1
 50
253.0
 51
330.799502
  0
ARC
  5
C278
  8
ALPHA
 10
115.0304
 20
51.035982
 30
0.0
 40
0.1
 50
29.200498
 51
107.0
  0
ARC
  5
C279
  8
ALPHA
 10
115.091795
 20
50.929642
 30
0.0
 40
0.1
 50
313.0
 51
30.799502
  0
ARC
  5
C27A
  8
ALPHA
 10
118.871238
 20
53.182597
 30
0.0
 40
4.3
 50
209.200498
 51
210.799502
  0
ARC
  5
C27B
  8
ALPHA
 10
117.098719
 20
57.85787
 30
0.0
 40
0.399997
 50
28.0
 51
110.763034
  0
ARC
  5
C27C
  8
ALPHA
 10
118.871238
 20
53.182597
 30
0.0
 40
5.2
 50
110.763034
 51
114.236966
  0
LINE
  5
C27D
  8
ALPHA
 10
116.956918
 20
58.231892
 30
0.0
 11
117.027819
 21
58.044881
 31
0.0
  0
LINE
  5
C27E
  8
ALPHA
 10
115.422009
 20
56.51754
 30
0.0
 11
115.441151
 21
56.54035
 31
0.0
  0
LINE
  5
C27F
  8
ALPHA
 10
116.402686
 20
57.296631
 30
0.0
 11
116.427079
 21
57.313709
 31
0.0
  0
LINE
  5
C280
  8
ALPHA
 10
116.652854
 20
57.024958
 30
0.0
 11
116.542657
 21
57.377443
 31
0.0
  0
LINE
  5
C281
  8
ALPHA
 10
116.542657
 20
57.377443
 30
0.0
 11
116.682143
 21
57.50441
 31
0.0
  0
LINE
  5
C282
  8
ALPHA
 10
116.817982
 20
57.029509
 30
0.0
 11
116.814479
 21
57.071559
 31
0.0
  0
LINE
  5
C283
  8
ALPHA
 10
116.804066
 20
56.985989
 30
0.0
 11
116.817982
 21
57.029509
 31
0.0
  0
LINE
  5
C284
  8
ALPHA
 10
116.78343
 20
56.955372
 30
0.0
 11
116.804066
 21
56.985989
 31
0.0
  0
LINE
  5
C285
  8
ALPHA
 10
116.773974
 20
56.944893
 30
0.0
 11
116.78343
 21
56.955372
 31
0.0
  0
LINE
  5
C286
  8
ALPHA
 10
116.739875
 20
56.942433
 30
0.0
 11
116.773975
 21
56.944894
 31
0.0
  0
LINE
  5
C287
  8
ALPHA
 10
116.698936
 20
56.945135
 30
0.0
 11
116.739875
 21
56.942433
 31
0.0
  0
LINE
  5
C288
  8
ALPHA
 10
116.652859
 20
57.024943
 30
0.0
 11
116.698936
 21
56.945135
 31
0.0
  0
LINE
  5
C289
  8
ALPHA
 10
116.542657
 20
57.377443
 30
0.0
 11
116.51567
 21
57.364857
 31
0.0
  0
LINE
  5
C28A
  8
ALPHA
 10
116.782596
 20
56.946741
 30
0.0
 11
116.791876
 21
56.94943
 31
0.0
  0
LINE
  5
C28B
  8
ALPHA
 10
116.773975
 20
56.944894
 30
0.0
 11
116.782596
 21
56.946741
 31
0.0
  0
LINE
  5
C28C
  8
ALPHA
 10
116.655779
 20
56.873553
 30
0.0
 11
116.648747
 21
56.866794
 31
0.0
  0
LINE
  5
C28D
  8
ALPHA
 10
116.661625
 20
56.880027
 30
0.0
 11
116.655779
 21
56.873553
 31
0.0
  0
LINE
  5
C28E
  8
ALPHA
 10
116.698936
 20
56.945135
 30
0.0
 11
116.661625
 21
56.880027
 31
0.0
  0
LINE
  5
C28F
  8
ALPHA
 10
115.733968
 20
56.319872
 30
0.0
 11
115.536295
 21
56.631826
 31
0.0
  0
LINE
  5
C290
  8
ALPHA
 10
115.536295
 20
56.631826
 30
0.0
 11
115.638167
 21
56.790569
 31
0.0
  0
LINE
  5
C291
  8
ALPHA
 10
115.890113
 20
56.321369
 30
0.0
 11
115.878024
 21
56.406717
 31
0.0
  0
LINE
  5
C292
  8
ALPHA
 10
115.878104
 20
56.286453
 30
0.0
 11
115.890113
 21
56.321369
 31
0.0
  0
LINE
  5
C293
  8
ALPHA
 10
115.871683
 20
56.273884
 30
0.0
 11
115.878104
 21
56.286453
 31
0.0
  0
LINE
  5
C294
  8
ALPHA
 10
115.839383
 20
56.262682
 30
0.0
 11
115.871684
 21
56.273885
 31
0.0
  0
LINE
  5
C295
  8
ALPHA
 10
115.799139
 20
56.254697
 30
0.0
 11
115.839383
 21
56.262682
 31
0.0
  0
LINE
  5
C296
  8
ALPHA
 10
115.733976
 20
56.31986
 30
0.0
 11
115.799139
 21
56.254697
 31
0.0
  0
LINE
  5
C297
  8
ALPHA
 10
115.536295
 20
56.631826
 30
0.0
 11
115.513486
 21
56.612685
 31
0.0
  0
LINE
  5
C298
  8
ALPHA
 10
116.402686
 20
57.296631
 30
0.0
 11
116.222986
 21
57.239316
 31
0.0
  0
LINE
  5
C299
  8
ALPHA
 10
116.402686
 20
57.296631
 30
0.0
 11
116.652854
 21
57.024958
 31
0.0
  0
LINE
  5
C29A
  8
ALPHA
 10
116.566341
 20
56.884221
 30
0.0
 11
116.531674
 21
56.90828
 31
0.0
  0
LINE
  5
C29B
  8
ALPHA
 10
116.610989
 20
56.874514
 30
0.0
 11
116.566341
 21
56.884221
 31
0.0
  0
LINE
  5
C29C
  8
ALPHA
 10
116.647824
 20
56.877078
 30
0.0
 11
116.610989
 21
56.874514
 31
0.0
  0
LINE
  5
C29D
  8
ALPHA
 10
116.661624
 20
56.880027
 30
0.0
 11
116.647824
 21
56.877078
 31
0.0
  0
LINE
  5
C29E
  8
ALPHA
 10
115.879532
 20
56.277901
 30
0.0
 11
115.887801
 21
56.2829
 31
0.0
  0
LINE
  5
C29F
  8
ALPHA
 10
115.871684
 20
56.273885
 30
0.0
 11
115.879532
 21
56.277901
 31
0.0
  0
LINE
  5
C2A0
  8
ALPHA
 10
115.422009
 20
56.51754
 30
0.0
 11
115.263267
 21
56.415669
 31
0.0
  0
LINE
  5
C2A1
  8
ALPHA
 10
115.422009
 20
56.51754
 30
0.0
 11
115.733968
 21
56.319872
 31
0.0
  0
ARC
  5
C2A2
  8
ALPHA
 10
118.871238
 20
53.182597
 30
0.0
 40
4.8
 50
134.389452
 51
135.610548
  0
ARC
  5
C2A3
  8
ALPHA
 10
118.871238
 20
53.182597
 30
0.0
 40
4.8
 50
119.389452
 51
120.610548
  0
ARC
  5
C2A4
  8
ALPHA
 10
116.818681
 20
57.741875
 30
0.0
 40
0.399997
 50
114.236966
 51
197.0
  0
ARC
  5
C2A5
  8
ALPHA
 10
118.871238
 20
53.182597
 30
0.0
 40
5.4
 50
110.763034
 51
114.236966
  0
ARC
  5
C2A6
  8
ALPHA
 10
115.708592
 20
57.05528
 30
0.0
 40
0.399997
 50
129.236966
 51
212.0
  0
ARC
  5
C2A7
  8
ALPHA
 10
118.871238
 20
53.182597
 30
0.0
 40
5.399994
 50
125.763034
 51
129.236966
  0
ARC
  5
C2A8
  8
ALPHA
 10
115.949067
 20
57.239803
 30
0.0
 40
0.399997
 50
43.0
 51
125.763034
  0
ARC
  5
C2A9
  8
ALPHA
 10
116.818681
 20
57.741875
 30
0.0
 40
0.2
 50
114.236966
 51
197.0
  0
ARC
  5
C2AA
  8
ALPHA
 10
116.724622
 20
57.023436
 30
0.0
 40
0.1
 50
299.200498
 51
17.0
  0
ARC
  5
C2AB
  8
ALPHA
 10
118.871238
 20
53.182597
 30
0.0
 40
4.3
 50
119.200498
 51
120.799502
  0
ARC
  5
C2AC
  8
ALPHA
 10
116.618282
 20
56.962041
 30
0.0
 40
0.1
 50
223.0
 51
300.799502
  0
ARC
  5
C2AD
  8
ALPHA
 10
115.708592
 20
57.05528
 30
0.0
 40
0.2
 50
129.236966
 51
212.0
  0
ARC
  5
C2AE
  8
ALPHA
 10
118.871238
 20
53.182597
 30
0.0
 40
5.2
 50
125.763034
 51
129.236966
  0
ARC
  5
C2AF
  8
ALPHA
 10
115.949067
 20
57.239803
 30
0.0
 40
0.2
 50
43.0
 51
125.763034
  0
ARC
  5
C2B0
  8
ALPHA
 10
115.803684
 20
56.336977
 30
0.0
 40
0.1
 50
314.200498
 51
32.0
  0
LINE
  5
C2B1
  8
ALPHA
 10
116.436159
 20
57.624926
 30
0.0
 11
116.62742
 21
57.6834
 31
0.0
  0
LINE
  5
C2B2
  8
ALPHA
 10
115.369373
 20
56.843313
 30
0.0
 11
115.538983
 21
56.949296
 31
0.0
  0
LINE
  5
C2B3
  8
ALPHA
 10
116.241608
 20
57.512602
 30
0.0
 11
116.095338
 21
57.376202
 31
0.0
  0
LINE
  5
C2B4
  8
ALPHA
 10
115.210523
 20
56.684462
 30
0.0
 11
115.104539
 21
56.514853
 31
0.0
  0
LINE
  5
C2B5
  8
ALPHA
 10
116.820253
 20
57.052673
 30
0.0
 11
116.62742
 21
57.6834
 31
0.0
  0
LINE
  5
C2B6
  8
ALPHA
 10
116.51567
 20
57.364857
 30
0.0
 11
116.436159
 21
57.624926
 31
0.0
  0
LINE
  5
C2B7
  8
ALPHA
 10
116.654476
 20
58.106617
 30
0.0
 11
116.736579
 21
57.924246
 31
0.0
  0
LINE
  5
C2B8
  8
ALPHA
 10
115.888489
 20
56.389969
 30
0.0
 11
115.538983
 21
56.949296
 31
0.0
  0
LINE
  5
C2B9
  8
ALPHA
 10
115.513486
 20
56.612685
 30
0.0
 11
115.369373
 21
56.843313
 31
0.0
  0
LINE
  5
C2BA
  8
ALPHA
 10
115.715293
 20
57.564379
 30
0.0
 11
115.83218
 21
57.402091
 31
0.0
  0
LINE
  5
C2BB
  8
ALPHA
 10
115.455581
 20
57.365095
 30
0.0
 11
115.582087
 21
57.210188
 31
0.0
  0
LINE
  5
C2BC
  8
ALPHA
 10
116.241608
 20
57.512602
 30
0.0
 11
116.427079
 21
57.313709
 31
0.0
  0
LINE
  5
C2BD
  8
ALPHA
 10
116.095338
 20
57.376202
 30
0.0
 11
116.545147
 21
56.893841
 31
0.0
  0
LINE
  5
C2BE
  8
ALPHA
 10
115.210523
 20
56.684462
 30
0.0
 11
115.441151
 21
56.54035
 31
0.0
  0
LINE
  5
C2BF
  8
ALPHA
 10
117.785616
 20
57.365957
 30
0.0
 11
117.819192
 21
57.359508
 31
0.0
  0
LINE
  5
C2C0
  8
ALPHA
 10
117.746772
 20
57.379163
 30
0.0
 11
117.785616
 21
57.365957
 31
0.0
  0
LINE
  5
C2C1
  8
ALPHA
 10
117.883599
 20
57.42985
 30
0.0
 11
117.891099
 21
57.471374
 31
0.0
  0
LINE
  5
C2C2
  8
ALPHA
 10
117.858893
 20
57.391416
 30
0.0
 11
117.883599
 21
57.42985
 31
0.0
  0
LINE
  5
C2C3
  8
ALPHA
 10
117.81919
 20
57.359508
 30
0.0
 11
117.858893
 21
57.391416
 31
0.0
  0
LINE
  5
C2C4
  8
ALPHA
 10
117.707707
 20
57.837189
 30
0.0
 11
117.875302
 21
57.923728
 31
0.0
  0
LINE
  5
C2C5
  8
ALPHA
 10
117.72292
 20
57.468192
 30
0.0
 11
117.707707
 21
57.837189
 31
0.0
  0
LINE
  5
C2C6
  8
ALPHA
 10
118.871238
 20
57.527202
 30
0.0
 11
118.806372
 21
57.489473
 31
0.0
  0
LINE
  5
C2C7
  8
ALPHA
 10
118.798072
 20
57.486788
 30
0.0
 11
118.788602
 21
57.484451
 31
0.0
  0
LINE
  5
C2C8
  8
ALPHA
 10
118.806372
 20
57.489473
 30
0.0
 11
118.798072
 21
57.486788
 31
0.0
  0
LINE
  5
C2C9
  8
ALPHA
 10
118.944493
 20
57.486763
 30
0.0
 11
118.953874
 21
57.484451
 31
0.0
  0
LINE
  5
C2CA
  8
ALPHA
 10
118.936103
 20
57.489473
 30
0.0
 11
118.944493
 21
57.486763
 31
0.0
  0
LINE
  5
C2CB
  8
ALPHA
 10
118.952051
 20
57.979731
 30
0.0
 11
118.922386
 21
57.982325
 31
0.0
  0
LINE
  5
C2CC
  8
ALPHA
 10
118.871238
 20
57.619356
 30
0.0
 11
118.871238
 21
57.527202
 31
0.0
  0
LINE
  5
C2CD
  8
ALPHA
 10
118.871238
 20
57.527202
 30
0.0
 11
118.936103
 21
57.489473
 31
0.0
  0
LINE
  5
C2CE
  8
ALPHA
 10
119.016522
 20
57.540748
 30
0.0
 11
119.034513
 21
57.578916
 31
0.0
  0
LINE
  5
C2CF
  8
ALPHA
 10
118.982711
 20
57.510018
 30
0.0
 11
119.016522
 21
57.540748
 31
0.0
  0
LINE
  5
C2D0
  8
ALPHA
 10
118.936102
 20
57.489473
 30
0.0
 11
118.982711
 21
57.510018
 31
0.0
  0
LINE
  5
C2D1
  8
ALPHA
 10
118.871241
 20
57.619371
 30
0.0
 11
118.952051
 21
57.979731
 31
0.0
  0
LINE
  5
C2D2
  8
ALPHA
 10
118.790426
 20
57.979731
 30
0.0
 11
118.82009
 21
57.982325
 31
0.0
  0
LINE
  5
C2D3
  8
ALPHA
 10
117.55159
 20
57.795357
 30
0.0
 11
117.579572
 21
57.80554
 31
0.0
  0
LINE
  5
C2D4
  8
ALPHA
 10
117.72292
 20
57.468178
 30
0.0
 11
117.746772
 21
57.379163
 31
0.0
  0
LINE
  5
C2D5
  8
ALPHA
 10
117.707707
 20
57.837189
 30
0.0
 11
117.678383
 21
57.832016
 31
0.0
  0
LINE
  5
C2D6
  8
ALPHA
 10
118.790426
 20
57.979731
 30
0.0
 11
118.606144
 21
58.019945
 31
0.0
  0
LINE
  5
C2D7
  8
ALPHA
 10
118.790426
 20
57.979731
 30
0.0
 11
118.871241
 21
57.619371
 31
0.0
  0
LINE
  5
C2D8
  8
ALPHA
 10
118.72595
 20
57.540746
 30
0.0
 11
118.707957
 21
57.578915
 31
0.0
  0
LINE
  5
C2D9
  8
ALPHA
 10
118.759763
 20
57.510016
 30
0.0
 11
118.72595
 21
57.540746
 31
0.0
  0
LINE
  5
C2DA
  8
ALPHA
 10
118.80637
 20
57.489472
 30
0.0
 11
118.759763
 21
57.510016
 31
0.0
  0
LINE
  5
C2DB
  8
ALPHA
 10
117.827996
 20
57.359062
 30
0.0
 11
117.837657
 21
57.359257
 31
0.0
  0
LINE
  5
C2DC
  8
ALPHA
 10
117.819192
 20
57.359508
 30
0.0
 11
117.827996
 21
57.359062
 31
0.0
  0
LINE
  5
C2DD
  8
ALPHA
 10
117.686559
 20
57.321189
 30
0.0
 11
117.678016
 21
57.316481
 31
0.0
  0
LINE
  5
C2DE
  8
ALPHA
 10
117.693881
 20
57.325931
 30
0.0
 11
117.686559
 21
57.321189
 31
0.0
  0
LINE
  5
C2DF
  8
ALPHA
 10
117.746772
 20
57.379163
 30
0.0
 11
117.693881
 21
57.325931
 31
0.0
  0
LINE
  5
C2E0
  8
ALPHA
 10
117.55159
 20
57.795357
 30
0.0
 11
117.363179
 21
57.786505
 31
0.0
  0
LINE
  5
C2E1
  8
ALPHA
 10
117.55159
 20
57.795357
 30
0.0
 11
117.72292
 21
57.468192
 31
0.0
  0
LINE
  5
C2E2
  8
ALPHA
 10
117.602929
 20
57.354643
 30
0.0
 11
117.57567
 21
57.386854
 31
0.0
  0
LINE
  5
C2E3
  8
ALPHA
 10
117.643543
 20
57.333711
 30
0.0
 11
117.602929
 21
57.354643
 31
0.0
  0
LINE
  5
C2E4
  8
ALPHA
 10
117.693879
 20
57.32593
 30
0.0
 11
117.643543
 21
57.333711
 31
0.0
  0
ARC
  5
C2E5
  8
ALPHA
 10
118.871238
 20
53.182597
 30
0.0
 40
4.8
 50
89.389452
 51
90.610548
  0
ARC
  5
C2E6
  8
ALPHA
 10
118.871238
 20
53.182597
 30
0.0
 40
4.8
 50
104.389452
 51
105.610548
  0
ARC
  5
C2E7
  8
ALPHA
 10
118.068648
 20
58.117762
 30
0.0
 40
0.399997
 50
99.236966
 51
182.0
  0
ARC
  5
C2E8
  8
ALPHA
 10
118.871238
 20
53.182597
 30
0.0
 40
5.399993
 50
95.763034
 51
99.236966
  0
ARC
  5
C2E9
  8
ALPHA
 10
118.369166
 20
58.157326
 30
0.0
 40
0.399997
 50
13.0
 51
95.763034
  0
ARC
  5
C2EA
  8
ALPHA
 10
118.809843
 20
57.582169
 30
0.0
 40
0.1
 50
193.0
 51
270.799502
  0
ARC
  5
C2EB
  8
ALPHA
 10
118.871238
 20
53.182597
 30
0.0
 40
4.3
 50
89.200498
 51
90.799502
  0
ARC
  5
C2EC
  8
ALPHA
 10
118.932634
 20
57.582169
 30
0.0
 40
0.1
 50
269.200498
 51
347.0
  0
ARC
  5
C2ED
  8
ALPHA
 10
118.068648
 20
58.117762
 30
0.0
 40
0.2
 50
99.236966
 51
182.0
  0
ARC
  5
C2EE
  8
ALPHA
 10
118.871238
 20
53.182597
 30
0.0
 40
5.2
 50
95.763034
 51
99.236966
  0
ARC
  5
C2EF
  8
ALPHA
 10
118.369166
 20
58.157326
 30
0.0
 40
0.2
 50
13.0
 51
95.763034
  0
ARC
  5
C2F0
  8
ALPHA
 10
117.791849
 20
57.448148
 30
0.0
 40
0.1
 50
284.200498
 51
2.0
  0
ARC
  5
C2F1
  8
ALPHA
 10
118.871238
 20
53.182597
 30
0.0
 40
4.3
 50
104.200498
 51
105.799502
  0
ARC
  5
C2F2
  8
ALPHA
 10
117.673242
 20
57.416367
 30
0.0
 40
0.1
 50
208.0
 51
285.799502
  0
ARC
  5
C2F3
  8
ALPHA
 10
117.098719
 20
57.85787
 30
0.0
 40
0.2
 50
28.0
 51
110.763034
  0
LINE
  5
C2F4
  8
ALPHA
 10
117.451898
 20
58.045659
 30
0.0
 11
117.275309
 21
57.951765
 31
0.0
  0
LINE
  5
C2F5
  8
ALPHA
 10
118.922386
 20
57.982325
 30
0.0
 11
118.983562
 21
58.247306
 31
0.0
  0
LINE
  5
C2F6
  8
ALPHA
 10
117.891788
 20
57.451638
 30
0.0
 11
117.86877
 21
58.110782
 31
0.0
  0
LINE
  5
C2F7
  8
ALPHA
 10
117.678383
 20
57.832016
 30
0.0
 11
117.668892
 21
58.103802
 31
0.0
  0
LINE
  5
C2F8
  8
ALPHA
 10
118.329
 20
58.555304
 30
0.0
 11
118.349083
 21
58.356315
 31
0.0
  0
LINE
  5
C2F9
  8
ALPHA
 10
118.004441
 20
58.512575
 30
0.0
 11
118.036544
 21
58.315169
 31
0.0
  0
LINE
  5
C2FA
  8
ALPHA
 10
118.758914
 20
58.247306
 30
0.0
 11
118.82009
 21
57.982325
 31
0.0
  0
LINE
  5
C2FB
  8
ALPHA
 10
118.56404
 20
58.202316
 30
0.0
 11
118.712406
 21
57.559674
 31
0.0
  0
LINE
  5
C2FC
  8
ALPHA
 10
117.451898
 20
58.045659
 30
0.0
 11
117.579572
 21
57.80554
 31
0.0
  0
LINE
  5
C2FD
  8
ALPHA
 10
117.275309
 20
57.951765
 30
0.0
 11
117.584947
 21
57.36942
 31
0.0
  0
LINE
  5
C2FE
  8
ALPHA
 10
118.758914
 20
58.247306
 30
0.0
 11
118.56404
 21
58.202316
 31
0.0
  0
LINE
  5
C2FF
  8
ALPHA
 10
117.668892
 20
58.103802
 30
0.0
 11
117.86877
 21
58.110782
 31
0.0
  0
LINE
  5
C300
  8
ALPHA
 10
121.943337
 20
56.254697
 30
0.0
 11
121.951323
 21
56.214453
 31
0.0
  0
ARC
  5
C301
  8
ALPHA
 10
118.871238
 20
53.182597
 30
0.0
 40
4.3
 50
44.200498
 51
45.799502
  0
ARC
  5
C302
  8
ALPHA
 10
118.871238
 20
53.182597
 30
0.0
 40
5.2
 50
35.763034
 51
39.236966
  0
LINE
  5
C303
  8
ALPHA
 10
122.07861
 20
56.165347
 30
0.0
 11
122.637937
 21
56.514853
 31
0.0
  0
LINE
  5
C304
  8
ALPHA
 10
121.966542
 20
56.174303
 30
0.0
 11
121.97154
 21
56.166035
 31
0.0
  0
LINE
  5
C305
  8
ALPHA
 10
121.962526
 20
56.182152
 30
0.0
 11
121.966542
 21
56.174303
 31
0.0
  0
LINE
  5
C306
  8
ALPHA
 10
122.572862
 20
55.487495
 30
0.0
 11
122.59692
 21
55.522161
 31
0.0
  0
LINE
  5
C307
  8
ALPHA
 10
122.563155
 20
55.442847
 30
0.0
 11
122.572862
 21
55.487495
 31
0.0
  0
LINE
  5
C308
  8
ALPHA
 10
122.565718
 20
55.406012
 30
0.0
 11
122.563155
 21
55.442847
 31
0.0
  0
LINE
  5
C309
  8
ALPHA
 10
122.568667
 20
55.392212
 30
0.0
 11
122.565718
 21
55.406012
 31
0.0
  0
LINE
  5
C30A
  8
ALPHA
 10
122.985272
 20
55.65115
 30
0.0
 11
122.713598
 21
55.400981
 31
0.0
  0
LINE
  5
C30B
  8
ALPHA
 10
122.985272
 20
55.65115
 30
0.0
 11
122.927957
 21
55.83085
 31
0.0
  0
LINE
  5
C30C
  8
ALPHA
 10
123.066084
 20
50.854016
 30
0.0
 11
123.053498
 21
50.827029
 31
0.0
  0
LINE
  5
C30D
  8
ALPHA
 10
121.951323
 20
56.214453
 30
0.0
 11
121.962526
 21
56.182152
 31
0.0
  0
LINE
  5
C30E
  8
ALPHA
 10
122.010009
 20
56.163723
 30
0.0
 11
122.095358
 21
56.175812
 31
0.0
  0
LINE
  5
C30F
  8
ALPHA
 10
121.975094
 20
56.175731
 30
0.0
 11
122.010009
 21
56.163723
 31
0.0
  0
LINE
  5
C310
  8
ALPHA
 10
121.962525
 20
56.182153
 30
0.0
 11
121.975094
 21
56.175731
 31
0.0
  0
LINE
  5
C311
  8
ALPHA
 10
122.633776
 20
55.3549
 30
0.0
 11
122.568668
 21
55.392211
 31
0.0
  0
LINE
  5
C312
  8
ALPHA
 10
122.562193
 20
55.398056
 30
0.0
 11
122.555435
 21
55.405089
 31
0.0
  0
LINE
  5
C313
  8
ALPHA
 10
122.568668
 20
55.392211
 30
0.0
 11
122.562193
 21
55.398056
 31
0.0
  0
LINE
  5
C314
  8
ALPHA
 10
122.635382
 20
55.27124
 30
0.0
 11
122.638071
 21
55.261959
 31
0.0
  0
LINE
  5
C315
  8
ALPHA
 10
122.633534
 20
55.279861
 30
0.0
 11
122.635382
 21
55.27124
 31
0.0
  0
LINE
  5
C316
  8
ALPHA
 10
123.043284
 20
54.450907
 30
0.0
 11
123.075494
 21
54.478165
 31
0.0
  0
LINE
  5
C317
  8
ALPHA
 10
123.022352
 20
54.410293
 30
0.0
 11
123.043284
 21
54.450907
 31
0.0
  0
LINE
  5
C318
  8
ALPHA
 10
123.014571
 20
54.359956
 30
0.0
 11
123.022352
 21
54.410293
 31
0.0
  0
LINE
  5
C319
  8
ALPHA
 10
122.985272
 20
55.65115
 30
0.0
 11
123.00235
 21
55.626757
 31
0.0
  0
LINE
  5
C31A
  8
ALPHA
 10
123.066084
 20
55.511179
 30
0.0
 11
123.053498
 21
55.538166
 31
0.0
  0
LINE
  5
C31B
  8
ALPHA
 10
122.713584
 20
55.400977
 30
0.0
 11
122.633776
 21
55.3549
 31
0.0
  0
LINE
  5
C31C
  8
ALPHA
 10
122.631073
 20
55.313961
 30
0.0
 11
122.633534
 21
55.279861
 31
0.0
  0
LINE
  5
C31D
  8
ALPHA
 10
122.633776
 20
55.3549
 30
0.0
 11
122.631073
 21
55.313961
 31
0.0
  0
LINE
  5
C31E
  8
ALPHA
 10
122.718149
 20
55.235853
 30
0.0
 11
122.760199
 21
55.239357
 31
0.0
  0
LINE
  5
C31F
  8
ALPHA
 10
122.67463
 20
55.24977
 30
0.0
 11
122.718149
 21
55.235853
 31
0.0
  0
LINE
  5
C320
  8
ALPHA
 10
122.644013
 20
55.270406
 30
0.0
 11
122.67463
 21
55.24977
 31
0.0
  0
LINE
  5
C321
  8
ALPHA
 10
122.633534
 20
55.279862
 30
0.0
 11
122.644013
 21
55.270406
 31
0.0
  0
LINE
  5
C322
  8
ALPHA
 10
122.713598
 20
55.400981
 30
0.0
 11
123.066084
 21
55.511179
 31
0.0
  0
LINE
  5
C323
  8
ALPHA
 10
123.067804
 20
54.307064
 30
0.0
 11
123.014571
 21
54.359955
 31
0.0
  0
LINE
  5
C324
  8
ALPHA
 10
123.00983
 20
54.367277
 30
0.0
 11
123.005122
 21
54.375819
 31
0.0
  0
LINE
  5
C325
  8
ALPHA
 10
123.014571
 20
54.359955
 30
0.0
 11
123.00983
 21
54.367277
 31
0.0
  0
LINE
  5
C326
  8
ALPHA
 10
123.047703
 20
54.225839
 30
0.0
 11
123.047897
 21
54.216179
 31
0.0
  0
LINE
  5
C327
  8
ALPHA
 10
123.048149
 20
54.234644
 30
0.0
 11
123.047703
 21
54.225839
 31
0.0
  0
LINE
  5
C328
  8
ALPHA
 10
123.054597
 20
54.268219
 30
0.0
 11
123.048149
 21
54.234644
 31
0.0
  0
LINE
  5
C329
  8
ALPHA
 10
123.067804
 20
54.307064
 30
0.0
 11
123.054597
 21
54.268219
 31
0.0
  0
LINE
  5
C32A
  8
ALPHA
 10
123.080056
 20
54.194942
 30
0.0
 11
123.118491
 21
54.170237
 31
0.0
  0
LINE
  5
C32B
  8
ALPHA
 10
123.048149
 20
54.234646
 30
0.0
 11
123.080056
 21
54.194942
 31
0.0
  0
LINE
  5
C32C
  8
ALPHA
 10
123.080055
 20
52.170256
 30
0.0
 11
123.11849
 21
52.194963
 31
0.0
  0
LINE
  5
C32D
  8
ALPHA
 10
123.048149
 20
52.130554
 30
0.0
 11
123.080055
 21
52.170256
 31
0.0
  0
LINE
  5
C32E
  8
ALPHA
 10
123.05454
 20
52.09719
 30
0.0
 11
123.048149
 21
52.130552
 31
0.0
  0
LINE
  5
C32F
  8
ALPHA
 10
123.067804
 20
52.058131
 30
0.0
 11
123.05454
 21
52.09719
 31
0.0
  0
LINE
  5
C330
  8
ALPHA
 10
123.047704
 20
52.139264
 30
0.0
 11
123.047897
 21
52.149016
 31
0.0
  0
LINE
  5
C331
  8
ALPHA
 10
123.048149
 20
52.130552
 30
0.0
 11
123.047704
 21
52.139264
 31
0.0
  0
LINE
  5
C332
  8
ALPHA
 10
123.009783
 20
51.997839
 30
0.0
 11
123.005122
 21
51.989376
 31
0.0
  0
LINE
  5
C333
  8
ALPHA
 10
123.014572
 20
52.005241
 30
0.0
 11
123.009783
 21
51.997839
 31
0.0
  0
LINE
  5
C334
  8
ALPHA
 10
122.71815
 20
51.129346
 30
0.0
 11
122.760201
 21
51.125844
 31
0.0
  0
LINE
  5
C335
  8
ALPHA
 10
122.67463
 20
51.115429
 30
0.0
 11
122.71815
 21
51.129346
 31
0.0
  0
LINE
  5
C336
  8
ALPHA
 10
122.644012
 20
51.094791
 30
0.0
 11
122.67463
 21
51.115429
 31
0.0
  0
LINE
  5
C337
  8
ALPHA
 10
122.633535
 20
51.085337
 30
0.0
 11
122.644012
 21
51.094791
 31
0.0
  0
LINE
  5
C338
  8
ALPHA
 10
123.066084
 20
50.854016
 30
0.0
 11
122.713595
 21
50.964208
 31
0.0
  0
LINE
  5
C339
  8
ALPHA
 10
123.067804
 20
52.058131
 30
0.0
 11
123.014572
 21
52.005241
 31
0.0
  0
LINE
  5
C33A
  8
ALPHA
 10
123.043286
 20
51.914292
 30
0.0
 11
123.075497
 21
51.887035
 31
0.0
  0
LINE
  5
C33B
  8
ALPHA
 10
123.022354
 20
51.954905
 30
0.0
 11
123.043286
 21
51.914292
 31
0.0
  0
LINE
  5
C33C
  8
ALPHA
 10
123.014573
 20
52.005243
 30
0.0
 11
123.022354
 21
51.954905
 31
0.0
  0
LINE
  5
C33D
  8
ALPHA
 10
122.631073
 20
51.051456
 30
0.0
 11
122.633535
 21
51.085336
 31
0.0
  0
LINE
  5
C33E
  8
ALPHA
 10
122.633776
 20
51.010295
 30
0.0
 11
122.631073
 21
51.051456
 31
0.0
  0
LINE
  5
C33F
  8
ALPHA
 10
122.635359
 20
51.093866
 30
0.0
 11
122.638071
 21
51.103236
 31
0.0
  0
LINE
  5
C340
  8
ALPHA
 10
122.633535
 20
51.085336
 30
0.0
 11
122.635359
 21
51.093866
 31
0.0
  0
LINE
  5
C341
  8
ALPHA
 10
122.562128
 20
50.967074
 30
0.0
 11
122.555435
 21
50.960106
 31
0.0
  0
LINE
  5
C342
  8
ALPHA
 10
122.568669
 20
50.972985
 30
0.0
 11
122.562128
 21
50.967074
 31
0.0
  0
LINE
  5
C343
  8
ALPHA
 10
122.985272
 20
50.714045
 30
0.0
 11
123.00235
 21
50.738438
 31
0.0
  0
LINE
  5
C344
  8
ALPHA
 10
122.713584
 20
50.964218
 30
0.0
 11
122.633776
 21
51.010295
 31
0.0
  0
LINE
  5
C345
  8
ALPHA
 10
122.633776
 20
51.010295
 30
0.0
 11
122.568669
 21
50.972985
 31
0.0
  0
LINE
  5
C346
  8
ALPHA
 10
122.572866
 20
50.877703
 30
0.0
 11
122.596925
 21
50.843038
 31
0.0
  0
LINE
  5
C347
  8
ALPHA
 10
122.563158
 20
50.922349
 30
0.0
 11
122.572866
 21
50.877703
 31
0.0
  0
LINE
  5
C348
  8
ALPHA
 10
122.565721
 20
50.959183
 30
0.0
 11
122.563158
 21
50.922349
 31
0.0
  0
LINE
  5
C349
  8
ALPHA
 10
122.56867
 20
50.972986
 30
0.0
 11
122.565721
 21
50.959183
 31
0.0
  0
LINE
  5
C34A
  8
ALPHA
 10
122.985272
 20
50.714045
 30
0.0
 11
122.927957
 21
50.534345
 31
0.0
  0
LINE
  5
C34B
  8
ALPHA
 10
122.713595
 20
50.964208
 30
0.0
 11
122.985272
 21
50.714045
 31
0.0
  0
ARC
  5
C34C
  8
ALPHA
 10
118.871238
 20
53.182597
 30
0.0
 40
4.8
 50
329.389452
 51
330.610548
  0
ARC
  5
C34D
  8
ALPHA
 10
118.871238
 20
53.182597
 30
0.0
 40
4.8
 50
29.389452
 51
30.610548
  0
ARC
  5
C34E
  8
ALPHA
 10
122.025618
 20
56.250151
 30
0.0
 40
0.1
 50
224.200498
 51
302.0
  0
ARC
  5
C34F
  8
ALPHA
 10
122.928443
 20
56.104769
 30
0.0
 40
0.2
 50
313.0
 51
35.763034
  0
ARC
  5
C350
  8
ALPHA
 10
122.650681
 20
55.435553
 30
0.0
 40
0.1
 50
133.0
 51
210.799502
  0
ARC
  5
C351
  8
ALPHA
 10
118.871238
 20
53.182597
 30
0.0
 40
4.3
 50
29.200498
 51
30.799502
  0
ARC
  5
C352
  8
ALPHA
 10
122.712077
 20
55.329213
 30
0.0
 40
0.1
 50
209.200498
 51
287.0
  0
ARC
  5
C353
  8
ALPHA
 10
123.105008
 20
54.380594
 30
0.0
 40
0.1
 50
118.0
 51
195.799502
  0
ARC
  5
C354
  8
ALPHA
 10
118.871238
 20
53.182597
 30
0.0
 40
4.3
 50
14.200498
 51
15.799502
  0
ARC
  5
C355
  8
ALPHA
 10
123.136788
 20
54.261987
 30
0.0
 40
0.1
 50
194.200498
 51
272.0
  0
ARC
  5
C356
  8
ALPHA
 10
123.136788
 20
52.103208
 30
0.0
 40
0.1
 50
88.0
 51
165.799502
  0
ARC
  5
C357
  8
ALPHA
 10
118.871238
 20
53.182597
 30
0.0
 40
4.3
 50
344.200498
 51
345.799502
  0
ARC
  5
C358
  8
ALPHA
 10
123.105008
 20
51.984601
 30
0.0
 40
0.1
 50
164.200498
 51
242.0
  0
ARC
  5
C359
  8
ALPHA
 10
122.712077
 20
51.035982
 30
0.0
 40
0.1
 50
73.0
 51
150.799502
  0
ARC
  5
C35A
  8
ALPHA
 10
118.871238
 20
53.182597
 30
0.0
 40
4.3
 50
329.200498
 51
330.799502
  0
ARC
  5
C35B
  8
ALPHA
 10
122.650681
 20
50.929642
 30
0.0
 40
0.1
 50
149.200498
 51
227.0
  0
LINE
  5
C35C
  8
ALPHA
 10
123.064843
 20
55.958498
 30
0.0
 11
122.582482
 21
55.508689
 31
0.0
  0
LINE
  5
C35D
  8
ALPHA
 10
121.199819
 20
57.377443
 30
0.0
 11
121.089628
 21
57.024954
 31
0.0
  0
LINE
  5
C35E
  8
ALPHA
 10
121.199819
 20
57.377443
 30
0.0
 11
121.060334
 21
57.50441
 31
0.0
  0
LINE
  5
C35F
  8
ALPHA
 10
121.094653
 20
56.87708
 30
0.0
 11
121.131486
 21
56.874517
 31
0.0
  0
LINE
  5
C360
  8
ALPHA
 10
121.089628
 20
57.024954
 30
0.0
 11
121.339791
 21
57.296631
 31
0.0
  0
ARC
  5
C361
  8
ALPHA
 10
120.923795
 20
57.741875
 30
0.0
 40
0.399997
 50
343.0
 51
65.763034
  0
ARC
  5
C362
  8
ALPHA
 10
120.923795
 20
57.741875
 30
0.0
 40
0.2
 50
343.0
 51
65.763034
  0
ARC
  5
C363
  8
ALPHA
 10
121.124194
 20
56.962041
 30
0.0
 40
0.1
 50
239.200498
 51
317.0
  0
LINE
  5
C364
  8
ALPHA
 10
121.115056
 20
57.6834
 30
0.0
 11
120.922224
 21
57.052673
 31
0.0
  0
LINE
  5
C365
  8
ALPHA
 10
119.858873
 20
57.429849
 30
0.0
 11
119.851372
 21
57.471374
 31
0.0
  0
LINE
  5
C366
  8
ALPHA
 10
119.88358
 20
57.391415
 30
0.0
 11
119.858873
 21
57.429849
 31
0.0
  0
LINE
  5
C367
  8
ALPHA
 10
119.923282
 20
57.359508
 30
0.0
 11
119.88358
 21
57.391415
 31
0.0
  0
LINE
  5
C368
  8
ALPHA
 10
120.034769
 20
57.837189
 30
0.0
 11
120.019563
 21
57.468191
 31
0.0
  0
LINE
  5
C369
  8
ALPHA
 10
120.034769
 20
57.837189
 30
0.0
 11
119.867174
 21
57.923728
 31
0.0
  0
LINE
  5
C36A
  8
ALPHA
 10
119.956646
 20
57.365899
 30
0.0
 11
119.923283
 21
57.359508
 31
0.0
  0
LINE
  5
C36B
  8
ALPHA
 10
119.995705
 20
57.379163
 30
0.0
 11
119.956646
 21
57.365899
 31
0.0
  0
LINE
  5
C36C
  8
ALPHA
 10
119.914572
 20
57.359063
 30
0.0
 11
119.90482
 21
57.359257
 31
0.0
  0
LINE
  5
C36D
  8
ALPHA
 10
119.923283
 20
57.359508
 30
0.0
 11
119.914572
 21
57.359063
 31
0.0
  0
LINE
  5
C36E
  8
ALPHA
 10
120.055997
 20
57.321143
 30
0.0
 11
120.06446
 21
57.316481
 31
0.0
  0
LINE
  5
C36F
  8
ALPHA
 10
120.048594
 20
57.325932
 30
0.0
 11
120.055997
 21
57.321143
 31
0.0
  0
LINE
  5
C370
  8
ALPHA
 10
120.92449
 20
57.029509
 30
0.0
 11
120.927992
 21
57.07156
 31
0.0
  0
LINE
  5
C371
  8
ALPHA
 10
120.938407
 20
56.985989
 30
0.0
 11
120.92449
 21
57.029509
 31
0.0
  0
LINE
  5
C372
  8
ALPHA
 10
120.959045
 20
56.955371
 30
0.0
 11
120.938407
 21
56.985989
 31
0.0
  0
LINE
  5
C373
  8
ALPHA
 10
120.968498
 20
56.944895
 30
0.0
 11
120.959045
 21
56.955371
 31
0.0
  0
LINE
  5
C374
  8
ALPHA
 10
120.190887
 20
57.795357
 30
0.0
 11
120.162904
 21
57.80554
 31
0.0
  0
LINE
  5
C375
  8
ALPHA
 10
120.019556
 20
57.468178
 30
0.0
 11
119.995705
 21
57.379163
 31
0.0
  0
LINE
  5
C376
  8
ALPHA
 10
119.995705
 20
57.379163
 30
0.0
 11
120.048594
 21
57.325932
 31
0.0
  0
LINE
  5
C377
  8
ALPHA
 10
120.139544
 20
57.354646
 30
0.0
 11
120.166801
 21
57.386857
 31
0.0
  0
LINE
  5
C378
  8
ALPHA
 10
120.098931
 20
57.333713
 30
0.0
 11
120.139544
 21
57.354646
 31
0.0
  0
LINE
  5
C379
  8
ALPHA
 10
120.048593
 20
57.325932
 30
0.0
 11
120.098931
 21
57.333713
 31
0.0
  0
LINE
  5
C37A
  8
ALPHA
 10
120.190887
 20
57.795357
 30
0.0
 11
120.379297
 21
57.786505
 31
0.0
  0
LINE
  5
C37B
  8
ALPHA
 10
120.019563
 20
57.468191
 30
0.0
 11
120.190887
 21
57.795357
 31
0.0
  0
LINE
  5
C37C
  8
ALPHA
 10
121.00238
 20
56.942432
 30
0.0
 11
120.9685
 21
56.944894
 31
0.0
  0
LINE
  5
C37D
  8
ALPHA
 10
121.04354
 20
56.945135
 30
0.0
 11
121.00238
 21
56.942432
 31
0.0
  0
LINE
  5
C37E
  8
ALPHA
 10
120.95997
 20
56.946719
 30
0.0
 11
120.9506
 21
56.94943
 31
0.0
  0
LINE
  5
C37F
  8
ALPHA
 10
120.9685
 20
56.944894
 30
0.0
 11
120.95997
 21
56.946719
 31
0.0
  0
LINE
  5
C380
  8
ALPHA
 10
121.086761
 20
56.873487
 30
0.0
 11
121.09373
 21
56.866794
 31
0.0
  0
LINE
  5
C381
  8
ALPHA
 10
121.080851
 20
56.880029
 30
0.0
 11
121.086761
 21
56.873487
 31
0.0
  0
LINE
  5
C382
  8
ALPHA
 10
121.089618
 20
57.024943
 30
0.0
 11
121.04354
 21
56.945135
 31
0.0
  0
LINE
  5
C383
  8
ALPHA
 10
121.04354
 20
56.945135
 30
0.0
 11
121.080851
 21
56.880029
 31
0.0
  0
LINE
  5
C384
  8
ALPHA
 10
121.08085
 20
56.880029
 30
0.0
 11
121.094653
 21
56.87708
 31
0.0
  0
LINE
  5
C385
  8
ALPHA
 10
120.034769
 20
57.837189
 30
0.0
 11
120.064094
 21
57.832016
 31
0.0
  0
ARC
  5
C386
  8
ALPHA
 10
119.673828
 20
58.117762
 30
0.0
 40
0.399997
 50
358.0
 51
80.763034
  0
ARC
  5
C387
  8
ALPHA
 10
118.871238
 20
53.182597
 30
0.0
 40
5.399993
 50
80.763034
 51
84.236966
  0
ARC
  5
C388
  8
ALPHA
 10
118.871238
 20
53.182597
 30
0.0
 40
5.4
 50
65.763034
 51
69.236966
  0
ARC
  5
C389
  8
ALPHA
 10
120.643757
 20
57.85787
 30
0.0
 40
0.399997
 50
69.236966
 51
152.0
  0
ARC
  5
C38A
  8
ALPHA
 10
118.871238
 20
53.182597
 30
0.0
 40
4.8
 50
74.389452
 51
75.610548
  0
ARC
  5
C38B
  8
ALPHA
 10
119.673828
 20
58.117762
 30
0.0
 40
0.2
 50
358.0
 51
80.763034
  0
ARC
  5
C38C
  8
ALPHA
 10
118.871238
 20
53.182597
 30
0.0
 40
5.2
 50
80.763034
 51
84.236966
  0
ARC
  5
C38D
  8
ALPHA
 10
119.37331
 20
58.157326
 30
0.0
 40
0.2
 50
84.236966
 51
167.0
  0
ARC
  5
C38E
  8
ALPHA
 10
119.950628
 20
57.448148
 30
0.0
 40
0.1
 50
178.0
 51
255.799502
  0
ARC
  5
C38F
  8
ALPHA
 10
118.871238
 20
53.182597
 30
0.0
 40
4.3
 50
74.200498
 51
75.799502
  0
ARC
  5
C390
  8
ALPHA
 10
120.069234
 20
57.416367
 30
0.0
 40
0.1
 50
254.200498
 51
332.0
  0
ARC
  5
C391
  8
ALPHA
 10
118.871238
 20
53.182597
 30
0.0
 40
5.2
 50
65.763034
 51
69.236966
  0
ARC
  5
C392
  8
ALPHA
 10
120.643757
 20
57.85787
 30
0.0
 40
0.2
 50
69.236966
 51
152.0
  0
ARC
  5
C393
  8
ALPHA
 10
121.017854
 20
57.023436
 30
0.0
 40
0.1
 50
163.0
 51
240.799502
  0
ARC
  5
C394
  8
ALPHA
 10
118.871238
 20
53.182597
 30
0.0
 40
4.3
 50
59.200498
 51
60.799502
  0
LINE
  5
C395
  8
ALPHA
 10
120.157529
 20
57.36942
 30
0.0
 11
120.467167
 21
57.951765
 31
0.0
  0
LINE
  5
C396
  8
ALPHA
 10
120.162904
 20
57.80554
 30
0.0
 11
120.290578
 21
58.045659
 31
0.0
  0
LINE
  5
C397
  8
ALPHA
 10
121.088
 20
58.106617
 30
0.0
 11
121.005898
 21
57.924246
 31
0.0
  0
LINE
  5
C398
  8
ALPHA
 10
120.785559
 20
58.231892
 30
0.0
 11
120.714658
 21
58.044881
 31
0.0
  0
LINE
  5
C399
  8
ALPHA
 10
119.738036
 20
58.512575
 30
0.0
 11
119.705932
 21
58.315169
 31
0.0
  0
LINE
  5
C39A
  8
ALPHA
 10
119.413476
 20
58.555304
 30
0.0
 11
119.393393
 21
58.356315
 31
0.0
  0
LINE
  5
C39B
  8
ALPHA
 10
120.073585
 20
58.103802
 30
0.0
 11
120.064094
 21
57.832016
 31
0.0
  0
LINE
  5
C39C
  8
ALPHA
 10
119.873707
 20
58.110782
 30
0.0
 11
119.850689
 21
57.451638
 31
0.0
  0
LINE
  5
C39D
  8
ALPHA
 10
120.290578
 20
58.045659
 30
0.0
 11
120.467167
 21
57.951765
 31
0.0
  0
LINE
  5
C39E
  8
ALPHA
 10
120.073585
 20
58.103802
 30
0.0
 11
119.873707
 21
58.110782
 31
0.0
  0
LINE
  5
C39F
  8
ALPHA
 10
121.85236
 20
56.321369
 30
0.0
 11
121.864447
 21
56.40672
 31
0.0
  0
LINE
  5
C3A0
  8
ALPHA
 10
121.86437
 20
56.286453
 30
0.0
 11
121.85236
 21
56.321369
 31
0.0
  0
LINE
  5
C3A1
  8
ALPHA
 10
121.87079
 20
56.273886
 30
0.0
 11
121.86437
 21
56.286453
 31
0.0
  0
LINE
  5
C3A2
  8
ALPHA
 10
122.206181
 20
56.631826
 30
0.0
 11
122.008513
 21
56.319868
 31
0.0
  0
LINE
  5
C3A3
  8
ALPHA
 10
122.206181
 20
56.631826
 30
0.0
 11
122.10431
 21
56.790569
 31
0.0
  0
LINE
  5
C3A4
  8
ALPHA
 10
121.339791
 20
57.296631
 30
0.0
 11
121.315398
 21
57.313709
 31
0.0
  0
LINE
  5
C3A5
  8
ALPHA
 10
121.176133
 20
56.884225
 30
0.0
 11
121.210798
 21
56.908284
 31
0.0
  0
LINE
  5
C3A6
  8
ALPHA
 10
121.131486
 20
56.874517
 30
0.0
 11
121.176133
 21
56.884225
 31
0.0
  0
LINE
  5
C3A7
  8
ALPHA
 10
121.339791
 20
57.296631
 30
0.0
 11
121.51949
 21
57.239316
 31
0.0
  0
LINE
  5
C3A8
  8
ALPHA
 10
121.90288
 20
56.262739
 30
0.0
 11
121.870791
 21
56.273885
 31
0.0
  0
LINE
  5
C3A9
  8
ALPHA
 10
121.943337
 20
56.254697
 30
0.0
 11
121.90288
 21
56.262739
 31
0.0
  0
LINE
  5
C3AA
  8
ALPHA
 10
121.863024
 20
56.277856
 30
0.0
 11
121.854676
 21
56.2829
 31
0.0
  0
LINE
  5
C3AB
  8
ALPHA
 10
121.870791
 20
56.273885
 30
0.0
 11
121.863024
 21
56.277856
 31
0.0
  0
LINE
  5
C3AC
  8
ALPHA
 10
122.320467
 20
56.51754
 30
0.0
 11
122.301325
 21
56.54035
 31
0.0
  0
LINE
  5
C3AD
  8
ALPHA
 10
122.008501
 20
56.31986
 30
0.0
 11
121.943337
 21
56.254697
 31
0.0
  0
LINE
  5
C3AE
  8
ALPHA
 10
122.320467
 20
56.51754
 30
0.0
 11
122.479209
 21
56.415669
 31
0.0
  0
LINE
  5
C3AF
  8
ALPHA
 10
122.008513
 20
56.319868
 30
0.0
 11
122.320467
 21
56.51754
 31
0.0
  0
LINE
  5
C3B0
  8
ALPHA
 10
122.206181
 20
56.631826
 30
0.0
 11
122.228991
 21
56.612685
 31
0.0
  0
LINE
  5
C3B1
  8
ALPHA
 10
121.199819
 20
57.377443
 30
0.0
 11
121.226806
 21
57.364857
 31
0.0
  0
ARC
  5
C3B2
  8
ALPHA
 10
122.033884
 20
57.05528
 30
0.0
 40
0.399997
 50
328.0
 51
50.763034
  0
ARC
  5
C3B3
  8
ALPHA
 10
118.871238
 20
53.182597
 30
0.0
 40
5.399994
 50
50.763034
 51
54.236966
  0
ARC
  5
C3B4
  8
ALPHA
 10
121.79341
 20
57.239803
 30
0.0
 40
0.399997
 50
54.236966
 51
137.0
  0
ARC
  5
C3B5
  8
ALPHA
 10
122.743921
 20
56.345243
 30
0.0
 40
0.399997
 50
39.236966
 51
122.0
  0
ARC
  5
C3B6
  8
ALPHA
 10
118.871238
 20
53.182597
 30
0.0
 40
4.8
 50
44.389452
 51
45.610548
  0
ARC
  5
C3B7
  8
ALPHA
 10
118.871238
 20
53.182597
 30
0.0
 40
4.8
 50
59.389452
 51
60.610548
  0
ARC
  5
C3B8
  8
ALPHA
 10
122.033884
 20
57.05528
 30
0.0
 40
0.2
 50
328.0
 51
50.763034
  0
ARC
  5
C3B9
  8
ALPHA
 10
118.871238
 20
53.182597
 30
0.0
 40
5.2
 50
50.763034
 51
54.236966
  0
ARC
  5
C3BA
  8
ALPHA
 10
121.79341
 20
57.239803
 30
0.0
 40
0.2
 50
54.236966
 51
137.0
  0
ARC
  5
C3BB
  8
ALPHA
 10
121.938792
 20
56.336977
 30
0.0
 40
0.1
 50
148.0
 51
225.799502
  0
ARC
  5
C3BC
  8
ALPHA
 10
122.743921
 20
56.345243
 30
0.0
 40
0.2
 50
39.236966
 51
122.0
  0
LINE
  5
C3BD
  8
ALPHA
 10
122.301325
 20
56.54035
 30
0.0
 11
122.531953
 21
56.684462
 31
0.0
  0
LINE
  5
C3BE
  8
ALPHA
 10
123.053736
 20
56.598255
 30
0.0
 11
122.898828
 21
56.471749
 31
0.0
  0
LINE
  5
C3BF
  8
ALPHA
 10
121.197329
 20
56.893841
 30
0.0
 11
121.647139
 21
57.376202
 31
0.0
  0
LINE
  5
C3C0
  8
ALPHA
 10
121.315398
 20
57.313709
 30
0.0
 11
121.500868
 21
57.512602
 31
0.0
  0
LINE
  5
C3C1
  8
ALPHA
 10
122.286896
 20
57.365095
 30
0.0
 11
122.16039
 21
57.210188
 31
0.0
  0
LINE
  5
C3C2
  8
ALPHA
 10
122.027183
 20
57.564379
 30
0.0
 11
121.910296
 21
57.402091
 31
0.0
  0
LINE
  5
C3C3
  8
ALPHA
 10
122.373103
 20
56.843313
 30
0.0
 11
122.228991
 21
56.612685
 31
0.0
  0
LINE
  5
C3C4
  8
ALPHA
 10
122.203494
 20
56.949296
 30
0.0
 11
121.853987
 21
56.389969
 31
0.0
  0
LINE
  5
C3C5
  8
ALPHA
 10
121.306317
 20
57.624926
 30
0.0
 11
121.226806
 21
57.364857
 31
0.0
  0
LINE
  5
C3C6
  8
ALPHA
 10
122.531953
 20
56.684462
 30
0.0
 11
122.637937
 21
56.514853
 31
0.0
  0
LINE
  5
C3C7
  8
ALPHA
 10
121.500868
 20
57.512602
 30
0.0
 11
121.647139
 21
57.376202
 31
0.0
  0
LINE
  5
C3C8
  8
ALPHA
 10
122.373103
 20
56.843313
 30
0.0
 11
122.203494
 21
56.949296
 31
0.0
  0
LINE
  5
C3C9
  8
ALPHA
 10
121.306317
 20
57.624926
 30
0.0
 11
121.115056
 21
57.6834
 31
0.0
  0
ARC
  5
C3CA
  8
ALPHA
 10
122.928443
 20
50.260426
 30
0.0
 40
0.399997
 50
324.236966
 51
47.0
  0
LINE
  5
C3CB
  8
ALPHA
 10
130.871238
 20
59.682597
 30
0.0
 11
130.871238
 21
46.682597
 31
0.0
  0
LINE
  5
C3CC
  8
ALPHA
 10
128.371238
 20
61.182597
 30
0.0
 11
128.371238
 21
45.182597
 31
0.0
  0
ARC
  5
C3CD
  8
ALPHA
 10
129.371238
 20
46.682597
 30
0.0
 40
1.5
 50
270.0
 51
0.0
  0
ARC
  5
C3CE
  8
ALPHA
 10
122.928443
 20
56.104769
 30
0.0
 40
0.399997
 50
313.0
 51
35.763034
  0
LINE
  5
C3CF
  8
ALPHA
 10
123.525829
 20
52.019067
 30
0.0
 11
123.520657
 21
51.989742
 31
0.0
  0
LINE
  5
C3D0
  8
ALPHA
 10
123.668372
 20
53.26341
 30
0.0
 11
123.670966
 21
53.233746
 31
0.0
  0
LINE
  5
C3D1
  8
ALPHA
 10
123.483998
 20
54.502246
 30
0.0
 11
123.494181
 21
54.474264
 31
0.0
  0
LINE
  5
C3D2
  8
ALPHA
 10
123.483998
 20
54.502246
 30
0.0
 11
123.156833
 21
54.330916
 31
0.0
  0
LINE
  5
C3D3
  8
ALPHA
 10
123.483998
 20
54.502246
 30
0.0
 11
123.475146
 21
54.690657
 31
0.0
  0
LINE
  5
C3D4
  8
ALPHA
 10
123.229387
 20
53.327885
 30
0.0
 11
123.267556
 21
53.345878
 31
0.0
  0
LINE
  5
C3D5
  8
ALPHA
 10
123.198657
 20
53.294073
 30
0.0
 11
123.229387
 21
53.327885
 31
0.0
  0
LINE
  5
C3D6
  8
ALPHA
 10
123.178113
 20
53.247465
 30
0.0
 11
123.198657
 21
53.294073
 31
0.0
  0
LINE
  5
C3D7
  8
ALPHA
 10
123.668372
 20
53.26341
 30
0.0
 11
123.308012
 21
53.182594
 31
0.0
  0
LINE
  5
C3D8
  8
ALPHA
 10
123.668372
 20
53.26341
 30
0.0
 11
123.708586
 21
53.447692
 31
0.0
  0
LINE
  5
C3D9
  8
ALPHA
 10
123.525829
 20
54.346128
 30
0.0
 11
123.520657
 21
54.375453
 31
0.0
  0
LINE
  5
C3DA
  8
ALPHA
 10
123.525829
 20
54.346128
 30
0.0
 11
123.612369
 21
54.178534
 31
0.0
  0
LINE
  5
C3DB
  8
ALPHA
 10
123.156833
 20
54.330916
 30
0.0
 11
123.525829
 21
54.346128
 31
0.0
  0
LINE
  5
C3DC
  8
ALPHA
 10
123.215842
 20
53.182597
 30
0.0
 11
123.178113
 21
53.247464
 31
0.0
  0
LINE
  5
C3DD
  8
ALPHA
 10
123.175429
 20
53.255763
 30
0.0
 11
123.173092
 21
53.265233
 31
0.0
  0
LINE
  5
C3DE
  8
ALPHA
 10
123.178113
 20
53.247464
 30
0.0
 11
123.175429
 21
53.255763
 31
0.0
  0
LINE
  5
C3DF
  8
ALPHA
 10
123.175404
 20
53.109343
 30
0.0
 11
123.173092
 21
53.099962
 31
0.0
  0
LINE
  5
C3E0
  8
ALPHA
 10
123.178114
 20
53.117732
 30
0.0
 11
123.175404
 21
53.109343
 31
0.0
  0
LINE
  5
C3E1
  8
ALPHA
 10
123.525829
 20
52.019067
 30
0.0
 11
123.156832
 21
52.034273
 31
0.0
  0
LINE
  5
C3E2
  8
ALPHA
 10
123.525829
 20
52.019067
 30
0.0
 11
123.612369
 21
52.186661
 31
0.0
  0
LINE
  5
C3E3
  8
ALPHA
 10
123.668372
 20
53.101785
 30
0.0
 11
123.670966
 21
53.131449
 31
0.0
  0
LINE
  5
C3E4
  8
ALPHA
 10
123.307997
 20
53.182597
 30
0.0
 11
123.215842
 21
53.182597
 31
0.0
  0
LINE
  5
C3E5
  8
ALPHA
 10
123.215842
 20
53.182597
 30
0.0
 11
123.178114
 21
53.117732
 31
0.0
  0
LINE
  5
C3E6
  8
ALPHA
 10
123.229389
 20
53.037314
 30
0.0
 11
123.267557
 21
53.019323
 31
0.0
  0
LINE
  5
C3E7
  8
ALPHA
 10
123.198658
 20
53.071125
 30
0.0
 11
123.229389
 21
53.037314
 31
0.0
  0
LINE
  5
C3E8
  8
ALPHA
 10
123.178114
 20
53.117734
 30
0.0
 11
123.198658
 21
53.071125
 31
0.0
  0
LINE
  5
C3E9
  8
ALPHA
 10
123.668372
 20
53.101785
 30
0.0
 11
123.708586
 21
52.917503
 31
0.0
  0
LINE
  5
C3EA
  8
ALPHA
 10
123.308012
 20
53.182594
 30
0.0
 11
123.668372
 21
53.101785
 31
0.0
  0
LINE
  5
C3EB
  8
ALPHA
 10
123.483998
 20
51.862949
 30
0.0
 11
123.494181
 21
51.890931
 31
0.0
  0
LINE
  5
C3EC
  8
ALPHA
 10
123.483998
 20
51.862949
 30
0.0
 11
123.475146
 21
51.674538
 31
0.0
  0
LINE
  5
C3ED
  8
ALPHA
 10
123.156832
 20
52.034273
 30
0.0
 11
123.483998
 21
51.862949
 31
0.0
  0
ARC
  5
C3EE
  8
ALPHA
 10
118.871238
 20
53.182597
 30
0.0
 40
4.8
 50
344.389452
 51
345.610548
  0
ARC
  5
C3EF
  8
ALPHA
 10
118.871238
 20
53.182597
 30
0.0
 40
4.8
 50
359.389452
 51
0.610548
  0
ARC
  5
C3F0
  8
ALPHA
 10
118.871238
 20
53.182597
 30
0.0
 40
4.8
 50
14.389452
 51
15.610548
  0
ARC
  5
C3F1
  8
ALPHA
 10
123.546511
 20
54.955116
 30
0.0
 40
0.399997
 50
298.0
 51
20.763034
  0
ARC
  5
C3F2
  8
ALPHA
 10
118.871238
 20
53.182597
 30
0.0
 40
5.4
 50
20.763034
 51
24.236966
  0
ARC
  5
C3F3
  8
ALPHA
 10
123.430515
 20
55.235155
 30
0.0
 40
0.399997
 50
24.236966
 51
107.0
  0
ARC
  5
C3F4
  8
ALPHA
 10
123.845967
 20
53.684669
 30
0.0
 40
0.399997
 50
283.0
 51
5.763034
  0
ARC
  5
C3F5
  8
ALPHA
 10
118.871238
 20
53.182597
 30
0.0
 40
5.399995
 50
5.763034
 51
9.236966
  0
ARC
  5
C3F6
  8
ALPHA
 10
123.806403
 20
53.985188
 30
0.0
 40
0.399997
 50
9.236966
 51
92.0
  0
ARC
  5
C3F7
  8
ALPHA
 10
123.806403
 20
52.380007
 30
0.0
 40
0.399997
 50
268.0
 51
350.763034
  0
ARC
  5
C3F8
  8
ALPHA
 10
118.871238
 20
53.182597
 30
0.0
 40
5.399992
 50
350.763034
 51
354.236966
  0
ARC
  5
C3F9
  8
ALPHA
 10
123.845967
 20
52.680525
 30
0.0
 40
0.399997
 50
354.236966
 51
77.0
  0
ARC
  5
C3FA
  8
ALPHA
 10
123.430515
 20
51.13004
 30
0.0
 40
0.399997
 50
253.0
 51
335.763034
  0
ARC
  5
C3FB
  8
ALPHA
 10
118.871238
 20
53.182597
 30
0.0
 40
5.399999
 50
335.763034
 51
339.236966
  0
ARC
  5
C3FC
  8
ALPHA
 10
123.546511
 20
51.410079
 30
0.0
 40
0.399997
 50
339.236966
 51
62.0
  0
ARC
  5
C3FD
  8
ALPHA
 10
123.546511
 20
54.955116
 30
0.0
 40
0.2
 50
298.0
 51
20.763034
  0
ARC
  5
C3FE
  8
ALPHA
 10
118.871238
 20
53.182597
 30
0.0
 40
5.2
 50
20.763034
 51
24.236966
  0
ARC
  5
C3FF
  8
ALPHA
 10
123.430515
 20
55.235155
 30
0.0
 40
0.2
 50
24.236966
 51
107.0
  0
ARC
  5
C400
  8
ALPHA
 10
123.845967
 20
53.684669
 30
0.0
 40
0.2
 50
283.0
 51
5.763034
  0
ARC
  5
C401
  8
ALPHA
 10
118.871238
 20
53.182597
 30
0.0
 40
5.2
 50
5.763034
 51
9.236966
  0
ARC
  5
C402
  8
ALPHA
 10
123.806403
 20
53.985188
 30
0.0
 40
0.2
 50
9.236966
 51
92.0
  0
ARC
  5
C403
  8
ALPHA
 10
118.871238
 20
53.182597
 30
0.0
 40
4.3
 50
359.200498
 51
0.799502
  0
ARC
  5
C404
  8
ALPHA
 10
123.806403
 20
52.380007
 30
0.0
 40
0.2
 50
268.0
 51
350.763034
  0
ARC
  5
C405
  8
ALPHA
 10
118.871238
 20
53.182597
 30
0.0
 40
5.2
 50
350.763034
 51
354.236966
  0
ARC
  5
C406
  8
ALPHA
 10
123.845967
 20
52.680525
 30
0.0
 40
0.2
 50
354.236966
 51
77.0
  0
ARC
  5
C407
  8
ALPHA
 10
123.430515
 20
51.13004
 30
0.0
 40
0.2
 50
253.0
 51
335.763034
  0
ARC
  5
C408
  8
ALPHA
 10
118.871238
 20
53.182597
 30
0.0
 40
5.2
 50
335.763034
 51
339.236966
  0
ARC
  5
C409
  8
ALPHA
 10
123.546511
 20
51.410079
 30
0.0
 40
0.2
 50
339.236966
 51
62.0
  0
LINE
  5
C40A
  8
ALPHA
 10
123.920533
 20
55.096918
 30
0.0
 11
123.733522
 21
55.026017
 31
0.0
  0
LINE
  5
C40B
  8
ALPHA
 10
123.795258
 20
55.399359
 30
0.0
 11
123.612887
 21
55.317257
 31
0.0
  0
LINE
  5
C40C
  8
ALPHA
 10
123.7343
 20
54.601937
 30
0.0
 11
123.494181
 21
54.474264
 31
0.0
  0
LINE
  5
C40D
  8
ALPHA
 10
123.7343
 20
51.763258
 30
0.0
 11
123.640405
 21
51.586668
 31
0.0
  0
LINE
  5
C40E
  8
ALPHA
 10
123.313567
 20
50.747518
 30
0.0
 11
123.372041
 21
50.938779
 31
0.0
  0
LINE
  5
C40F
  8
ALPHA
 10
123.935947
 20
53.070273
 30
0.0
 11
123.890957
 21
52.875399
 31
0.0
  0
LINE
  5
C410
  8
ALPHA
 10
123.792443
 20
51.980251
 30
0.0
 11
123.799423
 21
52.180129
 31
0.0
  0
LINE
  5
C411
  8
ALPHA
 10
123.792443
 20
54.384944
 30
0.0
 11
123.799423
 21
54.185066
 31
0.0
  0
LINE
  5
C412
  8
ALPHA
 10
123.935947
 20
53.294921
 30
0.0
 11
123.890957
 21
53.489795
 31
0.0
  0
LINE
  5
C413
  8
ALPHA
 10
123.313567
 20
55.617676
 30
0.0
 11
123.372041
 21
55.426416
 31
0.0
  0
LINE
  5
C414
  8
ALPHA
 10
123.7343
 20
54.601937
 30
0.0
 11
123.640405
 21
54.778527
 31
0.0
  0
LINE
  5
C415
  8
ALPHA
 10
123.494181
 20
51.890931
 30
0.0
 11
123.7343
 21
51.763258
 31
0.0
  0
LINE
  5
C416
  8
ALPHA
 10
123.795258
 20
50.965836
 30
0.0
 11
123.612887
 21
51.047938
 31
0.0
  0
LINE
  5
C417
  8
ALPHA
 10
123.920533
 20
51.268277
 30
0.0
 11
123.733522
 21
51.339178
 31
0.0
  0
LINE
  5
C418
  8
ALPHA
 10
123.670966
 20
53.131449
 30
0.0
 11
123.935947
 21
53.070273
 31
0.0
  0
LINE
  5
C419
  8
ALPHA
 10
123.248315
 20
53.023765
 30
0.0
 11
123.890957
 21
52.875399
 31
0.0
  0
LINE
  5
C41A
  8
ALPHA
 10
124.201216
 20
52.3158
 30
0.0
 11
124.003809
 21
52.347904
 31
0.0
  0
LINE
  5
C41B
  8
ALPHA
 10
124.243945
 20
52.64036
 30
0.0
 11
124.044956
 21
52.660443
 31
0.0
  0
LINE
  5
C41C
  8
ALPHA
 10
123.792443
 20
51.980251
 30
0.0
 11
123.520657
 21
51.989742
 31
0.0
  0
LINE
  5
C41D
  8
ALPHA
 10
123.520657
 20
54.375453
 30
0.0
 11
123.792443
 21
54.384944
 31
0.0
  0
LINE
  5
C41E
  8
ALPHA
 10
124.243945
 20
53.724835
 30
0.0
 11
124.044956
 21
53.704752
 31
0.0
  0
LINE
  5
C41F
  8
ALPHA
 10
124.201216
 20
54.049395
 30
0.0
 11
124.003809
 21
54.017291
 31
0.0
  0
LINE
  5
C420
  8
ALPHA
 10
123.890957
 20
53.489795
 30
0.0
 11
123.248315
 21
53.34143
 31
0.0
  0
LINE
  5
C421
  8
ALPHA
 10
123.935947
 20
53.294921
 30
0.0
 11
123.670966
 21
53.233746
 31
0.0
  0
ARC
  5
C422
  8
ALPHA
 10
129.371238
 20
59.682597
 30
0.0
 40
1.5
 50
0.0
 51
90.0
  0
LINE
  5
C424
  8
ALPHA
 10
126.371238
 20
150.182597
 30
0.0
 11
129.371238
 21
150.182597
 31
0.0
  0
LINE
  5
C45F
  8
AXE
 10
105.871238
 20
53.182597
 30
0.0
 11
140.871238
 21
53.182597
 31
0.0
  0
TEXT
  5
C460
  8
AXE
 10
136.823619
 20
54.182597
 30
0.0
 40
5.0
  1
X
 72
     2
 11
140.871238
 21
54.182597
 31
0.0
  0
LINE
  5
C469
  8
AXE
 10
127.871238
 20
14.396444
 30
0.0
 11
127.871238
 21
155.182597
 31
0.0
  0
TEXT
  5
C46A
  8
AXE
 10
122.823619
 20
14.396444
 30
0.0
 40
5.0
  1
Y
 72
     2
 11
126.871238
 21
14.396444
 31
0.0
  0
DIMENSION
  5
C46B
  8
COTATION1
  2
*D4
 10
160.871238
 20
25.182597
 30
0.0
 11
160.871238
 21
87.682597
 31
0.0
 13
129.371238
 23
150.182597
 33
0.0
 14
129.371238
 24
25.182597
 34
0.0
 50
90.0
  0
DIMENSION
  5
C46C
  8
COTATION1
  2
*D3
 10
130.871238
 20
4.396444
 30
0.0
 11
120.871238
 21
7.646444
 31
0.0
 13
110.871238
 23
53.182597
 33
0.0
 14
130.871238
 24
46.682597
 34
0.0
  0
DIMENSION
  5
C539
  8
COTATION1
  2
*D5
 10
150.871238
 20
45.182597
 30
0.0
 11
150.871238
 21
53.182597
 31
0.0
 70
   128
 13
129.371238
 23
61.182597
 33
0.0
 14
129.371238
 24
45.182597
 34
0.0
 50
90.0
  0
DIMENSION
  5
C5B6
  8
COTATION1
  2
*D6
 10
129.371238
 20
165.182597
 30
0.0
 11
137.79855
 21
167.939336
 31
0.0
 70
   128
  1
%%c<>
 13
126.371238
 23
150.182597
 33
0.0
 14
129.371238
 24
150.182597
 34
0.0
  0
VIEWPORT
  5
494D
 67
     1
  8
0
 10
4.995325
 20
6.556512
 30
0.0
 40
22.70986
 41
13.988421
 68
    -1
 69
     1
1001
ACAD
1000
MVIEW
1002
{
1070
    16
1010
0.0
1020
0.0
1030
0.0
1010
0.0
1020
0.0
1030
1.0
1040
0.0
1040
13.988421
1040
4.995325
1040
6.556512
1040
50.0
1040
0.0
1040
0.0
1070
     0
1070
   100
1070
     1
1070
     1
1070
     0
1070
     0
1070
     0
1070
     0
1040
0.0
1040
0.0
1040
0.0
1040
10.0
1040
10.0
1040
10.0
1040
10.0
1070
     0
1002
{
1002
}
1002
}
  0
ENDSEC
  0
EOF
