  0
SECTION
  2
HEADER
  9
$ACADVER
  1
AC1009
  9
$INSBASE
 10
402.590624
 20
-1.041018
 30
0.0
  9
$EXTMIN
 10
-310.062915
 20
39.228457
 30
0.0
  9
$EXTMAX
 10
-248.753391
 20
168.228457
 30
0.0
  9
$LIMMIN
 10
-407.970438
 20
-367.832444
  9
$LIMMAX
 10
429.804077
 20
234.370848
  9
$ORTHOMODE
 70
     1
  9
$REGENMODE
 70
     1
  9
$FILLMODE
 70
     1
  9
$QTEXTMODE
 70
     0
  9
$MIRRTEXT
 70
     1
  9
$DRAGMODE
 70
     2
  9
$LTSCALE
 40
10.0
  9
$OSMODE
 70
   161
  9
$ATTMODE
 70
     1
  9
$TEXTSIZE
 40
6.0
  9
$TRACEWID
 40
1.0
  9
$TEXTSTYLE
  7
ROMANS
  9
$CLAYER
  8
ALPHA
  9
$CELTYPE
  6
BYLAYER
  9
$CECOLOR
 62
   256
  9
$DIMSCALE
 40
1.0
  9
$DIMASZ
 40
5.0
  9
$DIMEXO
 40
2.0
  9
$DIMDLI
 40
0.38
  9
$DIMRND
 40
0.0
  9
$DIMDLE
 40
0.0
  9
$DIMEXE
 40
2.5
  9
$DIMTP
 40
0.0
  9
$DIMTM
 40
0.0
  9
$DIMTXT
 40
2.5
  9
$DIMCEN
 40
0.0
  9
$DIMTSZ
 40
0.0
  9
$DIMTOL
 70
     0
  9
$DIMLIM
 70
     0
  9
$DIMTIH
 70
     1
  9
$DIMTOH
 70
     1
  9
$DIMSE1
 70
     0
  9
$DIMSE2
 70
     0
  9
$DIMTAD
 70
     1
  9
$DIMZIN
 70
    12
  9
$DIMBLK
  1
OPEN30
  9
$DIMASO
 70
     1
  9
$DIMSHO
 70
     1
  9
$DIMPOST
  1

  9
$DIMAPOST
  1

  9
$DIMALT
 70
     0
  9
$DIMALTD
 70
     2
  9
$DIMALTF
 40
25.4
  9
$DIMLFAC
 40
1.0
  9
$DIMTOFL
 70
     0
  9
$DIMTVP
 40
0.0
  9
$DIMTIX
 70
     0
  9
$DIMSOXD
 70
     0
  9
$DIMSAH
 70
     0
  9
$DIMBLK1
  1

  9
$DIMBLK2
  1

  9
$DIMSTYLE
  2
SC_DEFAUT
  9
$DIMCLRD
 70
     0
  9
$DIMCLRE
 70
     0
  9
$DIMCLRT
 70
     0
  9
$DIMTFAC
 40
1.0
  9
$DIMGAP
 40
2.0
  9
$LUNITS
 70
     2
  9
$LUPREC
 70
     1
  9
$SKETCHINC
 40
0.1
  9
$FILLETRAD
 40
0.0
  9
$AUNITS
 70
     0
  9
$AUPREC
 70
     0
  9
$MENU
  1
acad
  9
$ELEVATION
 40
0.0
  9
$PELEVATION
 40
0.0
  9
$THICKNESS
 40
0.0
  9
$LIMCHECK
 70
     0
  9
$BLIPMODE
 70
     0
  9
$CHAMFERA
 40
0.0
  9
$CHAMFERB
 40
0.0
  9
$SKPOLY
 70
     0
  9
$TDCREATE
 40
2450373.687919
  9
$TDUPDATE
 40
2452825.583236
  9
$TDINDWG
 40
1.460745
  9
$TDUSRTIMER
 40
1.460745
  9
$USRTIMER
 70
     1
  9
$ANGBASE
 50
0.0
  9
$ANGDIR
 70
     0
  9
$PDMODE
 70
    32
  9
$PDSIZE
 40
0.0
  9
$PLINEWID
 40
0.0
  9
$COORDS
 70
     1
  9
$SPLFRAME
 70
     0
  9
$SPLINETYPE
 70
     6
  9
$SPLINESEGS
 70
     8
  9
$ATTDIA
 70
     0
  9
$ATTREQ
 70
     1
  9
$HANDLING
 70
     1
  9
$HANDSEED
  5
EDD4
  9
$SURFTAB1
 70
     6
  9
$SURFTAB2
 70
     6
  9
$SURFTYPE
 70
     6
  9
$SURFU
 70
     6
  9
$SURFV
 70
     6
  9
$UCSNAME
  2

  9
$UCSORG
 10
0.0
 20
0.0
 30
0.0
  9
$UCSXDIR
 10
1.0
 20
0.0
 30
0.0
  9
$UCSYDIR
 10
0.0
 20
1.0
 30
0.0
  9
$PUCSNAME
  2

  9
$PUCSORG
 10
0.0
 20
0.0
 30
0.0
  9
$PUCSXDIR
 10
1.0
 20
0.0
 30
0.0
  9
$PUCSYDIR
 10
0.0
 20
1.0
 30
0.0
  9
$USERI1
 70
     0
  9
$USERI2
 70
     0
  9
$USERI3
 70
     0
  9
$USERI4
 70
     0
  9
$USERI5
 70
     0
  9
$USERR1
 40
0.0
  9
$USERR2
 40
0.0
  9
$USERR3
 40
0.0
  9
$USERR4
 40
0.0
  9
$USERR5
 40
0.0
  9
$WORLDVIEW
 70
     1
  9
$SHADEDGE
 70
     3
  9
$SHADEDIF
 70
    70
  9
$TILEMODE
 70
     1
  9
$MAXACTVP
 70
    16
  9
$PLIMCHECK
 70
     0
  9
$PEXTMIN
 10
-1.452248
 20
-0.437698
 30
0.0
  9
$PEXTMAX
 10
12.749749
 20
8.310198
 30
0.0
  9
$PLIMMIN
 10
0.0
 20
0.0
  9
$PLIMMAX
 10
12.0
 20
9.0
  9
$UNITMODE
 70
     0
  9
$VISRETAIN
 70
     0
  9
$PLINEGEN
 70
     0
  9
$PSLTSCALE
 70
     0
  0
ENDSEC
  0
SECTION
  2
TABLES
  0
TABLE
  2
VPORT
 70
     2
  0
VPORT
  2
*ACTIVE
 70
     0
 10
0.0
 20
0.0
 11
1.0
 21
1.0
 12
-279.394752
 22
103.723169
 13
0.0
 23
0.0
 14
1.0
 24
1.0
 15
10.0
 25
10.0
 16
0.0
 26
0.0
 36
1.0
 17
0.0
 27
0.0
 37
0.0
 40
130.116297
 41
1.56
 42
50.0
 43
0.0
 44
0.0
 50
0.0
 51
0.0
 71
     0
 72
   100
 73
     1
 74
     0
 75
     0
 76
     0
 77
     0
 78
     0
  0
ENDTAB
  0
TABLE
  2
LTYPE
 70
     3
  0
LTYPE
  2
CONTINUOUS
 70
     0
  3
Solid line
 72
    65
 73
     0
 40
0.0
  0
LTYPE
  2
AXES2
 70
     0
  3
___ _ ___ _ ___ _ ___ _ ___ _ ___ _ ___ _ ___ _
 72
    65
 73
     4
 40
1.125
 49
0.75
 49
-0.125
 49
0.125
 49
-0.125
  0
LTYPE
  2
CACHE2
 70
     0
  3
Caché (x.5) _ _ _ _ _ _ _ _ _ _ _ _ _ _ _ _ _
 72
    65
 73
     2
 40
0.1875
 49
0.125
 49
-0.0625
  0
ENDTAB
  0
TABLE
  2
LAYER
 70
     6
  0
LAYER
  2
0
 70
     0
 62
   255
  6
CONTINUOUS
  0
LAYER
  2
COTATION1
 70
     0
 62
     2
  6
CONTINUOUS
  0
LAYER
  2
AXE
 70
     0
 62
    80
  6
AXES2
  0
LAYER
  2
DEFPOINTS
 70
     0
 62
     7
  6
CONTINUOUS
  0
LAYER
  2
ALPHA
 70
     0
 62
   254
  6
CONTINUOUS
  0
LAYER
  2
POINTILLE_COURT
 70
     0
 62
    41
  6
CACHE2
  0
ENDTAB
  0
TABLE
  2
STYLE
 70
     2
  0
STYLE
  2
ROMANS
 70
     0
 40
0.0
 41
1.0
 50
0.0
 71
     0
 42
6.0
  3
romans
  4

  0
STYLE
  2
STANDARD
 70
     0
 40
0.2
 41
1.0
 50
0.0
 71
     0
 42
0.2
  3
txt
  4

  0
ENDTAB
  0
TABLE
  2
VIEW
 70
     0
  0
ENDTAB
  0
TABLE
  2
UCS
 70
     0
  0
ENDTAB
  0
TABLE
  2
APPID
 70
     1
  0
APPID
  2
ACAD
 70
     0
  0
ENDTAB
  0
TABLE
  2
DIMSTYLE
 70
     1
  0
DIMSTYLE
  2
SC_DEFAUT
 70
     0
  3

  4

  5
OPEN30
  6

  7

 40
1.0
 41
5.0
 42
2.0
 43
0.38
 44
2.5
 45
0.0
 46
0.0
 47
0.0
 48
0.0
140
2.5
141
0.0
142
0.0
143
25.4
144
1.0
145
0.0
146
1.0
147
2.0
 71
     0
 72
     0
 73
     1
 74
     1
 75
     0
 76
     0
 77
     1
 78
    12
170
     0
171
     2
172
     0
173
     0
174
     0
175
     0
176
     0
177
     0
178
     0
  0
ENDTAB
  0
ENDSEC
  0
SECTION
  2
BLOCKS
  0
BLOCK
  8
0
  2
$MODEL_SPACE
 70
     0
 10
0.0
 20
0.0
 30
0.0
  3
$MODEL_SPACE
  1

  0
ENDBLK
  5
ED9B
  8
0
  0
BLOCK
 67
     1
  8
0
  2
$PAPER_SPACE
 70
     0
 10
0.0
 20
0.0
 30
0.0
  3
$PAPER_SPACE
  1

  0
ENDBLK
  5
ED99
 67
     1
  8
0
  0
BLOCK
  8
0
  2
COTE
 70
     0
 10
0.0
 20
0.0
 30
0.0
  3
COTE
  1

  0
ENDBLK
  5
F
  8
0
  0
BLOCK
  8
0
  2
FOND
 70
     0
 10
0.0
 20
0.0
 30
0.0
  3
FOND
  1

  0
ENDBLK
  5
75
  8
0
  0
BLOCK
  8
0
  2
_OPEN30
 70
     0
 10
0.0
 20
0.0
 30
0.0
  3
_OPEN30
  1

  0
LINE
  5
4B05
  8
COTATION1
 62
     0
 10
-1.0
 20
0.267949
 30
0.0
 11
0.0
 21
0.0
 31
0.0
1001
ACAD
1000
RTLwPs
1070
   158
  0
LINE
  5
4B06
  8
COTATION1
 62
     0
 10
0.0
 20
0.0
 30
0.0
 11
-1.0
 21
-0.267949
 31
0.0
1001
ACAD
1000
RTLwPs
1070
   158
  0
LINE
  5
4B07
  8
COTATION1
 62
     0
 10
0.0
 20
0.0
 30
0.0
 11
-1.0
 21
0.0
 31
0.0
1001
ACAD
1000
RTLwPs
1070
   158
  0
ENDBLK
  5
4B09
  8
0
  0
BLOCK
  8
0
  2
*D3
 70
     1
 10
0.0
 20
0.0
 30
0.0
  3
*D3
  1

  0
LINE
  5
E2C1
  8
COTATION1
 62
     0
 10
-305.062915
 20
66.728457
 30
0.0
 11
-305.062915
 21
39.228457
 31
0.0
1001
ACAD
1000
RTLwPs
1070
   158
  0
LINE
  5
E2C2
  8
COTATION1
 62
     0
 10
-275.062915
 20
65.728457
 30
0.0
 11
-275.062915
 21
39.228457
 31
0.0
1001
ACAD
1000
RTLwPs
1070
   158
  0
LINE
  5
E2C3
  8
COTATION1
 62
     0
 10
-300.062915
 20
41.728457
 30
0.0
 11
-280.062915
 21
41.728457
 31
0.0
1001
ACAD
1000
RTLwPs
1070
   158
  0
INSERT
  5
E2C4
  8
COTATION1
 62
     0
  2
_OPEN30
 10
-305.062915
 20
41.728457
 30
0.0
 41
5.0
 42
5.0
 43
5.0
 50
180.0
1001
ACAD
1000
RTLwPs
1070
   158
  0
INSERT
  5
E2C5
  8
COTATION1
 62
     0
  2
_OPEN30
 10
-275.062915
 20
41.728457
 30
0.0
 41
5.0
 42
5.0
 43
5.0
1001
ACAD
1000
RTLwPs
1070
   158
  0
TEXT
  5
E2C6
  8
COTATION1
 62
     0
 10
-292.443867
 20
43.728457
 30
0.0
 40
2.5
  1
30
1001
ACAD
1000
MTEXTBEGIN
1070
    73
1070
     1
1070
    44
1040
1.0
1070
    74
1070
     0
1000
MTEXTEND
1000
MTEXTBEGIN
1070
    73
1070
     1
1070
    44
1040
1.0
1070
    74
1070
     0
1000
MTEXTEND
1000
MTEXTBEGIN
1070
    73
1070
     1
1070
    44
1040
1.0
1070
    74
1070
     0
1000
MTEXTEND
1000
MTEXTBEGIN
1070
    73
1070
     1
1070
    44
1040
1.0
1070
    74
1070
     0
1000
MTEXTEND
1000
MTEXTBEGIN
1070
    73
1070
     1
1070
    44
1040
1.0
1070
    74
1070
     0
1000
MTEXTEND
1000
MTEXTBEGIN
1070
    73
1070
     1
1070
    44
1040
1.0
1070
    74
1070
     0
1000
MTEXTEND
1000
MTEXTBEGIN
1070
    73
1070
     1
1070
    44
1040
1.0
1070
    74
1070
     0
1000
MTEXTEND
  0
POINT
  5
E2C7
  8
DEFPOINTS
 62
     0
 10
-305.062915
 20
68.728457
 30
0.0
  0
POINT
  5
E2C8
  8
DEFPOINTS
 62
     0
 10
-275.062915
 20
67.728457
 30
0.0
  0
POINT
  5
E2C9
  8
DEFPOINTS
 62
     0
 10
-275.062915
 20
41.728457
 30
0.0
  0
ENDBLK
  5
C7B0
  8
0
  0
BLOCK
  8
0
  2
*D4
 70
     1
 10
0.0
 20
0.0
 30
0.0
  3
*D4
  1

  0
LINE
  5
ECCF
  8
COTATION1
 62
     0
 10
-285.562915
 20
139.228457
 30
0.0
 11
-250.062915
 21
139.228457
 31
0.0
1001
ACAD
1000
RTLwPs
1070
   158
  0
LINE
  5
ECD0
  8
COTATION1
 62
     0
 10
-273.062915
 20
67.728457
 30
0.0
 11
-250.062915
 21
67.728457
 31
0.0
1001
ACAD
1000
RTLwPs
1070
   158
  0
LINE
  5
ECD1
  8
COTATION1
 62
     0
 10
-252.562915
 20
134.228457
 30
0.0
 11
-252.562915
 21
106.728457
 31
0.0
1001
ACAD
1000
RTLwPs
1070
   158
  0
LINE
  5
ECD2
  8
COTATION1
 62
     0
 10
-252.562915
 20
72.728457
 30
0.0
 11
-252.562915
 21
100.228457
 31
0.0
1001
ACAD
1000
RTLwPs
1070
   158
  0
INSERT
  5
ECD3
  8
COTATION1
 62
     0
  2
_OPEN30
 10
-252.562915
 20
139.228457
 30
0.0
 41
5.0
 42
5.0
 43
5.0
 50
90.0
1001
ACAD
1000
RTLwPs
1070
   158
  0
INSERT
  5
ECD4
  8
COTATION1
 62
     0
  2
_OPEN30
 10
-252.562915
 20
67.728457
 30
0.0
 41
5.0
 42
5.0
 43
5.0
 50
270.0
1001
ACAD
1000
RTLwPs
1070
   158
  0
TEXT
  5
ECD5
  8
COTATION1
 62
     0
 10
-256.729581
 20
102.228457
 30
0.0
 40
2.5
  1
71.5
1001
ACAD
1000
MTEXTBEGIN
1070
    73
1070
     1
1070
    44
1040
1.0
1070
    74
1070
     0
1000
MTEXTEND
  0
POINT
  5
ECD6
  8
DEFPOINTS
 62
     0
 10
-287.562915
 20
139.228457
 30
0.0
  0
POINT
  5
ECD7
  8
DEFPOINTS
 62
     0
 10
-275.062915
 20
67.728457
 30
0.0
  0
POINT
  5
ECD8
  8
DEFPOINTS
 62
     0
 10
-252.562915
 20
67.728457
 30
0.0
  0
ENDBLK
  5
C7BD
  8
0
  0
BLOCK
  8
0
  2
*D5
 70
     1
 10
0.0
 20
0.0
 30
0.0
  3
*D5
  1

  0
LINE
  5
EA3D
  8
COTATION1
 62
     0
 10
-279.062915
 20
69.128457
 30
0.0
 11
-279.062915
 21
49.228457
 31
0.0
1001
ACAD
1000
RTLwPs
1070
   158
  0
LINE
  5
EA3E
  8
COTATION1
 62
     0
 10
-275.062915
 20
65.728457
 30
0.0
 11
-275.062915
 21
49.228457
 31
0.0
1001
ACAD
1000
RTLwPs
1070
   158
  0
LINE
  5
EA3F
  8
COTATION1
 62
     0
 10
-284.062915
 20
51.728457
 30
0.0
 11
-289.062915
 21
51.728457
 31
0.0
1001
ACAD
1000
RTLwPs
1070
   158
  0
LINE
  5
EA40
  8
COTATION1
 62
     0
 10
-270.062915
 20
51.728457
 30
0.0
 11
-259.2772
 21
51.728457
 31
0.0
1001
ACAD
1000
RTLwPs
1070
   158
  0
INSERT
  5
EA41
  8
COTATION1
 62
     0
  2
_OPEN30
 10
-279.062915
 20
51.728457
 30
0.0
 41
5.0
 42
5.0
 43
5.0
1001
ACAD
1000
RTLwPs
1070
   158
  0
INSERT
  5
EA42
  8
COTATION1
 62
     0
  2
_OPEN30
 10
-275.062915
 20
51.728457
 30
0.0
 41
5.0
 42
5.0
 43
5.0
 50
180.0
1001
ACAD
1000
RTLwPs
1070
   158
  0
TEXT
  5
EA43
  8
COTATION1
 62
     0
 10
-263.420058
 20
53.728457
 30
0.0
 40
2.5
  1
4
1001
ACAD
1000
MTEXTBEGIN
1070
    73
1070
     1
1070
    44
1040
1.0
1070
    74
1070
     0
1000
MTEXTEND
1000
MTEXTBEGIN
1070
    73
1070
     1
1070
    44
1040
1.0
1070
    74
1070
     0
1000
MTEXTEND
1000
MTEXTBEGIN
1070
    73
1070
     1
1070
    44
1040
1.0
1070
    74
1070
     0
1000
MTEXTEND
  0
POINT
  5
EA44
  8
DEFPOINTS
 62
     0
 10
-279.062915
 20
71.128457
 30
0.0
  0
POINT
  5
EA45
  8
DEFPOINTS
 62
     0
 10
-275.062915
 20
67.728457
 30
0.0
  0
POINT
  5
EA46
  8
DEFPOINTS
 62
     0
 10
-275.062915
 20
51.728457
 30
0.0
  0
ENDBLK
  5
EA20
  8
0
  0
BLOCK
  8
0
  2
*D6
 70
     1
 10
0.0
 20
0.0
 30
0.0
  3
*D6
  1

  0
LINE
  5
ECEE
  8
COTATION1
 62
     0
 10
-289.312915
 20
141.228457
 30
0.0
 11
-289.312915
 21
156.228457
 31
0.0
1001
ACAD
1000
RTLwPs
1070
   158
  0
LINE
  5
ECEF
  8
COTATION1
 62
     0
 10
-285.812915
 20
141.228457
 30
0.0
 11
-285.812915
 21
156.228457
 31
0.0
1001
ACAD
1000
RTLwPs
1070
   158
  0
LINE
  5
ECF0
  8
COTATION1
 62
     0
 10
-280.812915
 20
153.728457
 30
0.0
 11
-275.812915
 21
153.728457
 31
0.0
1001
ACAD
1000
RTLwPs
1070
   158
  0
LINE
  5
ECF1
  8
COTATION1
 62
     0
 10
-294.312915
 20
153.728457
 30
0.0
 11
-308.55101
 21
153.728457
 31
0.0
1001
ACAD
1000
RTLwPs
1070
   158
  0
INSERT
  5
ECF2
  8
COTATION1
 62
     0
  2
_OPEN30
 10
-285.812915
 20
153.728457
 30
0.0
 41
5.0
 42
5.0
 43
5.0
 50
180.0
1001
ACAD
1000
RTLwPs
1070
   158
  0
INSERT
  5
ECF3
  8
COTATION1
 62
     0
  2
_OPEN30
 10
-289.312915
 20
153.728457
 30
0.0
 41
5.0
 42
5.0
 43
5.0
1001
ACAD
1000
RTLwPs
1070
   158
  0
TEXT
  5
ECF4
  8
COTATION1
 62
     0
 10
-306.908153
 20
155.728457
 30
0.0
 40
2.5
  1
3.5
1001
ACAD
1000
MTEXTBEGIN
1070
    73
1070
     1
1070
    44
1040
1.0
1070
    74
1070
     0
1000
MTEXTEND
  0
POINT
  5
ECF5
  8
DEFPOINTS
 62
     0
 10
-289.312915
 20
139.228457
 30
0.0
  0
POINT
  5
ECF6
  8
DEFPOINTS
 62
     0
 10
-285.812915
 20
139.228457
 30
0.0
  0
POINT
  5
ECF7
  8
DEFPOINTS
 62
     0
 10
-285.812915
 20
153.728457
 30
0.0
  0
ENDBLK
  5
ECAD
  8
0
  0
BLOCK
  8
0
  2
*D7
 70
     1
 10
0.0
 20
0.0
 30
0.0
  3
*D7
  1

  0
LINE
  5
ECE4
  8
COTATION1
 62
     0
 10
-287.562915
 20
145.728457
 30
0.0
 11
-287.562915
 21
166.228457
 31
0.0
1001
ACAD
1000
RTLwPs
1070
   158
  0
LINE
  5
ECE5
  8
COTATION1
 62
     0
 10
-275.062915
 20
120.728457
 30
0.0
 11
-275.062915
 21
166.228457
 31
0.0
1001
ACAD
1000
RTLwPs
1070
   158
  0
LINE
  5
ECE6
  8
COTATION1
 62
     0
 10
-292.562915
 20
163.728457
 30
0.0
 11
-297.562915
 21
163.728457
 31
0.0
1001
ACAD
1000
RTLwPs
1070
   158
  0
LINE
  5
ECE7
  8
COTATION1
 62
     0
 10
-270.062915
 20
163.728457
 30
0.0
 11
-253.80101
 21
163.728457
 31
0.0
1001
ACAD
1000
RTLwPs
1070
   158
  0
INSERT
  5
ECE8
  8
COTATION1
 62
     0
  2
_OPEN30
 10
-287.562915
 20
163.728457
 30
0.0
 41
5.0
 42
5.0
 43
5.0
1001
ACAD
1000
RTLwPs
1070
   158
  0
INSERT
  5
ECE9
  8
COTATION1
 62
     0
  2
_OPEN30
 10
-275.062915
 20
163.728457
 30
0.0
 41
5.0
 42
5.0
 43
5.0
 50
180.0
1001
ACAD
1000
RTLwPs
1070
   158
  0
TEXT
  5
ECEA
  8
COTATION1
 62
     0
 10
-263.7772
 20
165.728457
 30
0.0
 40
2.5
  1
12.5
1001
ACAD
1000
MTEXTBEGIN
1070
    73
1070
     1
1070
    44
1040
1.0
1070
    74
1070
     0
1000
MTEXTEND
  0
POINT
  5
ECEB
  8
DEFPOINTS
 62
     0
 10
-287.562915
 20
143.728457
 30
0.0
  0
POINT
  5
ECEC
  8
DEFPOINTS
 62
     0
 10
-275.062915
 20
118.728457
 30
0.0
  0
POINT
  5
ECED
  8
DEFPOINTS
 62
     0
 10
-275.062915
 20
163.728457
 30
0.0
  0
ENDBLK
  5
ECBA
  8
0
  0
ENDSEC
  0
SECTION
  2
ENTITIES
  0
INSERT
  5
A
  8
0
  2
COTE
 10
0.0
 20
0.0
 30
0.0
  0
INSERT
  5
17
  8
0
  2
COTE
 10
284.010391
 20
6.373258
 30
0.0
  0
INSERT
  5
72
  8
0
  2
FOND
 10
0.0
 20
0.0
 30
0.0
  0
DIMENSION
  5
C775
  8
COTATION1
  2
*D4
 10
-252.562915
 20
67.728457
 30
0.0
 11
-252.562915
 21
103.478457
 31
0.0
 13
-287.562915
 23
139.228457
 33
0.0
 14
-275.062915
 24
67.728457
 34
0.0
 50
90.0
  0
DIMENSION
  5
C778
  8
COTATION1
  2
*D3
 10
-275.062915
 20
41.728457
 30
0.0
 11
-290.062915
 21
44.978457
 31
0.0
 13
-305.062915
 23
68.728457
 33
0.0
 14
-275.062915
 24
67.728457
 34
0.0
  0
LINE
  5
CFC3
  8
ALPHA
 10
-291.052597
 20
67.728457
 30
0.0
 11
-296.063992
 21
72.739154
 31
0.0
  0
POLYLINE
  5
CFC5
  8
ALPHA
 66
     1
 10
0.0
 20
0.0
 30
0.0
 70
   128
  0
VERTEX
  5
EDA1
  8
ALPHA
 10
-296.063992
 20
67.728457
 30
0.0
  0
VERTEX
  5
EDA2
  8
ALPHA
 10
-295.412882
 20
67.860016
 30
0.0
  0
VERTEX
  5
EDA3
  8
ALPHA
 10
-294.881145
 20
68.218626
 30
0.0
  0
VERTEX
  5
EDA4
  8
ALPHA
 10
-294.52262
 20
68.750192
 30
0.0
  0
VERTEX
  5
EDA5
  8
ALPHA
 10
-294.391147
 20
69.400617
 30
0.0
  0
VERTEX
  5
EDA6
  8
ALPHA
 10
-294.52262
 20
70.051834
 30
0.0
  0
VERTEX
  5
EDA7
  8
ALPHA
 10
-294.881145
 20
70.583807
 30
0.0
  0
VERTEX
  5
EDA8
  8
ALPHA
 10
-295.412882
 20
70.942568
 30
0.0
  0
VERTEX
  5
EDA9
  8
ALPHA
 10
-296.063992
 20
71.074147
 30
0.0
  0
SEQEND
  5
EDAA
  8
ALPHA
  0
LINE
  5
CFC7
  8
ALPHA
 10
-296.063992
 20
72.739154
 30
0.0
 11
-299.062915
 21
72.739154
 31
0.0
  0
POLYLINE
  5
CFC8
  8
ALPHA
 66
     1
 10
0.0
 20
0.0
 30
0.0
 70
   128
  0
VERTEX
  5
EDAB
  8
ALPHA
 10
-296.063992
 20
71.074147
 30
0.0
  0
VERTEX
  5
EDAC
  8
ALPHA
 10
-296.063992
 20
71.334305
 30
0.0
  0
VERTEX
  5
EDAD
  8
ALPHA
 10
-296.063992
 20
71.906651
 30
0.0
  0
VERTEX
  5
EDAE
  8
ALPHA
 10
-296.063992
 20
72.478997
 30
0.0
  0
VERTEX
  5
EDAF
  8
ALPHA
 10
-296.063992
 20
72.739154
 30
0.0
  0
SEQEND
  5
EDB0
  8
ALPHA
  0
LINE
  5
D2EA
  8
ALPHA
 10
-300.062915
 20
118.728457
 30
0.0
 11
-295.312915
 21
118.728457
 31
0.0
  0
LINE
  5
D2EB
  8
ALPHA
 10
-300.062915
 20
116.028457
 30
0.0
 11
-275.062915
 21
116.028457
 31
0.0
  0
TEXT
  5
D2ED
  8
AXE
 10
-295.039105
 20
51.728457
 30
0.0
 40
8.0
  1
Y
 72
     2
 11
-288.562915
 21
51.728457
 31
0.0
  0
LINE
  5
D2EF
  8
AXE
 10
-310.062915
 20
85.48308
 30
0.0
 11
-260.062915
 21
85.48308
 31
0.0
  0
ARC
  5
D2F0
  8
ALPHA
 10
-271.393328
 20
106.515651
 30
0.0
 40
33.671021
 50
166.958519
 51
180.528913
  0
LINE
  5
D2F1
  8
ALPHA
 10
-300.062915
 20
118.728457
 30
0.0
 11
-300.062915
 21
101.240446
 31
0.0
  0
LINE
  5
D2F2
  8
ALPHA
 10
-305.062915
 20
102.228457
 30
0.0
 11
-305.062915
 21
68.728457
 31
0.0
  0
LINE
  5
D2F8
  8
ALPHA
 10
-300.062915
 20
101.240446
 30
0.0
 11
-299.062915
 21
101.240446
 31
0.0
  0
LINE
  5
D2F9
  8
ALPHA
 10
-305.062915
 20
102.228457
 30
0.0
 11
-305.062915
 21
106.204829
 31
0.0
  0
ARC
  5
D300
  8
ALPHA
 10
-302.726087
 20
113.814173
 30
0.0
 40
1.5
 50
90.0
 51
168.480193
  0
LINE
  5
D301
  8
ALPHA
 10
-302.726087
 20
115.314173
 30
0.0
 11
-300.062915
 21
115.314173
 31
0.0
  0
LINE
  5
D304
  8
AXE
 10
-287.562915
 20
144.228457
 30
0.0
 11
-287.562915
 21
51.728457
 31
0.0
  0
LINE
  5
D305
  8
ALPHA
 10
-275.062915
 20
118.728457
 30
0.0
 11
-275.062915
 21
67.728457
 31
0.0
  0
TEXT
  5
D314
  8
AXE
 10
-266.539105
 20
86.48308
 30
0.0
 40
8.0
  1
Z
 72
     2
 11
-260.062915
 21
86.48308
 31
0.0
  0
LINE
  5
D322
  8
ALPHA
 10
-304.062915
 20
67.728457
 30
0.0
 11
-275.062915
 21
67.728457
 31
0.0
  0
ARC
  5
D326
  8
ALPHA
 10
-304.062915
 20
68.728457
 30
0.0
 40
1.0
 50
180.0
 51
270.0
  0
POLYLINE
  5
D328
  8
ALPHA
 66
     1
 10
0.0
 20
0.0
 30
0.0
 70
   128
210
0.0
220
0.0
230
-1.0
  0
VERTEX
  5
EDB1
  8
ALPHA
 10
294.622387
 20
96.899683
 30
0.0
  0
VERTEX
  5
EDB2
  8
ALPHA
 10
292.673062
 20
97.897186
 30
0.0
  0
VERTEX
  5
EDB3
  8
ALPHA
 10
290.504008
 20
98.741715
 30
0.0
  0
VERTEX
  5
EDB4
  8
ALPHA
 10
288.15429
 20
99.444769
 30
0.0
  0
VERTEX
  5
EDB5
  8
ALPHA
 10
285.662969
 20
100.01785
 30
0.0
  0
VERTEX
  5
EDB6
  8
ALPHA
 10
280.41177
 20
100.820093
 30
0.0
  0
VERTEX
  5
EDB7
  8
ALPHA
 10
275.062915
 20
101.240446
 30
0.0
  0
SEQEND
  5
EDB8
  8
ALPHA
  0
POLYLINE
  5
D329
  8
ALPHA
 66
     1
 10
0.0
 20
0.0
 30
0.0
 70
   128
210
0.0
220
0.0
230
-1.0
  0
VERTEX
  5
EDB9
  8
ALPHA
 10
294.622387
 20
74.067849
 30
0.0
  0
VERTEX
  5
EDBA
  8
ALPHA
 10
296.117959
 20
74.960721
 30
0.0
  0
VERTEX
  5
EDBB
  8
ALPHA
 10
297.472747
 20
76.04221
 30
0.0
  0
VERTEX
  5
EDBC
  8
ALPHA
 10
298.668683
 20
77.294308
 30
0.0
  0
VERTEX
  5
EDBD
  8
ALPHA
 10
299.687695
 20
78.699012
 30
0.0
  0
VERTEX
  5
EDBE
  8
ALPHA
 10
300.511715
 20
80.238315
 30
0.0
  0
VERTEX
  5
EDBF
  8
ALPHA
 10
301.122673
 20
81.894212
 30
0.0
  0
VERTEX
  5
EDC0
  8
ALPHA
 10
301.502499
 20
83.648698
 30
0.0
  0
VERTEX
  5
EDC1
  8
ALPHA
 10
301.633123
 20
85.483766
 30
0.0
  0
VERTEX
  5
EDC2
  8
ALPHA
 10
301.502499
 20
87.319284
 30
0.0
  0
VERTEX
  5
EDC3
  8
ALPHA
 10
301.122673
 20
89.074091
 30
0.0
  0
VERTEX
  5
EDC4
  8
ALPHA
 10
300.511715
 20
90.730181
 30
0.0
  0
VERTEX
  5
EDC5
  8
ALPHA
 10
299.687695
 20
92.269548
 30
0.0
  0
VERTEX
  5
EDC6
  8
ALPHA
 10
298.668683
 20
93.674188
 30
0.0
  0
VERTEX
  5
EDC7
  8
ALPHA
 10
297.472747
 20
94.926094
 30
0.0
  0
VERTEX
  5
EDC8
  8
ALPHA
 10
296.117959
 20
96.007261
 30
0.0
  0
VERTEX
  5
EDC9
  8
ALPHA
 10
294.622387
 20
96.899683
 30
0.0
  0
SEQEND
  5
EDCA
  8
ALPHA
  0
CIRCLE
  5
D32A
  8
ALPHA
 10
-288.839729
 20
85.48308
 30
0.0
 40
9.25
  0
LINE
  5
D32B
  8
ALPHA
 10
-284.346829
 20
91.306171
 30
0.0
 11
-288.839729
 21
86.813271
 31
0.0
  0
LINE
  5
D32C
  8
ALPHA
 10
-287.510911
 20
85.483768
 30
0.0
 11
-283.01801
 21
89.976668
 31
0.0
  0
LINE
  5
D32D
  8
ALPHA
 10
-288.839729
 20
86.813271
 30
0.0
 11
-293.33263
 21
91.306171
 31
0.0
  0
LINE
  5
D32E
  8
ALPHA
 10
-294.661448
 20
89.976668
 30
0.0
 11
-290.169232
 21
85.483768
 31
0.0
  0
LINE
  5
D32F
  8
ALPHA
 10
-288.839729
 20
84.155634
 30
0.0
 11
-284.346829
 21
79.662729
 31
0.0
  0
LINE
  5
D330
  8
ALPHA
 10
-294.661448
 20
80.992236
 30
0.0
 11
-293.33263
 21
79.662729
 31
0.0
  0
LINE
  5
D331
  8
ALPHA
 10
-290.169232
 20
85.483768
 30
0.0
 11
-294.661448
 21
80.992236
 31
0.0
  0
LINE
  5
D332
  8
ALPHA
 10
-293.33263
 20
79.662729
 30
0.0
 11
-288.839729
 21
84.155634
 31
0.0
  0
LINE
  5
D333
  8
ALPHA
 10
-283.01801
 20
80.992236
 30
0.0
 11
-287.510911
 21
85.483768
 31
0.0
  0
LINE
  5
D334
  8
ALPHA
 10
-284.346829
 20
79.662729
 30
0.0
 11
-283.01801
 21
80.992236
 31
0.0
  0
LINE
  5
D335
  8
ALPHA
 10
-293.33263
 20
91.306171
 30
0.0
 11
-294.661448
 21
89.976668
 31
0.0
  0
LINE
  5
D336
  8
ALPHA
 10
-283.01801
 20
89.976668
 30
0.0
 11
-284.346829
 21
91.306171
 31
0.0
  0
POLYLINE
  5
D337
  8
ALPHA
 66
     1
 10
0.0
 20
0.0
 30
0.0
 70
   128
210
0.0
220
0.0
230
-1.0
  0
VERTEX
  5
EDCB
  8
ALPHA
 10
275.062915
 20
69.728457
 30
0.0
  0
VERTEX
  5
EDCC
  8
ALPHA
 10
280.41177
 20
70.148789
 30
0.0
  0
VERTEX
  5
EDCD
  8
ALPHA
 10
285.662969
 20
70.950881
 30
0.0
  0
VERTEX
  5
EDCE
  8
ALPHA
 10
288.15429
 20
71.523799
 30
0.0
  0
VERTEX
  5
EDCF
  8
ALPHA
 10
290.504008
 20
72.22661
 30
0.0
  0
VERTEX
  5
EDD0
  8
ALPHA
 10
292.673062
 20
73.070798
 30
0.0
  0
VERTEX
  5
EDD1
  8
ALPHA
 10
294.622387
 20
74.067849
 30
0.0
  0
SEQEND
  5
EDD2
  8
ALPHA
  0
LINE
  5
D338
  8
ALPHA
 10
-299.062915
 20
77.7914
 30
0.0
 11
-299.062915
 21
72.739154
 31
0.0
  0
LINE
  5
D33B
  8
ALPHA
 10
-299.062915
 20
101.240446
 30
0.0
 11
-299.062915
 21
93.177135
 31
0.0
  0
LINE
  5
D541
  8
ALPHA
 10
-305.062915
 20
102.040446
 30
0.0
 11
-300.062915
 21
102.040446
 31
0.0
  0
LINE
  5
E659
  8
ALPHA
 10
-279.812915
 20
118.728457
 30
0.0
 11
-275.062915
 21
118.728457
 31
0.0
  0
ARC
  5
EA0F
  8
POINTILLE_COURT
 10
-277.562915
 20
71.128457
 30
0.0
 40
1.5
 50
90.0
 51
270.0
  0
LINE
  5
EA11
  8
POINTILLE_COURT
 10
-275.062915
 20
72.628457
 30
0.0
 11
-277.562915
 21
72.628457
 31
0.0
  0
LINE
  5
EA13
  8
POINTILLE_COURT
 10
-275.062915
 20
69.628457
 30
0.0
 11
-277.562915
 21
69.628457
 31
0.0
  0
DIMENSION
  5
EA14
  8
COTATION1
  2
*D5
 10
-275.062915
 20
51.728457
 30
0.0
 11
-262.170058
 21
54.978457
 31
0.0
 13
-279.062915
 23
71.128457
 33
0.0
 14
-275.062915
 24
67.728457
 34
0.0
  0
LINE
  5
EB66
  8
ALPHA
 10
-279.812915
 20
118.728457
 30
0.0
 11
-275.062915
 21
118.728457
 31
0.0
  0
DIMENSION
  5
EC6B
  8
COTATION1
  2
*D6
 10
-285.812915
 20
153.728457
 30
0.0
 11
-303.931962
 21
153.728457
 31
0.0
 70
   128
 13
-289.312915
 23
139.228457
 33
0.0
 14
-285.812915
 24
139.228457
 34
0.0
  0
DIMENSION
  5
EC6C
  8
COTATION1
  2
*D7
 10
-275.062915
 20
163.728457
 30
0.0
 11
-259.431962
 21
166.978457
 31
0.0
 13
-287.562915
 23
143.728457
 33
0.0
 14
-275.062915
 24
118.728457
 34
0.0
  0
LINE
  5
EC6D
  8
ALPHA
 10
-279.812915
 20
118.728457
 30
0.0
 11
-275.062915
 21
118.728457
 31
0.0
  0
LINE
  5
EC71
  8
ALPHA
 10
-281.562915
 20
132.17456
 30
0.0
 11
-281.562915
 21
120.67456
 31
0.0
  0
LINE
  5
EC72
  8
ALPHA
 10
-293.562915
 20
132.17456
 30
0.0
 11
-293.562915
 21
120.67456
 31
0.0
  0
LINE
  5
EC73
  8
ALPHA
 10
-287.562915
 20
120.17456
 30
0.0
 11
-295.312915
 21
120.17456
 31
0.0
  0
LINE
  5
EC74
  8
ALPHA
 10
-287.562915
 20
120.67456
 30
0.0
 11
-294.812915
 21
120.67456
 31
0.0
  0
LINE
  5
EC75
  8
ALPHA
 10
-279.812915
 20
118.17456
 30
0.0
 11
-295.312915
 21
118.17456
 31
0.0
  0
LINE
  5
EC80
  8
ALPHA
 10
-295.312915
 20
120.17456
 30
0.0
 11
-294.812915
 21
120.67456
 31
0.0
  0
LINE
  5
EC81
  8
ALPHA
 10
-295.312915
 20
120.17456
 30
0.0
 11
-295.312915
 21
118.17456
 31
0.0
  0
LINE
  5
EC83
  8
ALPHA
 10
-287.562915
 20
120.67456
 30
0.0
 11
-280.312915
 21
120.67456
 31
0.0
  0
LINE
  5
EC84
  8
ALPHA
 10
-287.562915
 20
120.17456
 30
0.0
 11
-279.812915
 21
120.17456
 31
0.0
  0
LINE
  5
EC85
  8
ALPHA
 10
-279.812915
 20
120.17456
 30
0.0
 11
-280.312915
 21
120.67456
 31
0.0
  0
LINE
  5
EC86
  8
ALPHA
 10
-279.812915
 20
120.17456
 30
0.0
 11
-279.812915
 21
118.17456
 31
0.0
  0
ARC
  5
EC87
  8
ALPHA
 10
-292.062063
 20
134.010518
 30
0.0
 40
1.199688
 50
358.282449
 51
33.608343
  0
ARC
  5
EC88
  8
ALPHA
 10
-283.063766
 20
134.010518
 30
0.0
 40
1.199688
 50
146.391657
 51
181.717551
  0
LINE
  5
EC89
  8
ALPHA
 10
-289.312915
 20
139.228457
 30
0.0
 11
-289.312915
 21
127.628457
 31
0.0
  0
LINE
  5
EC8A
  8
ALPHA
 10
-285.812915
 20
139.228457
 30
0.0
 11
-285.812915
 21
127.628457
 31
0.0
  0
LINE
  5
EC8B
  8
ALPHA
 10
-287.562915
 20
124.67456
 30
0.0
 11
-285.612915
 21
124.67456
 31
0.0
  0
LINE
  5
EC8C
  8
ALPHA
 10
-285.812915
 20
127.628457
 30
0.0
 11
-287.562915
 21
127.628457
 31
0.0
  0
LINE
  5
EC8D
  8
ALPHA
 10
-289.312915
 20
127.628457
 30
0.0
 11
-287.562915
 21
127.628457
 31
0.0
  0
LINE
  5
EC8E
  8
ALPHA
 10
-289.512915
 20
133.17456
 30
0.0
 11
-289.512915
 21
124.67456
 31
0.0
  0
LINE
  5
EC8F
  8
ALPHA
 10
-287.562915
 20
124.67456
 30
0.0
 11
-289.512915
 21
124.67456
 31
0.0
  0
LINE
  5
EC90
  8
ALPHA
 10
-289.512915
 20
132.17456
 30
0.0
 11
-293.562915
 21
132.17456
 31
0.0
  0
LINE
  5
EC91
  8
ALPHA
 10
-289.512915
 20
133.17456
 30
0.0
 11
-292.562915
 21
133.17456
 31
0.0
  0
LINE
  5
EC92
  8
ALPHA
 10
-293.562915
 20
132.17456
 30
0.0
 11
-292.562915
 21
133.17456
 31
0.0
  0
LINE
  5
EC93
  8
ALPHA
 10
-290.862915
 20
134.046476
 30
0.0
 11
-290.862915
 21
133.17456
 31
0.0
  0
LINE
  5
EC94
  8
ALPHA
 10
-285.612915
 20
133.17456
 30
0.0
 11
-285.612915
 21
124.67456
 31
0.0
  0
LINE
  5
EC95
  8
ALPHA
 10
-285.612915
 20
133.17456
 30
0.0
 11
-282.562915
 21
133.17456
 31
0.0
  0
LINE
  5
EC96
  8
ALPHA
 10
-284.262915
 20
134.046476
 30
0.0
 11
-284.262915
 21
133.17456
 31
0.0
  0
LINE
  5
EC97
  8
ALPHA
 10
-285.612915
 20
132.17456
 30
0.0
 11
-281.562915
 21
132.17456
 31
0.0
  0
LINE
  5
EC98
  8
ALPHA
 10
-281.562915
 20
132.17456
 30
0.0
 11
-282.562915
 21
133.17456
 31
0.0
  0
LINE
  5
EC99
  8
ALPHA
 10
-285.812915
 20
139.228457
 30
0.0
 11
-287.562915
 21
139.228457
 31
0.0
  0
LINE
  5
EC9A
  8
ALPHA
 10
-289.312915
 20
139.228457
 30
0.0
 11
-287.562915
 21
139.228457
 31
0.0
  0
LINE
  5
EC9B
  8
ALPHA
 10
-289.312915
 20
136.17456
 30
0.0
 11
-291.062915
 21
136.17456
 31
0.0
  0
LINE
  5
EC9C
  8
ALPHA
 10
-291.062915
 20
136.17456
 30
0.0
 11
-291.062915
 21
134.67456
 31
0.0
  0
LINE
  5
EC9D
  8
ALPHA
 10
-285.812915
 20
136.17456
 30
0.0
 11
-284.062915
 21
136.17456
 31
0.0
  0
LINE
  5
EC9E
  8
ALPHA
 10
-284.062915
 20
136.17456
 30
0.0
 11
-284.062915
 21
134.67456
 31
0.0
  0
VIEWPORT
  5
494D
 67
     1
  8
0
 10
4.995325
 20
6.556512
 30
0.0
 40
22.70986
 41
13.988421
 68
    -1
 69
     1
1001
ACAD
1000
MVIEW
1002
{
1070
    16
1010
0.0
1020
0.0
1030
0.0
1010
0.0
1020
0.0
1030
1.0
1040
0.0
1040
13.988421
1040
4.995325
1040
6.556512
1040
50.0
1040
0.0
1040
0.0
1070
     0
1070
   100
1070
     1
1070
     1
1070
     0
1070
     0
1070
     0
1070
     0
1040
0.0
1040
0.0
1040
0.0
1040
10.0
1040
10.0
1040
10.0
1040
10.0
1070
     0
1002
{
1002
}
1002
}
  0
ENDSEC
  0
EOF
