  0
SECTION
  2
HEADER
  9
$ACADVER
  1
AC1009
  9
$INSBASE
 10
402.590624
 20
-1.041018
 30
0.0
  9
$EXTMIN
 10
74.223284
 20
-0.428687
 30
0.0
  9
$EXTMAX
 10
117.224712
 20
132.571313
 30
0.0
  9
$LIMMIN
 10
-407.970438
 20
-367.832444
  9
$LIMMAX
 10
429.804077
 20
234.370848
  9
$ORTHOMODE
 70
     0
  9
$REGENMODE
 70
     1
  9
$FILLMODE
 70
     1
  9
$QTEXTMODE
 70
     0
  9
$MIRRTEXT
 70
     1
  9
$DRAGMODE
 70
     2
  9
$LTSCALE
 40
10.0
  9
$OSMODE
 70
    35
  9
$ATTMODE
 70
     1
  9
$TEXTSIZE
 40
6.0
  9
$TRACEWID
 40
1.0
  9
$TEXTSTYLE
  7
ROMANS
  9
$CLAYER
  8
ALPHA
  9
$CELTYPE
  6
BYLAYER
  9
$CECOLOR
 62
   256
  9
$DIMSCALE
 40
1.0
  9
$DIMASZ
 40
5.0
  9
$DIMEXO
 40
2.0
  9
$DIMDLI
 40
0.38
  9
$DIMRND
 40
0.0
  9
$DIMDLE
 40
0.0
  9
$DIMEXE
 40
2.5
  9
$DIMTP
 40
0.0
  9
$DIMTM
 40
0.0
  9
$DIMTXT
 40
2.5
  9
$DIMCEN
 40
0.0
  9
$DIMTSZ
 40
0.0
  9
$DIMTOL
 70
     0
  9
$DIMLIM
 70
     0
  9
$DIMTIH
 70
     1
  9
$DIMTOH
 70
     1
  9
$DIMSE1
 70
     0
  9
$DIMSE2
 70
     0
  9
$DIMTAD
 70
     1
  9
$DIMZIN
 70
    12
  9
$DIMBLK
  1
OPEN30
  9
$DIMASO
 70
     1
  9
$DIMSHO
 70
     1
  9
$DIMPOST
  1

  9
$DIMAPOST
  1

  9
$DIMALT
 70
     0
  9
$DIMALTD
 70
     2
  9
$DIMALTF
 40
25.4
  9
$DIMLFAC
 40
1.0
  9
$DIMTOFL
 70
     0
  9
$DIMTVP
 40
0.0
  9
$DIMTIX
 70
     0
  9
$DIMSOXD
 70
     0
  9
$DIMSAH
 70
     0
  9
$DIMBLK1
  1

  9
$DIMBLK2
  1

  9
$DIMSTYLE
  2
SC_DEFAUT
  9
$DIMCLRD
 70
     0
  9
$DIMCLRE
 70
     0
  9
$DIMCLRT
 70
     0
  9
$DIMTFAC
 40
1.0
  9
$DIMGAP
 40
2.0
  9
$LUNITS
 70
     2
  9
$LUPREC
 70
     1
  9
$SKETCHINC
 40
0.1
  9
$FILLETRAD
 40
0.0
  9
$AUNITS
 70
     0
  9
$AUPREC
 70
     0
  9
$MENU
  1
acad
  9
$ELEVATION
 40
0.0
  9
$PELEVATION
 40
0.0
  9
$THICKNESS
 40
0.0
  9
$LIMCHECK
 70
     0
  9
$BLIPMODE
 70
     0
  9
$CHAMFERA
 40
0.0
  9
$CHAMFERB
 40
0.0
  9
$SKPOLY
 70
     0
  9
$TDCREATE
 40
2450373.687919
  9
$TDUPDATE
 40
2453032.654781
  9
$TDINDWG
 40
1.105098
  9
$TDUSRTIMER
 40
1.105098
  9
$USRTIMER
 70
     1
  9
$ANGBASE
 50
0.0
  9
$ANGDIR
 70
     0
  9
$PDMODE
 70
    32
  9
$PDSIZE
 40
0.0
  9
$PLINEWID
 40
0.0
  9
$COORDS
 70
     1
  9
$SPLFRAME
 70
     0
  9
$SPLINETYPE
 70
     6
  9
$SPLINESEGS
 70
     8
  9
$ATTDIA
 70
     0
  9
$ATTREQ
 70
     1
  9
$HANDLING
 70
     1
  9
$HANDSEED
  5
BD8F
  9
$SURFTAB1
 70
     6
  9
$SURFTAB2
 70
     6
  9
$SURFTYPE
 70
     6
  9
$SURFU
 70
     6
  9
$SURFV
 70
     6
  9
$UCSNAME
  2

  9
$UCSORG
 10
0.0
 20
0.0
 30
0.0
  9
$UCSXDIR
 10
1.0
 20
0.0
 30
0.0
  9
$UCSYDIR
 10
0.0
 20
1.0
 30
0.0
  9
$PUCSNAME
  2

  9
$PUCSORG
 10
0.0
 20
0.0
 30
0.0
  9
$PUCSXDIR
 10
1.0
 20
0.0
 30
0.0
  9
$PUCSYDIR
 10
0.0
 20
1.0
 30
0.0
  9
$USERI1
 70
     0
  9
$USERI2
 70
     0
  9
$USERI3
 70
     0
  9
$USERI4
 70
     0
  9
$USERI5
 70
     0
  9
$USERR1
 40
0.0
  9
$USERR2
 40
0.0
  9
$USERR3
 40
0.0
  9
$USERR4
 40
0.0
  9
$USERR5
 40
0.0
  9
$WORLDVIEW
 70
     1
  9
$SHADEDGE
 70
     3
  9
$SHADEDIF
 70
    70
  9
$TILEMODE
 70
     1
  9
$MAXACTVP
 70
    16
  9
$PLIMCHECK
 70
     0
  9
$PEXTMIN
 10
-1.452248
 20
-0.437698
 30
0.0
  9
$PEXTMAX
 10
12.749749
 20
8.310198
 30
0.0
  9
$PLIMMIN
 10
0.0
 20
0.0
  9
$PLIMMAX
 10
12.0
 20
9.0
  9
$UNITMODE
 70
     0
  9
$VISRETAIN
 70
     0
  9
$PLINEGEN
 70
     0
  9
$PSLTSCALE
 70
     0
  0
ENDSEC
  0
SECTION
  2
TABLES
  0
TABLE
  2
VPORT
 70
     2
  0
VPORT
  2
*ACTIVE
 70
     0
 10
0.0
 20
0.0
 11
1.0
 21
1.0
 12
95.734844
 22
66.07168
 13
0.0
 23
0.0
 14
1.0
 24
1.0
 15
10.0
 25
10.0
 16
0.0
 26
0.0
 36
1.0
 17
0.0
 27
0.0
 37
0.0
 40
133.967275
 41
1.466346
 42
50.0
 43
0.0
 44
0.0
 50
0.0
 51
0.0
 71
     0
 72
   100
 73
     1
 74
     0
 75
     0
 76
     0
 77
     0
 78
     0
  0
ENDTAB
  0
TABLE
  2
LTYPE
 70
     2
  0
LTYPE
  2
CONTINUOUS
 70
     0
  3
Solid line
 72
    65
 73
     0
 40
0.0
  0
LTYPE
  2
AXES2
 70
     0
  3
___ _ ___ _ ___ _ ___ _ ___ _ ___ _ ___ _ ___ _
 72
    65
 73
     4
 40
1.125
 49
0.75
 49
-0.125
 49
0.125
 49
-0.125
  0
ENDTAB
  0
TABLE
  2
LAYER
 70
     5
  0
LAYER
  2
0
 70
     0
 62
   255
  6
CONTINUOUS
  0
LAYER
  2
COTATION1
 70
     0
 62
     2
  6
CONTINUOUS
  0
LAYER
  2
AXE
 70
     0
 62
    80
  6
AXES2
  0
LAYER
  2
DEFPOINTS
 70
     0
 62
     7
  6
CONTINUOUS
  0
LAYER
  2
ALPHA
 70
     0
 62
   254
  6
CONTINUOUS
  0
ENDTAB
  0
TABLE
  2
STYLE
 70
     2
  0
STYLE
  2
ROMANS
 70
     0
 40
0.0
 41
1.0
 50
0.0
 71
     0
 42
6.0
  3
romans
  4

  0
STYLE
  2
STANDARD
 70
     0
 40
0.0
 41
1.0
 50
0.0
 71
     0
 42
0.2
  3
txt
  4

  0
ENDTAB
  0
TABLE
  2
VIEW
 70
     0
  0
ENDTAB
  0
TABLE
  2
UCS
 70
     0
  0
ENDTAB
  0
TABLE
  2
APPID
 70
     1
  0
APPID
  2
ACAD
 70
     0
  0
ENDTAB
  0
TABLE
  2
DIMSTYLE
 70
     2
  0
DIMSTYLE
  2
SC_DEFAUT
 70
     0
  3

  4

  5
OPEN30
  6

  7

 40
1.0
 41
5.0
 42
2.0
 43
0.38
 44
2.5
 45
0.0
 46
0.0
 47
0.0
 48
0.0
140
2.5
141
0.0
142
0.0
143
25.4
144
1.0
145
0.0
146
1.0
147
2.0
 71
     0
 72
     0
 73
     1
 74
     1
 75
     0
 76
     0
 77
     1
 78
    12
170
     0
171
     2
172
     0
173
     0
174
     0
175
     0
176
     0
177
     0
178
     0
  0
DIMSTYLE
  2
STANDARD
 70
     0
  3

  4

  5

  6

  7

 40
1.0
 41
0.18
 42
0.0625
 43
0.38
 44
0.18
 45
0.0
 46
0.0
 47
0.0
 48
0.0
140
0.18
141
0.09
142
0.0
143
25.4
144
1.0
145
0.0
146
1.0
147
0.09
 71
     0
 72
     0
 73
     1
 74
     1
 75
     0
 76
     0
 77
     0
 78
     0
170
     0
171
     2
172
     0
173
     0
174
     0
175
     0
176
     0
177
     0
178
     0
  0
ENDTAB
  0
ENDSEC
  0
SECTION
  2
BLOCKS
  0
BLOCK
  8
0
  2
$MODEL_SPACE
 70
     0
 10
0.0
 20
0.0
 30
0.0
  3
$MODEL_SPACE
  1

  0
ENDBLK
  5
BD88
  8
0
  0
BLOCK
 67
     1
  8
0
  2
$PAPER_SPACE
 70
     0
 10
0.0
 20
0.0
 30
0.0
  3
$PAPER_SPACE
  1

  0
ENDBLK
  5
BD86
 67
     1
  8
0
  0
BLOCK
  8
0
  2
COTE
 70
     0
 10
0.0
 20
0.0
 30
0.0
  3
COTE
  1

  0
ENDBLK
  5
F
  8
0
  0
BLOCK
  8
0
  2
FOND
 70
     0
 10
0.0
 20
0.0
 30
0.0
  3
FOND
  1

  0
ENDBLK
  5
75
  8
0
  0
BLOCK
  8
0
  2
_OPEN30
 70
     0
 10
0.0
 20
0.0
 30
0.0
  3
_OPEN30
  1

  0
LINE
  5
4B05
  8
COTATION1
 62
     0
 10
-1.0
 20
0.267949
 30
0.0
 11
0.0
 21
0.0
 31
0.0
1001
ACAD
1000
RTLwPs
1070
   158
  0
LINE
  5
4B06
  8
COTATION1
 62
     0
 10
0.0
 20
0.0
 30
0.0
 11
-1.0
 21
-0.267949
 31
0.0
1001
ACAD
1000
RTLwPs
1070
   158
  0
LINE
  5
4B07
  8
COTATION1
 62
     0
 10
0.0
 20
0.0
 30
0.0
 11
-1.0
 21
0.0
 31
0.0
1001
ACAD
1000
RTLwPs
1070
   158
  0
ENDBLK
  5
4B09
  8
0
  0
BLOCK
  8
0
  2
*D3
 70
     1
 10
0.0
 20
0.0
 30
0.0
  3
*D3
  1

  0
LINE
  5
BC9E
  8
COTATION1
 62
     0
 10
79.223284
 20
107.071313
 30
0.0
 11
79.223284
 21
130.571313
 31
0.0
1001
ACAD
1000
RTLwPs
1070
   158
  0
LINE
  5
BC9F
  8
COTATION1
 62
     0
 10
95.223284
 20
107.071313
 30
0.0
 11
95.223284
 21
130.571313
 31
0.0
1001
ACAD
1000
RTLwPs
1070
   158
  0
LINE
  5
BCA0
  8
COTATION1
 62
     0
 10
84.223284
 20
128.071313
 30
0.0
 11
90.223284
 21
128.071313
 31
0.0
1001
ACAD
1000
RTLwPs
1070
   158
  0
INSERT
  5
BCA1
  8
COTATION1
 62
     0
  2
_OPEN30
 10
79.223284
 20
128.071313
 30
0.0
 41
5.0
 42
5.0
 43
5.0
 50
180.0
1001
ACAD
1000
RTLwPs
1070
   158
  0
INSERT
  5
BCA2
  8
COTATION1
 62
     0
  2
_OPEN30
 10
95.223284
 20
128.071313
 30
0.0
 41
5.0
 42
5.0
 43
5.0
1001
ACAD
1000
RTLwPs
1070
   158
  0
TEXT
  5
BCA3
  8
COTATION1
 62
     0
 10
83.830427
 20
130.071313
 30
0.0
 40
2.5
  1
%%c
1001
ACAD
1000
MTEXTBEGIN
1070
    73
1070
     1
1070
    44
1040
1.0
1070
    74
1070
     0
1000
MTEXTEND
  0
TEXT
  5
BD59
  8
COTATION1
 62
     0
 10
86.092331
 20
130.071313
 30
0.0
 40
2.5
  1
16
1001
ACAD
1000
R13OBJECT
1002
{
1005
BCA3
1002
}
  0
POINT
  5
BCA4
  8
DEFPOINTS
 62
     0
 10
79.223284
 20
105.071313
 30
0.0
  0
POINT
  5
BCA5
  8
DEFPOINTS
 62
     0
 10
95.223284
 20
105.071313
 30
0.0
  0
POINT
  5
BCA6
  8
DEFPOINTS
 62
     0
 10
95.223284
 20
128.071313
 30
0.0
  0
ENDBLK
  5
B44E
  8
0
  0
BLOCK
  8
0
  2
*D4
 70
     1
 10
0.0
 20
0.0
 30
0.0
  3
*D4
  1

  0
LINE
  5
BC8A
  8
COTATION1
 62
     0
 10
89.223284
 20
113.071313
 30
0.0
 11
114.903284
 21
113.071313
 31
0.0
1001
ACAD
1000
RTLwPs
1070
   158
  0
LINE
  5
BC8B
  8
COTATION1
 62
     0
 10
91.723284
 20
9.571313
 30
0.0
 11
114.903284
 21
9.571313
 31
0.0
1001
ACAD
1000
RTLwPs
1070
   158
  0
LINE
  5
BC8C
  8
COTATION1
 62
     0
 10
112.403284
 20
108.071313
 30
0.0
 11
112.403284
 21
64.571313
 31
0.0
1001
ACAD
1000
RTLwPs
1070
   158
  0
LINE
  5
BC8D
  8
COTATION1
 62
     0
 10
112.403284
 20
14.571313
 30
0.0
 11
112.403284
 21
58.071313
 31
0.0
1001
ACAD
1000
RTLwPs
1070
   158
  0
INSERT
  5
BC8E
  8
COTATION1
 62
     0
  2
_OPEN30
 10
112.403284
 20
113.071313
 30
0.0
 41
5.0
 42
5.0
 43
5.0
 50
90.0
1001
ACAD
1000
RTLwPs
1070
   158
  0
INSERT
  5
BC8F
  8
COTATION1
 62
     0
  2
_OPEN30
 10
112.403284
 20
9.571313
 30
0.0
 41
5.0
 42
5.0
 43
5.0
 50
270.0
1001
ACAD
1000
RTLwPs
1070
   158
  0
TEXT
  5
BC90
  8
COTATION1
 62
     0
 10
106.86757
 20
60.071313
 30
0.0
 40
2.5
  1
103.5
1001
ACAD
1000
MTEXTBEGIN
1070
    73
1070
     1
1070
    44
1040
1.0
1070
    74
1070
     0
1000
MTEXTEND
  0
POINT
  5
BC91
  8
DEFPOINTS
 62
     0
 10
87.223284
 20
113.071313
 30
0.0
  0
POINT
  5
BC92
  8
DEFPOINTS
 62
     0
 10
89.723284
 20
9.571313
 30
0.0
  0
POINT
  5
BC93
  8
DEFPOINTS
 62
     0
 10
112.403284
 20
9.571313
 30
0.0
  0
ENDBLK
  5
B45B
  8
0
  0
ENDSEC
  0
SECTION
  2
ENTITIES
  0
INSERT
  5
A
  8
0
  2
COTE
 10
0.0
 20
0.0
 30
0.0
  0
INSERT
  5
17
  8
0
  2
COTE
 10
284.010391
 20
6.373258
 30
0.0
  0
INSERT
  5
72
  8
0
  2
FOND
 10
0.0
 20
0.0
 30
0.0
  0
LINE
  5
B43D
  8
AXE
 10
74.223284
 20
105.071313
 30
0.0
 11
105.223284
 21
105.071313
 31
0.0
  0
TEXT
  5
B43E
  8
AXE
 10
101.175665
 20
106.071313
 30
0.0
 40
5.0
  1
X
 72
     2
 11
105.223284
 21
106.071313
 31
0.0
  0
LINE
  5
B43F
  8
AXE
 10
87.223284
 20
-0.428687
 30
0.0
 11
87.223284
 21
118.071313
 31
0.0
  0
DIMENSION
  5
B440
  8
COTATION1
  2
*D3
 10
95.223284
 20
128.071313
 30
0.0
 11
87.223284
 21
131.321313
 31
0.0
  1
%%c<>
 13
79.223284
 23
105.071313
 33
0.0
 14
95.223284
 24
105.071313
 34
0.0
  0
DIMENSION
  5
B441
  8
COTATION1
  2
*D4
 10
112.403284
 20
9.571313
 30
0.0
 11
112.403284
 21
61.321313
 31
0.0
 13
87.223284
 23
113.071313
 33
0.0
 14
89.723284
 24
9.571313
 34
0.0
 50
90.0
  0
LINE
  5
B442
  8
AXE
 10
77.047394
 20
66.571313
 30
0.0
 11
97.399173
 21
66.571313
 31
0.0
  0
TEXT
  5
B483
  8
AXE
 10
82.175665
 20
-0.428687
 30
0.0
 40
5.0
  1
Y
 72
     2
 11
86.223284
 21
-0.428687
 31
0.0
  0
ARC
  5
B8CB
  8
ALPHA
 10
90.573284
 20
77.071313
 30
0.0
 40
0.15
 50
315.0
 51
45.0
  0
LINE
  5
B8CC
  8
ALPHA
 10
79.723284
 20
79.65013
 30
0.0
 11
79.723284
 21
14.571313
 31
0.0
  0
LINE
  5
B8CD
  8
ALPHA
 10
94.723284
 20
14.571313
 30
0.0
 11
94.723284
 21
79.65013
 31
0.0
  0
ARC
  5
B8D1
  8
ALPHA
 10
87.223284
 20
74.671313
 30
0.0
 40
3.2
 50
20.364135
 51
159.635865
  0
ARC
  5
B8D2
  8
ALPHA
 10
83.873284
 20
77.071313
 30
0.0
 40
0.15
 50
135.0
 51
225.0
  0
LINE
  5
B8DF
  8
ALPHA
 10
90.67935
 20
29.965247
 30
0.0
 11
90.350061
 21
29.635957
 31
0.0
  0
LINE
  5
B8E0
  8
ALPHA
 10
84.096507
 20
29.635957
 30
0.0
 11
83.767218
 21
29.965247
 31
0.0
  0
LINE
  5
B8E1
  8
ALPHA
 10
84.723284
 20
9.571313
 30
0.0
 11
89.723284
 21
9.571313
 31
0.0
  0
ARC
  5
B8E2
  8
ALPHA
 10
87.223284
 20
21.571313
 30
0.0
 40
3.5
 50
186.842628
 51
353.157372
  0
ARC
  5
B8E3
  8
ALPHA
 10
84.723284
 20
14.571313
 30
0.0
 40
5.0
 50
180.0
 51
270.0
  0
LINE
  5
B8E4
  8
ALPHA
 10
84.096507
 20
24.635957
 30
0.0
 11
83.767218
 21
24.965247
 31
0.0
  0
LINE
  5
B8E5
  8
ALPHA
 10
84.096507
 20
25.635957
 30
0.0
 11
83.767218
 21
25.965247
 31
0.0
  0
LINE
  5
B8E6
  8
ALPHA
 10
84.096507
 20
26.635957
 30
0.0
 11
83.767218
 21
26.965247
 31
0.0
  0
LINE
  5
B8E7
  8
ALPHA
 10
84.096507
 20
27.635957
 30
0.0
 11
83.767218
 21
27.965247
 31
0.0
  0
LINE
  5
B8E8
  8
ALPHA
 10
84.096507
 20
28.635957
 30
0.0
 11
83.767218
 21
28.965247
 31
0.0
  0
LINE
  5
B8E9
  8
ALPHA
 10
83.767218
 20
29.177379
 30
0.0
 11
84.096507
 21
29.506668
 31
0.0
  0
LINE
  5
B8EA
  8
ALPHA
 10
83.767218
 20
28.177379
 30
0.0
 11
84.096507
 21
28.506668
 31
0.0
  0
LINE
  5
B8EB
  8
ALPHA
 10
83.767218
 20
27.177379
 30
0.0
 11
84.096507
 21
27.506668
 31
0.0
  0
LINE
  5
B8EC
  8
ALPHA
 10
83.767218
 20
26.177379
 30
0.0
 11
84.096507
 21
26.506668
 31
0.0
  0
LINE
  5
B8ED
  8
ALPHA
 10
83.767218
 20
25.177379
 30
0.0
 11
84.096507
 21
25.506668
 31
0.0
  0
ARC
  5
B8EE
  8
ALPHA
 10
83.873284
 20
25.071313
 30
0.0
 40
0.15
 50
135.0
 51
225.0
  0
ARC
  5
B8EF
  8
ALPHA
 10
84.031862
 20
29.571313
 30
0.0
 40
0.091421
 50
315.0
 51
45.0
  0
ARC
  5
B8F0
  8
ALPHA
 10
84.031862
 20
28.571313
 30
0.0
 40
0.091421
 50
315.0
 51
45.0
  0
ARC
  5
B8F1
  8
ALPHA
 10
84.031862
 20
27.571313
 30
0.0
 40
0.091421
 50
315.0
 51
45.0
  0
ARC
  5
B8F2
  8
ALPHA
 10
84.031862
 20
26.571313
 30
0.0
 40
0.091421
 50
315.0
 51
45.0
  0
ARC
  5
B8F3
  8
ALPHA
 10
84.031862
 20
25.571313
 30
0.0
 40
0.091421
 50
315.0
 51
45.0
  0
ARC
  5
B8F4
  8
ALPHA
 10
83.873284
 20
26.071313
 30
0.0
 40
0.15
 50
135.0
 51
225.0
  0
ARC
  5
B8F5
  8
ALPHA
 10
83.873284
 20
27.071313
 30
0.0
 40
0.15
 50
135.0
 51
225.0
  0
ARC
  5
B8F6
  8
ALPHA
 10
83.873284
 20
28.071313
 30
0.0
 40
0.15
 50
135.0
 51
225.0
  0
ARC
  5
B8F7
  8
ALPHA
 10
83.873284
 20
29.071313
 30
0.0
 40
0.15
 50
135.0
 51
225.0
  0
LINE
  5
B8F8
  8
ALPHA
 10
84.096507
 20
21.635957
 30
0.0
 11
83.767218
 21
21.965247
 31
0.0
  0
LINE
  5
B8F9
  8
ALPHA
 10
84.096507
 20
22.635957
 30
0.0
 11
83.767218
 21
22.965247
 31
0.0
  0
LINE
  5
B8FA
  8
ALPHA
 10
84.096507
 20
23.635957
 30
0.0
 11
83.767218
 21
23.965247
 31
0.0
  0
LINE
  5
B8FB
  8
ALPHA
 10
83.767218
 20
24.177379
 30
0.0
 11
84.096507
 21
24.506668
 31
0.0
  0
LINE
  5
B8FC
  8
ALPHA
 10
83.767218
 20
23.177379
 30
0.0
 11
84.096507
 21
23.506668
 31
0.0
  0
LINE
  5
B8FD
  8
ALPHA
 10
83.767218
 20
22.177379
 30
0.0
 11
84.096507
 21
22.506668
 31
0.0
  0
LINE
  5
B8FE
  8
ALPHA
 10
83.767218
 20
21.177379
 30
0.0
 11
84.096507
 21
21.506668
 31
0.0
  0
ARC
  5
B8FF
  8
ALPHA
 10
83.873284
 20
22.071313
 30
0.0
 40
0.15
 50
135.0
 51
225.0
  0
ARC
  5
B900
  8
ALPHA
 10
83.873284
 20
23.071313
 30
0.0
 40
0.15
 50
135.0
 51
225.0
  0
ARC
  5
B901
  8
ALPHA
 10
83.873284
 20
24.071313
 30
0.0
 40
0.15
 50
135.0
 51
225.0
  0
ARC
  5
B902
  8
ALPHA
 10
84.031862
 20
21.571313
 30
0.0
 40
0.091421
 50
315.0
 51
45.0
  0
ARC
  5
B903
  8
ALPHA
 10
83.873284
 20
21.071313
 30
0.0
 40
0.15
 50
135.0
 51
146.392657
  0
ARC
  5
B904
  8
ALPHA
 10
84.031862
 20
23.571313
 30
0.0
 40
0.091421
 50
315.0
 51
45.0
  0
ARC
  5
B905
  8
ALPHA
 10
84.031862
 20
22.571313
 30
0.0
 40
0.091421
 50
315.0
 51
45.0
  0
ARC
  5
B906
  8
ALPHA
 10
84.031862
 20
24.571313
 30
0.0
 40
0.091421
 50
315.0
 51
45.0
  0
ARC
  5
B907
  8
ALPHA
 10
89.723284
 20
14.571313
 30
0.0
 40
5.0
 50
270.0
 51
0.0
  0
LINE
  5
B908
  8
ALPHA
 10
90.350061
 20
25.506668
 30
0.0
 11
90.67935
 21
25.177379
 31
0.0
  0
LINE
  5
B909
  8
ALPHA
 10
90.350061
 20
26.506668
 30
0.0
 11
90.67935
 21
26.177379
 31
0.0
  0
LINE
  5
B90A
  8
ALPHA
 10
90.350061
 20
27.506668
 30
0.0
 11
90.67935
 21
27.177379
 31
0.0
  0
LINE
  5
B90B
  8
ALPHA
 10
90.350061
 20
28.506668
 30
0.0
 11
90.67935
 21
28.177379
 31
0.0
  0
LINE
  5
B90C
  8
ALPHA
 10
90.350061
 20
29.506668
 30
0.0
 11
90.67935
 21
29.177379
 31
0.0
  0
LINE
  5
B90D
  8
ALPHA
 10
90.67935
 20
28.965247
 30
0.0
 11
90.350061
 21
28.635957
 31
0.0
  0
LINE
  5
B90E
  8
ALPHA
 10
90.67935
 20
27.965247
 30
0.0
 11
90.350061
 21
27.635957
 31
0.0
  0
LINE
  5
B90F
  8
ALPHA
 10
90.67935
 20
26.965247
 30
0.0
 11
90.350061
 21
26.635957
 31
0.0
  0
LINE
  5
B910
  8
ALPHA
 10
90.67935
 20
25.965247
 30
0.0
 11
90.350061
 21
25.635957
 31
0.0
  0
LINE
  5
B911
  8
ALPHA
 10
90.67935
 20
24.965247
 30
0.0
 11
90.350061
 21
24.635957
 31
0.0
  0
ARC
  5
B912
  8
ALPHA
 10
90.573284
 20
25.071313
 30
0.0
 40
0.15
 50
315.0
 51
45.0
  0
ARC
  5
B913
  8
ALPHA
 10
90.414705
 20
25.571313
 30
0.0
 40
0.091421
 50
135.0
 51
225.0
  0
ARC
  5
B914
  8
ALPHA
 10
90.414705
 20
26.571313
 30
0.0
 40
0.091421
 50
135.0
 51
225.0
  0
ARC
  5
B915
  8
ALPHA
 10
90.414705
 20
27.571313
 30
0.0
 40
0.091421
 50
135.0
 51
225.0
  0
ARC
  5
B916
  8
ALPHA
 10
90.414705
 20
28.571313
 30
0.0
 40
0.091421
 50
135.0
 51
225.0
  0
ARC
  5
B917
  8
ALPHA
 10
90.414705
 20
29.571313
 30
0.0
 40
0.091421
 50
135.0
 51
225.0
  0
ARC
  5
B918
  8
ALPHA
 10
90.573284
 20
26.071313
 30
0.0
 40
0.15
 50
315.0
 51
45.0
  0
ARC
  5
B919
  8
ALPHA
 10
90.573284
 20
27.071313
 30
0.0
 40
0.15
 50
315.0
 51
45.0
  0
ARC
  5
B91A
  8
ALPHA
 10
90.573284
 20
28.071313
 30
0.0
 40
0.15
 50
315.0
 51
45.0
  0
ARC
  5
B91B
  8
ALPHA
 10
90.573284
 20
29.071313
 30
0.0
 40
0.15
 50
315.0
 51
45.0
  0
LINE
  5
B91C
  8
ALPHA
 10
90.350061
 20
21.506668
 30
0.0
 11
90.67935
 21
21.177379
 31
0.0
  0
LINE
  5
B91D
  8
ALPHA
 10
90.350061
 20
22.506668
 30
0.0
 11
90.67935
 21
22.177379
 31
0.0
  0
LINE
  5
B91E
  8
ALPHA
 10
90.350061
 20
23.506668
 30
0.0
 11
90.67935
 21
23.177379
 31
0.0
  0
LINE
  5
B91F
  8
ALPHA
 10
90.350061
 20
24.506668
 30
0.0
 11
90.67935
 21
24.177379
 31
0.0
  0
LINE
  5
B920
  8
ALPHA
 10
90.67935
 20
23.965247
 30
0.0
 11
90.350061
 21
23.635957
 31
0.0
  0
LINE
  5
B921
  8
ALPHA
 10
90.67935
 20
22.965247
 30
0.0
 11
90.350061
 21
22.635957
 31
0.0
  0
LINE
  5
B922
  8
ALPHA
 10
90.67935
 20
21.965247
 30
0.0
 11
90.350061
 21
21.635957
 31
0.0
  0
ARC
  5
B923
  8
ALPHA
 10
90.573284
 20
22.071313
 30
0.0
 40
0.15
 50
315.0
 51
45.0
  0
ARC
  5
B924
  8
ALPHA
 10
90.573284
 20
23.071313
 30
0.0
 40
0.15
 50
315.0
 51
45.0
  0
ARC
  5
B925
  8
ALPHA
 10
90.573284
 20
24.071313
 30
0.0
 40
0.15
 50
315.0
 51
45.0
  0
ARC
  5
B926
  8
ALPHA
 10
90.573284
 20
21.071313
 30
0.0
 40
0.15
 50
33.607343
 51
45.0
  0
ARC
  5
B927
  8
ALPHA
 10
90.414705
 20
21.571313
 30
0.0
 40
0.091421
 50
135.0
 51
225.0
  0
ARC
  5
B928
  8
ALPHA
 10
90.414705
 20
22.571313
 30
0.0
 40
0.091421
 50
135.0
 51
225.0
  0
ARC
  5
B929
  8
ALPHA
 10
90.414705
 20
23.571313
 30
0.0
 40
0.091421
 50
135.0
 51
225.0
  0
ARC
  5
B92A
  8
ALPHA
 10
90.414705
 20
24.571313
 30
0.0
 40
0.091421
 50
135.0
 51
225.0
  0
ARC
  5
B92B
  8
ALPHA
 10
87.223284
 20
58.471313
 30
0.0
 40
3.2
 50
200.364135
 51
339.635865
  0
LINE
  5
B92C
  8
ALPHA
 10
90.223284
 20
71.571313
 30
0.0
 11
89.514572
 21
71.571313
 31
0.0
  0
ARC
  5
B92D
  8
ALPHA
 10
89.47624
 20
70.350756
 30
0.0
 40
0.1
 50
239.200498
 51
317.0
  0
LINE
  5
B92E
  8
ALPHA
 10
89.514572
 20
61.571313
 30
0.0
 11
90.223284
 21
61.571313
 31
0.0
  0
ARC
  5
B92F
  8
ALPHA
 10
89.47624
 20
62.79187
 30
0.0
 40
0.1
 50
43.0
 51
120.799502
  0
LINE
  5
B930
  8
ALPHA
 10
83.767218
 20
53.177379
 30
0.0
 11
84.096507
 21
53.506668
 31
0.0
  0
LINE
  5
B931
  8
ALPHA
 10
84.096507
 20
41.635957
 30
0.0
 11
83.767218
 21
41.965247
 31
0.0
  0
LINE
  5
B932
  8
ALPHA
 10
84.096507
 20
36.635957
 30
0.0
 11
83.767218
 21
36.965247
 31
0.0
  0
LINE
  5
B933
  8
ALPHA
 10
84.096507
 20
37.635957
 30
0.0
 11
83.767218
 21
37.965247
 31
0.0
  0
LINE
  5
B934
  8
ALPHA
 10
84.096507
 20
38.635957
 30
0.0
 11
83.767218
 21
38.965247
 31
0.0
  0
LINE
  5
B935
  8
ALPHA
 10
84.096507
 20
39.635957
 30
0.0
 11
83.767218
 21
39.965247
 31
0.0
  0
LINE
  5
B936
  8
ALPHA
 10
84.096507
 20
40.635957
 30
0.0
 11
83.767218
 21
40.965247
 31
0.0
  0
LINE
  5
B937
  8
ALPHA
 10
83.767218
 20
41.177379
 30
0.0
 11
84.096507
 21
41.506668
 31
0.0
  0
LINE
  5
B938
  8
ALPHA
 10
83.767218
 20
40.177379
 30
0.0
 11
84.096507
 21
40.506668
 31
0.0
  0
LINE
  5
B939
  8
ALPHA
 10
83.767218
 20
39.177379
 30
0.0
 11
84.096507
 21
39.506668
 31
0.0
  0
LINE
  5
B93A
  8
ALPHA
 10
83.767218
 20
38.177379
 30
0.0
 11
84.096507
 21
38.506668
 31
0.0
  0
LINE
  5
B93B
  8
ALPHA
 10
83.767218
 20
37.177379
 30
0.0
 11
84.096507
 21
37.506668
 31
0.0
  0
LINE
  5
B93C
  8
ALPHA
 10
83.767218
 20
36.177379
 30
0.0
 11
84.096507
 21
36.506668
 31
0.0
  0
ARC
  5
B93D
  8
ALPHA
 10
84.031862
 20
41.571313
 30
0.0
 40
0.091421
 50
315.0
 51
45.0
  0
ARC
  5
B93E
  8
ALPHA
 10
84.031862
 20
40.571313
 30
0.0
 40
0.091421
 50
315.0
 51
45.0
  0
ARC
  5
B93F
  8
ALPHA
 10
84.031862
 20
39.571313
 30
0.0
 40
0.091421
 50
315.0
 51
45.0
  0
ARC
  5
B940
  8
ALPHA
 10
84.031862
 20
38.571313
 30
0.0
 40
0.091421
 50
315.0
 51
45.0
  0
ARC
  5
B941
  8
ALPHA
 10
84.031862
 20
37.571313
 30
0.0
 40
0.091421
 50
315.0
 51
45.0
  0
ARC
  5
B942
  8
ALPHA
 10
84.031862
 20
36.571313
 30
0.0
 40
0.091421
 50
315.0
 51
45.0
  0
ARC
  5
B943
  8
ALPHA
 10
83.873284
 20
37.071313
 30
0.0
 40
0.15
 50
135.0
 51
225.0
  0
ARC
  5
B944
  8
ALPHA
 10
83.873284
 20
38.071313
 30
0.0
 40
0.15
 50
135.0
 51
225.0
  0
ARC
  5
B945
  8
ALPHA
 10
83.873284
 20
39.071313
 30
0.0
 40
0.15
 50
135.0
 51
225.0
  0
ARC
  5
B946
  8
ALPHA
 10
83.873284
 20
40.071313
 30
0.0
 40
0.15
 50
135.0
 51
225.0
  0
ARC
  5
B947
  8
ALPHA
 10
83.873284
 20
41.071313
 30
0.0
 40
0.15
 50
135.0
 51
225.0
  0
LINE
  5
B948
  8
ALPHA
 10
84.096507
 20
30.635957
 30
0.0
 11
83.767218
 21
30.965247
 31
0.0
  0
LINE
  5
B949
  8
ALPHA
 10
84.096507
 20
31.635957
 30
0.0
 11
83.767218
 21
31.965247
 31
0.0
  0
LINE
  5
B94A
  8
ALPHA
 10
84.096507
 20
32.635957
 30
0.0
 11
83.767218
 21
32.965247
 31
0.0
  0
LINE
  5
B94B
  8
ALPHA
 10
84.096507
 20
33.635957
 30
0.0
 11
83.767218
 21
33.965247
 31
0.0
  0
LINE
  5
B94C
  8
ALPHA
 10
84.096507
 20
34.635957
 30
0.0
 11
83.767218
 21
34.965247
 31
0.0
  0
LINE
  5
B94D
  8
ALPHA
 10
84.096507
 20
35.635957
 30
0.0
 11
83.767218
 21
35.965247
 31
0.0
  0
LINE
  5
B94E
  8
ALPHA
 10
83.767218
 20
35.177379
 30
0.0
 11
84.096507
 21
35.506668
 31
0.0
  0
LINE
  5
B94F
  8
ALPHA
 10
83.767218
 20
34.177379
 30
0.0
 11
84.096507
 21
34.506668
 31
0.0
  0
LINE
  5
B950
  8
ALPHA
 10
83.767218
 20
33.177379
 30
0.0
 11
84.096507
 21
33.506668
 31
0.0
  0
LINE
  5
B951
  8
ALPHA
 10
83.767218
 20
32.177379
 30
0.0
 11
84.096507
 21
32.506668
 31
0.0
  0
LINE
  5
B952
  8
ALPHA
 10
83.767218
 20
31.177379
 30
0.0
 11
84.096507
 21
31.506668
 31
0.0
  0
ARC
  5
B953
  8
ALPHA
 10
84.031862
 20
35.571313
 30
0.0
 40
0.091421
 50
315.0
 51
45.0
  0
ARC
  5
B954
  8
ALPHA
 10
84.031862
 20
34.571313
 30
0.0
 40
0.091421
 50
315.0
 51
45.0
  0
ARC
  5
B955
  8
ALPHA
 10
84.031862
 20
33.571313
 30
0.0
 40
0.091421
 50
315.0
 51
45.0
  0
ARC
  5
B956
  8
ALPHA
 10
84.031862
 20
32.571313
 30
0.0
 40
0.091421
 50
315.0
 51
45.0
  0
ARC
  5
B957
  8
ALPHA
 10
84.031862
 20
31.571313
 30
0.0
 40
0.091421
 50
315.0
 51
45.0
  0
ARC
  5
B958
  8
ALPHA
 10
84.031862
 20
30.571313
 30
0.0
 40
0.091421
 50
315.0
 51
45.0
  0
ARC
  5
B959
  8
ALPHA
 10
83.873284
 20
31.071313
 30
0.0
 40
0.15
 50
135.0
 51
225.0
  0
ARC
  5
B95A
  8
ALPHA
 10
83.873284
 20
32.071313
 30
0.0
 40
0.15
 50
135.0
 51
225.0
  0
ARC
  5
B95B
  8
ALPHA
 10
83.873284
 20
33.071313
 30
0.0
 40
0.15
 50
135.0
 51
225.0
  0
ARC
  5
B95C
  8
ALPHA
 10
83.873284
 20
34.071313
 30
0.0
 40
0.15
 50
135.0
 51
225.0
  0
ARC
  5
B95D
  8
ALPHA
 10
83.873284
 20
35.071313
 30
0.0
 40
0.15
 50
135.0
 51
225.0
  0
ARC
  5
B95E
  8
ALPHA
 10
83.873284
 20
36.071313
 30
0.0
 40
0.15
 50
135.0
 51
225.0
  0
ARC
  5
B95F
  8
ALPHA
 10
83.873284
 20
30.071313
 30
0.0
 40
0.15
 50
135.0
 51
225.0
  0
LINE
  5
B960
  8
ALPHA
 10
83.767218
 20
30.177379
 30
0.0
 11
84.096507
 21
30.506668
 31
0.0
  0
LINE
  5
B961
  8
ALPHA
 10
84.096507
 20
48.635957
 30
0.0
 11
83.767218
 21
48.965247
 31
0.0
  0
LINE
  5
B962
  8
ALPHA
 10
84.096507
 20
49.635957
 30
0.0
 11
83.767218
 21
49.965247
 31
0.0
  0
LINE
  5
B963
  8
ALPHA
 10
84.096507
 20
50.635957
 30
0.0
 11
83.767218
 21
50.965247
 31
0.0
  0
LINE
  5
B964
  8
ALPHA
 10
84.096507
 20
51.635957
 30
0.0
 11
83.767218
 21
51.965247
 31
0.0
  0
LINE
  5
B965
  8
ALPHA
 10
84.096507
 20
52.635957
 30
0.0
 11
83.767218
 21
52.965247
 31
0.0
  0
LINE
  5
B966
  8
ALPHA
 10
83.767218
 20
52.177379
 30
0.0
 11
84.096507
 21
52.506668
 31
0.0
  0
LINE
  5
B967
  8
ALPHA
 10
83.767218
 20
51.177379
 30
0.0
 11
84.096507
 21
51.506668
 31
0.0
  0
LINE
  5
B968
  8
ALPHA
 10
83.767218
 20
50.177379
 30
0.0
 11
84.096507
 21
50.506668
 31
0.0
  0
LINE
  5
B969
  8
ALPHA
 10
83.767218
 20
49.177379
 30
0.0
 11
84.096507
 21
49.506668
 31
0.0
  0
LINE
  5
B96A
  8
ALPHA
 10
83.767218
 20
48.177379
 30
0.0
 11
84.096507
 21
48.506668
 31
0.0
  0
ARC
  5
B96B
  8
ALPHA
 10
84.031862
 20
52.571313
 30
0.0
 40
0.091421
 50
315.0
 51
45.0
  0
ARC
  5
B96C
  8
ALPHA
 10
84.031862
 20
51.571313
 30
0.0
 40
0.091421
 50
315.0
 51
45.0
  0
ARC
  5
B96D
  8
ALPHA
 10
84.031862
 20
50.571313
 30
0.0
 40
0.091421
 50
315.0
 51
45.0
  0
ARC
  5
B96E
  8
ALPHA
 10
84.031862
 20
49.571313
 30
0.0
 40
0.091421
 50
315.0
 51
45.0
  0
ARC
  5
B96F
  8
ALPHA
 10
84.031862
 20
48.571313
 30
0.0
 40
0.091421
 50
315.0
 51
45.0
  0
ARC
  5
B970
  8
ALPHA
 10
83.873284
 20
48.071313
 30
0.0
 40
0.15
 50
135.0
 51
225.0
  0
ARC
  5
B971
  8
ALPHA
 10
83.873284
 20
49.071313
 30
0.0
 40
0.15
 50
135.0
 51
225.0
  0
ARC
  5
B972
  8
ALPHA
 10
83.873284
 20
50.071313
 30
0.0
 40
0.15
 50
135.0
 51
225.0
  0
ARC
  5
B973
  8
ALPHA
 10
83.873284
 20
51.071313
 30
0.0
 40
0.15
 50
135.0
 51
225.0
  0
ARC
  5
B974
  8
ALPHA
 10
83.873284
 20
52.071313
 30
0.0
 40
0.15
 50
135.0
 51
225.0
  0
ARC
  5
B975
  8
ALPHA
 10
83.873284
 20
53.071313
 30
0.0
 40
0.15
 50
135.0
 51
225.0
  0
LINE
  5
B976
  8
ALPHA
 10
84.096507
 20
42.635957
 30
0.0
 11
83.767218
 21
42.965247
 31
0.0
  0
LINE
  5
B977
  8
ALPHA
 10
84.096507
 20
43.635957
 30
0.0
 11
83.767218
 21
43.965247
 31
0.0
  0
LINE
  5
B978
  8
ALPHA
 10
84.096507
 20
44.635957
 30
0.0
 11
83.767218
 21
44.965247
 31
0.0
  0
LINE
  5
B979
  8
ALPHA
 10
84.096507
 20
45.635957
 30
0.0
 11
83.767218
 21
45.965247
 31
0.0
  0
LINE
  5
B97A
  8
ALPHA
 10
84.096507
 20
46.635957
 30
0.0
 11
83.767218
 21
46.965247
 31
0.0
  0
LINE
  5
B97B
  8
ALPHA
 10
83.767218
 20
47.177379
 30
0.0
 11
84.096507
 21
47.506668
 31
0.0
  0
LINE
  5
B97C
  8
ALPHA
 10
83.767218
 20
46.177379
 30
0.0
 11
84.096507
 21
46.506668
 31
0.0
  0
LINE
  5
B97D
  8
ALPHA
 10
83.767218
 20
45.177379
 30
0.0
 11
84.096507
 21
45.506668
 31
0.0
  0
LINE
  5
B97E
  8
ALPHA
 10
83.767218
 20
44.177379
 30
0.0
 11
84.096507
 21
44.506668
 31
0.0
  0
LINE
  5
B97F
  8
ALPHA
 10
83.767218
 20
43.177379
 30
0.0
 11
84.096507
 21
43.506668
 31
0.0
  0
LINE
  5
B980
  8
ALPHA
 10
83.767218
 20
42.177379
 30
0.0
 11
84.096507
 21
42.506668
 31
0.0
  0
ARC
  5
B981
  8
ALPHA
 10
84.031862
 20
47.571313
 30
0.0
 40
0.091421
 50
315.0
 51
45.0
  0
ARC
  5
B982
  8
ALPHA
 10
84.031862
 20
46.571313
 30
0.0
 40
0.091421
 50
315.0
 51
45.0
  0
ARC
  5
B983
  8
ALPHA
 10
84.031862
 20
45.571313
 30
0.0
 40
0.091421
 50
315.0
 51
45.0
  0
ARC
  5
B984
  8
ALPHA
 10
84.031862
 20
44.571313
 30
0.0
 40
0.091421
 50
315.0
 51
45.0
  0
ARC
  5
B985
  8
ALPHA
 10
84.031862
 20
43.571313
 30
0.0
 40
0.091421
 50
315.0
 51
45.0
  0
ARC
  5
B986
  8
ALPHA
 10
84.031862
 20
42.571313
 30
0.0
 40
0.091421
 50
315.0
 51
45.0
  0
ARC
  5
B987
  8
ALPHA
 10
83.873284
 20
42.071313
 30
0.0
 40
0.15
 50
135.0
 51
225.0
  0
ARC
  5
B988
  8
ALPHA
 10
83.873284
 20
43.071313
 30
0.0
 40
0.15
 50
135.0
 51
225.0
  0
ARC
  5
B989
  8
ALPHA
 10
83.873284
 20
44.071313
 30
0.0
 40
0.15
 50
135.0
 51
225.0
  0
ARC
  5
B98A
  8
ALPHA
 10
83.873284
 20
45.071313
 30
0.0
 40
0.15
 50
135.0
 51
225.0
  0
ARC
  5
B98B
  8
ALPHA
 10
83.873284
 20
46.071313
 30
0.0
 40
0.15
 50
135.0
 51
225.0
  0
ARC
  5
B98C
  8
ALPHA
 10
83.873284
 20
47.071313
 30
0.0
 40
0.15
 50
135.0
 51
225.0
  0
LINE
  5
B98D
  8
ALPHA
 10
84.096507
 20
47.635957
 30
0.0
 11
83.767218
 21
47.965247
 31
0.0
  0
LINE
  5
B98E
  8
ALPHA
 10
83.767218
 20
65.177379
 30
0.0
 11
84.096507
 21
65.506668
 31
0.0
  0
LINE
  5
B98F
  8
ALPHA
 10
84.240535
 20
63.363941
 30
0.0
 11
83.917739
 21
62.84736
 31
0.0
  0
LINE
  5
B990
  8
ALPHA
 10
83.767218
 20
64.177379
 30
0.0
 11
84.096507
 21
64.506668
 31
0.0
  0
LINE
  5
B991
  8
ALPHA
 10
83.767218
 20
63.177379
 30
0.0
 11
84.096507
 21
63.506668
 31
0.0
  0
LINE
  5
B992
  8
ALPHA
 10
83.767218
 20
62.177379
 30
0.0
 11
84.096507
 21
62.506668
 31
0.0
  0
LINE
  5
B993
  8
ALPHA
 10
84.320771
 20
59.323825
 30
0.0
 11
84.17935
 21
59.465247
 31
0.0
  0
LINE
  5
B994
  8
ALPHA
 10
84.096507
 20
59.635957
 30
0.0
 11
83.767218
 21
59.965247
 31
0.0
  0
LINE
  5
B995
  8
ALPHA
 10
83.892738
 20
59.96399
 30
0.0
 11
84.17935
 21
59.677379
 31
0.0
  0
LINE
  5
B996
  8
ALPHA
 10
84.068259
 20
60.071313
 30
0.0
 11
84.320771
 21
59.8188
 31
0.0
  0
LINE
  5
B997
  8
ALPHA
 10
85.172298
 20
62.701237
 30
0.0
 11
84.994203
 21
62.118713
 31
0.0
  0
LINE
  5
B998
  8
ALPHA
 10
84.48176
 20
62.414572
 30
0.0
 11
84.897193
 21
62.860069
 31
0.0
  0
LINE
  5
B999
  8
ALPHA
 10
83.767218
 20
61.177379
 30
0.0
 11
84.096507
 21
61.506668
 31
0.0
  0
LINE
  5
B99A
  8
ALPHA
 10
83.892738
 20
61.178635
 30
0.0
 11
84.17935
 21
61.465247
 31
0.0
  0
LINE
  5
B99B
  8
ALPHA
 10
84.068259
 20
61.071313
 30
0.0
 11
84.320771
 21
61.323825
 31
0.0
  0
LINE
  5
B99C
  8
ALPHA
 10
84.320771
 20
60.8188
 30
0.0
 11
84.17935
 21
60.677379
 31
0.0
  0
LINE
  5
B99D
  8
ALPHA
 10
83.767218
 20
60.177379
 30
0.0
 11
84.096507
 21
60.506668
 31
0.0
  0
LINE
  5
B99E
  8
ALPHA
 10
84.17935
 20
60.465247
 30
0.0
 11
83.892738
 21
60.178635
 31
0.0
  0
LINE
  5
B99F
  8
ALPHA
 10
84.320771
 20
60.323825
 30
0.0
 11
84.068259
 21
60.071313
 31
0.0
  0
LINE
  5
B9A0
  8
ALPHA
 10
84.320771
 20
59.8188
 30
0.0
 11
84.17935
 21
59.677379
 31
0.0
  0
LINE
  5
B9A1
  8
ALPHA
 10
84.223284
 20
61.571313
 30
0.0
 11
84.931996
 21
61.571313
 31
0.0
  0
LINE
  5
B9A2
  8
ALPHA
 10
84.320771
 20
60.323825
 30
0.0
 11
84.17935
 21
60.465247
 31
0.0
  0
LINE
  5
B9A3
  8
ALPHA
 10
84.096507
 20
60.635957
 30
0.0
 11
83.767218
 21
60.965247
 31
0.0
  0
LINE
  5
B9A4
  8
ALPHA
 10
83.892738
 20
60.96399
 30
0.0
 11
84.17935
 21
60.677379
 31
0.0
  0
LINE
  5
B9A5
  8
ALPHA
 10
84.068259
 20
61.071313
 30
0.0
 11
84.320771
 21
60.8188
 31
0.0
  0
LINE
  5
B9A6
  8
ALPHA
 10
84.17935
 20
61.465247
 30
0.0
 11
84.320771
 21
61.323825
 31
0.0
  0
LINE
  5
B9A7
  8
ALPHA
 10
84.096507
 20
61.635957
 30
0.0
 11
83.767218
 21
61.965247
 31
0.0
  0
LINE
  5
B9A8
  8
ALPHA
 10
84.096507
 20
62.635957
 30
0.0
 11
83.767218
 21
62.965247
 31
0.0
  0
LINE
  5
B9A9
  8
ALPHA
 10
84.096507
 20
63.635957
 30
0.0
 11
83.767218
 21
63.965247
 31
0.0
  0
LINE
  5
B9AA
  8
ALPHA
 10
84.096507
 20
64.635957
 30
0.0
 11
83.767218
 21
64.965247
 31
0.0
  0
ARC
  5
B9AB
  8
ALPHA
 10
84.068904
 20
63.503759
 30
0.0
 40
0.1
 50
44.200498
 51
58.561486
  0
ARC
  5
B9AC
  8
ALPHA
 10
87.223284
 20
66.571313
 30
0.0
 40
4.3
 50
224.200498
 51
225.799502
  0
ARC
  5
B9AD
  8
ALPHA
 10
84.15573
 20
63.416933
 30
0.0
 40
0.1
 50
328.0
 51
45.799502
  0
ARC
  5
B9AE
  8
ALPHA
 10
87.223284
 20
66.571313
 30
0.0
 40
5.15
 50
232.398992
 51
234.310449
  0
ARC
  5
B9AF
  8
ALPHA
 10
84.335489
 20
62.550972
 30
0.0
 40
0.2
 50
234.310082
 51
317.0
  0
ARC
  5
B9B0
  8
ALPHA
 10
84.970328
 20
62.79187
 30
0.0
 40
0.1
 50
59.200498
 51
137.0
  0
ARC
  5
B9B1
  8
ALPHA
 10
87.223284
 20
66.571313
 30
0.0
 40
4.3
 50
239.200498
 51
240.799502
  0
ARC
  5
B9B2
  8
ALPHA
 10
85.076668
 20
62.730474
 30
0.0
 40
0.1
 50
343.0
 51
60.799502
  0
ARC
  5
B9B3
  8
ALPHA
 10
85.185464
 20
62.060239
 30
0.0
 40
0.2
 50
163.0
 51
245.696522
  0
ARC
  5
B9B4
  8
ALPHA
 10
84.073284
 20
61.571313
 30
0.0
 40
0.15
 50
315.0
 51
0.0
  0
ARC
  5
B9B5
  8
ALPHA
 10
84.073284
 20
60.571313
 30
0.0
 40
0.15
 50
315.0
 51
45.0
  0
ARC
  5
B9B6
  8
ALPHA
 10
84.073284
 20
59.571313
 30
0.0
 40
0.15
 50
315.0
 51
45.0
  0
ARC
  5
B9B7
  8
ALPHA
 10
84.000061
 20
60.071313
 30
0.0
 40
0.151777
 50
135.0
 51
225.0
  0
ARC
  5
B9B8
  8
ALPHA
 10
84.000061
 20
61.071313
 30
0.0
 40
0.151777
 50
135.0
 51
225.0
  0
ARC
  5
B9B9
  8
ALPHA
 10
84.073284
 20
61.571313
 30
0.0
 40
0.35
 50
315.0
 51
0.0
  0
ARC
  5
B9BA
  8
ALPHA
 10
84.073284
 20
60.571313
 30
0.0
 40
0.35
 50
315.0
 51
45.0
  0
ARC
  5
B9BB
  8
ALPHA
 10
84.073284
 20
59.571313
 30
0.0
 40
0.35
 50
315.0
 51
45.0
  0
ARC
  5
B9BC
  8
ALPHA
 10
84.031862
 20
64.571313
 30
0.0
 40
0.091421
 50
315.0
 51
45.0
  0
ARC
  5
B9BD
  8
ALPHA
 10
84.031862
 20
63.571313
 30
0.0
 40
0.091421
 50
315.0
 51
45.0
  0
ARC
  5
B9BE
  8
ALPHA
 10
84.031862
 20
62.571313
 30
0.0
 40
0.091421
 50
315.0
 51
45.0
  0
ARC
  5
B9BF
  8
ALPHA
 10
84.031862
 20
61.571313
 30
0.0
 40
0.091421
 50
315.0
 51
45.0
  0
ARC
  5
B9C0
  8
ALPHA
 10
84.031862
 20
60.571313
 30
0.0
 40
0.091421
 50
315.0
 51
45.0
  0
ARC
  5
B9C1
  8
ALPHA
 10
84.031862
 20
59.571313
 30
0.0
 40
0.091421
 50
315.0
 51
45.0
  0
ARC
  5
B9C2
  8
ALPHA
 10
83.873284
 20
60.071313
 30
0.0
 40
0.15
 50
135.0
 51
225.0
  0
ARC
  5
B9C3
  8
ALPHA
 10
83.873284
 20
61.071313
 30
0.0
 40
0.15
 50
135.0
 51
225.0
  0
ARC
  5
B9C4
  8
ALPHA
 10
83.873284
 20
62.071313
 30
0.0
 40
0.15
 50
135.0
 51
225.0
  0
ARC
  5
B9C5
  8
ALPHA
 10
83.873284
 20
63.071313
 30
0.0
 40
0.15
 50
135.0
 51
225.0
  0
ARC
  5
B9C6
  8
ALPHA
 10
83.873284
 20
64.071313
 30
0.0
 40
0.15
 50
135.0
 51
225.0
  0
LINE
  5
B9C7
  8
ALPHA
 10
83.848284
 20
61.071313
 30
0.0
 11
84.068259
 21
61.071313
 31
0.0
  0
LINE
  5
B9C8
  8
ALPHA
 10
84.068259
 20
60.071313
 30
0.0
 11
83.848284
 21
60.071313
 31
0.0
  0
LINE
  5
B9C9
  8
ALPHA
 10
84.096507
 20
53.635957
 30
0.0
 11
83.767218
 21
53.965247
 31
0.0
  0
LINE
  5
B9CA
  8
ALPHA
 10
84.096507
 20
54.635957
 30
0.0
 11
83.767218
 21
54.965247
 31
0.0
  0
LINE
  5
B9CB
  8
ALPHA
 10
84.423284
 20
57.571313
 30
0.0
 11
84.223284
 21
57.571313
 31
0.0
  0
LINE
  5
B9CC
  8
ALPHA
 10
84.096507
 20
55.635957
 30
0.0
 11
83.767218
 21
55.965247
 31
0.0
  0
LINE
  5
B9CD
  8
ALPHA
 10
84.096507
 20
56.635957
 30
0.0
 11
83.767218
 21
56.965247
 31
0.0
  0
LINE
  5
B9CE
  8
ALPHA
 10
84.096507
 20
57.635957
 30
0.0
 11
83.767218
 21
57.965247
 31
0.0
  0
LINE
  5
B9CF
  8
ALPHA
 10
83.892738
 20
57.96399
 30
0.0
 11
84.17935
 21
57.677379
 31
0.0
  0
LINE
  5
B9D0
  8
ALPHA
 10
84.068259
 20
58.071313
 30
0.0
 11
84.320771
 21
57.8188
 31
0.0
  0
LINE
  5
B9D1
  8
ALPHA
 10
84.320771
 20
58.323825
 30
0.0
 11
84.17935
 21
58.465247
 31
0.0
  0
LINE
  5
B9D2
  8
ALPHA
 10
84.096507
 20
58.635957
 30
0.0
 11
83.767218
 21
58.965247
 31
0.0
  0
LINE
  5
B9D3
  8
ALPHA
 10
83.892738
 20
58.96399
 30
0.0
 11
84.17935
 21
58.677379
 31
0.0
  0
LINE
  5
B9D4
  8
ALPHA
 10
84.068259
 20
59.071313
 30
0.0
 11
84.320771
 21
58.8188
 31
0.0
  0
LINE
  5
B9D5
  8
ALPHA
 10
84.223284
 20
57.571313
 30
0.0
 11
84.223284
 21
57.35776
 31
0.0
  0
LINE
  5
B9D6
  8
ALPHA
 10
84.423284
 20
57.571313
 30
0.0
 11
84.423284
 21
56.922119
 31
0.0
  0
LINE
  5
B9D7
  8
ALPHA
 10
84.320771
 20
58.8188
 30
0.0
 11
84.17935
 21
58.677379
 31
0.0
  0
LINE
  5
B9D8
  8
ALPHA
 10
83.767218
 20
58.177379
 30
0.0
 11
84.096507
 21
58.506668
 31
0.0
  0
LINE
  5
B9D9
  8
ALPHA
 10
84.17935
 20
58.465247
 30
0.0
 11
83.892738
 21
58.178635
 31
0.0
  0
LINE
  5
B9DA
  8
ALPHA
 10
84.320771
 20
58.323825
 30
0.0
 11
84.068259
 21
58.071313
 31
0.0
  0
LINE
  5
B9DB
  8
ALPHA
 10
84.320771
 20
57.8188
 30
0.0
 11
84.17935
 21
57.677379
 31
0.0
  0
LINE
  5
B9DC
  8
ALPHA
 10
83.767218
 20
57.177379
 30
0.0
 11
84.096507
 21
57.506668
 31
0.0
  0
LINE
  5
B9DD
  8
ALPHA
 10
83.767218
 20
56.177379
 30
0.0
 11
84.096507
 21
56.506668
 31
0.0
  0
LINE
  5
B9DE
  8
ALPHA
 10
83.767218
 20
55.177379
 30
0.0
 11
84.096507
 21
55.506668
 31
0.0
  0
LINE
  5
B9DF
  8
ALPHA
 10
83.767218
 20
54.177379
 30
0.0
 11
84.096507
 21
54.506668
 31
0.0
  0
ARC
  5
B9E0
  8
ALPHA
 10
87.223284
 20
66.571313
 30
0.0
 40
10.0
 50
249.856216
 51
253.551387
  0
ARC
  5
B9E1
  8
ALPHA
 10
84.073284
 20
58.571313
 30
0.0
 40
0.15
 50
315.0
 51
45.0
  0
ARC
  5
B9E2
  8
ALPHA
 10
84.073284
 20
57.571313
 30
0.0
 40
0.15
 50
0.0
 51
45.0
  0
ARC
  5
B9E3
  8
ALPHA
 10
84.000061
 20
58.071313
 30
0.0
 40
0.151777
 50
135.0
 51
225.0
  0
ARC
  5
B9E4
  8
ALPHA
 10
84.000061
 20
59.071313
 30
0.0
 40
0.151777
 50
135.0
 51
225.0
  0
ARC
  5
B9E5
  8
ALPHA
 10
84.073284
 20
58.571313
 30
0.0
 40
0.35
 50
315.0
 51
45.0
  0
ARC
  5
B9E6
  8
ALPHA
 10
84.073284
 20
57.571313
 30
0.0
 40
0.35
 50
0.0
 51
45.0
  0
ARC
  5
B9E7
  8
ALPHA
 10
84.031862
 20
58.571313
 30
0.0
 40
0.091421
 50
315.0
 51
45.0
  0
ARC
  5
B9E8
  8
ALPHA
 10
84.031862
 20
57.571313
 30
0.0
 40
0.091421
 50
315.0
 51
45.0
  0
ARC
  5
B9E9
  8
ALPHA
 10
84.031862
 20
56.571313
 30
0.0
 40
0.091421
 50
315.0
 51
45.0
  0
ARC
  5
B9EA
  8
ALPHA
 10
84.031862
 20
55.571313
 30
0.0
 40
0.091421
 50
315.0
 51
45.0
  0
ARC
  5
B9EB
  8
ALPHA
 10
84.031862
 20
54.571313
 30
0.0
 40
0.091421
 50
315.0
 51
45.0
  0
ARC
  5
B9EC
  8
ALPHA
 10
83.873284
 20
54.071313
 30
0.0
 40
0.15
 50
135.0
 51
225.0
  0
ARC
  5
B9ED
  8
ALPHA
 10
83.873284
 20
55.071313
 30
0.0
 40
0.15
 50
135.0
 51
225.0
  0
ARC
  5
B9EE
  8
ALPHA
 10
83.873284
 20
56.071313
 30
0.0
 40
0.15
 50
135.0
 51
225.0
  0
ARC
  5
B9EF
  8
ALPHA
 10
83.873284
 20
57.071313
 30
0.0
 40
0.15
 50
135.0
 51
225.0
  0
ARC
  5
B9F0
  8
ALPHA
 10
83.873284
 20
58.071313
 30
0.0
 40
0.15
 50
135.0
 51
225.0
  0
ARC
  5
B9F1
  8
ALPHA
 10
83.873284
 20
59.071313
 30
0.0
 40
0.15
 50
135.0
 51
225.0
  0
LINE
  5
B9F2
  8
ALPHA
 10
84.068259
 20
59.071313
 30
0.0
 11
83.848284
 21
59.071313
 31
0.0
  0
LINE
  5
B9F3
  8
ALPHA
 10
84.068259
 20
58.071313
 30
0.0
 11
83.848284
 21
58.071313
 31
0.0
  0
LINE
  5
B9F4
  8
ALPHA
 10
83.767218
 20
59.177379
 30
0.0
 11
84.096507
 21
59.506668
 31
0.0
  0
LINE
  5
B9F5
  8
ALPHA
 10
84.17935
 20
59.465247
 30
0.0
 11
83.892738
 21
59.178635
 31
0.0
  0
LINE
  5
B9F6
  8
ALPHA
 10
84.320771
 20
59.323825
 30
0.0
 11
84.068259
 21
59.071313
 31
0.0
  0
ARC
  5
B9F7
  8
ALPHA
 10
83.873284
 20
65.071313
 30
0.0
 40
0.15
 50
135.0
 51
225.0
  0
ARC
  5
B9F8
  8
ALPHA
 10
84.031862
 20
53.571313
 30
0.0
 40
0.091421
 50
315.0
 51
45.0
  0
ARC
  5
B9F9
  8
ALPHA
 10
87.223284
 20
66.571313
 30
0.0
 40
5.15
 50
245.689807
 51
249.310198
  0
ARC
  5
B9FA
  8
ALPHA
 10
87.223284
 20
66.571313
 30
0.0
 40
5.5
 50
245.380023
 51
294.619977
  0
ARC
  5
B9FB
  8
ALPHA
 10
89.261104
 20
62.060239
 30
0.0
 40
0.2
 50
294.303478
 51
17.0
  0
LINE
  5
B9FC
  8
ALPHA
 10
87.382116
 20
62.194236
 30
0.0
 11
87.519143
 21
61.600708
 31
0.0
  0
LINE
  5
B9FD
  8
ALPHA
 10
88.223993
 20
61.693503
 30
0.0
 11
88.202734
 21
62.302273
 31
0.0
  0
LINE
  5
B9FE
  8
ALPHA
 10
88.509575
 20
62.38449
 30
0.0
 11
88.795549
 21
61.846651
 31
0.0
  0
ARC
  5
B9FF
  8
ALPHA
 10
87.284679
 20
62.171741
 30
0.0
 40
0.1
 50
13.0
 51
90.799502
  0
ARC
  5
BA00
  8
ALPHA
 10
87.714017
 20
61.645698
 30
0.0
 40
0.2
 50
193.0
 51
275.683193
  0
ARC
  5
BA01
  8
ALPHA
 10
87.223284
 20
66.571313
 30
0.0
 40
5.15
 50
275.68929
 51
279.310531
  0
ARC
  5
BA02
  8
ALPHA
 10
88.024115
 20
61.686523
 30
0.0
 40
0.2
 50
279.312192
 51
2.0
  0
ARC
  5
BA03
  8
ALPHA
 10
88.302673
 20
62.305763
 30
0.0
 40
0.1
 50
104.200498
 51
182.0
  0
ARC
  5
BA04
  8
ALPHA
 10
87.223284
 20
66.571313
 30
0.0
 40
4.3
 50
284.200498
 51
285.799502
  0
ARC
  5
BA05
  8
ALPHA
 10
88.42128
 20
62.337543
 30
0.0
 40
0.1
 50
28.0
 51
105.799502
  0
ARC
  5
BA06
  8
ALPHA
 10
88.972139
 20
61.940545
 30
0.0
 40
0.2
 50
208.0
 51
290.696379
  0
ARC
  5
BA07
  8
ALPHA
 10
89.3699
 20
62.730474
 30
0.0
 40
0.1
 50
119.200498
 51
197.0
  0
LINE
  5
BA08
  8
ALPHA
 10
86.243833
 20
62.302273
 30
0.0
 11
86.222575
 21
61.693503
 31
0.0
  0
LINE
  5
BA09
  8
ALPHA
 10
86.927425
 20
61.600708
 30
0.0
 11
87.064451
 21
62.194236
 31
0.0
  0
LINE
  5
BA0A
  8
ALPHA
 10
85.651019
 20
61.846651
 30
0.0
 11
85.936993
 21
62.38449
 31
0.0
  0
ARC
  5
BA0B
  8
ALPHA
 10
85.474429
 20
61.940545
 30
0.0
 40
0.2
 50
249.303621
 51
332.0
  0
ARC
  5
BA0C
  8
ALPHA
 10
86.025288
 20
62.337543
 30
0.0
 40
0.1
 50
74.200498
 51
152.0
  0
ARC
  5
BA0D
  8
ALPHA
 10
87.223284
 20
66.571313
 30
0.0
 40
4.3
 50
254.200498
 51
255.799502
  0
ARC
  5
BA0E
  8
ALPHA
 10
86.143894
 20
62.305763
 30
0.0
 40
0.1
 50
358.0
 51
75.799502
  0
ARC
  5
BA0F
  8
ALPHA
 10
86.422453
 20
61.686523
 30
0.0
 40
0.2
 50
178.0
 51
260.687808
  0
ARC
  5
BA10
  8
ALPHA
 10
87.223284
 20
66.571313
 30
0.0
 40
5.15
 50
260.689469
 51
264.31071
  0
ARC
  5
BA11
  8
ALPHA
 10
86.732551
 20
61.645698
 30
0.0
 40
0.2
 50
264.316807
 51
347.0
  0
ARC
  5
BA12
  8
ALPHA
 10
87.161888
 20
62.171741
 30
0.0
 40
0.1
 50
89.200498
 51
167.0
  0
LINE
  5
BA13
  8
ALPHA
 10
87.573284
 20
60.071313
 30
0.0
 11
86.873284
 21
60.071313
 31
0.0
  0
ARC
  5
BA14
  8
ALPHA
 10
87.223284
 20
66.571313
 30
0.0
 40
4.3
 50
269.200498
 51
270.799502
  0
LINE
  5
BA15
  8
ALPHA
 10
87.465141
 20
57.458027
 30
0.0
 11
87.573284
 21
57.871313
 31
0.0
  0
LINE
  5
BA16
  8
ALPHA
 10
86.873284
 20
57.871313
 30
0.0
 11
86.981427
 21
57.458027
 31
0.0
  0
ARC
  5
BA17
  8
ALPHA
 10
87.223284
 20
57.521313
 30
0.0
 40
0.25
 50
194.663584
 51
345.336416
  0
LINE
  5
BA18
  8
ALPHA
 10
86.873284
 20
60.071313
 30
0.0
 11
86.873284
 21
57.871313
 31
0.0
  0
LINE
  5
BA19
  8
ALPHA
 10
87.573284
 20
57.871313
 30
0.0
 11
87.573284
 21
60.071313
 31
0.0
  0
LINE
  5
BA1A
  8
ALPHA
 10
89.452365
 20
62.118713
 30
0.0
 11
89.274269
 21
62.701237
 31
0.0
  0
ARC
  5
BA1B
  8
ALPHA
 10
87.223284
 20
66.571313
 30
0.0
 40
5.15
 50
290.689802
 51
294.310193
  0
ARC
  5
BA1C
  8
ALPHA
 10
87.223284
 20
66.571313
 30
0.0
 40
4.3
 50
299.200498
 51
300.799502
  0
LINE
  5
BA1D
  8
ALPHA
 10
83.767218
 20
66.177379
 30
0.0
 11
84.096507
 21
66.506668
 31
0.0
  0
LINE
  5
BA1E
  8
ALPHA
 10
84.096507
 20
65.635957
 30
0.0
 11
83.767218
 21
65.965247
 31
0.0
  0
LINE
  5
BA1F
  8
ALPHA
 10
84.096507
 20
66.635957
 30
0.0
 11
83.767218
 21
66.965247
 31
0.0
  0
LINE
  5
BA20
  8
ALPHA
 10
84.096507
 20
67.635957
 30
0.0
 11
83.767218
 21
67.965247
 31
0.0
  0
LINE
  5
BA21
  8
ALPHA
 10
84.096507
 20
68.635957
 30
0.0
 11
83.767218
 21
68.965247
 31
0.0
  0
LINE
  5
BA22
  8
ALPHA
 10
84.096507
 20
69.635957
 30
0.0
 11
83.767218
 21
69.965247
 31
0.0
  0
LINE
  5
BA23
  8
ALPHA
 10
83.917739
 20
70.295265
 30
0.0
 11
84.240535
 21
69.778685
 31
0.0
  0
LINE
  5
BA24
  8
ALPHA
 10
84.897193
 20
70.282556
 30
0.0
 11
84.48176
 21
70.728053
 31
0.0
  0
ARC
  5
BA25
  8
ALPHA
 10
85.076668
 20
70.412151
 30
0.0
 40
0.1
 50
299.200498
 51
17.0
  0
ARC
  5
BA26
  8
ALPHA
 10
87.223284
 20
66.571313
 30
0.0
 40
4.3
 50
119.200498
 51
120.799502
  0
ARC
  5
BA27
  8
ALPHA
 10
84.970328
 20
70.350756
 30
0.0
 40
0.1
 50
223.0
 51
300.799502
  0
ARC
  5
BA28
  8
ALPHA
 10
84.335489
 20
70.591654
 30
0.0
 40
0.2
 50
43.0
 51
125.689918
  0
ARC
  5
BA29
  8
ALPHA
 10
87.223284
 20
66.571313
 30
0.0
 40
5.15
 50
125.689551
 51
127.601008
  0
ARC
  5
BA2A
  8
ALPHA
 10
84.087349
 20
70.401249
 30
0.0
 40
0.2
 50
204.176246
 51
212.0
  0
ARC
  5
BA2B
  8
ALPHA
 10
84.15573
 20
69.725693
 30
0.0
 40
0.1
 50
314.200498
 51
32.0
  0
ARC
  5
BA2C
  8
ALPHA
 10
87.223284
 20
66.571313
 30
0.0
 40
4.3
 50
134.200498
 51
135.799502
  0
ARC
  5
BA2D
  8
ALPHA
 10
84.031862
 20
70.571313
 30
0.0
 40
0.091421
 50
315.0
 51
45.0
  0
ARC
  5
BA2E
  8
ALPHA
 10
84.031862
 20
69.571313
 30
0.0
 40
0.091421
 50
315.0
 51
45.0
  0
ARC
  5
BA2F
  8
ALPHA
 10
84.031862
 20
68.571313
 30
0.0
 40
0.091421
 50
315.0
 51
45.0
  0
ARC
  5
BA30
  8
ALPHA
 10
84.031862
 20
67.571313
 30
0.0
 40
0.091421
 50
315.0
 51
45.0
  0
ARC
  5
BA31
  8
ALPHA
 10
84.031862
 20
66.571313
 30
0.0
 40
0.091421
 50
315.0
 51
45.0
  0
ARC
  5
BA32
  8
ALPHA
 10
84.031862
 20
65.571313
 30
0.0
 40
0.091421
 50
315.0
 51
45.0
  0
ARC
  5
BA33
  8
ALPHA
 10
83.873284
 20
66.071313
 30
0.0
 40
0.15
 50
135.0
 51
225.0
  0
ARC
  5
BA34
  8
ALPHA
 10
83.873284
 20
67.071313
 30
0.0
 40
0.15
 50
135.0
 51
225.0
  0
ARC
  5
BA35
  8
ALPHA
 10
83.873284
 20
68.071313
 30
0.0
 40
0.15
 50
135.0
 51
225.0
  0
ARC
  5
BA36
  8
ALPHA
 10
83.873284
 20
69.071313
 30
0.0
 40
0.15
 50
135.0
 51
225.0
  0
ARC
  5
BA37
  8
ALPHA
 10
83.873284
 20
70.071313
 30
0.0
 40
0.15
 50
135.0
 51
225.0
  0
LINE
  5
BA38
  8
ALPHA
 10
84.994203
 20
71.023913
 30
0.0
 11
85.172298
 21
70.441388
 31
0.0
  0
LINE
  5
BA39
  8
ALPHA
 10
84.096507
 20
70.635957
 30
0.0
 11
83.767218
 21
70.965247
 31
0.0
  0
ARC
  5
BA3A
  8
ALPHA
 10
87.223284
 20
66.571313
 30
0.0
 40
5.15
 50
110.689802
 51
114.310193
  0
ARC
  5
BA3B
  8
ALPHA
 10
87.223284
 20
66.571313
 30
0.0
 40
5.5
 50
65.380023
 51
114.619977
  0
LINE
  5
BA3C
  8
ALPHA
 10
84.096507
 20
76.635957
 30
0.0
 11
83.767218
 21
76.965247
 31
0.0
  0
ARC
  5
BA3D
  8
ALPHA
 10
89.261104
 20
71.082387
 30
0.0
 40
0.2
 50
343.0
 51
65.696522
  0
LINE
  5
BA3E
  8
ALPHA
 10
87.573284
 20
73.071313
 30
0.0
 11
87.573284
 21
75.271313
 31
0.0
  0
LINE
  5
BA3F
  8
ALPHA
 10
87.519143
 20
71.541918
 30
0.0
 11
87.382116
 21
70.948389
 31
0.0
  0
LINE
  5
BA40
  8
ALPHA
 10
87.573284
 20
75.271313
 30
0.0
 11
87.465141
 21
75.684599
 31
0.0
  0
ARC
  5
BA41
  8
ALPHA
 10
88.972139
 20
71.20208
 30
0.0
 40
0.2
 50
69.303621
 51
152.0
  0
ARC
  5
BA42
  8
ALPHA
 10
88.024115
 20
71.456102
 30
0.0
 40
0.2
 50
358.0
 51
80.687808
  0
ARC
  5
BA43
  8
ALPHA
 10
87.223284
 20
66.571313
 30
0.0
 40
5.15
 50
80.689469
 51
84.31071
  0
ARC
  5
BA44
  8
ALPHA
 10
87.714017
 20
71.496928
 30
0.0
 40
0.2
 50
84.316807
 51
167.0
  0
LINE
  5
BA45
  8
ALPHA
 10
86.981427
 20
75.684599
 30
0.0
 11
86.873284
 21
75.271313
 31
0.0
  0
LINE
  5
BA46
  8
ALPHA
 10
86.873284
 20
75.271313
 30
0.0
 11
86.873284
 21
73.071313
 31
0.0
  0
LINE
  5
BA47
  8
ALPHA
 10
87.064451
 20
70.948389
 30
0.0
 11
86.927425
 21
71.541918
 31
0.0
  0
ARC
  5
BA48
  8
ALPHA
 10
86.732551
 20
71.496928
 30
0.0
 40
0.2
 50
13.0
 51
95.683193
  0
ARC
  5
BA49
  8
ALPHA
 10
87.223284
 20
66.571313
 30
0.0
 40
5.15
 50
95.68929
 51
99.310531
  0
ARC
  5
BA4A
  8
ALPHA
 10
86.422453
 20
71.456102
 30
0.0
 40
0.2
 50
99.312192
 51
182.0
  0
ARC
  5
BA4B
  8
ALPHA
 10
85.474429
 20
71.20208
 30
0.0
 40
0.2
 50
28.0
 51
110.696379
  0
LINE
  5
BA4C
  8
ALPHA
 10
86.873284
 20
73.071313
 30
0.0
 11
87.573284
 21
73.071313
 31
0.0
  0
ARC
  5
BA4D
  8
ALPHA
 10
87.223284
 20
75.621313
 30
0.0
 40
0.25
 50
14.663584
 51
165.336416
  0
ARC
  5
BA4E
  8
ALPHA
 10
89.3699
 20
70.412151
 30
0.0
 40
0.1
 50
163.0
 51
240.799502
  0
ARC
  5
BA4F
  8
ALPHA
 10
88.42128
 20
70.805082
 30
0.0
 40
0.1
 50
254.200498
 51
332.0
  0
ARC
  5
BA50
  8
ALPHA
 10
87.223284
 20
66.571313
 30
0.0
 40
4.3
 50
74.200498
 51
75.799502
  0
ARC
  5
BA51
  8
ALPHA
 10
88.302673
 20
70.836863
 30
0.0
 40
0.1
 50
178.0
 51
255.799502
  0
ARC
  5
BA52
  8
ALPHA
 10
86.143894
 20
70.836863
 30
0.0
 40
0.1
 50
284.200498
 51
2.0
  0
ARC
  5
BA53
  8
ALPHA
 10
87.223284
 20
66.571313
 30
0.0
 40
4.3
 50
104.200498
 51
105.799502
  0
ARC
  5
BA54
  8
ALPHA
 10
86.025288
 20
70.805082
 30
0.0
 40
0.1
 50
208.0
 51
285.799502
  0
ARC
  5
BA55
  8
ALPHA
 10
87.223284
 20
66.571313
 30
0.0
 40
4.3
 50
89.200498
 51
90.799502
  0
LINE
  5
BA56
  8
ALPHA
 10
88.795549
 20
71.295974
 30
0.0
 11
88.509575
 21
70.758135
 31
0.0
  0
LINE
  5
BA57
  8
ALPHA
 10
86.222575
 20
71.449122
 30
0.0
 11
86.243833
 21
70.840353
 31
0.0
  0
LINE
  5
BA58
  8
ALPHA
 10
88.202734
 20
70.840353
 30
0.0
 11
88.223993
 21
71.449122
 31
0.0
  0
LINE
  5
BA59
  8
ALPHA
 10
85.936993
 20
70.758135
 30
0.0
 11
85.651019
 21
71.295974
 31
0.0
  0
ARC
  5
BA5A
  8
ALPHA
 10
87.284679
 20
70.970884
 30
0.0
 40
0.1
 50
269.200498
 51
347.0
  0
ARC
  5
BA5B
  8
ALPHA
 10
87.161888
 20
70.970884
 30
0.0
 40
0.1
 50
193.0
 51
270.799502
  0
LINE
  5
BA5C
  8
ALPHA
 10
89.274269
 20
70.441388
 30
0.0
 11
89.452365
 21
71.023913
 31
0.0
  0
ARC
  5
BA5D
  8
ALPHA
 10
87.223284
 20
66.571313
 30
0.0
 40
4.3
 50
59.200498
 51
60.799502
  0
ARC
  5
BA5E
  8
ALPHA
 10
87.223284
 20
66.571313
 30
0.0
 40
5.15
 50
65.689807
 51
69.310198
  0
LINE
  5
BA5F
  8
ALPHA
 10
83.767218
 20
76.177379
 30
0.0
 11
84.096507
 21
76.506668
 31
0.0
  0
LINE
  5
BA60
  8
ALPHA
 10
83.767218
 20
75.177379
 30
0.0
 11
84.096507
 21
75.506668
 31
0.0
  0
LINE
  5
BA61
  8
ALPHA
 10
83.892738
 20
75.178635
 30
0.0
 11
84.17935
 21
75.465247
 31
0.0
  0
LINE
  5
BA62
  8
ALPHA
 10
84.068259
 20
75.071313
 30
0.0
 11
84.320771
 21
75.323825
 31
0.0
  0
LINE
  5
BA63
  8
ALPHA
 10
84.320771
 20
74.8188
 30
0.0
 11
84.17935
 21
74.677379
 31
0.0
  0
LINE
  5
BA64
  8
ALPHA
 10
83.767218
 20
74.177379
 30
0.0
 11
84.096507
 21
74.506668
 31
0.0
  0
LINE
  5
BA65
  8
ALPHA
 10
84.17935
 20
74.465247
 30
0.0
 11
83.892738
 21
74.178635
 31
0.0
  0
LINE
  5
BA66
  8
ALPHA
 10
84.320771
 20
74.323825
 30
0.0
 11
84.068259
 21
74.071313
 31
0.0
  0
LINE
  5
BA67
  8
ALPHA
 10
84.320771
 20
73.8188
 30
0.0
 11
84.17935
 21
73.677379
 31
0.0
  0
LINE
  5
BA68
  8
ALPHA
 10
83.767218
 20
73.177379
 30
0.0
 11
84.096507
 21
73.506668
 31
0.0
  0
LINE
  5
BA69
  8
ALPHA
 10
84.17935
 20
73.465247
 30
0.0
 11
83.892738
 21
73.178635
 31
0.0
  0
LINE
  5
BA6A
  8
ALPHA
 10
84.320771
 20
73.323825
 30
0.0
 11
84.068259
 21
73.071313
 31
0.0
  0
LINE
  5
BA6B
  8
ALPHA
 10
84.320771
 20
72.8188
 30
0.0
 11
84.17935
 21
72.677379
 31
0.0
  0
LINE
  5
BA6C
  8
ALPHA
 10
83.767218
 20
72.177379
 30
0.0
 11
84.096507
 21
72.506668
 31
0.0
  0
LINE
  5
BA6D
  8
ALPHA
 10
84.17935
 20
72.465247
 30
0.0
 11
83.892738
 21
72.178635
 31
0.0
  0
LINE
  5
BA6E
  8
ALPHA
 10
84.320771
 20
72.323825
 30
0.0
 11
84.068259
 21
72.071313
 31
0.0
  0
LINE
  5
BA6F
  8
ALPHA
 10
84.320771
 20
71.8188
 30
0.0
 11
84.17935
 21
71.677379
 31
0.0
  0
LINE
  5
BA70
  8
ALPHA
 10
83.767218
 20
71.177379
 30
0.0
 11
84.096507
 21
71.506668
 31
0.0
  0
LINE
  5
BA71
  8
ALPHA
 10
84.223284
 20
75.571313
 30
0.0
 11
84.223284
 21
75.784866
 31
0.0
  0
LINE
  5
BA72
  8
ALPHA
 10
84.423284
 20
75.571313
 30
0.0
 11
84.423284
 21
76.220506
 31
0.0
  0
LINE
  5
BA73
  8
ALPHA
 10
84.096507
 20
71.635957
 30
0.0
 11
83.767218
 21
71.965247
 31
0.0
  0
LINE
  5
BA74
  8
ALPHA
 10
83.892738
 20
71.96399
 30
0.0
 11
84.17935
 21
71.677379
 31
0.0
  0
LINE
  5
BA75
  8
ALPHA
 10
84.068259
 20
72.071313
 30
0.0
 11
84.320771
 21
71.8188
 31
0.0
  0
LINE
  5
BA76
  8
ALPHA
 10
84.320771
 20
72.323825
 30
0.0
 11
84.17935
 21
72.465247
 31
0.0
  0
LINE
  5
BA77
  8
ALPHA
 10
84.096507
 20
72.635957
 30
0.0
 11
83.767218
 21
72.965247
 31
0.0
  0
LINE
  5
BA78
  8
ALPHA
 10
83.892738
 20
72.96399
 30
0.0
 11
84.17935
 21
72.677379
 31
0.0
  0
LINE
  5
BA79
  8
ALPHA
 10
84.068259
 20
73.071313
 30
0.0
 11
84.320771
 21
72.8188
 31
0.0
  0
LINE
  5
BA7A
  8
ALPHA
 10
84.320771
 20
73.323825
 30
0.0
 11
84.17935
 21
73.465247
 31
0.0
  0
LINE
  5
BA7B
  8
ALPHA
 10
84.096507
 20
73.635957
 30
0.0
 11
83.767218
 21
73.965247
 31
0.0
  0
LINE
  5
BA7C
  8
ALPHA
 10
83.892738
 20
73.96399
 30
0.0
 11
84.17935
 21
73.677379
 31
0.0
  0
LINE
  5
BA7D
  8
ALPHA
 10
84.068259
 20
74.071313
 30
0.0
 11
84.320771
 21
73.8188
 31
0.0
  0
LINE
  5
BA7E
  8
ALPHA
 10
84.320771
 20
74.323825
 30
0.0
 11
84.17935
 21
74.465247
 31
0.0
  0
LINE
  5
BA7F
  8
ALPHA
 10
84.096507
 20
74.635957
 30
0.0
 11
83.767218
 21
74.965247
 31
0.0
  0
LINE
  5
BA80
  8
ALPHA
 10
83.892738
 20
74.96399
 30
0.0
 11
84.17935
 21
74.677379
 31
0.0
  0
LINE
  5
BA81
  8
ALPHA
 10
84.223284
 20
71.571313
 30
0.0
 11
84.931996
 21
71.571313
 31
0.0
  0
LINE
  5
BA82
  8
ALPHA
 10
84.068259
 20
75.071313
 30
0.0
 11
84.320771
 21
74.8188
 31
0.0
  0
LINE
  5
BA83
  8
ALPHA
 10
84.17935
 20
75.465247
 30
0.0
 11
84.320771
 21
75.323825
 31
0.0
  0
LINE
  5
BA84
  8
ALPHA
 10
84.096507
 20
75.635957
 30
0.0
 11
83.767218
 21
75.965247
 31
0.0
  0
LINE
  5
BA85
  8
ALPHA
 10
84.223284
 20
75.571313
 30
0.0
 11
84.423284
 21
75.571313
 31
0.0
  0
ARC
  5
BA86
  8
ALPHA
 10
85.185464
 20
71.082387
 30
0.0
 40
0.2
 50
114.303478
 51
197.0
  0
ARC
  5
BA87
  8
ALPHA
 10
87.223284
 20
66.571313
 30
0.0
 40
10.0
 50
106.448613
 51
110.143784
  0
ARC
  5
BA88
  8
ALPHA
 10
84.073284
 20
75.571313
 30
0.0
 40
0.15
 50
315.0
 51
0.0
  0
ARC
  5
BA89
  8
ALPHA
 10
84.073284
 20
71.571313
 30
0.0
 40
0.15
 50
0.0
 51
45.0
  0
ARC
  5
BA8A
  8
ALPHA
 10
84.073284
 20
72.571313
 30
0.0
 40
0.15
 50
315.0
 51
45.0
  0
ARC
  5
BA8B
  8
ALPHA
 10
84.073284
 20
73.571313
 30
0.0
 40
0.15
 50
315.0
 51
45.0
  0
ARC
  5
BA8C
  8
ALPHA
 10
84.073284
 20
74.571313
 30
0.0
 40
0.15
 50
315.0
 51
45.0
  0
ARC
  5
BA8D
  8
ALPHA
 10
84.000061
 20
72.071313
 30
0.0
 40
0.151777
 50
135.0
 51
225.0
  0
ARC
  5
BA8E
  8
ALPHA
 10
84.000061
 20
73.071313
 30
0.0
 40
0.151777
 50
135.0
 51
225.0
  0
ARC
  5
BA8F
  8
ALPHA
 10
84.000061
 20
74.071313
 30
0.0
 40
0.151777
 50
135.0
 51
225.0
  0
ARC
  5
BA90
  8
ALPHA
 10
84.000061
 20
75.071313
 30
0.0
 40
0.151777
 50
135.0
 51
225.0
  0
ARC
  5
BA91
  8
ALPHA
 10
84.073284
 20
73.571313
 30
0.0
 40
0.35
 50
315.0
 51
45.0
  0
ARC
  5
BA92
  8
ALPHA
 10
84.073284
 20
74.571313
 30
0.0
 40
0.35
 50
315.0
 51
45.0
  0
ARC
  5
BA93
  8
ALPHA
 10
84.073284
 20
75.571313
 30
0.0
 40
0.349999
 50
315.0
 51
0.0
  0
ARC
  5
BA94
  8
ALPHA
 10
84.073284
 20
71.571313
 30
0.0
 40
0.35
 50
0.0
 51
45.0
  0
ARC
  5
BA95
  8
ALPHA
 10
84.073284
 20
72.571313
 30
0.0
 40
0.35
 50
315.0
 51
45.0
  0
ARC
  5
BA96
  8
ALPHA
 10
84.031862
 20
76.571313
 30
0.0
 40
0.091421
 50
315.0
 51
45.0
  0
ARC
  5
BA97
  8
ALPHA
 10
84.031862
 20
75.571313
 30
0.0
 40
0.091421
 50
315.0
 51
45.0
  0
ARC
  5
BA98
  8
ALPHA
 10
84.031862
 20
74.571313
 30
0.0
 40
0.091421
 50
315.0
 51
45.0
  0
ARC
  5
BA99
  8
ALPHA
 10
84.031862
 20
73.571313
 30
0.0
 40
0.091421
 50
315.0
 51
45.0
  0
ARC
  5
BA9A
  8
ALPHA
 10
84.031862
 20
72.571313
 30
0.0
 40
0.091421
 50
315.0
 51
45.0
  0
ARC
  5
BA9B
  8
ALPHA
 10
84.031862
 20
71.571313
 30
0.0
 40
0.091421
 50
315.0
 51
45.0
  0
ARC
  5
BA9C
  8
ALPHA
 10
83.873284
 20
71.071313
 30
0.0
 40
0.15
 50
135.0
 51
225.0
  0
ARC
  5
BA9D
  8
ALPHA
 10
83.873284
 20
72.071313
 30
0.0
 40
0.15
 50
135.0
 51
225.0
  0
ARC
  5
BA9E
  8
ALPHA
 10
83.873284
 20
73.071313
 30
0.0
 40
0.15
 50
135.0
 51
225.0
  0
ARC
  5
BA9F
  8
ALPHA
 10
83.873284
 20
74.071313
 30
0.0
 40
0.15
 50
135.0
 51
225.0
  0
ARC
  5
BAA0
  8
ALPHA
 10
83.873284
 20
75.071313
 30
0.0
 40
0.15
 50
135.0
 51
225.0
  0
ARC
  5
BAA1
  8
ALPHA
 10
83.873284
 20
76.071313
 30
0.0
 40
0.15
 50
135.0
 51
225.0
  0
LINE
  5
BAA2
  8
ALPHA
 10
84.068259
 20
74.071313
 30
0.0
 11
83.848284
 21
74.071313
 31
0.0
  0
LINE
  5
BAA3
  8
ALPHA
 10
83.848284
 20
75.071313
 30
0.0
 11
84.068259
 21
75.071313
 31
0.0
  0
LINE
  5
BAA4
  8
ALPHA
 10
84.068259
 20
72.071313
 30
0.0
 11
83.848284
 21
72.071313
 31
0.0
  0
LINE
  5
BAA5
  8
ALPHA
 10
84.068259
 20
73.071313
 30
0.0
 11
83.848284
 21
73.071313
 31
0.0
  0
LINE
  5
BAA6
  8
ALPHA
 10
83.767218
 20
70.177379
 30
0.0
 11
84.096507
 21
70.506668
 31
0.0
  0
LINE
  5
BAA7
  8
ALPHA
 10
83.767218
 20
69.177379
 30
0.0
 11
84.096507
 21
69.506668
 31
0.0
  0
LINE
  5
BAA8
  8
ALPHA
 10
83.767218
 20
68.177379
 30
0.0
 11
84.096507
 21
68.506668
 31
0.0
  0
LINE
  5
BAA9
  8
ALPHA
 10
83.767218
 20
67.177379
 30
0.0
 11
84.096507
 21
67.506668
 31
0.0
  0
LINE
  5
BAAA
  8
ALPHA
 10
90.350061
 20
53.506668
 30
0.0
 11
90.67935
 21
53.177379
 31
0.0
  0
LINE
  5
BAAB
  8
ALPHA
 10
90.67935
 20
41.965247
 30
0.0
 11
90.350061
 21
41.635957
 31
0.0
  0
ARC
  5
BAAC
  8
ALPHA
 10
90.573284
 20
30.071313
 30
0.0
 40
0.15
 50
315.0
 51
45.0
  0
LINE
  5
BAAD
  8
ALPHA
 10
90.350061
 20
30.506668
 30
0.0
 11
90.67935
 21
30.177379
 31
0.0
  0
LINE
  5
BAAE
  8
ALPHA
 10
90.350061
 20
36.506668
 30
0.0
 11
90.67935
 21
36.177379
 31
0.0
  0
LINE
  5
BAAF
  8
ALPHA
 10
90.350061
 20
37.506668
 30
0.0
 11
90.67935
 21
37.177379
 31
0.0
  0
LINE
  5
BAB0
  8
ALPHA
 10
90.350061
 20
38.506668
 30
0.0
 11
90.67935
 21
38.177379
 31
0.0
  0
LINE
  5
BAB1
  8
ALPHA
 10
90.350061
 20
39.506668
 30
0.0
 11
90.67935
 21
39.177379
 31
0.0
  0
LINE
  5
BAB2
  8
ALPHA
 10
90.350061
 20
40.506668
 30
0.0
 11
90.67935
 21
40.177379
 31
0.0
  0
LINE
  5
BAB3
  8
ALPHA
 10
90.350061
 20
41.506668
 30
0.0
 11
90.67935
 21
41.177379
 31
0.0
  0
LINE
  5
BAB4
  8
ALPHA
 10
90.67935
 20
40.965247
 30
0.0
 11
90.350061
 21
40.635957
 31
0.0
  0
LINE
  5
BAB5
  8
ALPHA
 10
90.67935
 20
39.965247
 30
0.0
 11
90.350061
 21
39.635957
 31
0.0
  0
LINE
  5
BAB6
  8
ALPHA
 10
90.67935
 20
38.965247
 30
0.0
 11
90.350061
 21
38.635957
 31
0.0
  0
LINE
  5
BAB7
  8
ALPHA
 10
90.67935
 20
37.965247
 30
0.0
 11
90.350061
 21
37.635957
 31
0.0
  0
LINE
  5
BAB8
  8
ALPHA
 10
90.67935
 20
36.965247
 30
0.0
 11
90.350061
 21
36.635957
 31
0.0
  0
ARC
  5
BAB9
  8
ALPHA
 10
90.414705
 20
36.571313
 30
0.0
 40
0.091421
 50
135.0
 51
225.0
  0
ARC
  5
BABA
  8
ALPHA
 10
90.414705
 20
37.571313
 30
0.0
 40
0.091421
 50
135.0
 51
225.0
  0
ARC
  5
BABB
  8
ALPHA
 10
90.414705
 20
38.571313
 30
0.0
 40
0.091421
 50
135.0
 51
225.0
  0
ARC
  5
BABC
  8
ALPHA
 10
90.414705
 20
39.571313
 30
0.0
 40
0.091421
 50
135.0
 51
225.0
  0
ARC
  5
BABD
  8
ALPHA
 10
90.414705
 20
40.571313
 30
0.0
 40
0.091421
 50
135.0
 51
225.0
  0
ARC
  5
BABE
  8
ALPHA
 10
90.414705
 20
41.571313
 30
0.0
 40
0.091421
 50
135.0
 51
225.0
  0
ARC
  5
BABF
  8
ALPHA
 10
90.573284
 20
37.071313
 30
0.0
 40
0.15
 50
315.0
 51
45.0
  0
ARC
  5
BAC0
  8
ALPHA
 10
90.573284
 20
38.071313
 30
0.0
 40
0.15
 50
315.0
 51
45.0
  0
ARC
  5
BAC1
  8
ALPHA
 10
90.573284
 20
39.071313
 30
0.0
 40
0.15
 50
315.0
 51
45.0
  0
ARC
  5
BAC2
  8
ALPHA
 10
90.573284
 20
40.071313
 30
0.0
 40
0.15
 50
315.0
 51
45.0
  0
ARC
  5
BAC3
  8
ALPHA
 10
90.573284
 20
41.071313
 30
0.0
 40
0.15
 50
315.0
 51
45.0
  0
LINE
  5
BAC4
  8
ALPHA
 10
90.350061
 20
31.506668
 30
0.0
 11
90.67935
 21
31.177379
 31
0.0
  0
LINE
  5
BAC5
  8
ALPHA
 10
90.350061
 20
32.506668
 30
0.0
 11
90.67935
 21
32.177379
 31
0.0
  0
LINE
  5
BAC6
  8
ALPHA
 10
90.350061
 20
33.506668
 30
0.0
 11
90.67935
 21
33.177379
 31
0.0
  0
LINE
  5
BAC7
  8
ALPHA
 10
90.350061
 20
34.506668
 30
0.0
 11
90.67935
 21
34.177379
 31
0.0
  0
LINE
  5
BAC8
  8
ALPHA
 10
90.350061
 20
35.506668
 30
0.0
 11
90.67935
 21
35.177379
 31
0.0
  0
LINE
  5
BAC9
  8
ALPHA
 10
90.67935
 20
35.965247
 30
0.0
 11
90.350061
 21
35.635957
 31
0.0
  0
LINE
  5
BACA
  8
ALPHA
 10
90.67935
 20
34.965247
 30
0.0
 11
90.350061
 21
34.635957
 31
0.0
  0
LINE
  5
BACB
  8
ALPHA
 10
90.67935
 20
33.965247
 30
0.0
 11
90.350061
 21
33.635957
 31
0.0
  0
LINE
  5
BACC
  8
ALPHA
 10
90.67935
 20
32.965247
 30
0.0
 11
90.350061
 21
32.635957
 31
0.0
  0
LINE
  5
BACD
  8
ALPHA
 10
90.67935
 20
31.965247
 30
0.0
 11
90.350061
 21
31.635957
 31
0.0
  0
LINE
  5
BACE
  8
ALPHA
 10
90.67935
 20
30.965247
 30
0.0
 11
90.350061
 21
30.635957
 31
0.0
  0
ARC
  5
BACF
  8
ALPHA
 10
90.414705
 20
30.571313
 30
0.0
 40
0.091421
 50
135.0
 51
225.0
  0
ARC
  5
BAD0
  8
ALPHA
 10
90.414705
 20
31.571313
 30
0.0
 40
0.091421
 50
135.0
 51
225.0
  0
ARC
  5
BAD1
  8
ALPHA
 10
90.414705
 20
32.571313
 30
0.0
 40
0.091421
 50
135.0
 51
225.0
  0
ARC
  5
BAD2
  8
ALPHA
 10
90.414705
 20
33.571313
 30
0.0
 40
0.091421
 50
135.0
 51
225.0
  0
ARC
  5
BAD3
  8
ALPHA
 10
90.414705
 20
34.571313
 30
0.0
 40
0.091421
 50
135.0
 51
225.0
  0
ARC
  5
BAD4
  8
ALPHA
 10
90.414705
 20
35.571313
 30
0.0
 40
0.091421
 50
135.0
 51
225.0
  0
ARC
  5
BAD5
  8
ALPHA
 10
90.573284
 20
31.071313
 30
0.0
 40
0.15
 50
315.0
 51
45.0
  0
ARC
  5
BAD6
  8
ALPHA
 10
90.573284
 20
32.071313
 30
0.0
 40
0.15
 50
315.0
 51
45.0
  0
ARC
  5
BAD7
  8
ALPHA
 10
90.573284
 20
33.071313
 30
0.0
 40
0.15
 50
315.0
 51
45.0
  0
ARC
  5
BAD8
  8
ALPHA
 10
90.573284
 20
34.071313
 30
0.0
 40
0.15
 50
315.0
 51
45.0
  0
ARC
  5
BAD9
  8
ALPHA
 10
90.573284
 20
35.071313
 30
0.0
 40
0.15
 50
315.0
 51
45.0
  0
ARC
  5
BADA
  8
ALPHA
 10
90.573284
 20
36.071313
 30
0.0
 40
0.15
 50
315.0
 51
45.0
  0
LINE
  5
BADB
  8
ALPHA
 10
90.350061
 20
48.506668
 30
0.0
 11
90.67935
 21
48.177379
 31
0.0
  0
LINE
  5
BADC
  8
ALPHA
 10
90.350061
 20
49.506668
 30
0.0
 11
90.67935
 21
49.177379
 31
0.0
  0
LINE
  5
BADD
  8
ALPHA
 10
90.350061
 20
50.506668
 30
0.0
 11
90.67935
 21
50.177379
 31
0.0
  0
LINE
  5
BADE
  8
ALPHA
 10
90.350061
 20
51.506668
 30
0.0
 11
90.67935
 21
51.177379
 31
0.0
  0
LINE
  5
BADF
  8
ALPHA
 10
90.350061
 20
52.506668
 30
0.0
 11
90.67935
 21
52.177379
 31
0.0
  0
LINE
  5
BAE0
  8
ALPHA
 10
90.67935
 20
52.965247
 30
0.0
 11
90.350061
 21
52.635957
 31
0.0
  0
LINE
  5
BAE1
  8
ALPHA
 10
90.67935
 20
51.965247
 30
0.0
 11
90.350061
 21
51.635957
 31
0.0
  0
LINE
  5
BAE2
  8
ALPHA
 10
90.67935
 20
50.965247
 30
0.0
 11
90.350061
 21
50.635957
 31
0.0
  0
LINE
  5
BAE3
  8
ALPHA
 10
90.67935
 20
49.965247
 30
0.0
 11
90.350061
 21
49.635957
 31
0.0
  0
LINE
  5
BAE4
  8
ALPHA
 10
90.67935
 20
48.965247
 30
0.0
 11
90.350061
 21
48.635957
 31
0.0
  0
ARC
  5
BAE5
  8
ALPHA
 10
90.414705
 20
48.571313
 30
0.0
 40
0.091421
 50
135.0
 51
225.0
  0
ARC
  5
BAE6
  8
ALPHA
 10
90.414705
 20
49.571313
 30
0.0
 40
0.091421
 50
135.0
 51
225.0
  0
ARC
  5
BAE7
  8
ALPHA
 10
90.414705
 20
50.571313
 30
0.0
 40
0.091421
 50
135.0
 51
225.0
  0
ARC
  5
BAE8
  8
ALPHA
 10
90.414705
 20
51.571313
 30
0.0
 40
0.091421
 50
135.0
 51
225.0
  0
ARC
  5
BAE9
  8
ALPHA
 10
90.414705
 20
52.571313
 30
0.0
 40
0.091421
 50
135.0
 51
225.0
  0
ARC
  5
BAEA
  8
ALPHA
 10
90.573284
 20
48.071313
 30
0.0
 40
0.15
 50
315.0
 51
45.0
  0
ARC
  5
BAEB
  8
ALPHA
 10
90.573284
 20
49.071313
 30
0.0
 40
0.15
 50
315.0
 51
45.0
  0
ARC
  5
BAEC
  8
ALPHA
 10
90.573284
 20
50.071313
 30
0.0
 40
0.15
 50
315.0
 51
45.0
  0
ARC
  5
BAED
  8
ALPHA
 10
90.573284
 20
51.071313
 30
0.0
 40
0.15
 50
315.0
 51
45.0
  0
ARC
  5
BAEE
  8
ALPHA
 10
90.573284
 20
52.071313
 30
0.0
 40
0.15
 50
315.0
 51
45.0
  0
ARC
  5
BAEF
  8
ALPHA
 10
90.573284
 20
53.071313
 30
0.0
 40
0.15
 50
315.0
 51
45.0
  0
LINE
  5
BAF0
  8
ALPHA
 10
90.350061
 20
42.506668
 30
0.0
 11
90.67935
 21
42.177379
 31
0.0
  0
LINE
  5
BAF1
  8
ALPHA
 10
90.350061
 20
43.506668
 30
0.0
 11
90.67935
 21
43.177379
 31
0.0
  0
LINE
  5
BAF2
  8
ALPHA
 10
90.350061
 20
44.506668
 30
0.0
 11
90.67935
 21
44.177379
 31
0.0
  0
LINE
  5
BAF3
  8
ALPHA
 10
90.350061
 20
45.506668
 30
0.0
 11
90.67935
 21
45.177379
 31
0.0
  0
LINE
  5
BAF4
  8
ALPHA
 10
90.350061
 20
46.506668
 30
0.0
 11
90.67935
 21
46.177379
 31
0.0
  0
LINE
  5
BAF5
  8
ALPHA
 10
90.350061
 20
47.506668
 30
0.0
 11
90.67935
 21
47.177379
 31
0.0
  0
LINE
  5
BAF6
  8
ALPHA
 10
90.67935
 20
46.965247
 30
0.0
 11
90.350061
 21
46.635957
 31
0.0
  0
LINE
  5
BAF7
  8
ALPHA
 10
90.67935
 20
45.965247
 30
0.0
 11
90.350061
 21
45.635957
 31
0.0
  0
LINE
  5
BAF8
  8
ALPHA
 10
90.67935
 20
44.965247
 30
0.0
 11
90.350061
 21
44.635957
 31
0.0
  0
LINE
  5
BAF9
  8
ALPHA
 10
90.67935
 20
43.965247
 30
0.0
 11
90.350061
 21
43.635957
 31
0.0
  0
LINE
  5
BAFA
  8
ALPHA
 10
90.67935
 20
42.965247
 30
0.0
 11
90.350061
 21
42.635957
 31
0.0
  0
ARC
  5
BAFB
  8
ALPHA
 10
90.414705
 20
42.571313
 30
0.0
 40
0.091421
 50
135.0
 51
225.0
  0
ARC
  5
BAFC
  8
ALPHA
 10
90.414705
 20
43.571313
 30
0.0
 40
0.091421
 50
135.0
 51
225.0
  0
ARC
  5
BAFD
  8
ALPHA
 10
90.414705
 20
44.571313
 30
0.0
 40
0.091421
 50
135.0
 51
225.0
  0
ARC
  5
BAFE
  8
ALPHA
 10
90.414705
 20
45.571313
 30
0.0
 40
0.091421
 50
135.0
 51
225.0
  0
ARC
  5
BAFF
  8
ALPHA
 10
90.414705
 20
46.571313
 30
0.0
 40
0.091421
 50
135.0
 51
225.0
  0
ARC
  5
BB00
  8
ALPHA
 10
90.414705
 20
47.571313
 30
0.0
 40
0.091421
 50
135.0
 51
225.0
  0
ARC
  5
BB01
  8
ALPHA
 10
90.573284
 20
42.071313
 30
0.0
 40
0.15
 50
315.0
 51
45.0
  0
ARC
  5
BB02
  8
ALPHA
 10
90.573284
 20
43.071313
 30
0.0
 40
0.15
 50
315.0
 51
45.0
  0
ARC
  5
BB03
  8
ALPHA
 10
90.573284
 20
44.071313
 30
0.0
 40
0.15
 50
315.0
 51
45.0
  0
ARC
  5
BB04
  8
ALPHA
 10
90.573284
 20
45.071313
 30
0.0
 40
0.15
 50
315.0
 51
45.0
  0
ARC
  5
BB05
  8
ALPHA
 10
90.573284
 20
46.071313
 30
0.0
 40
0.15
 50
315.0
 51
45.0
  0
ARC
  5
BB06
  8
ALPHA
 10
90.573284
 20
47.071313
 30
0.0
 40
0.15
 50
315.0
 51
45.0
  0
LINE
  5
BB07
  8
ALPHA
 10
90.67935
 20
47.965247
 30
0.0
 11
90.350061
 21
47.635957
 31
0.0
  0
LINE
  5
BB08
  8
ALPHA
 10
90.350061
 20
65.506668
 30
0.0
 11
90.67935
 21
65.177379
 31
0.0
  0
LINE
  5
BB09
  8
ALPHA
 10
90.67935
 20
64.965247
 30
0.0
 11
90.350061
 21
64.635957
 31
0.0
  0
LINE
  5
BB0A
  8
ALPHA
 10
90.67935
 20
63.965247
 30
0.0
 11
90.350061
 21
63.635957
 31
0.0
  0
LINE
  5
BB0B
  8
ALPHA
 10
90.67935
 20
62.965247
 30
0.0
 11
90.350061
 21
62.635957
 31
0.0
  0
LINE
  5
BB0C
  8
ALPHA
 10
90.67935
 20
61.965247
 30
0.0
 11
90.350061
 21
61.635957
 31
0.0
  0
LINE
  5
BB0D
  8
ALPHA
 10
90.125796
 20
61.323825
 30
0.0
 11
90.267218
 21
61.465247
 31
0.0
  0
LINE
  5
BB0E
  8
ALPHA
 10
90.125796
 20
60.8188
 30
0.0
 11
90.378309
 21
61.071313
 31
0.0
  0
LINE
  5
BB0F
  8
ALPHA
 10
90.267218
 20
60.677379
 30
0.0
 11
90.553829
 21
60.96399
 31
0.0
  0
LINE
  5
BB10
  8
ALPHA
 10
90.67935
 20
60.965247
 30
0.0
 11
90.350061
 21
60.635957
 31
0.0
  0
LINE
  5
BB11
  8
ALPHA
 10
90.125796
 20
60.323825
 30
0.0
 11
90.267218
 21
60.465247
 31
0.0
  0
LINE
  5
BB12
  8
ALPHA
 10
90.125796
 20
59.8188
 30
0.0
 11
90.378309
 21
60.071313
 31
0.0
  0
LINE
  5
BB13
  8
ALPHA
 10
90.267218
 20
59.677379
 30
0.0
 11
90.553829
 21
59.96399
 31
0.0
  0
LINE
  5
BB14
  8
ALPHA
 10
90.67935
 20
59.965247
 30
0.0
 11
90.350061
 21
59.635957
 31
0.0
  0
LINE
  5
BB15
  8
ALPHA
 10
90.125796
 20
59.323825
 30
0.0
 11
90.267218
 21
59.465247
 31
0.0
  0
LINE
  5
BB16
  8
ALPHA
 10
90.125796
 20
59.8188
 30
0.0
 11
90.267218
 21
59.677379
 31
0.0
  0
LINE
  5
BB17
  8
ALPHA
 10
90.378309
 20
60.071313
 30
0.0
 11
90.125796
 21
60.323825
 31
0.0
  0
LINE
  5
BB18
  8
ALPHA
 10
90.553829
 20
60.178635
 30
0.0
 11
90.267218
 21
60.465247
 31
0.0
  0
LINE
  5
BB19
  8
ALPHA
 10
90.350061
 20
60.506668
 30
0.0
 11
90.67935
 21
60.177379
 31
0.0
  0
LINE
  5
BB1A
  8
ALPHA
 10
90.125796
 20
60.8188
 30
0.0
 11
90.267218
 21
60.677379
 31
0.0
  0
LINE
  5
BB1B
  8
ALPHA
 10
90.378309
 20
61.071313
 30
0.0
 11
90.125796
 21
61.323825
 31
0.0
  0
LINE
  5
BB1C
  8
ALPHA
 10
90.553829
 20
61.178635
 30
0.0
 11
90.267218
 21
61.465247
 31
0.0
  0
LINE
  5
BB1D
  8
ALPHA
 10
90.350061
 20
61.506668
 30
0.0
 11
90.67935
 21
61.177379
 31
0.0
  0
LINE
  5
BB1E
  8
ALPHA
 10
90.350061
 20
62.506668
 30
0.0
 11
90.67935
 21
62.177379
 31
0.0
  0
LINE
  5
BB1F
  8
ALPHA
 10
90.350061
 20
63.506668
 30
0.0
 11
90.67935
 21
63.177379
 31
0.0
  0
LINE
  5
BB20
  8
ALPHA
 10
89.549375
 20
62.860069
 30
0.0
 11
89.964808
 21
62.414572
 31
0.0
  0
LINE
  5
BB21
  8
ALPHA
 10
90.528828
 20
62.84736
 30
0.0
 11
90.206033
 21
63.363941
 31
0.0
  0
LINE
  5
BB22
  8
ALPHA
 10
90.350061
 20
64.506668
 30
0.0
 11
90.67935
 21
64.177379
 31
0.0
  0
ARC
  5
BB23
  8
ALPHA
 10
90.111079
 20
62.550972
 30
0.0
 40
0.2
 50
223.0
 51
305.689918
  0
ARC
  5
BB24
  8
ALPHA
 10
87.223284
 20
66.571313
 30
0.0
 40
5.15
 50
305.689551
 51
307.601008
  0
ARC
  5
BB25
  8
ALPHA
 10
90.359219
 20
62.741376
 30
0.0
 40
0.2
 50
24.176246
 51
32.0
  0
ARC
  5
BB26
  8
ALPHA
 10
90.290838
 20
63.416933
 30
0.0
 40
0.1
 50
134.200498
 51
212.0
  0
ARC
  5
BB27
  8
ALPHA
 10
87.223284
 20
66.571313
 30
0.0
 40
4.3
 50
314.200498
 51
315.799502
  0
ARC
  5
BB28
  8
ALPHA
 10
90.373284
 20
61.571313
 30
0.0
 40
0.15
 50
180.0
 51
225.0
  0
ARC
  5
BB29
  8
ALPHA
 10
90.373284
 20
60.571313
 30
0.0
 40
0.15
 50
135.0
 51
225.0
  0
ARC
  5
BB2A
  8
ALPHA
 10
90.373284
 20
59.571313
 30
0.0
 40
0.15
 50
135.0
 51
225.0
  0
ARC
  5
BB2B
  8
ALPHA
 10
90.446507
 20
60.071313
 30
0.0
 40
0.151777
 50
315.0
 51
45.0
  0
ARC
  5
BB2C
  8
ALPHA
 10
90.446507
 20
61.071313
 30
0.0
 40
0.151777
 50
315.0
 51
45.0
  0
ARC
  5
BB2D
  8
ALPHA
 10
90.373284
 20
59.571313
 30
0.0
 40
0.35
 50
135.0
 51
225.0
  0
ARC
  5
BB2E
  8
ALPHA
 10
90.373284
 20
61.571313
 30
0.0
 40
0.35
 50
180.0
 51
225.0
  0
ARC
  5
BB2F
  8
ALPHA
 10
90.373284
 20
60.571313
 30
0.0
 40
0.35
 50
135.0
 51
225.0
  0
ARC
  5
BB30
  8
ALPHA
 10
90.414705
 20
59.571313
 30
0.0
 40
0.091421
 50
135.0
 51
225.0
  0
ARC
  5
BB31
  8
ALPHA
 10
90.414705
 20
60.571313
 30
0.0
 40
0.091421
 50
135.0
 51
225.0
  0
ARC
  5
BB32
  8
ALPHA
 10
90.414705
 20
61.571313
 30
0.0
 40
0.091421
 50
135.0
 51
225.0
  0
ARC
  5
BB33
  8
ALPHA
 10
90.414705
 20
62.571313
 30
0.0
 40
0.091421
 50
135.0
 51
225.0
  0
ARC
  5
BB34
  8
ALPHA
 10
90.414705
 20
63.571313
 30
0.0
 40
0.091421
 50
135.0
 51
225.0
  0
ARC
  5
BB35
  8
ALPHA
 10
90.414705
 20
64.571313
 30
0.0
 40
0.091421
 50
135.0
 51
225.0
  0
ARC
  5
BB36
  8
ALPHA
 10
90.573284
 20
60.071313
 30
0.0
 40
0.15
 50
315.0
 51
45.0
  0
ARC
  5
BB37
  8
ALPHA
 10
90.573284
 20
61.071313
 30
0.0
 40
0.15
 50
315.0
 51
45.0
  0
ARC
  5
BB38
  8
ALPHA
 10
90.573284
 20
62.071313
 30
0.0
 40
0.15
 50
315.0
 51
45.0
  0
ARC
  5
BB39
  8
ALPHA
 10
90.573284
 20
63.071313
 30
0.0
 40
0.15
 50
315.0
 51
45.0
  0
ARC
  5
BB3A
  8
ALPHA
 10
90.573284
 20
64.071313
 30
0.0
 40
0.15
 50
315.0
 51
45.0
  0
LINE
  5
BB3B
  8
ALPHA
 10
90.378309
 20
61.071313
 30
0.0
 11
90.598284
 21
61.071313
 31
0.0
  0
LINE
  5
BB3C
  8
ALPHA
 10
90.378309
 20
60.071313
 30
0.0
 11
90.598284
 21
60.071313
 31
0.0
  0
LINE
  5
BB3D
  8
ALPHA
 10
90.223284
 20
57.571313
 30
0.0
 11
90.023284
 21
57.571313
 31
0.0
  0
LINE
  5
BB3E
  8
ALPHA
 10
90.350061
 20
54.506668
 30
0.0
 11
90.67935
 21
54.177379
 31
0.0
  0
LINE
  5
BB3F
  8
ALPHA
 10
90.350061
 20
55.506668
 30
0.0
 11
90.67935
 21
55.177379
 31
0.0
  0
LINE
  5
BB40
  8
ALPHA
 10
90.350061
 20
56.506668
 30
0.0
 11
90.67935
 21
56.177379
 31
0.0
  0
LINE
  5
BB41
  8
ALPHA
 10
90.350061
 20
57.506668
 30
0.0
 11
90.67935
 21
57.177379
 31
0.0
  0
LINE
  5
BB42
  8
ALPHA
 10
90.267218
 20
57.677379
 30
0.0
 11
90.125796
 21
57.8188
 31
0.0
  0
LINE
  5
BB43
  8
ALPHA
 10
90.378309
 20
58.071313
 30
0.0
 11
90.125796
 21
58.323825
 31
0.0
  0
LINE
  5
BB44
  8
ALPHA
 10
90.553829
 20
58.178635
 30
0.0
 11
90.267218
 21
58.465247
 31
0.0
  0
LINE
  5
BB45
  8
ALPHA
 10
90.350061
 20
58.506668
 30
0.0
 11
90.67935
 21
58.177379
 31
0.0
  0
LINE
  5
BB46
  8
ALPHA
 10
90.125796
 20
58.8188
 30
0.0
 11
90.267218
 21
58.677379
 31
0.0
  0
LINE
  5
BB47
  8
ALPHA
 10
90.023284
 20
57.571313
 30
0.0
 11
90.023284
 21
56.922119
 31
0.0
  0
LINE
  5
BB48
  8
ALPHA
 10
90.223284
 20
57.571313
 30
0.0
 11
90.223284
 21
57.35776
 31
0.0
  0
LINE
  5
BB49
  8
ALPHA
 10
90.125796
 20
58.8188
 30
0.0
 11
90.378309
 21
59.071313
 31
0.0
  0
LINE
  5
BB4A
  8
ALPHA
 10
90.267218
 20
58.677379
 30
0.0
 11
90.553829
 21
58.96399
 31
0.0
  0
LINE
  5
BB4B
  8
ALPHA
 10
90.67935
 20
58.965247
 30
0.0
 11
90.350061
 21
58.635957
 31
0.0
  0
LINE
  5
BB4C
  8
ALPHA
 10
90.125796
 20
58.323825
 30
0.0
 11
90.267218
 21
58.465247
 31
0.0
  0
LINE
  5
BB4D
  8
ALPHA
 10
90.378309
 20
58.071313
 30
0.0
 11
90.125796
 21
57.8188
 31
0.0
  0
LINE
  5
BB4E
  8
ALPHA
 10
90.553829
 20
57.96399
 30
0.0
 11
90.267218
 21
57.677379
 31
0.0
  0
LINE
  5
BB4F
  8
ALPHA
 10
90.67935
 20
57.965247
 30
0.0
 11
90.350061
 21
57.635957
 31
0.0
  0
LINE
  5
BB50
  8
ALPHA
 10
90.67935
 20
56.965247
 30
0.0
 11
90.350061
 21
56.635957
 31
0.0
  0
LINE
  5
BB51
  8
ALPHA
 10
90.67935
 20
55.965247
 30
0.0
 11
90.350061
 21
55.635957
 31
0.0
  0
LINE
  5
BB52
  8
ALPHA
 10
90.67935
 20
54.965247
 30
0.0
 11
90.350061
 21
54.635957
 31
0.0
  0
LINE
  5
BB53
  8
ALPHA
 10
90.67935
 20
53.965247
 30
0.0
 11
90.350061
 21
53.635957
 31
0.0
  0
ARC
  5
BB54
  8
ALPHA
 10
87.223284
 20
66.571313
 30
0.0
 40
10.0
 50
286.448613
 51
290.143784
  0
ARC
  5
BB55
  8
ALPHA
 10
90.373284
 20
57.571313
 30
0.0
 40
0.15
 50
135.0
 51
180.0
  0
ARC
  5
BB56
  8
ALPHA
 10
90.373284
 20
58.571313
 30
0.0
 40
0.15
 50
135.0
 51
225.0
  0
ARC
  5
BB57
  8
ALPHA
 10
90.446507
 20
58.071313
 30
0.0
 40
0.151777
 50
315.0
 51
45.0
  0
ARC
  5
BB58
  8
ALPHA
 10
90.446507
 20
59.071313
 30
0.0
 40
0.151777
 50
315.0
 51
45.0
  0
ARC
  5
BB59
  8
ALPHA
 10
90.373284
 20
58.571313
 30
0.0
 40
0.35
 50
135.0
 51
225.0
  0
ARC
  5
BB5A
  8
ALPHA
 10
90.373284
 20
57.571313
 30
0.0
 40
0.349999
 50
135.0
 51
180.0
  0
ARC
  5
BB5B
  8
ALPHA
 10
90.414705
 20
54.571313
 30
0.0
 40
0.091421
 50
135.0
 51
225.0
  0
ARC
  5
BB5C
  8
ALPHA
 10
90.414705
 20
55.571313
 30
0.0
 40
0.091421
 50
135.0
 51
225.0
  0
ARC
  5
BB5D
  8
ALPHA
 10
90.414705
 20
56.571313
 30
0.0
 40
0.091421
 50
135.0
 51
225.0
  0
ARC
  5
BB5E
  8
ALPHA
 10
90.414705
 20
57.571313
 30
0.0
 40
0.091421
 50
135.0
 51
225.0
  0
ARC
  5
BB5F
  8
ALPHA
 10
90.414705
 20
58.571313
 30
0.0
 40
0.091421
 50
135.0
 51
225.0
  0
ARC
  5
BB60
  8
ALPHA
 10
90.573284
 20
54.071313
 30
0.0
 40
0.15
 50
315.0
 51
45.0
  0
ARC
  5
BB61
  8
ALPHA
 10
90.573284
 20
55.071313
 30
0.0
 40
0.15
 50
315.0
 51
45.0
  0
ARC
  5
BB62
  8
ALPHA
 10
90.573284
 20
56.071313
 30
0.0
 40
0.15
 50
315.0
 51
45.0
  0
ARC
  5
BB63
  8
ALPHA
 10
90.573284
 20
57.071313
 30
0.0
 40
0.15
 50
315.0
 51
45.0
  0
ARC
  5
BB64
  8
ALPHA
 10
90.573284
 20
58.071313
 30
0.0
 40
0.15
 50
315.0
 51
45.0
  0
ARC
  5
BB65
  8
ALPHA
 10
90.573284
 20
59.071313
 30
0.0
 40
0.15
 50
315.0
 51
45.0
  0
LINE
  5
BB66
  8
ALPHA
 10
90.378309
 20
59.071313
 30
0.0
 11
90.598284
 21
59.071313
 31
0.0
  0
LINE
  5
BB67
  8
ALPHA
 10
90.598284
 20
58.071313
 30
0.0
 11
90.378309
 21
58.071313
 31
0.0
  0
LINE
  5
BB68
  8
ALPHA
 10
90.378309
 20
59.071313
 30
0.0
 11
90.125796
 21
59.323825
 31
0.0
  0
LINE
  5
BB69
  8
ALPHA
 10
90.553829
 20
59.178635
 30
0.0
 11
90.267218
 21
59.465247
 31
0.0
  0
LINE
  5
BB6A
  8
ALPHA
 10
90.350061
 20
59.506668
 30
0.0
 11
90.67935
 21
59.177379
 31
0.0
  0
ARC
  5
BB6B
  8
ALPHA
 10
90.573284
 20
65.071313
 30
0.0
 40
0.15
 50
315.0
 51
45.0
  0
ARC
  5
BB6C
  8
ALPHA
 10
90.414705
 20
53.571313
 30
0.0
 40
0.091421
 50
135.0
 51
225.0
  0
LINE
  5
BB6D
  8
ALPHA
 10
90.67935
 20
76.965247
 30
0.0
 11
90.350061
 21
76.635957
 31
0.0
  0
LINE
  5
BB6E
  8
ALPHA
 10
90.67935
 20
75.965247
 30
0.0
 11
90.350061
 21
75.635957
 31
0.0
  0
LINE
  5
BB6F
  8
ALPHA
 10
90.125796
 20
75.323825
 30
0.0
 11
90.267218
 21
75.465247
 31
0.0
  0
LINE
  5
BB70
  8
ALPHA
 10
90.125796
 20
74.8188
 30
0.0
 11
90.378309
 21
75.071313
 31
0.0
  0
LINE
  5
BB71
  8
ALPHA
 10
90.267218
 20
74.677379
 30
0.0
 11
90.553829
 21
74.96399
 31
0.0
  0
LINE
  5
BB72
  8
ALPHA
 10
90.67935
 20
74.965247
 30
0.0
 11
90.350061
 21
74.635957
 31
0.0
  0
LINE
  5
BB73
  8
ALPHA
 10
90.125796
 20
74.323825
 30
0.0
 11
90.267218
 21
74.465247
 31
0.0
  0
LINE
  5
BB74
  8
ALPHA
 10
90.125796
 20
73.8188
 30
0.0
 11
90.378309
 21
74.071313
 31
0.0
  0
LINE
  5
BB75
  8
ALPHA
 10
90.267218
 20
73.677379
 30
0.0
 11
90.553829
 21
73.96399
 31
0.0
  0
LINE
  5
BB76
  8
ALPHA
 10
90.67935
 20
73.965247
 30
0.0
 11
90.350061
 21
73.635957
 31
0.0
  0
LINE
  5
BB77
  8
ALPHA
 10
90.125796
 20
73.323825
 30
0.0
 11
90.267218
 21
73.465247
 31
0.0
  0
LINE
  5
BB78
  8
ALPHA
 10
90.125796
 20
72.8188
 30
0.0
 11
90.378309
 21
73.071313
 31
0.0
  0
LINE
  5
BB79
  8
ALPHA
 10
90.267218
 20
72.677379
 30
0.0
 11
90.553829
 21
72.96399
 31
0.0
  0
LINE
  5
BB7A
  8
ALPHA
 10
90.67935
 20
72.965247
 30
0.0
 11
90.350061
 21
72.635957
 31
0.0
  0
LINE
  5
BB7B
  8
ALPHA
 10
90.125796
 20
72.323825
 30
0.0
 11
90.267218
 21
72.465247
 31
0.0
  0
LINE
  5
BB7C
  8
ALPHA
 10
90.378309
 20
72.071313
 30
0.0
 11
90.125796
 21
71.8188
 31
0.0
  0
LINE
  5
BB7D
  8
ALPHA
 10
90.553829
 20
71.96399
 30
0.0
 11
90.267218
 21
71.677379
 31
0.0
  0
LINE
  5
BB7E
  8
ALPHA
 10
90.67935
 20
71.965247
 30
0.0
 11
90.350061
 21
71.635957
 31
0.0
  0
LINE
  5
BB7F
  8
ALPHA
 10
90.023284
 20
75.571313
 30
0.0
 11
90.023284
 21
76.220506
 31
0.0
  0
LINE
  5
BB80
  8
ALPHA
 10
90.223284
 20
75.571313
 30
0.0
 11
90.223284
 21
75.784866
 31
0.0
  0
LINE
  5
BB81
  8
ALPHA
 10
90.350061
 20
71.506668
 30
0.0
 11
90.67935
 21
71.177379
 31
0.0
  0
LINE
  5
BB82
  8
ALPHA
 10
90.267218
 20
71.677379
 30
0.0
 11
90.125796
 21
71.8188
 31
0.0
  0
LINE
  5
BB83
  8
ALPHA
 10
90.378309
 20
72.071313
 30
0.0
 11
90.125796
 21
72.323825
 31
0.0
  0
LINE
  5
BB84
  8
ALPHA
 10
90.553829
 20
72.178635
 30
0.0
 11
90.267218
 21
72.465247
 31
0.0
  0
LINE
  5
BB85
  8
ALPHA
 10
90.350061
 20
72.506668
 30
0.0
 11
90.67935
 21
72.177379
 31
0.0
  0
LINE
  5
BB86
  8
ALPHA
 10
90.125796
 20
72.8188
 30
0.0
 11
90.267218
 21
72.677379
 31
0.0
  0
LINE
  5
BB87
  8
ALPHA
 10
90.378309
 20
73.071313
 30
0.0
 11
90.125796
 21
73.323825
 31
0.0
  0
LINE
  5
BB88
  8
ALPHA
 10
90.553829
 20
73.178635
 30
0.0
 11
90.267218
 21
73.465247
 31
0.0
  0
LINE
  5
BB89
  8
ALPHA
 10
90.350061
 20
73.506668
 30
0.0
 11
90.67935
 21
73.177379
 31
0.0
  0
LINE
  5
BB8A
  8
ALPHA
 10
90.125796
 20
73.8188
 30
0.0
 11
90.267218
 21
73.677379
 31
0.0
  0
LINE
  5
BB8B
  8
ALPHA
 10
90.023284
 20
75.571313
 30
0.0
 11
90.223284
 21
75.571313
 31
0.0
  0
LINE
  5
BB8C
  8
ALPHA
 10
90.378309
 20
74.071313
 30
0.0
 11
90.125796
 21
74.323825
 31
0.0
  0
LINE
  5
BB8D
  8
ALPHA
 10
90.553829
 20
74.178635
 30
0.0
 11
90.267218
 21
74.465247
 31
0.0
  0
LINE
  5
BB8E
  8
ALPHA
 10
90.350061
 20
74.506668
 30
0.0
 11
90.67935
 21
74.177379
 31
0.0
  0
LINE
  5
BB8F
  8
ALPHA
 10
90.125796
 20
74.8188
 30
0.0
 11
90.267218
 21
74.677379
 31
0.0
  0
LINE
  5
BB90
  8
ALPHA
 10
90.378309
 20
75.071313
 30
0.0
 11
90.125796
 21
75.323825
 31
0.0
  0
LINE
  5
BB91
  8
ALPHA
 10
90.553829
 20
75.178635
 30
0.0
 11
90.267218
 21
75.465247
 31
0.0
  0
LINE
  5
BB92
  8
ALPHA
 10
90.350061
 20
75.506668
 30
0.0
 11
90.67935
 21
75.177379
 31
0.0
  0
LINE
  5
BB93
  8
ALPHA
 10
90.350061
 20
76.506668
 30
0.0
 11
90.67935
 21
76.177379
 31
0.0
  0
ARC
  5
BB94
  8
ALPHA
 10
87.223284
 20
66.571313
 30
0.0
 40
10.0
 50
69.856216
 51
73.551387
  0
ARC
  5
BB95
  8
ALPHA
 10
90.373284
 20
75.571313
 30
0.0
 40
0.15
 50
180.0
 51
225.0
  0
ARC
  5
BB96
  8
ALPHA
 10
90.373284
 20
74.571313
 30
0.0
 40
0.15
 50
135.0
 51
225.0
  0
ARC
  5
BB97
  8
ALPHA
 10
90.373284
 20
73.571313
 30
0.0
 40
0.15
 50
135.0
 51
225.0
  0
ARC
  5
BB98
  8
ALPHA
 10
90.373284
 20
72.571313
 30
0.0
 40
0.15
 50
135.0
 51
225.0
  0
ARC
  5
BB99
  8
ALPHA
 10
90.373284
 20
71.571313
 30
0.0
 40
0.15
 50
135.0
 51
180.0
  0
ARC
  5
BB9A
  8
ALPHA
 10
90.446507
 20
72.071313
 30
0.0
 40
0.151777
 50
315.0
 51
45.0
  0
ARC
  5
BB9B
  8
ALPHA
 10
90.446507
 20
73.071313
 30
0.0
 40
0.151777
 50
315.0
 51
45.0
  0
ARC
  5
BB9C
  8
ALPHA
 10
90.446507
 20
74.071313
 30
0.0
 40
0.151777
 50
315.0
 51
45.0
  0
ARC
  5
BB9D
  8
ALPHA
 10
90.446507
 20
75.071313
 30
0.0
 40
0.151777
 50
315.0
 51
45.0
  0
ARC
  5
BB9E
  8
ALPHA
 10
90.373284
 20
74.571313
 30
0.0
 40
0.35
 50
135.0
 51
225.0
  0
ARC
  5
BB9F
  8
ALPHA
 10
90.373284
 20
73.571313
 30
0.0
 40
0.35
 50
135.0
 51
225.0
  0
ARC
  5
BBA0
  8
ALPHA
 10
90.373284
 20
72.571313
 30
0.0
 40
0.35
 50
135.0
 51
225.0
  0
ARC
  5
BBA1
  8
ALPHA
 10
90.373284
 20
71.571313
 30
0.0
 40
0.35
 50
135.0
 51
180.0
  0
ARC
  5
BBA2
  8
ALPHA
 10
90.373284
 20
75.571313
 30
0.0
 40
0.35
 50
180.0
 51
225.0
  0
ARC
  5
BBA3
  8
ALPHA
 10
90.414705
 20
71.571313
 30
0.0
 40
0.091421
 50
135.0
 51
225.0
  0
ARC
  5
BBA4
  8
ALPHA
 10
90.414705
 20
72.571313
 30
0.0
 40
0.091421
 50
135.0
 51
225.0
  0
ARC
  5
BBA5
  8
ALPHA
 10
90.414705
 20
73.571313
 30
0.0
 40
0.091421
 50
135.0
 51
225.0
  0
ARC
  5
BBA6
  8
ALPHA
 10
90.414705
 20
74.571313
 30
0.0
 40
0.091421
 50
135.0
 51
225.0
  0
ARC
  5
BBA7
  8
ALPHA
 10
90.414705
 20
75.571313
 30
0.0
 40
0.091421
 50
135.0
 51
225.0
  0
ARC
  5
BBA8
  8
ALPHA
 10
90.414705
 20
76.571313
 30
0.0
 40
0.091421
 50
135.0
 51
225.0
  0
ARC
  5
BBA9
  8
ALPHA
 10
90.573284
 20
71.071313
 30
0.0
 40
0.15
 50
315.0
 51
45.0
  0
ARC
  5
BBAA
  8
ALPHA
 10
90.573284
 20
72.071313
 30
0.0
 40
0.15
 50
315.0
 51
45.0
  0
ARC
  5
BBAB
  8
ALPHA
 10
90.573284
 20
73.071313
 30
0.0
 40
0.15
 50
315.0
 51
45.0
  0
ARC
  5
BBAC
  8
ALPHA
 10
90.573284
 20
74.071313
 30
0.0
 40
0.15
 50
315.0
 51
45.0
  0
ARC
  5
BBAD
  8
ALPHA
 10
90.573284
 20
75.071313
 30
0.0
 40
0.15
 50
315.0
 51
45.0
  0
ARC
  5
BBAE
  8
ALPHA
 10
90.573284
 20
76.071313
 30
0.0
 40
0.15
 50
315.0
 51
45.0
  0
LINE
  5
BBAF
  8
ALPHA
 10
90.378309
 20
74.071313
 30
0.0
 11
90.598284
 21
74.071313
 31
0.0
  0
LINE
  5
BBB0
  8
ALPHA
 10
90.378309
 20
73.071313
 30
0.0
 11
90.598284
 21
73.071313
 31
0.0
  0
LINE
  5
BBB1
  8
ALPHA
 10
90.598284
 20
72.071313
 30
0.0
 11
90.378309
 21
72.071313
 31
0.0
  0
LINE
  5
BBB2
  8
ALPHA
 10
90.378309
 20
75.071313
 30
0.0
 11
90.598284
 21
75.071313
 31
0.0
  0
LINE
  5
BBB3
  8
ALPHA
 10
89.964808
 20
70.728053
 30
0.0
 11
89.549375
 21
70.282556
 31
0.0
  0
LINE
  5
BBB4
  8
ALPHA
 10
90.67935
 20
69.965247
 30
0.0
 11
90.350061
 21
69.635957
 31
0.0
  0
LINE
  5
BBB5
  8
ALPHA
 10
90.206033
 20
69.778685
 30
0.0
 11
90.528828
 21
70.295265
 31
0.0
  0
LINE
  5
BBB6
  8
ALPHA
 10
90.67935
 20
68.965247
 30
0.0
 11
90.350061
 21
68.635957
 31
0.0
  0
LINE
  5
BBB7
  8
ALPHA
 10
90.67935
 20
67.965247
 30
0.0
 11
90.350061
 21
67.635957
 31
0.0
  0
LINE
  5
BBB8
  8
ALPHA
 10
90.67935
 20
66.965247
 30
0.0
 11
90.350061
 21
66.635957
 31
0.0
  0
LINE
  5
BBB9
  8
ALPHA
 10
90.67935
 20
65.965247
 30
0.0
 11
90.350061
 21
65.635957
 31
0.0
  0
LINE
  5
BBBA
  8
ALPHA
 10
90.350061
 20
66.506668
 30
0.0
 11
90.67935
 21
66.177379
 31
0.0
  0
LINE
  5
BBBB
  8
ALPHA
 10
90.350061
 20
67.506668
 30
0.0
 11
90.67935
 21
67.177379
 31
0.0
  0
LINE
  5
BBBC
  8
ALPHA
 10
90.350061
 20
68.506668
 30
0.0
 11
90.67935
 21
68.177379
 31
0.0
  0
LINE
  5
BBBD
  8
ALPHA
 10
90.350061
 20
69.506668
 30
0.0
 11
90.67935
 21
69.177379
 31
0.0
  0
LINE
  5
BBBE
  8
ALPHA
 10
90.350061
 20
70.506668
 30
0.0
 11
90.67935
 21
70.177379
 31
0.0
  0
ARC
  5
BBBF
  8
ALPHA
 10
87.223284
 20
66.571313
 30
0.0
 40
4.3
 50
44.200498
 51
45.799502
  0
ARC
  5
BBC0
  8
ALPHA
 10
90.290838
 20
69.725693
 30
0.0
 40
0.1
 50
148.0
 51
225.799502
  0
ARC
  5
BBC1
  8
ALPHA
 10
87.223284
 20
66.571313
 30
0.0
 40
5.15
 50
52.398992
 51
54.310449
  0
ARC
  5
BBC2
  8
ALPHA
 10
90.111079
 20
70.591654
 30
0.0
 40
0.2
 50
54.310082
 51
137.0
  0
ARC
  5
BBC3
  8
ALPHA
 10
90.377664
 20
69.638867
 30
0.0
 40
0.1
 50
224.200498
 51
238.561486
  0
ARC
  5
BBC4
  8
ALPHA
 10
90.414705
 20
65.571313
 30
0.0
 40
0.091421
 50
135.0
 51
225.0
  0
ARC
  5
BBC5
  8
ALPHA
 10
90.414705
 20
66.571313
 30
0.0
 40
0.091421
 50
135.0
 51
225.0
  0
ARC
  5
BBC6
  8
ALPHA
 10
90.414705
 20
67.571313
 30
0.0
 40
0.091421
 50
135.0
 51
225.0
  0
ARC
  5
BBC7
  8
ALPHA
 10
90.414705
 20
68.571313
 30
0.0
 40
0.091421
 50
135.0
 51
225.0
  0
ARC
  5
BBC8
  8
ALPHA
 10
90.414705
 20
69.571313
 30
0.0
 40
0.091421
 50
135.0
 51
225.0
  0
ARC
  5
BBC9
  8
ALPHA
 10
90.414705
 20
70.571313
 30
0.0
 40
0.091421
 50
135.0
 51
225.0
  0
ARC
  5
BBCA
  8
ALPHA
 10
90.573284
 20
66.071313
 30
0.0
 40
0.15
 50
315.0
 51
45.0
  0
ARC
  5
BBCB
  8
ALPHA
 10
90.573284
 20
67.071313
 30
0.0
 40
0.15
 50
315.0
 51
45.0
  0
ARC
  5
BBCC
  8
ALPHA
 10
90.573284
 20
68.071313
 30
0.0
 40
0.15
 50
315.0
 51
45.0
  0
ARC
  5
BBCD
  8
ALPHA
 10
90.573284
 20
69.071313
 30
0.0
 40
0.15
 50
315.0
 51
45.0
  0
ARC
  5
BBCE
  8
ALPHA
 10
90.573284
 20
70.071313
 30
0.0
 40
0.15
 50
315.0
 51
45.0
  0
LINE
  5
BBCF
  8
ALPHA
 10
90.67935
 20
70.965247
 30
0.0
 11
90.350061
 21
70.635957
 31
0.0
  0
CIRCLE
  5
BBEA
  8
ALPHA
 10
87.223284
 20
105.071313
 30
0.0
 40
4.15
  0
CIRCLE
  5
BBEB
  8
ALPHA
 10
87.223284
 20
105.071313
 30
0.0
 40
8.0
  0
CIRCLE
  5
BBEC
  8
ALPHA
 10
87.223284
 20
105.071313
 30
0.0
 40
4.25
  0
ARC
  5
BBED
  8
ALPHA
 10
87.223284
 20
87.571313
 30
0.0
 40
3.5
 50
6.842628
 51
173.157372
  0
LINE
  5
BBEE
  8
ALPHA
 10
79.871859
 20
82.083423
 30
0.0
 11
81.954498
 21
99.07413
 31
0.0
  0
ARC
  5
BBEF
  8
ALPHA
 10
99.723284
 20
79.65013
 30
0.0
 40
20.0
 50
173.011816
 51
180.0
  0
LINE
  5
BBF0
  8
ALPHA
 10
83.767218
 20
87.177379
 30
0.0
 11
84.096507
 21
87.506668
 31
0.0
  0
LINE
  5
BBF1
  8
ALPHA
 10
83.767218
 20
86.177379
 30
0.0
 11
84.096507
 21
86.506668
 31
0.0
  0
LINE
  5
BBF2
  8
ALPHA
 10
83.767218
 20
85.177379
 30
0.0
 11
84.096507
 21
85.506668
 31
0.0
  0
LINE
  5
BBF3
  8
ALPHA
 10
83.767218
 20
84.177379
 30
0.0
 11
84.096507
 21
84.506668
 31
0.0
  0
LINE
  5
BBF4
  8
ALPHA
 10
83.767218
 20
83.177379
 30
0.0
 11
84.096507
 21
83.506668
 31
0.0
  0
LINE
  5
BBF5
  8
ALPHA
 10
84.096507
 20
82.635957
 30
0.0
 11
83.767218
 21
82.965247
 31
0.0
  0
LINE
  5
BBF6
  8
ALPHA
 10
84.096507
 20
83.635957
 30
0.0
 11
83.767218
 21
83.965247
 31
0.0
  0
LINE
  5
BBF7
  8
ALPHA
 10
84.096507
 20
84.635957
 30
0.0
 11
83.767218
 21
84.965247
 31
0.0
  0
LINE
  5
BBF8
  8
ALPHA
 10
84.096507
 20
85.635957
 30
0.0
 11
83.767218
 21
85.965247
 31
0.0
  0
LINE
  5
BBF9
  8
ALPHA
 10
84.096507
 20
86.635957
 30
0.0
 11
83.767218
 21
86.965247
 31
0.0
  0
LINE
  5
BBFA
  8
ALPHA
 10
84.096507
 20
87.635957
 30
0.0
 11
83.767218
 21
87.965247
 31
0.0
  0
ARC
  5
BBFB
  8
ALPHA
 10
83.873284
 20
88.071313
 30
0.0
 40
0.15
 50
213.607343
 51
225.0
  0
ARC
  5
BBFC
  8
ALPHA
 10
84.031862
 20
87.571313
 30
0.0
 40
0.091421
 50
315.0
 51
45.0
  0
ARC
  5
BBFD
  8
ALPHA
 10
84.031862
 20
86.571313
 30
0.0
 40
0.091421
 50
315.0
 51
45.0
  0
ARC
  5
BBFE
  8
ALPHA
 10
84.031862
 20
85.571313
 30
0.0
 40
0.091421
 50
315.0
 51
45.0
  0
ARC
  5
BBFF
  8
ALPHA
 10
84.031862
 20
84.571313
 30
0.0
 40
0.091421
 50
315.0
 51
45.0
  0
ARC
  5
BC00
  8
ALPHA
 10
84.031862
 20
83.571313
 30
0.0
 40
0.091421
 50
315.0
 51
45.0
  0
ARC
  5
BC01
  8
ALPHA
 10
83.873284
 20
83.071313
 30
0.0
 40
0.15
 50
135.0
 51
225.0
  0
ARC
  5
BC02
  8
ALPHA
 10
83.873284
 20
84.071313
 30
0.0
 40
0.15
 50
135.0
 51
225.0
  0
ARC
  5
BC03
  8
ALPHA
 10
83.873284
 20
85.071313
 30
0.0
 40
0.15
 50
135.0
 51
225.0
  0
ARC
  5
BC04
  8
ALPHA
 10
83.873284
 20
86.071313
 30
0.0
 40
0.15
 50
135.0
 51
225.0
  0
ARC
  5
BC05
  8
ALPHA
 10
83.873284
 20
87.071313
 30
0.0
 40
0.15
 50
135.0
 51
225.0
  0
LINE
  5
BC06
  8
ALPHA
 10
83.767218
 20
82.177379
 30
0.0
 11
84.096507
 21
82.506668
 31
0.0
  0
LINE
  5
BC07
  8
ALPHA
 10
83.767218
 20
81.177379
 30
0.0
 11
84.096507
 21
81.506668
 31
0.0
  0
LINE
  5
BC08
  8
ALPHA
 10
83.767218
 20
80.177379
 30
0.0
 11
84.096507
 21
80.506668
 31
0.0
  0
LINE
  5
BC09
  8
ALPHA
 10
83.767218
 20
79.177379
 30
0.0
 11
84.096507
 21
79.506668
 31
0.0
  0
LINE
  5
BC0A
  8
ALPHA
 10
83.767218
 20
78.177379
 30
0.0
 11
84.096507
 21
78.506668
 31
0.0
  0
LINE
  5
BC0B
  8
ALPHA
 10
83.767218
 20
77.177379
 30
0.0
 11
84.096507
 21
77.506668
 31
0.0
  0
LINE
  5
BC0C
  8
ALPHA
 10
84.096507
 20
77.635957
 30
0.0
 11
83.767218
 21
77.965247
 31
0.0
  0
LINE
  5
BC0D
  8
ALPHA
 10
84.096507
 20
78.635957
 30
0.0
 11
83.767218
 21
78.965247
 31
0.0
  0
LINE
  5
BC0E
  8
ALPHA
 10
84.096507
 20
79.635957
 30
0.0
 11
83.767218
 21
79.965247
 31
0.0
  0
LINE
  5
BC0F
  8
ALPHA
 10
84.096507
 20
80.635957
 30
0.0
 11
83.767218
 21
80.965247
 31
0.0
  0
LINE
  5
BC10
  8
ALPHA
 10
84.096507
 20
81.635957
 30
0.0
 11
83.767218
 21
81.965247
 31
0.0
  0
ARC
  5
BC11
  8
ALPHA
 10
84.031862
 20
81.571313
 30
0.0
 40
0.091421
 50
315.0
 51
45.0
  0
ARC
  5
BC12
  8
ALPHA
 10
84.031862
 20
80.571313
 30
0.0
 40
0.091421
 50
315.0
 51
45.0
  0
ARC
  5
BC13
  8
ALPHA
 10
84.031862
 20
79.571313
 30
0.0
 40
0.091421
 50
315.0
 51
45.0
  0
ARC
  5
BC14
  8
ALPHA
 10
84.031862
 20
78.571313
 30
0.0
 40
0.091421
 50
315.0
 51
45.0
  0
ARC
  5
BC15
  8
ALPHA
 10
84.031862
 20
77.571313
 30
0.0
 40
0.091421
 50
315.0
 51
45.0
  0
ARC
  5
BC16
  8
ALPHA
 10
83.873284
 20
78.071313
 30
0.0
 40
0.15
 50
135.0
 51
225.0
  0
ARC
  5
BC17
  8
ALPHA
 10
83.873284
 20
79.071313
 30
0.0
 40
0.15
 50
135.0
 51
225.0
  0
ARC
  5
BC18
  8
ALPHA
 10
83.873284
 20
80.071313
 30
0.0
 40
0.15
 50
135.0
 51
225.0
  0
ARC
  5
BC19
  8
ALPHA
 10
83.873284
 20
81.071313
 30
0.0
 40
0.15
 50
135.0
 51
225.0
  0
ARC
  5
BC1A
  8
ALPHA
 10
83.873284
 20
82.071313
 30
0.0
 40
0.15
 50
135.0
 51
225.0
  0
ARC
  5
BC1B
  8
ALPHA
 10
84.031862
 20
82.571313
 30
0.0
 40
0.091421
 50
315.0
 51
45.0
  0
CIRCLE
  5
BC1C
  8
ALPHA
 10
87.223284
 20
105.071313
 30
0.0
 40
1.0
  0
LINE
  5
BC1D
  8
ALPHA
 10
92.492069
 20
99.07413
 30
0.0
 11
94.574709
 21
82.083423
 31
0.0
  0
ARC
  5
BC1E
  8
ALPHA
 10
74.723284
 20
79.65013
 30
0.0
 40
20.0
 50
0.0
 51
6.988184
  0
LINE
  5
BC1F
  8
ALPHA
 10
90.67935
 20
87.965247
 30
0.0
 11
90.350061
 21
87.635957
 31
0.0
  0
LINE
  5
BC20
  8
ALPHA
 10
90.67935
 20
86.965247
 30
0.0
 11
90.350061
 21
86.635957
 31
0.0
  0
LINE
  5
BC21
  8
ALPHA
 10
90.67935
 20
85.965247
 30
0.0
 11
90.350061
 21
85.635957
 31
0.0
  0
LINE
  5
BC22
  8
ALPHA
 10
90.67935
 20
84.965247
 30
0.0
 11
90.350061
 21
84.635957
 31
0.0
  0
LINE
  5
BC23
  8
ALPHA
 10
90.67935
 20
83.965247
 30
0.0
 11
90.350061
 21
83.635957
 31
0.0
  0
LINE
  5
BC24
  8
ALPHA
 10
90.67935
 20
82.965247
 30
0.0
 11
90.350061
 21
82.635957
 31
0.0
  0
LINE
  5
BC25
  8
ALPHA
 10
90.350061
 20
83.506668
 30
0.0
 11
90.67935
 21
83.177379
 31
0.0
  0
LINE
  5
BC26
  8
ALPHA
 10
90.350061
 20
84.506668
 30
0.0
 11
90.67935
 21
84.177379
 31
0.0
  0
LINE
  5
BC27
  8
ALPHA
 10
90.350061
 20
85.506668
 30
0.0
 11
90.67935
 21
85.177379
 31
0.0
  0
LINE
  5
BC28
  8
ALPHA
 10
90.350061
 20
86.506668
 30
0.0
 11
90.67935
 21
86.177379
 31
0.0
  0
LINE
  5
BC29
  8
ALPHA
 10
90.350061
 20
87.506668
 30
0.0
 11
90.67935
 21
87.177379
 31
0.0
  0
ARC
  5
BC2A
  8
ALPHA
 10
90.414705
 20
83.571313
 30
0.0
 40
0.091421
 50
135.0
 51
225.0
  0
ARC
  5
BC2B
  8
ALPHA
 10
90.414705
 20
84.571313
 30
0.0
 40
0.091421
 50
135.0
 51
225.0
  0
ARC
  5
BC2C
  8
ALPHA
 10
90.414705
 20
85.571313
 30
0.0
 40
0.091421
 50
135.0
 51
225.0
  0
ARC
  5
BC2D
  8
ALPHA
 10
90.414705
 20
86.571313
 30
0.0
 40
0.091421
 50
135.0
 51
225.0
  0
ARC
  5
BC2E
  8
ALPHA
 10
90.414705
 20
87.571313
 30
0.0
 40
0.091421
 50
135.0
 51
225.0
  0
ARC
  5
BC2F
  8
ALPHA
 10
90.573284
 20
88.071313
 30
0.0
 40
0.15
 50
315.0
 51
326.392657
  0
ARC
  5
BC30
  8
ALPHA
 10
90.573284
 20
83.071313
 30
0.0
 40
0.15
 50
315.0
 51
45.0
  0
ARC
  5
BC31
  8
ALPHA
 10
90.573284
 20
84.071313
 30
0.0
 40
0.15
 50
315.0
 51
45.0
  0
ARC
  5
BC32
  8
ALPHA
 10
90.573284
 20
85.071313
 30
0.0
 40
0.15
 50
315.0
 51
45.0
  0
ARC
  5
BC33
  8
ALPHA
 10
90.573284
 20
86.071313
 30
0.0
 40
0.15
 50
315.0
 51
45.0
  0
ARC
  5
BC34
  8
ALPHA
 10
90.573284
 20
87.071313
 30
0.0
 40
0.15
 50
315.0
 51
45.0
  0
LINE
  5
BC35
  8
ALPHA
 10
90.67935
 20
81.965247
 30
0.0
 11
90.350061
 21
81.635957
 31
0.0
  0
LINE
  5
BC36
  8
ALPHA
 10
90.67935
 20
80.965247
 30
0.0
 11
90.350061
 21
80.635957
 31
0.0
  0
LINE
  5
BC37
  8
ALPHA
 10
90.67935
 20
79.965247
 30
0.0
 11
90.350061
 21
79.635957
 31
0.0
  0
LINE
  5
BC38
  8
ALPHA
 10
90.67935
 20
78.965247
 30
0.0
 11
90.350061
 21
78.635957
 31
0.0
  0
LINE
  5
BC39
  8
ALPHA
 10
90.67935
 20
77.965247
 30
0.0
 11
90.350061
 21
77.635957
 31
0.0
  0
LINE
  5
BC3A
  8
ALPHA
 10
90.350061
 20
77.506668
 30
0.0
 11
90.67935
 21
77.177379
 31
0.0
  0
LINE
  5
BC3B
  8
ALPHA
 10
90.350061
 20
78.506668
 30
0.0
 11
90.67935
 21
78.177379
 31
0.0
  0
LINE
  5
BC3C
  8
ALPHA
 10
90.350061
 20
79.506668
 30
0.0
 11
90.67935
 21
79.177379
 31
0.0
  0
LINE
  5
BC3D
  8
ALPHA
 10
90.350061
 20
80.506668
 30
0.0
 11
90.67935
 21
80.177379
 31
0.0
  0
LINE
  5
BC3E
  8
ALPHA
 10
90.350061
 20
81.506668
 30
0.0
 11
90.67935
 21
81.177379
 31
0.0
  0
LINE
  5
BC3F
  8
ALPHA
 10
90.350061
 20
82.506668
 30
0.0
 11
90.67935
 21
82.177379
 31
0.0
  0
ARC
  5
BC40
  8
ALPHA
 10
90.414705
 20
77.571313
 30
0.0
 40
0.091421
 50
135.0
 51
225.0
  0
ARC
  5
BC41
  8
ALPHA
 10
90.414705
 20
78.571313
 30
0.0
 40
0.091421
 50
135.0
 51
225.0
  0
ARC
  5
BC42
  8
ALPHA
 10
90.414705
 20
79.571313
 30
0.0
 40
0.091421
 50
135.0
 51
225.0
  0
ARC
  5
BC43
  8
ALPHA
 10
90.414705
 20
80.571313
 30
0.0
 40
0.091421
 50
135.0
 51
225.0
  0
ARC
  5
BC44
  8
ALPHA
 10
90.414705
 20
81.571313
 30
0.0
 40
0.091421
 50
135.0
 51
225.0
  0
ARC
  5
BC45
  8
ALPHA
 10
90.573284
 20
78.071313
 30
0.0
 40
0.15
 50
315.0
 51
45.0
  0
ARC
  5
BC46
  8
ALPHA
 10
90.573284
 20
79.071313
 30
0.0
 40
0.15
 50
315.0
 51
45.0
  0
ARC
  5
BC47
  8
ALPHA
 10
90.573284
 20
80.071313
 30
0.0
 40
0.15
 50
315.0
 51
45.0
  0
ARC
  5
BC48
  8
ALPHA
 10
90.573284
 20
81.071313
 30
0.0
 40
0.15
 50
315.0
 51
45.0
  0
ARC
  5
BC49
  8
ALPHA
 10
90.573284
 20
82.071313
 30
0.0
 40
0.15
 50
315.0
 51
45.0
  0
ARC
  5
BC4A
  8
ALPHA
 10
90.414705
 20
82.571313
 30
0.0
 40
0.091421
 50
135.0
 51
225.0
  0
VIEWPORT
  5
494D
 67
     1
  8
0
 10
4.995325
 20
6.556512
 30
0.0
 40
22.70986
 41
13.988421
 68
    -1
 69
     1
1001
ACAD
1000
MVIEW
1002
{
1070
    16
1010
0.0
1020
0.0
1030
0.0
1010
0.0
1020
0.0
1030
1.0
1040
0.0
1040
13.988421
1040
4.995325
1040
6.556512
1040
50.0
1040
0.0
1040
0.0
1070
     0
1070
   100
1070
     1
1070
     1
1070
     0
1070
     0
1070
     0
1070
     0
1040
0.0
1040
0.0
1040
0.0
1040
10.0
1040
10.0
1040
10.0
1040
10.0
1070
     0
1002
{
1002
}
1002
}
  0
ENDSEC
  0
EOF
