  0
SECTION
  2
HEADER
  9
$ACADVER
  1
AC1009
  9
$INSBASE
 10
402.590624
 20
-1.041018
 30
0.0
  9
$EXTMIN
 10
-7.832419
 20
9.571313
 30
0.0
  9
$EXTMAX
 10
48.805986
 20
131.95657
 30
0.0
  9
$LIMMIN
 10
-407.970438
 20
-367.832444
  9
$LIMMAX
 10
429.804077
 20
234.370848
  9
$ORTHOMODE
 70
     0
  9
$REGENMODE
 70
     1
  9
$FILLMODE
 70
     1
  9
$QTEXTMODE
 70
     0
  9
$MIRRTEXT
 70
     1
  9
$DRAGMODE
 70
     2
  9
$LTSCALE
 40
10.0
  9
$OSMODE
 70
    35
  9
$ATTMODE
 70
     1
  9
$TEXTSIZE
 40
6.0
  9
$TRACEWID
 40
1.0
  9
$TEXTSTYLE
  7
ROMANS
  9
$CLAYER
  8
ALPHA
  9
$CELTYPE
  6
BYLAYER
  9
$CECOLOR
 62
   256
  9
$DIMSCALE
 40
1.0
  9
$DIMASZ
 40
5.0
  9
$DIMEXO
 40
2.0
  9
$DIMDLI
 40
0.38
  9
$DIMRND
 40
0.0
  9
$DIMDLE
 40
0.0
  9
$DIMEXE
 40
2.5
  9
$DIMTP
 40
0.0
  9
$DIMTM
 40
0.0
  9
$DIMTXT
 40
2.5
  9
$DIMCEN
 40
0.0
  9
$DIMTSZ
 40
0.0
  9
$DIMTOL
 70
     0
  9
$DIMLIM
 70
     0
  9
$DIMTIH
 70
     1
  9
$DIMTOH
 70
     1
  9
$DIMSE1
 70
     0
  9
$DIMSE2
 70
     0
  9
$DIMTAD
 70
     1
  9
$DIMZIN
 70
    12
  9
$DIMBLK
  1
OPEN30
  9
$DIMASO
 70
     1
  9
$DIMSHO
 70
     1
  9
$DIMPOST
  1

  9
$DIMAPOST
  1

  9
$DIMALT
 70
     0
  9
$DIMALTD
 70
     2
  9
$DIMALTF
 40
25.4
  9
$DIMLFAC
 40
1.0
  9
$DIMTOFL
 70
     0
  9
$DIMTVP
 40
0.0
  9
$DIMTIX
 70
     0
  9
$DIMSOXD
 70
     0
  9
$DIMSAH
 70
     0
  9
$DIMBLK1
  1

  9
$DIMBLK2
  1

  9
$DIMSTYLE
  2
SC_DEFAUT
  9
$DIMCLRD
 70
     0
  9
$DIMCLRE
 70
     0
  9
$DIMCLRT
 70
     0
  9
$DIMTFAC
 40
1.0
  9
$DIMGAP
 40
2.0
  9
$LUNITS
 70
     2
  9
$LUPREC
 70
     1
  9
$SKETCHINC
 40
0.1
  9
$FILLETRAD
 40
0.0
  9
$AUNITS
 70
     0
  9
$AUPREC
 70
     0
  9
$MENU
  1
acad
  9
$ELEVATION
 40
0.0
  9
$PELEVATION
 40
0.0
  9
$THICKNESS
 40
0.0
  9
$LIMCHECK
 70
     0
  9
$BLIPMODE
 70
     0
  9
$CHAMFERA
 40
0.0
  9
$CHAMFERB
 40
0.0
  9
$SKPOLY
 70
     0
  9
$TDCREATE
 40
2450373.687919
  9
$TDUPDATE
 40
2453032.655002
  9
$TDINDWG
 40
1.104815
  9
$TDUSRTIMER
 40
1.104815
  9
$USRTIMER
 70
     1
  9
$ANGBASE
 50
0.0
  9
$ANGDIR
 70
     0
  9
$PDMODE
 70
    32
  9
$PDSIZE
 40
0.0
  9
$PLINEWID
 40
0.0
  9
$COORDS
 70
     1
  9
$SPLFRAME
 70
     0
  9
$SPLINETYPE
 70
     6
  9
$SPLINESEGS
 70
     8
  9
$ATTDIA
 70
     0
  9
$ATTREQ
 70
     1
  9
$HANDLING
 70
     1
  9
$HANDSEED
  5
BD57
  9
$SURFTAB1
 70
     6
  9
$SURFTAB2
 70
     6
  9
$SURFTYPE
 70
     6
  9
$SURFU
 70
     6
  9
$SURFV
 70
     6
  9
$UCSNAME
  2

  9
$UCSORG
 10
0.0
 20
0.0
 30
0.0
  9
$UCSXDIR
 10
1.0
 20
0.0
 30
0.0
  9
$UCSYDIR
 10
0.0
 20
1.0
 30
0.0
  9
$PUCSNAME
  2

  9
$PUCSORG
 10
0.0
 20
0.0
 30
0.0
  9
$PUCSXDIR
 10
1.0
 20
0.0
 30
0.0
  9
$PUCSYDIR
 10
0.0
 20
1.0
 30
0.0
  9
$USERI1
 70
     0
  9
$USERI2
 70
     0
  9
$USERI3
 70
     0
  9
$USERI4
 70
     0
  9
$USERI5
 70
     0
  9
$USERR1
 40
0.0
  9
$USERR2
 40
0.0
  9
$USERR3
 40
0.0
  9
$USERR4
 40
0.0
  9
$USERR5
 40
0.0
  9
$WORLDVIEW
 70
     1
  9
$SHADEDGE
 70
     3
  9
$SHADEDIF
 70
    70
  9
$TILEMODE
 70
     1
  9
$MAXACTVP
 70
    16
  9
$PLIMCHECK
 70
     0
  9
$PEXTMIN
 10
-1.452248
 20
-0.437698
 30
0.0
  9
$PEXTMAX
 10
12.749749
 20
8.310198
 30
0.0
  9
$PLIMMIN
 10
0.0
 20
0.0
  9
$PLIMMAX
 10
12.0
 20
9.0
  9
$UNITMODE
 70
     0
  9
$VISRETAIN
 70
     0
  9
$PLINEGEN
 70
     0
  9
$PSLTSCALE
 70
     0
  0
ENDSEC
  0
SECTION
  2
TABLES
  0
TABLE
  2
VPORT
 70
     2
  0
VPORT
  2
*ACTIVE
 70
     0
 10
0.0
 20
0.0
 11
1.0
 21
1.0
 12
20.472431
 22
70.758015
 13
0.0
 23
0.0
 14
1.0
 24
1.0
 15
10.0
 25
10.0
 16
0.0
 26
0.0
 36
1.0
 17
0.0
 27
0.0
 37
0.0
 40
123.323934
 41
1.466346
 42
50.0
 43
0.0
 44
0.0
 50
0.0
 51
0.0
 71
     0
 72
   100
 73
     1
 74
     0
 75
     0
 76
     0
 77
     0
 78
     0
  0
ENDTAB
  0
TABLE
  2
LTYPE
 70
     2
  0
LTYPE
  2
CONTINUOUS
 70
     0
  3
Solid line
 72
    65
 73
     0
 40
0.0
  0
LTYPE
  2
AXES2
 70
     0
  3
___ _ ___ _ ___ _ ___ _ ___ _ ___ _ ___ _ ___ _
 72
    65
 73
     4
 40
1.125
 49
0.75
 49
-0.125
 49
0.125
 49
-0.125
  0
ENDTAB
  0
TABLE
  2
LAYER
 70
     5
  0
LAYER
  2
0
 70
     0
 62
   255
  6
CONTINUOUS
  0
LAYER
  2
COTATION1
 70
     0
 62
     2
  6
CONTINUOUS
  0
LAYER
  2
AXE
 70
     0
 62
    80
  6
AXES2
  0
LAYER
  2
DEFPOINTS
 70
     0
 62
     7
  6
CONTINUOUS
  0
LAYER
  2
ALPHA
 70
     0
 62
   254
  6
CONTINUOUS
  0
ENDTAB
  0
TABLE
  2
STYLE
 70
     2
  0
STYLE
  2
ROMANS
 70
     0
 40
0.0
 41
1.0
 50
0.0
 71
     0
 42
6.0
  3
romans
  4

  0
STYLE
  2
STANDARD
 70
     0
 40
0.0
 41
1.0
 50
0.0
 71
     0
 42
0.2
  3
txt
  4

  0
ENDTAB
  0
TABLE
  2
VIEW
 70
     0
  0
ENDTAB
  0
TABLE
  2
UCS
 70
     0
  0
ENDTAB
  0
TABLE
  2
APPID
 70
     1
  0
APPID
  2
ACAD
 70
     0
  0
ENDTAB
  0
TABLE
  2
DIMSTYLE
 70
     2
  0
DIMSTYLE
  2
SC_DEFAUT
 70
     0
  3

  4

  5
OPEN30
  6

  7

 40
1.0
 41
5.0
 42
2.0
 43
0.38
 44
2.5
 45
0.0
 46
0.0
 47
0.0
 48
0.0
140
2.5
141
0.0
142
0.0
143
25.4
144
1.0
145
0.0
146
1.0
147
2.0
 71
     0
 72
     0
 73
     1
 74
     1
 75
     0
 76
     0
 77
     1
 78
    12
170
     0
171
     2
172
     0
173
     0
174
     0
175
     0
176
     0
177
     0
178
     0
  0
DIMSTYLE
  2
STANDARD
 70
     0
  3

  4

  5

  6

  7

 40
1.0
 41
0.18
 42
0.0625
 43
0.38
 44
0.18
 45
0.0
 46
0.0
 47
0.0
 48
0.0
140
0.18
141
0.09
142
0.0
143
25.4
144
1.0
145
0.0
146
1.0
147
0.09
 71
     0
 72
     0
 73
     1
 74
     1
 75
     0
 76
     0
 77
     0
 78
     0
170
     0
171
     2
172
     0
173
     0
174
     0
175
     0
176
     0
177
     0
178
     0
  0
ENDTAB
  0
ENDSEC
  0
SECTION
  2
BLOCKS
  0
BLOCK
  8
0
  2
$MODEL_SPACE
 70
     0
 10
0.0
 20
0.0
 30
0.0
  3
$MODEL_SPACE
  1

  0
ENDBLK
  5
BD50
  8
0
  0
BLOCK
 67
     1
  8
0
  2
$PAPER_SPACE
 70
     0
 10
0.0
 20
0.0
 30
0.0
  3
$PAPER_SPACE
  1

  0
ENDBLK
  5
BD4E
 67
     1
  8
0
  0
BLOCK
  8
0
  2
COTE
 70
     0
 10
0.0
 20
0.0
 30
0.0
  3
COTE
  1

  0
ENDBLK
  5
F
  8
0
  0
BLOCK
  8
0
  2
FOND
 70
     0
 10
0.0
 20
0.0
 30
0.0
  3
FOND
  1

  0
ENDBLK
  5
75
  8
0
  0
BLOCK
  8
0
  2
_OPEN30
 70
     0
 10
0.0
 20
0.0
 30
0.0
  3
_OPEN30
  1

  0
LINE
  5
4B05
  8
COTATION1
 62
     0
 10
-1.0
 20
0.267949
 30
0.0
 11
0.0
 21
0.0
 31
0.0
1001
ACAD
1000
RTLwPs
1070
   158
  0
LINE
  5
4B06
  8
COTATION1
 62
     0
 10
0.0
 20
0.0
 30
0.0
 11
-1.0
 21
-0.267949
 31
0.0
1001
ACAD
1000
RTLwPs
1070
   158
  0
LINE
  5
4B07
  8
COTATION1
 62
     0
 10
0.0
 20
0.0
 30
0.0
 11
-1.0
 21
0.0
 31
0.0
1001
ACAD
1000
RTLwPs
1070
   158
  0
ENDBLK
  5
4B09
  8
0
  0
BLOCK
  8
0
  2
*D3
 70
     1
 10
0.0
 20
0.0
 30
0.0
  3
*D3
  1

  0
LINE
  5
BC94
  8
COTATION1
 62
     0
 10
2.167581
 20
107.071313
 30
0.0
 11
2.167581
 21
130.571313
 31
0.0
1001
ACAD
1000
RTLwPs
1070
   158
  0
LINE
  5
BC95
  8
COTATION1
 62
     0
 10
12.567581
 20
74.821313
 30
0.0
 11
12.567581
 21
130.571313
 31
0.0
1001
ACAD
1000
RTLwPs
1070
   158
  0
LINE
  5
BC96
  8
COTATION1
 62
     0
 10
-2.832419
 20
128.071313
 30
0.0
 11
-7.832419
 21
128.071313
 31
0.0
1001
ACAD
1000
RTLwPs
1070
   158
  0
LINE
  5
BC97
  8
COTATION1
 62
     0
 10
17.567581
 20
128.071313
 30
0.0
 11
22.567581
 21
128.071313
 31
0.0
1001
ACAD
1000
RTLwPs
1070
   158
  0
TEXT
  5
BC98
  8
COTATION1
 62
     0
 10
2.962819
 20
129.45657
 30
0.0
 40
2.5
  1
10.4
1001
ACAD
1000
MTEXTBEGIN
1070
    73
1070
     1
1070
    44
1040
1.0
1070
    74
1070
     0
1000
MTEXTEND
  0
INSERT
  5
BC99
  8
COTATION1
 62
     0
  2
_OPEN30
 10
2.167581
 20
128.071313
 30
0.0
 41
5.0
 42
5.0
 43
5.0
1001
ACAD
1000
RTLwPs
1070
   158
  0
INSERT
  5
BC9A
  8
COTATION1
 62
     0
  2
_OPEN30
 10
12.567581
 20
128.071313
 30
0.0
 41
5.0
 42
5.0
 43
5.0
 50
180.0
1001
ACAD
1000
RTLwPs
1070
   158
  0
POINT
  5
BC9B
  8
DEFPOINTS
 62
     0
 10
2.167581
 20
105.071313
 30
0.0
  0
POINT
  5
BC9C
  8
DEFPOINTS
 62
     0
 10
12.567581
 20
72.821313
 30
0.0
  0
POINT
  5
BC9D
  8
DEFPOINTS
 62
     0
 10
12.567581
 20
128.071313
 30
0.0
  0
ENDBLK
  5
9B98
  8
0
  0
ENDSEC
  0
SECTION
  2
ENTITIES
  0
INSERT
  5
A
  8
0
  2
COTE
 10
0.0
 20
0.0
 30
0.0
  0
INSERT
  5
17
  8
0
  2
COTE
 10
284.010391
 20
6.373258
 30
0.0
  0
INSERT
  5
72
  8
0
  2
FOND
 10
0.0
 20
0.0
 30
0.0
  0
LINE
  5
9A33
  8
COTATION1
 10
15.067581
 20
51.22096
 30
0.0
 11
22.305986
 21
51.22096
 31
0.0
  0
LINE
  5
9A4A
  8
COTATION1
 10
12.567581
 20
59.321313
 30
0.0
 11
12.567581
 21
45.069686
 31
0.0
  0
SOLID
  5
9A78
  8
COTATION1
 10
12.567581
 20
49.777585
 30
0.0
 11
12.567581
 21
52.664336
 31
0.0
 12
15.067581
 22
51.22096
 32
0.0
 13
15.067581
 23
51.22096
 33
0.0
  0
LINE
  5
9B48
  8
COTATION1
 10
22.305986
 20
53.72096
 30
0.0
 11
48.805986
 21
53.72096
 31
0.0
  0
LINE
  5
9B49
  8
COTATION1
 10
48.805986
 20
48.72096
 30
0.0
 11
22.305986
 21
48.72096
 31
0.0
  0
TEXT
  5
9B4A
  8
COTATION1
 10
23.555986
 20
49.97096
 30
0.0
 40
2.5
  1
PLANE_TO_LINE_UP
 41
0.626087
  7
STANDARD
 72
     5
 11
47.555986
 21
49.97096
 31
0.0
  0
LINE
  5
9B4B
  8
COTATION1
 10
22.305986
 20
48.72096
 30
0.0
 11
22.305986
 21
53.72096
 31
0.0
  0
LINE
  5
9B4C
  8
COTATION1
 10
48.805986
 20
53.72096
 30
0.0
 11
48.805986
 21
48.72096
 31
0.0
  0
DIMENSION
  5
9B8C
  8
COTATION1
  2
*D3
 10
12.567581
 20
128.071313
 30
0.0
 11
7.367581
 21
130.70657
 31
0.0
 70
   128
 13
2.167581
 23
105.071313
 33
0.0
 14
12.567581
 24
72.821313
 34
0.0
  0
LINE
  5
A6B4
  8
AXE
 10
6.017581
 20
82.592132
 30
0.0
 11
6.017581
 21
118.071313
 31
0.0
  0
TEXT
  5
A6B5
  8
AXE
 10
0.969962
 20
82.592132
 30
0.0
 40
5.0
  1
Y
 72
     2
 11
5.017581
 21
82.592132
 31
0.0
  0
LINE
  5
A6B6
  8
AXE
 10
-2.832419
 20
105.071313
 30
0.0
 11
22.067581
 21
105.071313
 31
0.0
  0
TEXT
  5
A6B7
  8
AXE
 10
18.019962
 20
106.071313
 30
0.0
 40
5.0
  1
Z
 72
     2
 11
22.067581
 21
106.071313
 31
0.0
  0
LINE
  5
B078
  8
ALPHA
 10
11.567581
 20
55.271313
 30
0.0
 11
11.567581
 21
77.871313
 31
0.0
  0
LINE
  5
B079
  8
ALPHA
 10
10.567581
 20
9.571313
 30
0.0
 11
10.567581
 21
109.571054
 31
0.0
  0
LINE
  5
B07A
  8
ALPHA
 10
9.067581
 20
9.571313
 30
0.0
 11
9.067581
 21
109.571054
 31
0.0
  0
LINE
  5
B081
  8
ALPHA
 10
9.067581
 20
14.571313
 30
0.0
 11
10.567581
 21
14.571313
 31
0.0
  0
LINE
  5
B082
  8
ALPHA
 10
9.067581
 20
9.571313
 30
0.0
 11
10.567581
 21
9.571313
 31
0.0
  0
LINE
  5
B083
  8
ALPHA
 10
12.567581
 20
72.821313
 30
0.0
 11
12.567581
 21
60.321313
 31
0.0
  0
LINE
  5
B084
  8
ALPHA
 10
11.567581
 20
56.980572
 30
0.0
 11
10.567581
 21
56.980572
 31
0.0
  0
LINE
  5
B085
  8
ALPHA
 10
10.567581
 20
55.271313
 30
0.0
 11
11.567581
 21
55.271313
 31
0.0
  0
LINE
  5
B086
  8
ALPHA
 10
11.567581
 20
60.321313
 30
0.0
 11
12.567581
 21
60.321313
 31
0.0
  0
LINE
  5
B087
  8
ALPHA
 10
10.567581
 20
61.20941
 30
0.0
 11
11.567581
 21
61.20941
 31
0.0
  0
LINE
  5
B088
  8
ALPHA
 10
10.567581
 20
58.911452
 30
0.0
 11
11.567581
 21
58.911452
 31
0.0
  0
LINE
  5
B089
  8
ALPHA
 10
11.567581
 20
72.821313
 30
0.0
 11
12.567581
 21
72.821313
 31
0.0
  0
LINE
  5
B08A
  8
ALPHA
 10
11.567581
 20
74.231174
 30
0.0
 11
10.567581
 21
74.231174
 31
0.0
  0
LINE
  5
B08B
  8
ALPHA
 10
11.567581
 20
71.933215
 30
0.0
 11
10.567581
 21
71.933215
 31
0.0
  0
ARC
  5
B35A
  8
ALPHA
 10
32.658628
 20
104.810297
 30
0.0
 40
30.5
 50
181.388355
 51
187.325595
  0
LINE
  5
B35B
  8
ALPHA
 10
9.017581
 20
109.821313
 30
0.0
 11
9.017581
 21
100.321313
 31
0.0
  0
LINE
  5
B35C
  8
ALPHA
 10
8.767581
 20
113.071313
 30
0.0
 11
8.767581
 21
97.071313
 31
0.0
  0
LINE
  5
B35D
  8
ALPHA
 10
3.267581
 20
97.071313
 30
0.0
 11
3.267581
 21
113.071313
 31
0.0
  0
LINE
  5
B35E
  8
ALPHA
 10
2.497265
 20
100.821313
 30
0.0
 11
2.497265
 21
109.321313
 31
0.0
  0
LINE
  5
B35F
  8
ALPHA
 10
2.407581
 20
100.921313
 30
0.0
 11
2.407581
 21
109.221313
 31
0.0
  0
LINE
  5
B360
  8
ALPHA
 10
10.567581
 20
82.083423
 30
0.0
 11
9.067581
 21
82.083423
 31
0.0
  0
LINE
  5
B361
  8
ALPHA
 10
10.567581
 20
79.65013
 30
0.0
 11
9.067581
 21
79.65013
 31
0.0
  0
LINE
  5
B362
  8
ALPHA
 10
3.267581
 20
97.071313
 30
0.0
 11
8.767581
 21
97.071313
 31
0.0
  0
ARC
  5
B363
  8
ALPHA
 10
32.699707
 20
105.071313
 30
0.0
 40
30.5
 50
188.009903
 51
195.206288
  0
LINE
  5
B364
  8
ALPHA
 10
2.407581
 20
100.921313
 30
0.0
 11
2.497265
 21
100.921313
 31
0.0
  0
LINE
  5
B365
  8
ALPHA
 10
8.767581
 20
100.321313
 30
0.0
 11
9.017581
 21
100.321313
 31
0.0
  0
LINE
  5
B366
  8
ALPHA
 10
10.567581
 20
77.871313
 30
0.0
 11
11.567581
 21
77.871313
 31
0.0
  0
LINE
  5
B367
  8
ALPHA
 10
11.567581
 20
76.162054
 30
0.0
 11
10.567581
 21
76.162054
 31
0.0
  0
LINE
  5
B368
  8
ALPHA
 10
10.567581
 20
109.571313
 30
0.0
 11
9.067581
 21
109.571313
 31
0.0
  0
LINE
  5
B369
  8
ALPHA
 10
9.067581
 20
105.618804
 30
0.0
 11
10.567581
 21
105.618804
 31
0.0
  0
LINE
  5
B36A
  8
ALPHA
 10
3.267581
 20
113.071313
 30
0.0
 11
8.767581
 21
113.071313
 31
0.0
  0
ARC
  5
B36B
  8
ALPHA
 10
32.658628
 20
105.332328
 30
0.0
 40
30.5
 50
172.674405
 51
178.611645
  0
LINE
  5
B36C
  8
ALPHA
 10
2.167581
 20
106.071313
 30
0.0
 11
2.167581
 21
104.071313
 31
0.0
  0
ARC
  5
B36D
  8
ALPHA
 10
32.699707
 20
105.071313
 30
0.0
 40
30.5
 50
164.793712
 51
171.990097
  0
LINE
  5
B36E
  8
ALPHA
 10
2.407581
 20
109.221313
 30
0.0
 11
2.497265
 21
109.221313
 31
0.0
  0
LINE
  5
B36F
  8
ALPHA
 10
9.017581
 20
102.096313
 30
0.0
 11
9.067581
 21
102.096313
 31
0.0
  0
LINE
  5
B370
  8
ALPHA
 10
8.767581
 20
109.821313
 30
0.0
 11
9.017581
 21
109.821313
 31
0.0
  0
LINE
  5
B371
  8
ALPHA
 10
9.017581
 20
108.046313
 30
0.0
 11
9.067581
 21
108.046313
 31
0.0
  0
LINE
  5
B372
  8
ALPHA
 10
10.567581
 20
107.121313
 30
0.0
 11
12.067581
 21
107.121313
 31
0.0
  0
LINE
  5
B373
  8
ALPHA
 10
10.567581
 20
103.021313
 30
0.0
 11
12.067581
 21
103.021313
 31
0.0
  0
LINE
  5
B374
  8
ALPHA
 10
12.067581
 20
107.121313
 30
0.0
 11
12.067581
 21
103.021313
 31
0.0
  0
VIEWPORT
  5
494D
 67
     1
  8
0
 10
4.995325
 20
6.556512
 30
0.0
 40
22.70986
 41
13.988421
 68
    -1
 69
     1
1001
ACAD
1000
MVIEW
1002
{
1070
    16
1010
0.0
1020
0.0
1030
0.0
1010
0.0
1020
0.0
1030
1.0
1040
0.0
1040
13.988421
1040
4.995325
1040
6.556512
1040
50.0
1040
0.0
1040
0.0
1070
     0
1070
   100
1070
     1
1070
     1
1070
     0
1070
     0
1070
     0
1070
     0
1040
0.0
1040
0.0
1040
0.0
1040
10.0
1040
10.0
1040
10.0
1040
10.0
1070
     0
1002
{
1002
}
1002
}
  0
ENDSEC
  0
EOF
