  0
SECTION
  2
HEADER
  9
$ACADVER
  1
AC1009
  9
$INSBASE
 10
402.590624
 20
-1.041018
 30
0.0
  9
$EXTMIN
 10
77.243996
 20
2.838962
 30
0.0
  9
$EXTMAX
 10
120.245425
 20
135.838962
 30
0.0
  9
$LIMMIN
 10
-407.970438
 20
-367.832444
  9
$LIMMAX
 10
429.804077
 20
234.370848
  9
$ORTHOMODE
 70
     0
  9
$REGENMODE
 70
     1
  9
$FILLMODE
 70
     1
  9
$QTEXTMODE
 70
     0
  9
$MIRRTEXT
 70
     1
  9
$DRAGMODE
 70
     2
  9
$LTSCALE
 40
10.0
  9
$OSMODE
 70
    35
  9
$ATTMODE
 70
     1
  9
$TEXTSIZE
 40
6.0
  9
$TRACEWID
 40
1.0
  9
$TEXTSTYLE
  7
ROMANS
  9
$CLAYER
  8
ALPHA
  9
$CELTYPE
  6
BYLAYER
  9
$CECOLOR
 62
   256
  9
$DIMSCALE
 40
1.0
  9
$DIMASZ
 40
5.0
  9
$DIMEXO
 40
2.0
  9
$DIMDLI
 40
0.38
  9
$DIMRND
 40
0.0
  9
$DIMDLE
 40
0.0
  9
$DIMEXE
 40
2.5
  9
$DIMTP
 40
0.0
  9
$DIMTM
 40
0.0
  9
$DIMTXT
 40
2.5
  9
$DIMCEN
 40
0.0
  9
$DIMTSZ
 40
0.0
  9
$DIMTOL
 70
     0
  9
$DIMLIM
 70
     0
  9
$DIMTIH
 70
     1
  9
$DIMTOH
 70
     1
  9
$DIMSE1
 70
     0
  9
$DIMSE2
 70
     0
  9
$DIMTAD
 70
     1
  9
$DIMZIN
 70
    12
  9
$DIMBLK
  1
OPEN30
  9
$DIMASO
 70
     1
  9
$DIMSHO
 70
     1
  9
$DIMPOST
  1

  9
$DIMAPOST
  1

  9
$DIMALT
 70
     0
  9
$DIMALTD
 70
     2
  9
$DIMALTF
 40
25.4
  9
$DIMLFAC
 40
1.0
  9
$DIMTOFL
 70
     0
  9
$DIMTVP
 40
0.0
  9
$DIMTIX
 70
     0
  9
$DIMSOXD
 70
     0
  9
$DIMSAH
 70
     0
  9
$DIMBLK1
  1

  9
$DIMBLK2
  1

  9
$DIMSTYLE
  2
SC_DEFAUT
  9
$DIMCLRD
 70
     0
  9
$DIMCLRE
 70
     0
  9
$DIMCLRT
 70
     0
  9
$DIMTFAC
 40
1.0
  9
$DIMGAP
 40
2.0
  9
$LUNITS
 70
     2
  9
$LUPREC
 70
     1
  9
$SKETCHINC
 40
0.1
  9
$FILLETRAD
 40
0.0
  9
$AUNITS
 70
     0
  9
$AUPREC
 70
     0
  9
$MENU
  1
acad
  9
$ELEVATION
 40
0.0
  9
$PELEVATION
 40
0.0
  9
$THICKNESS
 40
0.0
  9
$LIMCHECK
 70
     0
  9
$BLIPMODE
 70
     0
  9
$CHAMFERA
 40
0.0
  9
$CHAMFERB
 40
0.0
  9
$SKPOLY
 70
     0
  9
$TDCREATE
 40
2450373.687919
  9
$TDUPDATE
 40
2453032.648542
  9
$TDINDWG
 40
1.102466
  9
$TDUSRTIMER
 40
1.102466
  9
$USRTIMER
 70
     1
  9
$ANGBASE
 50
0.0
  9
$ANGDIR
 70
     0
  9
$PDMODE
 70
    32
  9
$PDSIZE
 40
0.0
  9
$PLINEWID
 40
0.0
  9
$COORDS
 70
     1
  9
$SPLFRAME
 70
     0
  9
$SPLINETYPE
 70
     6
  9
$SPLINESEGS
 70
     8
  9
$ATTDIA
 70
     0
  9
$ATTREQ
 70
     1
  9
$HANDLING
 70
     1
  9
$HANDSEED
  5
B601
  9
$SURFTAB1
 70
     6
  9
$SURFTAB2
 70
     6
  9
$SURFTYPE
 70
     6
  9
$SURFU
 70
     6
  9
$SURFV
 70
     6
  9
$UCSNAME
  2

  9
$UCSORG
 10
0.0
 20
0.0
 30
0.0
  9
$UCSXDIR
 10
1.0
 20
0.0
 30
0.0
  9
$UCSYDIR
 10
0.0
 20
1.0
 30
0.0
  9
$PUCSNAME
  2

  9
$PUCSORG
 10
0.0
 20
0.0
 30
0.0
  9
$PUCSXDIR
 10
1.0
 20
0.0
 30
0.0
  9
$PUCSYDIR
 10
0.0
 20
1.0
 30
0.0
  9
$USERI1
 70
     0
  9
$USERI2
 70
     0
  9
$USERI3
 70
     0
  9
$USERI4
 70
     0
  9
$USERI5
 70
     0
  9
$USERR1
 40
0.0
  9
$USERR2
 40
0.0
  9
$USERR3
 40
0.0
  9
$USERR4
 40
0.0
  9
$USERR5
 40
0.0
  9
$WORLDVIEW
 70
     1
  9
$SHADEDGE
 70
     3
  9
$SHADEDIF
 70
    70
  9
$TILEMODE
 70
     1
  9
$MAXACTVP
 70
    16
  9
$PLIMCHECK
 70
     0
  9
$PEXTMIN
 10
-1.452248
 20
-0.437698
 30
0.0
  9
$PEXTMAX
 10
12.749749
 20
8.310198
 30
0.0
  9
$PLIMMIN
 10
0.0
 20
0.0
  9
$PLIMMAX
 10
12.0
 20
9.0
  9
$UNITMODE
 70
     0
  9
$VISRETAIN
 70
     0
  9
$PLINEGEN
 70
     0
  9
$PSLTSCALE
 70
     0
  0
ENDSEC
  0
SECTION
  2
TABLES
  0
TABLE
  2
VPORT
 70
     2
  0
VPORT
  2
*ACTIVE
 70
     0
 10
0.0
 20
0.0
 11
1.0
 21
1.0
 12
98.738949
 22
69.356709
 13
0.0
 23
0.0
 14
1.0
 24
1.0
 15
10.0
 25
10.0
 16
0.0
 26
0.0
 36
1.0
 17
0.0
 27
0.0
 37
0.0
 40
134.013551
 41
1.466346
 42
50.0
 43
0.0
 44
0.0
 50
0.0
 51
0.0
 71
     0
 72
   100
 73
     1
 74
     0
 75
     0
 76
     0
 77
     0
 78
     0
  0
ENDTAB
  0
TABLE
  2
LTYPE
 70
     2
  0
LTYPE
  2
CONTINUOUS
 70
     0
  3
Solid line
 72
    65
 73
     0
 40
0.0
  0
LTYPE
  2
AXES2
 70
     0
  3
___ _ ___ _ ___ _ ___ _ ___ _ ___ _ ___ _ ___ _
 72
    65
 73
     4
 40
1.125
 49
0.75
 49
-0.125
 49
0.125
 49
-0.125
  0
ENDTAB
  0
TABLE
  2
LAYER
 70
     5
  0
LAYER
  2
0
 70
     0
 62
   255
  6
CONTINUOUS
  0
LAYER
  2
COTATION1
 70
     0
 62
     2
  6
CONTINUOUS
  0
LAYER
  2
AXE
 70
     0
 62
    80
  6
AXES2
  0
LAYER
  2
DEFPOINTS
 70
     0
 62
     7
  6
CONTINUOUS
  0
LAYER
  2
ALPHA
 70
     0
 62
   254
  6
CONTINUOUS
  0
ENDTAB
  0
TABLE
  2
STYLE
 70
     2
  0
STYLE
  2
ROMANS
 70
     0
 40
0.0
 41
1.0
 50
0.0
 71
     0
 42
6.0
  3
romans
  4

  0
STYLE
  2
STANDARD
 70
     0
 40
0.0
 41
1.0
 50
0.0
 71
     0
 42
0.2
  3
txt
  4

  0
ENDTAB
  0
TABLE
  2
VIEW
 70
     0
  0
ENDTAB
  0
TABLE
  2
UCS
 70
     0
  0
ENDTAB
  0
TABLE
  2
APPID
 70
     1
  0
APPID
  2
ACAD
 70
     0
  0
ENDTAB
  0
TABLE
  2
DIMSTYLE
 70
     2
  0
DIMSTYLE
  2
SC_DEFAUT
 70
     0
  3

  4

  5
OPEN30
  6

  7

 40
1.0
 41
5.0
 42
2.0
 43
0.38
 44
2.5
 45
0.0
 46
0.0
 47
0.0
 48
0.0
140
2.5
141
0.0
142
0.0
143
25.4
144
1.0
145
0.0
146
1.0
147
2.0
 71
     0
 72
     0
 73
     1
 74
     1
 75
     0
 76
     0
 77
     1
 78
    12
170
     0
171
     2
172
     0
173
     0
174
     0
175
     0
176
     0
177
     0
178
     0
  0
DIMSTYLE
  2
STANDARD
 70
     0
  3

  4

  5

  6

  7

 40
1.0
 41
0.18
 42
0.0625
 43
0.38
 44
0.18
 45
0.0
 46
0.0
 47
0.0
 48
0.0
140
0.18
141
0.09
142
0.0
143
25.4
144
1.0
145
0.0
146
1.0
147
0.09
 71
     0
 72
     0
 73
     1
 74
     1
 75
     0
 76
     0
 77
     0
 78
     0
170
     0
171
     2
172
     0
173
     0
174
     0
175
     0
176
     0
177
     0
178
     0
  0
ENDTAB
  0
ENDSEC
  0
SECTION
  2
BLOCKS
  0
BLOCK
  8
0
  2
$MODEL_SPACE
 70
     0
 10
0.0
 20
0.0
 30
0.0
  3
$MODEL_SPACE
  1

  0
ENDBLK
  5
B5FA
  8
0
  0
BLOCK
 67
     1
  8
0
  2
$PAPER_SPACE
 70
     0
 10
0.0
 20
0.0
 30
0.0
  3
$PAPER_SPACE
  1

  0
ENDBLK
  5
B5F8
 67
     1
  8
0
  0
BLOCK
  8
0
  2
COTE
 70
     0
 10
0.0
 20
0.0
 30
0.0
  3
COTE
  1

  0
ENDBLK
  5
F
  8
0
  0
BLOCK
  8
0
  2
FOND
 70
     0
 10
0.0
 20
0.0
 30
0.0
  3
FOND
  1

  0
ENDBLK
  5
75
  8
0
  0
BLOCK
  8
0
  2
_OPEN30
 70
     0
 10
0.0
 20
0.0
 30
0.0
  3
_OPEN30
  1

  0
LINE
  5
4B05
  8
COTATION1
 62
     0
 10
-1.0
 20
0.267949
 30
0.0
 11
0.0
 21
0.0
 31
0.0
1001
ACAD
1000
RTLwPs
1070
   158
  0
LINE
  5
4B06
  8
COTATION1
 62
     0
 10
0.0
 20
0.0
 30
0.0
 11
-1.0
 21
-0.267949
 31
0.0
1001
ACAD
1000
RTLwPs
1070
   158
  0
LINE
  5
4B07
  8
COTATION1
 62
     0
 10
0.0
 20
0.0
 30
0.0
 11
-1.0
 21
0.0
 31
0.0
1001
ACAD
1000
RTLwPs
1070
   158
  0
ENDBLK
  5
4B09
  8
0
  0
BLOCK
  8
0
  2
*D3
 70
     1
 10
0.0
 20
0.0
 30
0.0
  3
*D3
  1

  0
LINE
  5
B510
  8
COTATION1
 62
     0
 10
82.243996
 20
110.338962
 30
0.0
 11
82.243996
 21
133.838962
 31
0.0
1001
ACAD
1000
RTLwPs
1070
   158
  0
LINE
  5
B511
  8
COTATION1
 62
     0
 10
98.243996
 20
110.338962
 30
0.0
 11
98.243996
 21
133.838962
 31
0.0
1001
ACAD
1000
RTLwPs
1070
   158
  0
LINE
  5
B512
  8
COTATION1
 62
     0
 10
87.243996
 20
131.338962
 30
0.0
 11
93.243996
 21
131.338962
 31
0.0
1001
ACAD
1000
RTLwPs
1070
   158
  0
INSERT
  5
B513
  8
COTATION1
 62
     0
  2
_OPEN30
 10
82.243996
 20
131.338962
 30
0.0
 41
5.0
 42
5.0
 43
5.0
 50
180.0
1001
ACAD
1000
RTLwPs
1070
   158
  0
INSERT
  5
B514
  8
COTATION1
 62
     0
  2
_OPEN30
 10
98.243996
 20
131.338962
 30
0.0
 41
5.0
 42
5.0
 43
5.0
1001
ACAD
1000
RTLwPs
1070
   158
  0
TEXT
  5
B515
  8
COTATION1
 62
     0
 10
86.851139
 20
133.338962
 30
0.0
 40
2.5
  1
%%c
1001
ACAD
1000
MTEXTBEGIN
1070
    73
1070
     1
1070
    44
1040
1.0
1070
    74
1070
     0
1000
MTEXTEND
  0
TEXT
  5
B5CB
  8
COTATION1
 62
     0
 10
89.113044
 20
133.338962
 30
0.0
 40
2.5
  1
16
1001
ACAD
1000
R13OBJECT
1002
{
1005
B515
1002
}
  0
POINT
  5
B516
  8
DEFPOINTS
 62
     0
 10
82.243996
 20
108.338962
 30
0.0
  0
POINT
  5
B517
  8
DEFPOINTS
 62
     0
 10
98.243996
 20
108.338962
 30
0.0
  0
POINT
  5
B518
  8
DEFPOINTS
 62
     0
 10
98.243996
 20
131.338962
 30
0.0
  0
ENDBLK
  5
B44E
  8
0
  0
BLOCK
  8
0
  2
*D4
 70
     1
 10
0.0
 20
0.0
 30
0.0
  3
*D4
  1

  0
LINE
  5
B4FC
  8
COTATION1
 62
     0
 10
92.243996
 20
116.338962
 30
0.0
 11
117.923996
 21
116.338962
 31
0.0
1001
ACAD
1000
RTLwPs
1070
   158
  0
LINE
  5
B4FD
  8
COTATION1
 62
     0
 10
94.743996
 20
12.838962
 30
0.0
 11
117.923996
 21
12.838962
 31
0.0
1001
ACAD
1000
RTLwPs
1070
   158
  0
LINE
  5
B4FE
  8
COTATION1
 62
     0
 10
115.423996
 20
111.338962
 30
0.0
 11
115.423996
 21
67.838962
 31
0.0
1001
ACAD
1000
RTLwPs
1070
   158
  0
LINE
  5
B4FF
  8
COTATION1
 62
     0
 10
115.423996
 20
17.838962
 30
0.0
 11
115.423996
 21
61.338962
 31
0.0
1001
ACAD
1000
RTLwPs
1070
   158
  0
INSERT
  5
B500
  8
COTATION1
 62
     0
  2
_OPEN30
 10
115.423996
 20
116.338962
 30
0.0
 41
5.0
 42
5.0
 43
5.0
 50
90.0
1001
ACAD
1000
RTLwPs
1070
   158
  0
INSERT
  5
B501
  8
COTATION1
 62
     0
  2
_OPEN30
 10
115.423996
 20
12.838962
 30
0.0
 41
5.0
 42
5.0
 43
5.0
 50
270.0
1001
ACAD
1000
RTLwPs
1070
   158
  0
TEXT
  5
B502
  8
COTATION1
 62
     0
 10
109.888282
 20
63.338962
 30
0.0
 40
2.5
  1
103.5
1001
ACAD
1000
MTEXTBEGIN
1070
    73
1070
     1
1070
    44
1040
1.0
1070
    74
1070
     0
1000
MTEXTEND
  0
POINT
  5
B503
  8
DEFPOINTS
 62
     0
 10
90.243996
 20
116.338962
 30
0.0
  0
POINT
  5
B504
  8
DEFPOINTS
 62
     0
 10
92.743996
 20
12.838962
 30
0.0
  0
POINT
  5
B505
  8
DEFPOINTS
 62
     0
 10
115.423996
 20
12.838962
 30
0.0
  0
ENDBLK
  5
B45B
  8
0
  0
ENDSEC
  0
SECTION
  2
ENTITIES
  0
INSERT
  5
A
  8
0
  2
COTE
 10
0.0
 20
0.0
 30
0.0
  0
INSERT
  5
17
  8
0
  2
COTE
 10
284.010391
 20
6.373258
 30
0.0
  0
INSERT
  5
72
  8
0
  2
FOND
 10
0.0
 20
0.0
 30
0.0
  0
ARC
  5
B076
  8
ALPHA
 10
87.052575
 20
81.838962
 30
0.0
 40
0.091421
 50
315.0
 51
45.0
  0
ARC
  5
B077
  8
ALPHA
 10
93.435418
 20
81.838962
 30
0.0
 40
0.091421
 50
135.0
 51
225.0
  0
LINE
  5
B07B
  8
ALPHA
 10
93.352575
 20
81.885409
 30
0.0
 11
93.146509
 21
82.091475
 31
0.0
  0
LINE
  5
B07C
  8
ALPHA
 10
97.743996
 20
17.838962
 30
0.0
 11
97.743996
 21
82.91778
 31
0.0
  0
LINE
  5
B07D
  8
ALPHA
 10
90.593996
 20
79.838962
 30
0.0
 11
90.593996
 21
82.038962
 31
0.0
  0
LINE
  5
B07E
  8
ALPHA
 10
89.893996
 20
82.038962
 30
0.0
 11
89.893996
 21
79.838962
 31
0.0
  0
LINE
  5
B07F
  8
ALPHA
 10
82.743996
 20
82.91778
 30
0.0
 11
82.743996
 21
17.838962
 31
0.0
  0
LINE
  5
B080
  8
ALPHA
 10
87.135418
 20
81.885409
 30
0.0
 11
87.341484
 21
82.091475
 31
0.0
  0
LINE
  5
B08C
  8
ALPHA
 10
86.78793
 20
35.445028
 30
0.0
 11
87.11722
 21
35.774318
 31
0.0
  0
LINE
  5
B08D
  8
ALPHA
 10
93.370773
 20
35.774318
 30
0.0
 11
93.700062
 21
35.445028
 31
0.0
  0
ARC
  5
B08E
  8
ALPHA
 10
90.243996
 20
24.838962
 30
0.0
 40
3.5
 50
186.842628
 51
353.157372
  0
LINE
  5
B08F
  8
ALPHA
 10
87.743996
 20
12.838962
 30
0.0
 11
92.743996
 21
12.838962
 31
0.0
  0
ARC
  5
B090
  8
ALPHA
 10
87.743996
 20
17.838962
 30
0.0
 40
5.0
 50
180.0
 51
270.0
  0
LINE
  5
B091
  8
ALPHA
 10
86.78793
 20
29.445028
 30
0.0
 11
87.11722
 21
29.774318
 31
0.0
  0
ARC
  5
B092
  8
ALPHA
 10
86.893996
 20
29.338962
 30
0.0
 40
0.15
 50
135.0
 51
225.0
  0
ARC
  5
B093
  8
ALPHA
 10
87.052575
 20
25.838962
 30
0.0
 40
0.091421
 50
315.0
 51
45.0
  0
ARC
  5
B094
  8
ALPHA
 10
87.052575
 20
26.838962
 30
0.0
 40
0.091421
 50
315.0
 51
45.0
  0
ARC
  5
B095
  8
ALPHA
 10
87.052575
 20
27.838962
 30
0.0
 40
0.091421
 50
315.0
 51
45.0
  0
ARC
  5
B096
  8
ALPHA
 10
87.052575
 20
28.838962
 30
0.0
 40
0.091421
 50
315.0
 51
45.0
  0
ARC
  5
B097
  8
ALPHA
 10
86.893996
 20
24.338962
 30
0.0
 40
0.15
 50
135.0
 51
146.392657
  0
ARC
  5
B098
  8
ALPHA
 10
87.052575
 20
24.838962
 30
0.0
 40
0.091421
 50
315.0
 51
45.0
  0
ARC
  5
B099
  8
ALPHA
 10
86.893996
 20
28.338962
 30
0.0
 40
0.15
 50
135.0
 51
225.0
  0
ARC
  5
B09A
  8
ALPHA
 10
86.893996
 20
27.338962
 30
0.0
 40
0.15
 50
135.0
 51
225.0
  0
ARC
  5
B09B
  8
ALPHA
 10
86.893996
 20
26.338962
 30
0.0
 40
0.15
 50
135.0
 51
225.0
  0
ARC
  5
B09C
  8
ALPHA
 10
86.893996
 20
25.338962
 30
0.0
 40
0.15
 50
135.0
 51
225.0
  0
LINE
  5
B09D
  8
ALPHA
 10
86.78793
 20
24.445028
 30
0.0
 11
87.11722
 21
24.774318
 31
0.0
  0
LINE
  5
B09E
  8
ALPHA
 10
86.78793
 20
25.445028
 30
0.0
 11
87.11722
 21
25.774318
 31
0.0
  0
LINE
  5
B09F
  8
ALPHA
 10
86.78793
 20
26.445028
 30
0.0
 11
87.11722
 21
26.774318
 31
0.0
  0
LINE
  5
B0A0
  8
ALPHA
 10
86.78793
 20
27.445028
 30
0.0
 11
87.11722
 21
27.774318
 31
0.0
  0
LINE
  5
B0A1
  8
ALPHA
 10
86.78793
 20
28.445028
 30
0.0
 11
87.11722
 21
28.774318
 31
0.0
  0
LINE
  5
B0A2
  8
ALPHA
 10
87.11722
 20
28.903607
 30
0.0
 11
86.78793
 21
29.232896
 31
0.0
  0
LINE
  5
B0A3
  8
ALPHA
 10
87.11722
 20
27.903607
 30
0.0
 11
86.78793
 21
28.232896
 31
0.0
  0
LINE
  5
B0A4
  8
ALPHA
 10
87.11722
 20
26.903607
 30
0.0
 11
86.78793
 21
27.232896
 31
0.0
  0
LINE
  5
B0A5
  8
ALPHA
 10
87.11722
 20
25.903607
 30
0.0
 11
86.78793
 21
26.232896
 31
0.0
  0
LINE
  5
B0A6
  8
ALPHA
 10
87.11722
 20
24.903607
 30
0.0
 11
86.78793
 21
25.232896
 31
0.0
  0
ARC
  5
B0A7
  8
ALPHA
 10
86.893996
 20
35.338962
 30
0.0
 40
0.15
 50
135.0
 51
225.0
  0
ARC
  5
B0A8
  8
ALPHA
 10
86.893996
 20
34.338962
 30
0.0
 40
0.15
 50
135.0
 51
225.0
  0
ARC
  5
B0A9
  8
ALPHA
 10
86.893996
 20
33.338962
 30
0.0
 40
0.15
 50
135.0
 51
225.0
  0
ARC
  5
B0AA
  8
ALPHA
 10
86.893996
 20
32.338962
 30
0.0
 40
0.15
 50
135.0
 51
225.0
  0
ARC
  5
B0AB
  8
ALPHA
 10
86.893996
 20
31.338962
 30
0.0
 40
0.15
 50
135.0
 51
225.0
  0
ARC
  5
B0AC
  8
ALPHA
 10
86.893996
 20
30.338962
 30
0.0
 40
0.15
 50
135.0
 51
225.0
  0
ARC
  5
B0AD
  8
ALPHA
 10
87.052575
 20
29.838962
 30
0.0
 40
0.091421
 50
315.0
 51
45.0
  0
ARC
  5
B0AE
  8
ALPHA
 10
87.052575
 20
30.838962
 30
0.0
 40
0.091421
 50
315.0
 51
45.0
  0
ARC
  5
B0AF
  8
ALPHA
 10
87.052575
 20
31.838962
 30
0.0
 40
0.091421
 50
315.0
 51
45.0
  0
ARC
  5
B0B0
  8
ALPHA
 10
87.052575
 20
32.838962
 30
0.0
 40
0.091421
 50
315.0
 51
45.0
  0
ARC
  5
B0B1
  8
ALPHA
 10
87.052575
 20
33.838962
 30
0.0
 40
0.091421
 50
315.0
 51
45.0
  0
ARC
  5
B0B2
  8
ALPHA
 10
87.052575
 20
34.838962
 30
0.0
 40
0.091421
 50
315.0
 51
45.0
  0
LINE
  5
B0B3
  8
ALPHA
 10
86.78793
 20
30.445028
 30
0.0
 11
87.11722
 21
30.774318
 31
0.0
  0
LINE
  5
B0B4
  8
ALPHA
 10
86.78793
 20
31.445028
 30
0.0
 11
87.11722
 21
31.774318
 31
0.0
  0
LINE
  5
B0B5
  8
ALPHA
 10
86.78793
 20
32.445028
 30
0.0
 11
87.11722
 21
32.774318
 31
0.0
  0
LINE
  5
B0B6
  8
ALPHA
 10
86.78793
 20
33.445028
 30
0.0
 11
87.11722
 21
33.774318
 31
0.0
  0
LINE
  5
B0B7
  8
ALPHA
 10
86.78793
 20
34.445028
 30
0.0
 11
87.11722
 21
34.774318
 31
0.0
  0
LINE
  5
B0B8
  8
ALPHA
 10
87.11722
 20
34.903607
 30
0.0
 11
86.78793
 21
35.232896
 31
0.0
  0
LINE
  5
B0B9
  8
ALPHA
 10
87.11722
 20
33.903607
 30
0.0
 11
86.78793
 21
34.232896
 31
0.0
  0
LINE
  5
B0BA
  8
ALPHA
 10
87.11722
 20
32.903607
 30
0.0
 11
86.78793
 21
33.232896
 31
0.0
  0
LINE
  5
B0BB
  8
ALPHA
 10
87.11722
 20
31.903607
 30
0.0
 11
86.78793
 21
32.232896
 31
0.0
  0
LINE
  5
B0BC
  8
ALPHA
 10
87.11722
 20
30.903607
 30
0.0
 11
86.78793
 21
31.232896
 31
0.0
  0
LINE
  5
B0BD
  8
ALPHA
 10
87.11722
 20
29.903607
 30
0.0
 11
86.78793
 21
30.232896
 31
0.0
  0
ARC
  5
B0BE
  8
ALPHA
 10
92.743996
 20
17.838962
 30
0.0
 40
5.0
 50
270.0
 51
0.0
  0
LINE
  5
B0BF
  8
ALPHA
 10
93.370773
 20
29.774318
 30
0.0
 11
93.700062
 21
29.445028
 31
0.0
  0
ARC
  5
B0C0
  8
ALPHA
 10
93.593996
 20
29.338962
 30
0.0
 40
0.15
 50
315.0
 51
45.0
  0
ARC
  5
B0C1
  8
ALPHA
 10
93.435418
 20
28.838962
 30
0.0
 40
0.091421
 50
135.0
 51
225.0
  0
ARC
  5
B0C2
  8
ALPHA
 10
93.435418
 20
27.838962
 30
0.0
 40
0.091421
 50
135.0
 51
225.0
  0
ARC
  5
B0C3
  8
ALPHA
 10
93.435418
 20
26.838962
 30
0.0
 40
0.091421
 50
135.0
 51
225.0
  0
ARC
  5
B0C4
  8
ALPHA
 10
93.435418
 20
25.838962
 30
0.0
 40
0.091421
 50
135.0
 51
225.0
  0
ARC
  5
B0C5
  8
ALPHA
 10
93.435418
 20
24.838962
 30
0.0
 40
0.091421
 50
135.0
 51
225.0
  0
ARC
  5
B0C6
  8
ALPHA
 10
93.593996
 20
24.338962
 30
0.0
 40
0.15
 50
33.607343
 51
45.0
  0
ARC
  5
B0C7
  8
ALPHA
 10
93.593996
 20
28.338962
 30
0.0
 40
0.15
 50
315.0
 51
45.0
  0
ARC
  5
B0C8
  8
ALPHA
 10
93.593996
 20
27.338962
 30
0.0
 40
0.15
 50
315.0
 51
45.0
  0
ARC
  5
B0C9
  8
ALPHA
 10
93.593996
 20
26.338962
 30
0.0
 40
0.15
 50
315.0
 51
45.0
  0
ARC
  5
B0CA
  8
ALPHA
 10
93.593996
 20
25.338962
 30
0.0
 40
0.15
 50
315.0
 51
45.0
  0
LINE
  5
B0CB
  8
ALPHA
 10
93.700062
 20
25.232896
 30
0.0
 11
93.370773
 21
24.903607
 31
0.0
  0
LINE
  5
B0CC
  8
ALPHA
 10
93.700062
 20
26.232896
 30
0.0
 11
93.370773
 21
25.903607
 31
0.0
  0
LINE
  5
B0CD
  8
ALPHA
 10
93.700062
 20
27.232896
 30
0.0
 11
93.370773
 21
26.903607
 31
0.0
  0
LINE
  5
B0CE
  8
ALPHA
 10
93.700062
 20
28.232896
 30
0.0
 11
93.370773
 21
27.903607
 31
0.0
  0
LINE
  5
B0CF
  8
ALPHA
 10
93.700062
 20
29.232896
 30
0.0
 11
93.370773
 21
28.903607
 31
0.0
  0
LINE
  5
B0D0
  8
ALPHA
 10
93.370773
 20
28.774318
 30
0.0
 11
93.700062
 21
28.445028
 31
0.0
  0
LINE
  5
B0D1
  8
ALPHA
 10
93.370773
 20
27.774318
 30
0.0
 11
93.700062
 21
27.445028
 31
0.0
  0
LINE
  5
B0D2
  8
ALPHA
 10
93.370773
 20
26.774318
 30
0.0
 11
93.700062
 21
26.445028
 31
0.0
  0
LINE
  5
B0D3
  8
ALPHA
 10
93.370773
 20
25.774318
 30
0.0
 11
93.700062
 21
25.445028
 31
0.0
  0
LINE
  5
B0D4
  8
ALPHA
 10
93.370773
 20
24.774318
 30
0.0
 11
93.700062
 21
24.445028
 31
0.0
  0
ARC
  5
B0D5
  8
ALPHA
 10
93.593996
 20
35.338962
 30
0.0
 40
0.15
 50
315.0
 51
45.0
  0
ARC
  5
B0D6
  8
ALPHA
 10
93.593996
 20
34.338962
 30
0.0
 40
0.15
 50
315.0
 51
45.0
  0
ARC
  5
B0D7
  8
ALPHA
 10
93.593996
 20
33.338962
 30
0.0
 40
0.15
 50
315.0
 51
45.0
  0
ARC
  5
B0D8
  8
ALPHA
 10
93.593996
 20
32.338962
 30
0.0
 40
0.15
 50
315.0
 51
45.0
  0
ARC
  5
B0D9
  8
ALPHA
 10
93.593996
 20
31.338962
 30
0.0
 40
0.15
 50
315.0
 51
45.0
  0
ARC
  5
B0DA
  8
ALPHA
 10
93.593996
 20
30.338962
 30
0.0
 40
0.15
 50
315.0
 51
45.0
  0
ARC
  5
B0DB
  8
ALPHA
 10
93.435418
 20
34.838962
 30
0.0
 40
0.091421
 50
135.0
 51
225.0
  0
ARC
  5
B0DC
  8
ALPHA
 10
93.435418
 20
33.838962
 30
0.0
 40
0.091421
 50
135.0
 51
225.0
  0
ARC
  5
B0DD
  8
ALPHA
 10
93.435418
 20
32.838962
 30
0.0
 40
0.091421
 50
135.0
 51
225.0
  0
ARC
  5
B0DE
  8
ALPHA
 10
93.435418
 20
31.838962
 30
0.0
 40
0.091421
 50
135.0
 51
225.0
  0
ARC
  5
B0DF
  8
ALPHA
 10
93.435418
 20
30.838962
 30
0.0
 40
0.091421
 50
135.0
 51
225.0
  0
ARC
  5
B0E0
  8
ALPHA
 10
93.435418
 20
29.838962
 30
0.0
 40
0.091421
 50
135.0
 51
225.0
  0
LINE
  5
B0E1
  8
ALPHA
 10
93.700062
 20
30.232896
 30
0.0
 11
93.370773
 21
29.903607
 31
0.0
  0
LINE
  5
B0E2
  8
ALPHA
 10
93.700062
 20
31.232896
 30
0.0
 11
93.370773
 21
30.903607
 31
0.0
  0
LINE
  5
B0E3
  8
ALPHA
 10
93.700062
 20
32.232896
 30
0.0
 11
93.370773
 21
31.903607
 31
0.0
  0
LINE
  5
B0E4
  8
ALPHA
 10
93.700062
 20
33.232896
 30
0.0
 11
93.370773
 21
32.903607
 31
0.0
  0
LINE
  5
B0E5
  8
ALPHA
 10
93.700062
 20
34.232896
 30
0.0
 11
93.370773
 21
33.903607
 31
0.0
  0
LINE
  5
B0E6
  8
ALPHA
 10
93.700062
 20
35.232896
 30
0.0
 11
93.370773
 21
34.903607
 31
0.0
  0
LINE
  5
B0E7
  8
ALPHA
 10
93.370773
 20
34.774318
 30
0.0
 11
93.700062
 21
34.445028
 31
0.0
  0
LINE
  5
B0E8
  8
ALPHA
 10
93.370773
 20
33.774318
 30
0.0
 11
93.700062
 21
33.445028
 31
0.0
  0
LINE
  5
B0E9
  8
ALPHA
 10
93.370773
 20
32.774318
 30
0.0
 11
93.700062
 21
32.445028
 31
0.0
  0
LINE
  5
B0EA
  8
ALPHA
 10
93.370773
 20
31.774318
 30
0.0
 11
93.700062
 21
31.445028
 31
0.0
  0
LINE
  5
B0EB
  8
ALPHA
 10
93.370773
 20
30.774318
 30
0.0
 11
93.700062
 21
30.445028
 31
0.0
  0
ARC
  5
B0EC
  8
ALPHA
 10
90.243996
 20
65.238962
 30
0.0
 40
3.2
 50
200.364135
 51
339.635865
  0
ARC
  5
B0ED
  8
ALPHA
 10
90.243996
 20
73.338962
 30
0.0
 40
5.5
 50
245.380023
 51
294.619977
  0
ARC
  5
B0EE
  8
ALPHA
 10
90.243996
 20
73.338962
 30
0.0
 40
5.5
 50
65.380023
 51
114.619977
  0
LINE
  5
B0EF
  8
ALPHA
 10
91.530287
 20
69.15214
 30
0.0
 11
91.816261
 21
68.6143
 31
0.0
  0
LINE
  5
B0F0
  8
ALPHA
 10
91.816261
 20
78.063624
 30
0.0
 11
91.530287
 21
77.525785
 31
0.0
  0
LINE
  5
B0F1
  8
ALPHA
 10
86.78793
 20
58.445028
 30
0.0
 11
87.11722
 21
58.774318
 31
0.0
  0
LINE
  5
B0F2
  8
ALPHA
 10
87.11722
 20
46.903607
 30
0.0
 11
86.78793
 21
47.232896
 31
0.0
  0
ARC
  5
B0F3
  8
ALPHA
 10
86.893996
 20
41.338962
 30
0.0
 40
0.15
 50
135.0
 51
225.0
  0
ARC
  5
B0F4
  8
ALPHA
 10
86.893996
 20
40.338962
 30
0.0
 40
0.15
 50
135.0
 51
225.0
  0
ARC
  5
B0F5
  8
ALPHA
 10
86.893996
 20
39.338962
 30
0.0
 40
0.15
 50
135.0
 51
225.0
  0
ARC
  5
B0F6
  8
ALPHA
 10
86.893996
 20
38.338962
 30
0.0
 40
0.15
 50
135.0
 51
225.0
  0
ARC
  5
B0F7
  8
ALPHA
 10
86.893996
 20
37.338962
 30
0.0
 40
0.15
 50
135.0
 51
225.0
  0
ARC
  5
B0F8
  8
ALPHA
 10
86.893996
 20
36.338962
 30
0.0
 40
0.15
 50
135.0
 51
225.0
  0
ARC
  5
B0F9
  8
ALPHA
 10
87.052575
 20
35.838962
 30
0.0
 40
0.091421
 50
315.0
 51
45.0
  0
ARC
  5
B0FA
  8
ALPHA
 10
87.052575
 20
36.838962
 30
0.0
 40
0.091421
 50
315.0
 51
45.0
  0
ARC
  5
B0FB
  8
ALPHA
 10
87.052575
 20
37.838962
 30
0.0
 40
0.091421
 50
315.0
 51
45.0
  0
ARC
  5
B0FC
  8
ALPHA
 10
87.052575
 20
38.838962
 30
0.0
 40
0.091421
 50
315.0
 51
45.0
  0
ARC
  5
B0FD
  8
ALPHA
 10
87.052575
 20
39.838962
 30
0.0
 40
0.091421
 50
315.0
 51
45.0
  0
ARC
  5
B0FE
  8
ALPHA
 10
87.052575
 20
40.838962
 30
0.0
 40
0.091421
 50
315.0
 51
45.0
  0
LINE
  5
B0FF
  8
ALPHA
 10
86.78793
 20
36.445028
 30
0.0
 11
87.11722
 21
36.774318
 31
0.0
  0
LINE
  5
B100
  8
ALPHA
 10
86.78793
 20
37.445028
 30
0.0
 11
87.11722
 21
37.774318
 31
0.0
  0
LINE
  5
B101
  8
ALPHA
 10
86.78793
 20
38.445028
 30
0.0
 11
87.11722
 21
38.774318
 31
0.0
  0
LINE
  5
B102
  8
ALPHA
 10
86.78793
 20
39.445028
 30
0.0
 11
87.11722
 21
39.774318
 31
0.0
  0
LINE
  5
B103
  8
ALPHA
 10
86.78793
 20
40.445028
 30
0.0
 11
87.11722
 21
40.774318
 31
0.0
  0
LINE
  5
B104
  8
ALPHA
 10
87.11722
 20
40.903607
 30
0.0
 11
86.78793
 21
41.232896
 31
0.0
  0
LINE
  5
B105
  8
ALPHA
 10
87.11722
 20
39.903607
 30
0.0
 11
86.78793
 21
40.232896
 31
0.0
  0
LINE
  5
B106
  8
ALPHA
 10
87.11722
 20
38.903607
 30
0.0
 11
86.78793
 21
39.232896
 31
0.0
  0
LINE
  5
B107
  8
ALPHA
 10
87.11722
 20
37.903607
 30
0.0
 11
86.78793
 21
38.232896
 31
0.0
  0
LINE
  5
B108
  8
ALPHA
 10
87.11722
 20
36.903607
 30
0.0
 11
86.78793
 21
37.232896
 31
0.0
  0
LINE
  5
B109
  8
ALPHA
 10
87.11722
 20
35.903607
 30
0.0
 11
86.78793
 21
36.232896
 31
0.0
  0
ARC
  5
B10A
  8
ALPHA
 10
86.893996
 20
46.338962
 30
0.0
 40
0.15
 50
135.0
 51
225.0
  0
ARC
  5
B10B
  8
ALPHA
 10
86.893996
 20
45.338962
 30
0.0
 40
0.15
 50
135.0
 51
225.0
  0
ARC
  5
B10C
  8
ALPHA
 10
86.893996
 20
44.338962
 30
0.0
 40
0.15
 50
135.0
 51
225.0
  0
ARC
  5
B10D
  8
ALPHA
 10
86.893996
 20
43.338962
 30
0.0
 40
0.15
 50
135.0
 51
225.0
  0
ARC
  5
B10E
  8
ALPHA
 10
86.893996
 20
42.338962
 30
0.0
 40
0.15
 50
135.0
 51
225.0
  0
ARC
  5
B10F
  8
ALPHA
 10
87.052575
 20
41.838962
 30
0.0
 40
0.091421
 50
315.0
 51
45.0
  0
ARC
  5
B110
  8
ALPHA
 10
87.052575
 20
42.838962
 30
0.0
 40
0.091421
 50
315.0
 51
45.0
  0
ARC
  5
B111
  8
ALPHA
 10
87.052575
 20
43.838962
 30
0.0
 40
0.091421
 50
315.0
 51
45.0
  0
ARC
  5
B112
  8
ALPHA
 10
87.052575
 20
44.838962
 30
0.0
 40
0.091421
 50
315.0
 51
45.0
  0
ARC
  5
B113
  8
ALPHA
 10
87.052575
 20
45.838962
 30
0.0
 40
0.091421
 50
315.0
 51
45.0
  0
ARC
  5
B114
  8
ALPHA
 10
87.052575
 20
46.838962
 30
0.0
 40
0.091421
 50
315.0
 51
45.0
  0
LINE
  5
B115
  8
ALPHA
 10
86.78793
 20
41.445028
 30
0.0
 11
87.11722
 21
41.774318
 31
0.0
  0
LINE
  5
B116
  8
ALPHA
 10
86.78793
 20
42.445028
 30
0.0
 11
87.11722
 21
42.774318
 31
0.0
  0
LINE
  5
B117
  8
ALPHA
 10
86.78793
 20
43.445028
 30
0.0
 11
87.11722
 21
43.774318
 31
0.0
  0
LINE
  5
B118
  8
ALPHA
 10
86.78793
 20
44.445028
 30
0.0
 11
87.11722
 21
44.774318
 31
0.0
  0
LINE
  5
B119
  8
ALPHA
 10
86.78793
 20
45.445028
 30
0.0
 11
87.11722
 21
45.774318
 31
0.0
  0
LINE
  5
B11A
  8
ALPHA
 10
86.78793
 20
46.445028
 30
0.0
 11
87.11722
 21
46.774318
 31
0.0
  0
LINE
  5
B11B
  8
ALPHA
 10
87.11722
 20
45.903607
 30
0.0
 11
86.78793
 21
46.232896
 31
0.0
  0
LINE
  5
B11C
  8
ALPHA
 10
87.11722
 20
44.903607
 30
0.0
 11
86.78793
 21
45.232896
 31
0.0
  0
LINE
  5
B11D
  8
ALPHA
 10
87.11722
 20
43.903607
 30
0.0
 11
86.78793
 21
44.232896
 31
0.0
  0
LINE
  5
B11E
  8
ALPHA
 10
87.11722
 20
42.903607
 30
0.0
 11
86.78793
 21
43.232896
 31
0.0
  0
LINE
  5
B11F
  8
ALPHA
 10
87.11722
 20
41.903607
 30
0.0
 11
86.78793
 21
42.232896
 31
0.0
  0
ARC
  5
B120
  8
ALPHA
 10
87.052575
 20
52.838962
 30
0.0
 40
0.091421
 50
315.0
 51
45.0
  0
ARC
  5
B121
  8
ALPHA
 10
86.893996
 20
52.338962
 30
0.0
 40
0.15
 50
135.0
 51
225.0
  0
ARC
  5
B122
  8
ALPHA
 10
86.893996
 20
51.338962
 30
0.0
 40
0.15
 50
135.0
 51
225.0
  0
ARC
  5
B123
  8
ALPHA
 10
86.893996
 20
50.338962
 30
0.0
 40
0.15
 50
135.0
 51
225.0
  0
ARC
  5
B124
  8
ALPHA
 10
86.893996
 20
49.338962
 30
0.0
 40
0.15
 50
135.0
 51
225.0
  0
ARC
  5
B125
  8
ALPHA
 10
86.893996
 20
48.338962
 30
0.0
 40
0.15
 50
135.0
 51
225.0
  0
ARC
  5
B126
  8
ALPHA
 10
86.893996
 20
47.338962
 30
0.0
 40
0.15
 50
135.0
 51
225.0
  0
ARC
  5
B127
  8
ALPHA
 10
87.052575
 20
47.838962
 30
0.0
 40
0.091421
 50
315.0
 51
45.0
  0
ARC
  5
B128
  8
ALPHA
 10
87.052575
 20
48.838962
 30
0.0
 40
0.091421
 50
315.0
 51
45.0
  0
ARC
  5
B129
  8
ALPHA
 10
87.052575
 20
49.838962
 30
0.0
 40
0.091421
 50
315.0
 51
45.0
  0
ARC
  5
B12A
  8
ALPHA
 10
87.052575
 20
50.838962
 30
0.0
 40
0.091421
 50
315.0
 51
45.0
  0
ARC
  5
B12B
  8
ALPHA
 10
87.052575
 20
51.838962
 30
0.0
 40
0.091421
 50
315.0
 51
45.0
  0
LINE
  5
B12C
  8
ALPHA
 10
86.78793
 20
47.445028
 30
0.0
 11
87.11722
 21
47.774318
 31
0.0
  0
LINE
  5
B12D
  8
ALPHA
 10
86.78793
 20
48.445028
 30
0.0
 11
87.11722
 21
48.774318
 31
0.0
  0
LINE
  5
B12E
  8
ALPHA
 10
86.78793
 20
49.445028
 30
0.0
 11
87.11722
 21
49.774318
 31
0.0
  0
LINE
  5
B12F
  8
ALPHA
 10
86.78793
 20
50.445028
 30
0.0
 11
87.11722
 21
50.774318
 31
0.0
  0
LINE
  5
B130
  8
ALPHA
 10
86.78793
 20
51.445028
 30
0.0
 11
87.11722
 21
51.774318
 31
0.0
  0
LINE
  5
B131
  8
ALPHA
 10
86.78793
 20
52.445028
 30
0.0
 11
87.11722
 21
52.774318
 31
0.0
  0
LINE
  5
B132
  8
ALPHA
 10
87.11722
 20
51.903607
 30
0.0
 11
86.78793
 21
52.232896
 31
0.0
  0
LINE
  5
B133
  8
ALPHA
 10
87.11722
 20
50.903607
 30
0.0
 11
86.78793
 21
51.232896
 31
0.0
  0
LINE
  5
B134
  8
ALPHA
 10
87.11722
 20
49.903607
 30
0.0
 11
86.78793
 21
50.232896
 31
0.0
  0
LINE
  5
B135
  8
ALPHA
 10
87.11722
 20
48.903607
 30
0.0
 11
86.78793
 21
49.232896
 31
0.0
  0
LINE
  5
B136
  8
ALPHA
 10
87.11722
 20
47.903607
 30
0.0
 11
86.78793
 21
48.232896
 31
0.0
  0
ARC
  5
B137
  8
ALPHA
 10
86.893996
 20
58.338962
 30
0.0
 40
0.15
 50
135.0
 51
225.0
  0
ARC
  5
B138
  8
ALPHA
 10
86.893996
 20
57.338962
 30
0.0
 40
0.15
 50
135.0
 51
225.0
  0
ARC
  5
B139
  8
ALPHA
 10
86.893996
 20
56.338962
 30
0.0
 40
0.15
 50
135.0
 51
225.0
  0
ARC
  5
B13A
  8
ALPHA
 10
86.893996
 20
55.338962
 30
0.0
 40
0.15
 50
135.0
 51
225.0
  0
ARC
  5
B13B
  8
ALPHA
 10
86.893996
 20
54.338962
 30
0.0
 40
0.15
 50
135.0
 51
225.0
  0
ARC
  5
B13C
  8
ALPHA
 10
86.893996
 20
53.338962
 30
0.0
 40
0.15
 50
135.0
 51
225.0
  0
ARC
  5
B13D
  8
ALPHA
 10
87.052575
 20
53.838962
 30
0.0
 40
0.091421
 50
315.0
 51
45.0
  0
ARC
  5
B13E
  8
ALPHA
 10
87.052575
 20
54.838962
 30
0.0
 40
0.091421
 50
315.0
 51
45.0
  0
ARC
  5
B13F
  8
ALPHA
 10
87.052575
 20
55.838962
 30
0.0
 40
0.091421
 50
315.0
 51
45.0
  0
ARC
  5
B140
  8
ALPHA
 10
87.052575
 20
56.838962
 30
0.0
 40
0.091421
 50
315.0
 51
45.0
  0
ARC
  5
B141
  8
ALPHA
 10
87.052575
 20
57.838962
 30
0.0
 40
0.091421
 50
315.0
 51
45.0
  0
LINE
  5
B142
  8
ALPHA
 10
86.78793
 20
53.445028
 30
0.0
 11
87.11722
 21
53.774318
 31
0.0
  0
LINE
  5
B143
  8
ALPHA
 10
86.78793
 20
54.445028
 30
0.0
 11
87.11722
 21
54.774318
 31
0.0
  0
LINE
  5
B144
  8
ALPHA
 10
86.78793
 20
55.445028
 30
0.0
 11
87.11722
 21
55.774318
 31
0.0
  0
LINE
  5
B145
  8
ALPHA
 10
86.78793
 20
56.445028
 30
0.0
 11
87.11722
 21
56.774318
 31
0.0
  0
LINE
  5
B146
  8
ALPHA
 10
86.78793
 20
57.445028
 30
0.0
 11
87.11722
 21
57.774318
 31
0.0
  0
LINE
  5
B147
  8
ALPHA
 10
87.11722
 20
57.903607
 30
0.0
 11
86.78793
 21
58.232896
 31
0.0
  0
LINE
  5
B148
  8
ALPHA
 10
87.11722
 20
56.903607
 30
0.0
 11
86.78793
 21
57.232896
 31
0.0
  0
LINE
  5
B149
  8
ALPHA
 10
87.11722
 20
55.903607
 30
0.0
 11
86.78793
 21
56.232896
 31
0.0
  0
LINE
  5
B14A
  8
ALPHA
 10
87.11722
 20
54.903607
 30
0.0
 11
86.78793
 21
55.232896
 31
0.0
  0
LINE
  5
B14B
  8
ALPHA
 10
87.11722
 20
53.903607
 30
0.0
 11
86.78793
 21
54.232896
 31
0.0
  0
LINE
  5
B14C
  8
ALPHA
 10
87.11722
 20
52.903607
 30
0.0
 11
86.78793
 21
53.232896
 31
0.0
  0
ARC
  5
B14D
  8
ALPHA
 10
86.893996
 20
70.338962
 30
0.0
 40
0.15
 50
135.0
 51
225.0
  0
ARC
  5
B14E
  8
ALPHA
 10
90.243996
 20
73.338962
 30
0.0
 40
4.3
 50
224.200498
 51
225.799502
  0
LINE
  5
B14F
  8
ALPHA
 10
86.807676
 20
70.21315
 30
0.0
 11
87.036624
 21
70.356213
 31
0.0
  0
LINE
  5
B150
  8
ALPHA
 10
87.243996
 20
68.338962
 30
0.0
 11
87.952708
 21
68.338962
 31
0.0
  0
LINE
  5
B151
  8
ALPHA
 10
87.502472
 20
69.182222
 30
0.0
 11
87.917905
 21
69.627719
 31
0.0
  0
ARC
  5
B152
  8
ALPHA
 10
87.093996
 20
64.338962
 30
0.0
 40
0.35
 50
0.0
 51
45.0
  0
LINE
  5
B153
  8
ALPHA
 10
86.993996
 20
64.651094
 30
0.0
 11
87.200062
 21
64.445028
 31
0.0
  0
LINE
  5
B154
  8
ALPHA
 10
87.341484
 20
64.58645
 30
0.0
 11
87.200062
 21
64.445028
 31
0.0
  0
LINE
  5
B155
  8
ALPHA
 10
86.78793
 20
64.445028
 30
0.0
 11
87.11722
 21
64.774318
 31
0.0
  0
ARC
  5
B156
  8
ALPHA
 10
86.893996
 20
64.338962
 30
0.0
 40
0.15
 50
135.0
 51
225.0
  0
ARC
  5
B157
  8
ALPHA
 10
86.893996
 20
63.338962
 30
0.0
 40
0.15
 50
135.0
 51
225.0
  0
ARC
  5
B158
  8
ALPHA
 10
86.893996
 20
62.338962
 30
0.0
 40
0.15
 50
135.0
 51
225.0
  0
ARC
  5
B159
  8
ALPHA
 10
86.893996
 20
61.338962
 30
0.0
 40
0.15
 50
135.0
 51
225.0
  0
ARC
  5
B15A
  8
ALPHA
 10
86.893996
 20
60.338962
 30
0.0
 40
0.15
 50
135.0
 51
225.0
  0
ARC
  5
B15B
  8
ALPHA
 10
86.893996
 20
59.338962
 30
0.0
 40
0.15
 50
135.0
 51
225.0
  0
ARC
  5
B15C
  8
ALPHA
 10
87.052575
 20
58.838962
 30
0.0
 40
0.091421
 50
315.0
 51
45.0
  0
ARC
  5
B15D
  8
ALPHA
 10
87.052575
 20
59.838962
 30
0.0
 40
0.091421
 50
315.0
 51
45.0
  0
ARC
  5
B15E
  8
ALPHA
 10
87.052575
 20
60.838962
 30
0.0
 40
0.091421
 50
315.0
 51
45.0
  0
ARC
  5
B15F
  8
ALPHA
 10
87.052575
 20
61.838962
 30
0.0
 40
0.091421
 50
315.0
 51
45.0
  0
ARC
  5
B160
  8
ALPHA
 10
87.052575
 20
62.838962
 30
0.0
 40
0.091421
 50
315.0
 51
45.0
  0
ARC
  5
B161
  8
ALPHA
 10
87.052575
 20
63.838962
 30
0.0
 40
0.091421
 50
315.0
 51
45.0
  0
ARC
  5
B162
  8
ALPHA
 10
87.093996
 20
64.338962
 30
0.0
 40
0.15
 50
0.0
 51
45.0
  0
ARC
  5
B163
  8
ALPHA
 10
90.243996
 20
73.338962
 30
0.0
 40
10.0
 50
251.901635
 51
253.551387
  0
LINE
  5
B164
  8
ALPHA
 10
86.78793
 20
59.445028
 30
0.0
 11
87.11722
 21
59.774318
 31
0.0
  0
LINE
  5
B165
  8
ALPHA
 10
86.78793
 20
60.445028
 30
0.0
 11
87.11722
 21
60.774318
 31
0.0
  0
LINE
  5
B166
  8
ALPHA
 10
87.11722
 20
63.903607
 30
0.0
 11
86.78793
 21
64.232896
 31
0.0
  0
LINE
  5
B167
  8
ALPHA
 10
87.443996
 20
64.338962
 30
0.0
 11
87.243996
 21
64.338962
 31
0.0
  0
LINE
  5
B168
  8
ALPHA
 10
86.78793
 20
61.445028
 30
0.0
 11
87.11722
 21
61.774318
 31
0.0
  0
LINE
  5
B169
  8
ALPHA
 10
86.78793
 20
62.445028
 30
0.0
 11
87.11722
 21
62.774318
 31
0.0
  0
LINE
  5
B16A
  8
ALPHA
 10
86.78793
 20
63.445028
 30
0.0
 11
87.11722
 21
63.774318
 31
0.0
  0
LINE
  5
B16B
  8
ALPHA
 10
87.443996
 20
64.338962
 30
0.0
 11
87.443996
 21
63.689769
 31
0.0
  0
LINE
  5
B16C
  8
ALPHA
 10
87.243996
 20
64.338962
 30
0.0
 11
87.243996
 21
64.125409
 31
0.0
  0
LINE
  5
B16D
  8
ALPHA
 10
87.11722
 20
62.903607
 30
0.0
 11
86.78793
 21
63.232896
 31
0.0
  0
LINE
  5
B16E
  8
ALPHA
 10
87.11722
 20
61.903607
 30
0.0
 11
86.78793
 21
62.232896
 31
0.0
  0
LINE
  5
B16F
  8
ALPHA
 10
87.11722
 20
60.903607
 30
0.0
 11
86.78793
 21
61.232896
 31
0.0
  0
LINE
  5
B170
  8
ALPHA
 10
87.11722
 20
59.903607
 30
0.0
 11
86.78793
 21
60.232896
 31
0.0
  0
LINE
  5
B171
  8
ALPHA
 10
87.11722
 20
58.903607
 30
0.0
 11
86.78793
 21
59.232896
 31
0.0
  0
ARC
  5
B172
  8
ALPHA
 10
86.893996
 20
69.338962
 30
0.0
 40
0.15
 50
135.0
 51
225.0
  0
ARC
  5
B173
  8
ALPHA
 10
86.893996
 20
68.338962
 30
0.0
 40
0.15
 50
135.0
 51
225.0
  0
ARC
  5
B174
  8
ALPHA
 10
86.893996
 20
67.338962
 30
0.0
 40
0.15
 50
135.0
 51
225.0
  0
ARC
  5
B175
  8
ALPHA
 10
86.893996
 20
66.338962
 30
0.0
 40
0.15
 50
135.0
 51
225.0
  0
ARC
  5
B176
  8
ALPHA
 10
86.893996
 20
65.338962
 30
0.0
 40
0.15
 50
135.0
 51
225.0
  0
ARC
  5
B177
  8
ALPHA
 10
87.052575
 20
64.838962
 30
0.0
 40
0.091421
 50
315.0
 51
45.0
  0
ARC
  5
B178
  8
ALPHA
 10
87.052575
 20
65.838962
 30
0.0
 40
0.091421
 50
315.0
 51
45.0
  0
ARC
  5
B179
  8
ALPHA
 10
87.052575
 20
66.838962
 30
0.0
 40
0.091421
 50
315.0
 51
45.0
  0
ARC
  5
B17A
  8
ALPHA
 10
87.052575
 20
67.838962
 30
0.0
 40
0.091421
 50
315.0
 51
45.0
  0
ARC
  5
B17B
  8
ALPHA
 10
87.052575
 20
68.838962
 30
0.0
 40
0.091421
 50
315.0
 51
45.0
  0
ARC
  5
B17C
  8
ALPHA
 10
87.052575
 20
69.838962
 30
0.0
 40
0.091421
 50
315.0
 51
45.0
  0
ARC
  5
B17D
  8
ALPHA
 10
87.093996
 20
65.338962
 30
0.0
 40
0.35
 50
315.0
 51
45.0
  0
ARC
  5
B17E
  8
ALPHA
 10
87.093996
 20
66.338962
 30
0.0
 40
0.35
 50
315.0
 51
45.0
  0
ARC
  5
B17F
  8
ALPHA
 10
87.093996
 20
67.338962
 30
0.0
 40
0.35
 50
315.0
 51
45.0
  0
ARC
  5
B180
  8
ALPHA
 10
87.093996
 20
68.338962
 30
0.0
 40
0.35
 50
315.0
 51
0.0
  0
ARC
  5
B181
  8
ALPHA
 10
87.093996
 20
65.338962
 30
0.0
 40
0.15
 50
315.0
 51
45.0
  0
ARC
  5
B182
  8
ALPHA
 10
87.093996
 20
66.338962
 30
0.0
 40
0.15
 50
315.0
 51
45.0
  0
ARC
  5
B183
  8
ALPHA
 10
87.093996
 20
67.338962
 30
0.0
 40
0.15
 50
315.0
 51
45.0
  0
ARC
  5
B184
  8
ALPHA
 10
87.093996
 20
68.338962
 30
0.0
 40
0.15
 50
315.0
 51
0.0
  0
ARC
  5
B185
  8
ALPHA
 10
87.356201
 20
69.318621
 30
0.0
 40
0.2
 50
234.310082
 51
317.0
  0
ARC
  5
B186
  8
ALPHA
 10
90.243996
 20
73.338962
 30
0.0
 40
5.15
 50
230.689536
 51
234.310449
  0
ARC
  5
B187
  8
ALPHA
 10
87.108061
 20
69.509026
 30
0.0
 40
0.2
 50
157.206228
 51
230.689536
  0
ARC
  5
B188
  8
ALPHA
 10
87.176442
 20
70.184582
 30
0.0
 40
0.1
 50
328.0
 51
45.799502
  0
LINE
  5
B189
  8
ALPHA
 10
87.11722
 20
69.903607
 30
0.0
 11
86.78793
 21
70.232896
 31
0.0
  0
LINE
  5
B18A
  8
ALPHA
 10
87.11722
 20
68.903607
 30
0.0
 11
86.78793
 21
69.232896
 31
0.0
  0
LINE
  5
B18B
  8
ALPHA
 10
87.200062
 20
68.232896
 30
0.0
 11
87.341484
 21
68.091475
 31
0.0
  0
LINE
  5
B18C
  8
ALPHA
 10
87.11722
 20
67.903607
 30
0.0
 11
86.78793
 21
68.232896
 31
0.0
  0
LINE
  5
B18D
  8
ALPHA
 10
87.135418
 20
67.792516
 30
0.0
 11
87.341484
 21
67.58645
 31
0.0
  0
LINE
  5
B18E
  8
ALPHA
 10
86.993996
 20
67.651094
 30
0.0
 11
87.200062
 21
67.445028
 31
0.0
  0
LINE
  5
B18F
  8
ALPHA
 10
87.341484
 20
67.091475
 30
0.0
 11
87.200062
 21
67.232896
 31
0.0
  0
LINE
  5
B190
  8
ALPHA
 10
87.11722
 20
66.903607
 30
0.0
 11
86.78793
 21
67.232896
 31
0.0
  0
LINE
  5
B191
  8
ALPHA
 10
87.135418
 20
66.792516
 30
0.0
 11
87.341484
 21
66.58645
 31
0.0
  0
LINE
  5
B192
  8
ALPHA
 10
86.993996
 20
66.651094
 30
0.0
 11
87.200062
 21
66.445028
 31
0.0
  0
LINE
  5
B193
  8
ALPHA
 10
87.341484
 20
66.091475
 30
0.0
 11
87.200062
 21
66.232896
 31
0.0
  0
LINE
  5
B194
  8
ALPHA
 10
87.11722
 20
65.903607
 30
0.0
 11
86.78793
 21
66.232896
 31
0.0
  0
LINE
  5
B195
  8
ALPHA
 10
87.135418
 20
65.792516
 30
0.0
 11
87.341484
 21
65.58645
 31
0.0
  0
LINE
  5
B196
  8
ALPHA
 10
86.993996
 20
65.651094
 30
0.0
 11
87.200062
 21
65.445028
 31
0.0
  0
LINE
  5
B197
  8
ALPHA
 10
87.341484
 20
65.091475
 30
0.0
 11
87.200062
 21
65.232896
 31
0.0
  0
LINE
  5
B198
  8
ALPHA
 10
87.11722
 20
64.903607
 30
0.0
 11
86.78793
 21
65.232896
 31
0.0
  0
LINE
  5
B199
  8
ALPHA
 10
87.135418
 20
64.792516
 30
0.0
 11
87.341484
 21
64.58645
 31
0.0
  0
LINE
  5
B19A
  8
ALPHA
 10
87.341484
 20
65.091475
 30
0.0
 11
87.135418
 21
64.885409
 31
0.0
  0
LINE
  5
B19B
  8
ALPHA
 10
87.200062
 20
65.232896
 30
0.0
 11
86.993996
 21
65.02683
 31
0.0
  0
LINE
  5
B19C
  8
ALPHA
 10
87.341484
 20
65.58645
 30
0.0
 11
87.200062
 21
65.445028
 31
0.0
  0
LINE
  5
B19D
  8
ALPHA
 10
86.78793
 20
65.445028
 30
0.0
 11
87.11722
 21
65.774318
 31
0.0
  0
LINE
  5
B19E
  8
ALPHA
 10
87.341484
 20
66.091475
 30
0.0
 11
87.135418
 21
65.885409
 31
0.0
  0
LINE
  5
B19F
  8
ALPHA
 10
87.200062
 20
66.232896
 30
0.0
 11
86.993996
 21
66.02683
 31
0.0
  0
LINE
  5
B1A0
  8
ALPHA
 10
87.341484
 20
66.58645
 30
0.0
 11
87.200062
 21
66.445028
 31
0.0
  0
LINE
  5
B1A1
  8
ALPHA
 10
86.78793
 20
66.445028
 30
0.0
 11
87.11722
 21
66.774318
 31
0.0
  0
LINE
  5
B1A2
  8
ALPHA
 10
87.341484
 20
67.091475
 30
0.0
 11
87.135418
 21
66.885409
 31
0.0
  0
LINE
  5
B1A3
  8
ALPHA
 10
87.200062
 20
67.232896
 30
0.0
 11
86.993996
 21
67.02683
 31
0.0
  0
LINE
  5
B1A4
  8
ALPHA
 10
87.341484
 20
67.58645
 30
0.0
 11
87.200062
 21
67.445028
 31
0.0
  0
LINE
  5
B1A5
  8
ALPHA
 10
86.78793
 20
67.445028
 30
0.0
 11
87.11722
 21
67.774318
 31
0.0
  0
LINE
  5
B1A6
  8
ALPHA
 10
87.135418
 20
67.885409
 30
0.0
 11
87.341484
 21
68.091475
 31
0.0
  0
LINE
  5
B1A7
  8
ALPHA
 10
86.993996
 20
68.02683
 30
0.0
 11
87.200062
 21
68.232896
 31
0.0
  0
LINE
  5
B1A8
  8
ALPHA
 10
86.78793
 20
68.445028
 30
0.0
 11
87.11722
 21
68.774318
 31
0.0
  0
LINE
  5
B1A9
  8
ALPHA
 10
86.78793
 20
69.445028
 30
0.0
 11
87.11722
 21
69.774318
 31
0.0
  0
LINE
  5
B1AA
  8
ALPHA
 10
87.261247
 20
70.13159
 30
0.0
 11
87.118347
 21
69.902902
 31
0.0
  0
LINE
  5
B1AB
  8
ALPHA
 10
89.893996
 20
64.638962
 30
0.0
 11
90.002139
 21
64.225676
 31
0.0
  0
LINE
  5
B1AC
  8
ALPHA
 10
90.485853
 20
64.225676
 30
0.0
 11
90.593996
 21
64.638962
 31
0.0
  0
ARC
  5
B1AD
  8
ALPHA
 10
90.243996
 20
64.288962
 30
0.0
 40
0.25
 50
194.663584
 51
345.336416
  0
ARC
  5
B1AE
  8
ALPHA
 10
90.243996
 20
73.338962
 30
0.0
 40
5.15
 50
260.689469
 51
264.31071
  0
ARC
  5
B1AF
  8
ALPHA
 10
89.443165
 20
68.454173
 30
0.0
 40
0.2
 50
178.0
 51
260.687808
  0
ARC
  5
B1B0
  8
ALPHA
 10
89.164607
 20
69.073412
 30
0.0
 40
0.1
 50
358.0
 51
75.799502
  0
ARC
  5
B1B1
  8
ALPHA
 10
90.243996
 20
73.338962
 30
0.0
 40
4.3
 50
254.200498
 51
255.799502
  0
ARC
  5
B1B2
  8
ALPHA
 10
89.046
 20
69.105193
 30
0.0
 40
0.1
 50
74.200498
 51
152.0
  0
ARC
  5
B1B3
  8
ALPHA
 10
88.495141
 20
68.708195
 30
0.0
 40
0.2
 50
249.303621
 51
332.0
  0
ARC
  5
B1B4
  8
ALPHA
 10
90.243996
 20
73.338962
 30
0.0
 40
5.15
 50
245.689807
 51
249.310198
  0
ARC
  5
B1B5
  8
ALPHA
 10
88.206176
 20
68.827888
 30
0.0
 40
0.2
 50
163.0
 51
245.696522
  0
ARC
  5
B1B6
  8
ALPHA
 10
88.09738
 20
69.498124
 30
0.0
 40
0.1
 50
343.0
 51
60.799502
  0
ARC
  5
B1B7
  8
ALPHA
 10
90.243996
 20
73.338962
 30
0.0
 40
4.3
 50
239.200498
 51
240.799502
  0
ARC
  5
B1B8
  8
ALPHA
 10
87.99104
 20
69.559519
 30
0.0
 40
0.1
 50
59.200498
 51
137.0
  0
LINE
  5
B1B9
  8
ALPHA
 10
89.264546
 20
69.069922
 30
0.0
 11
89.243287
 21
68.461152
 31
0.0
  0
LINE
  5
B1BA
  8
ALPHA
 10
88.671731
 20
68.6143
 30
0.0
 11
88.957705
 21
69.15214
 31
0.0
  0
LINE
  5
B1BB
  8
ALPHA
 10
88.193011
 20
69.468887
 30
0.0
 11
88.014915
 21
68.886362
 31
0.0
  0
ARC
  5
B1BC
  8
ALPHA
 10
91.441992
 20
69.105193
 30
0.0
 40
0.1
 50
28.0
 51
105.799502
  0
ARC
  5
B1BD
  8
ALPHA
 10
90.243996
 20
73.338962
 30
0.0
 40
4.3
 50
284.200498
 51
285.799502
  0
ARC
  5
B1BE
  8
ALPHA
 10
91.323386
 20
69.073412
 30
0.0
 40
0.1
 50
104.200498
 51
182.0
  0
ARC
  5
B1BF
  8
ALPHA
 10
91.044827
 20
68.454173
 30
0.0
 40
0.2
 50
279.312192
 51
2.0
  0
ARC
  5
B1C0
  8
ALPHA
 10
90.243996
 20
73.338962
 30
0.0
 40
5.15
 50
275.68929
 51
279.310531
  0
ARC
  5
B1C1
  8
ALPHA
 10
90.734729
 20
68.413347
 30
0.0
 40
0.2
 50
193.0
 51
275.683193
  0
ARC
  5
B1C2
  8
ALPHA
 10
90.305392
 20
68.939391
 30
0.0
 40
0.1
 50
13.0
 51
90.799502
  0
ARC
  5
B1C3
  8
ALPHA
 10
90.243996
 20
73.338962
 30
0.0
 40
4.3
 50
269.200498
 51
270.799502
  0
ARC
  5
B1C4
  8
ALPHA
 10
90.182601
 20
68.939391
 30
0.0
 40
0.1
 50
89.200498
 51
167.0
  0
ARC
  5
B1C5
  8
ALPHA
 10
89.753263
 20
68.413347
 30
0.0
 40
0.2
 50
264.316807
 51
347.0
  0
LINE
  5
B1C6
  8
ALPHA
 10
90.402829
 20
68.961886
 30
0.0
 11
90.539855
 21
68.368357
 31
0.0
  0
LINE
  5
B1C7
  8
ALPHA
 10
90.593996
 20
66.838962
 30
0.0
 11
89.893996
 21
66.838962
 31
0.0
  0
LINE
  5
B1C8
  8
ALPHA
 10
91.244705
 20
68.461152
 30
0.0
 11
91.223447
 21
69.069922
 31
0.0
  0
LINE
  5
B1C9
  8
ALPHA
 10
89.948137
 20
68.368357
 30
0.0
 11
90.085164
 21
68.961886
 31
0.0
  0
LINE
  5
B1CA
  8
ALPHA
 10
90.593996
 20
64.638962
 30
0.0
 11
90.593996
 21
66.838962
 31
0.0
  0
LINE
  5
B1CB
  8
ALPHA
 10
89.893996
 20
66.838962
 30
0.0
 11
89.893996
 21
64.638962
 31
0.0
  0
LINE
  5
B1CC
  8
ALPHA
 10
87.243996
 20
78.338962
 30
0.0
 11
87.952708
 21
78.338962
 31
0.0
  0
LINE
  5
B1CD
  8
ALPHA
 10
87.917905
 20
77.050205
 30
0.0
 11
87.502472
 21
77.495703
 31
0.0
  0
LINE
  5
B1CE
  8
ALPHA
 10
87.11722
 20
75.903607
 30
0.0
 11
86.78793
 21
76.232896
 31
0.0
  0
ARC
  5
B1CF
  8
ALPHA
 10
86.893996
 20
75.338962
 30
0.0
 40
0.15
 50
135.0
 51
225.0
  0
ARC
  5
B1D0
  8
ALPHA
 10
86.893996
 20
74.338962
 30
0.0
 40
0.15
 50
135.0
 51
225.0
  0
ARC
  5
B1D1
  8
ALPHA
 10
86.893996
 20
73.338962
 30
0.0
 40
0.15
 50
135.0
 51
225.0
  0
ARC
  5
B1D2
  8
ALPHA
 10
86.893996
 20
72.338962
 30
0.0
 40
0.15
 50
135.0
 51
225.0
  0
ARC
  5
B1D3
  8
ALPHA
 10
86.893996
 20
71.338962
 30
0.0
 40
0.15
 50
135.0
 51
225.0
  0
ARC
  5
B1D4
  8
ALPHA
 10
87.052575
 20
70.838962
 30
0.0
 40
0.091421
 50
315.0
 51
45.0
  0
ARC
  5
B1D5
  8
ALPHA
 10
87.052575
 20
71.838962
 30
0.0
 40
0.091421
 50
315.0
 51
45.0
  0
ARC
  5
B1D6
  8
ALPHA
 10
87.052575
 20
72.838962
 30
0.0
 40
0.091421
 50
315.0
 51
45.0
  0
ARC
  5
B1D7
  8
ALPHA
 10
87.052575
 20
73.838962
 30
0.0
 40
0.091421
 50
315.0
 51
45.0
  0
ARC
  5
B1D8
  8
ALPHA
 10
87.052575
 20
74.838962
 30
0.0
 40
0.091421
 50
315.0
 51
45.0
  0
ARC
  5
B1D9
  8
ALPHA
 10
87.052575
 20
75.838962
 30
0.0
 40
0.091421
 50
315.0
 51
45.0
  0
ARC
  5
B1DA
  8
ALPHA
 10
87.089616
 20
70.271408
 30
0.0
 40
0.1
 50
44.200498
 51
122.0
  0
LINE
  5
B1DB
  8
ALPHA
 10
87.11722
 20
74.903607
 30
0.0
 11
86.78793
 21
75.232896
 31
0.0
  0
LINE
  5
B1DC
  8
ALPHA
 10
87.11722
 20
73.903607
 30
0.0
 11
86.78793
 21
74.232896
 31
0.0
  0
LINE
  5
B1DD
  8
ALPHA
 10
87.11722
 20
72.903607
 30
0.0
 11
86.78793
 21
73.232896
 31
0.0
  0
LINE
  5
B1DE
  8
ALPHA
 10
87.11722
 20
71.903607
 30
0.0
 11
86.78793
 21
72.232896
 31
0.0
  0
LINE
  5
B1DF
  8
ALPHA
 10
87.11722
 20
70.903607
 30
0.0
 11
86.78793
 21
71.232896
 31
0.0
  0
LINE
  5
B1E0
  8
ALPHA
 10
86.78793
 20
70.445028
 30
0.0
 11
87.11722
 21
70.774318
 31
0.0
  0
LINE
  5
B1E1
  8
ALPHA
 10
86.78793
 20
71.445028
 30
0.0
 11
87.11722
 21
71.774318
 31
0.0
  0
LINE
  5
B1E2
  8
ALPHA
 10
86.78793
 20
72.445028
 30
0.0
 11
87.11722
 21
72.774318
 31
0.0
  0
LINE
  5
B1E3
  8
ALPHA
 10
86.78793
 20
73.445028
 30
0.0
 11
87.11722
 21
73.774318
 31
0.0
  0
LINE
  5
B1E4
  8
ALPHA
 10
86.78793
 20
74.445028
 30
0.0
 11
87.11722
 21
74.774318
 31
0.0
  0
LINE
  5
B1E5
  8
ALPHA
 10
86.78793
 20
75.445028
 30
0.0
 11
87.11722
 21
75.774318
 31
0.0
  0
ARC
  5
B1E6
  8
ALPHA
 10
86.893996
 20
81.338962
 30
0.0
 40
0.15
 50
135.0
 51
225.0
  0
ARC
  5
B1E7
  8
ALPHA
 10
86.893996
 20
80.338962
 30
0.0
 40
0.15
 50
135.0
 51
225.0
  0
ARC
  5
B1E8
  8
ALPHA
 10
86.893996
 20
79.338962
 30
0.0
 40
0.15
 50
135.0
 51
225.0
  0
ARC
  5
B1E9
  8
ALPHA
 10
86.893996
 20
78.338962
 30
0.0
 40
0.15
 50
135.0
 51
225.0
  0
ARC
  5
B1EA
  8
ALPHA
 10
86.893996
 20
77.338962
 30
0.0
 40
0.15
 50
135.0
 51
225.0
  0
ARC
  5
B1EB
  8
ALPHA
 10
86.893996
 20
76.338962
 30
0.0
 40
0.15
 50
135.0
 51
225.0
  0
ARC
  5
B1EC
  8
ALPHA
 10
87.052575
 20
76.838962
 30
0.0
 40
0.091421
 50
315.0
 51
45.0
  0
ARC
  5
B1ED
  8
ALPHA
 10
87.052575
 20
77.838962
 30
0.0
 40
0.091421
 50
315.0
 51
45.0
  0
ARC
  5
B1EE
  8
ALPHA
 10
87.052575
 20
78.838962
 30
0.0
 40
0.091421
 50
315.0
 51
45.0
  0
ARC
  5
B1EF
  8
ALPHA
 10
87.052575
 20
79.838962
 30
0.0
 40
0.091421
 50
315.0
 51
45.0
  0
ARC
  5
B1F0
  8
ALPHA
 10
87.052575
 20
80.838962
 30
0.0
 40
0.091421
 50
315.0
 51
45.0
  0
ARC
  5
B1F1
  8
ALPHA
 10
87.093996
 20
79.338962
 30
0.0
 40
0.35
 50
315.0
 51
45.0
  0
ARC
  5
B1F2
  8
ALPHA
 10
87.093996
 20
78.338962
 30
0.0
 40
0.35
 50
0.0
 51
45.0
  0
ARC
  5
B1F3
  8
ALPHA
 10
87.093996
 20
81.338962
 30
0.0
 40
0.35
 50
315.0
 51
45.0
  0
ARC
  5
B1F4
  8
ALPHA
 10
87.093996
 20
80.338962
 30
0.0
 40
0.35
 50
315.0
 51
45.0
  0
ARC
  5
B1F5
  8
ALPHA
 10
87.093996
 20
81.338962
 30
0.0
 40
0.15
 50
315.0
 51
45.0
  0
ARC
  5
B1F6
  8
ALPHA
 10
87.093996
 20
80.338962
 30
0.0
 40
0.15
 50
315.0
 51
45.0
  0
ARC
  5
B1F7
  8
ALPHA
 10
87.093996
 20
79.338962
 30
0.0
 40
0.15
 50
315.0
 51
45.0
  0
ARC
  5
B1F8
  8
ALPHA
 10
87.093996
 20
78.338962
 30
0.0
 40
0.15
 50
0.0
 51
45.0
  0
ARC
  5
B1F9
  8
ALPHA
 10
87.089616
 20
76.406516
 30
0.0
 40
0.1
 50
238.0
 51
315.799502
  0
ARC
  5
B1FA
  8
ALPHA
 10
90.243996
 20
73.338962
 30
0.0
 40
4.3
 50
134.200498
 51
135.799502
  0
ARC
  5
B1FB
  8
ALPHA
 10
87.176442
 20
76.493342
 30
0.0
 40
0.1
 50
314.200498
 51
32.0
  0
ARC
  5
B1FC
  8
ALPHA
 10
87.108061
 20
77.168899
 30
0.0
 40
0.2
 50
129.310464
 51
202.793772
  0
ARC
  5
B1FD
  8
ALPHA
 10
90.243996
 20
73.338962
 30
0.0
 40
5.15
 50
125.689551
 51
129.310464
  0
ARC
  5
B1FE
  8
ALPHA
 10
87.356201
 20
77.359303
 30
0.0
 40
0.2
 50
43.0
 51
125.689918
  0
LINE
  5
B1FF
  8
ALPHA
 10
87.135418
 20
81.792516
 30
0.0
 11
87.341484
 21
81.58645
 31
0.0
  0
LINE
  5
B200
  8
ALPHA
 10
86.993996
 20
81.651094
 30
0.0
 11
87.200062
 21
81.445028
 31
0.0
  0
LINE
  5
B201
  8
ALPHA
 10
87.341484
 20
81.091475
 30
0.0
 11
87.200062
 21
81.232896
 31
0.0
  0
LINE
  5
B202
  8
ALPHA
 10
87.11722
 20
80.903607
 30
0.0
 11
86.78793
 21
81.232896
 31
0.0
  0
LINE
  5
B203
  8
ALPHA
 10
87.135418
 20
80.792516
 30
0.0
 11
87.341484
 21
80.58645
 31
0.0
  0
LINE
  5
B204
  8
ALPHA
 10
86.993996
 20
80.651094
 30
0.0
 11
87.200062
 21
80.445028
 31
0.0
  0
LINE
  5
B205
  8
ALPHA
 10
87.341484
 20
80.091475
 30
0.0
 11
87.200062
 21
80.232896
 31
0.0
  0
LINE
  5
B206
  8
ALPHA
 10
87.11722
 20
79.903607
 30
0.0
 11
86.78793
 21
80.232896
 31
0.0
  0
LINE
  5
B207
  8
ALPHA
 10
87.135418
 20
79.792516
 30
0.0
 11
87.341484
 21
79.58645
 31
0.0
  0
LINE
  5
B208
  8
ALPHA
 10
86.993996
 20
79.651094
 30
0.0
 11
87.200062
 21
79.445028
 31
0.0
  0
LINE
  5
B209
  8
ALPHA
 10
87.341484
 20
79.091475
 30
0.0
 11
87.200062
 21
79.232896
 31
0.0
  0
LINE
  5
B20A
  8
ALPHA
 10
87.11722
 20
78.903607
 30
0.0
 11
86.78793
 21
79.232896
 31
0.0
  0
LINE
  5
B20B
  8
ALPHA
 10
87.135418
 20
78.792516
 30
0.0
 11
87.341484
 21
78.58645
 31
0.0
  0
LINE
  5
B20C
  8
ALPHA
 10
86.993996
 20
78.651094
 30
0.0
 11
87.200062
 21
78.445028
 31
0.0
  0
LINE
  5
B20D
  8
ALPHA
 10
87.036624
 20
76.321711
 30
0.0
 11
86.807676
 21
76.464774
 31
0.0
  0
LINE
  5
B20E
  8
ALPHA
 10
87.11722
 20
77.903607
 30
0.0
 11
86.78793
 21
78.232896
 31
0.0
  0
LINE
  5
B20F
  8
ALPHA
 10
87.11722
 20
76.903607
 30
0.0
 11
86.78793
 21
77.232896
 31
0.0
  0
LINE
  5
B210
  8
ALPHA
 10
87.118347
 20
76.775022
 30
0.0
 11
87.261247
 21
76.546334
 31
0.0
  0
LINE
  5
B211
  8
ALPHA
 10
86.78793
 20
76.445028
 30
0.0
 11
87.11722
 21
76.774318
 31
0.0
  0
LINE
  5
B212
  8
ALPHA
 10
86.78793
 20
77.445028
 30
0.0
 11
87.11722
 21
77.774318
 31
0.0
  0
LINE
  5
B213
  8
ALPHA
 10
87.341484
 20
78.58645
 30
0.0
 11
87.200062
 21
78.445028
 31
0.0
  0
LINE
  5
B214
  8
ALPHA
 10
86.78793
 20
78.445028
 30
0.0
 11
87.11722
 21
78.774318
 31
0.0
  0
LINE
  5
B215
  8
ALPHA
 10
87.341484
 20
79.091475
 30
0.0
 11
87.135418
 21
78.885409
 31
0.0
  0
LINE
  5
B216
  8
ALPHA
 10
87.200062
 20
79.232896
 30
0.0
 11
86.993996
 21
79.02683
 31
0.0
  0
LINE
  5
B217
  8
ALPHA
 10
87.341484
 20
79.58645
 30
0.0
 11
87.200062
 21
79.445028
 31
0.0
  0
LINE
  5
B218
  8
ALPHA
 10
86.78793
 20
79.445028
 30
0.0
 11
87.11722
 21
79.774318
 31
0.0
  0
LINE
  5
B219
  8
ALPHA
 10
87.341484
 20
80.091475
 30
0.0
 11
87.135418
 21
79.885409
 31
0.0
  0
LINE
  5
B21A
  8
ALPHA
 10
87.200062
 20
80.232896
 30
0.0
 11
86.993996
 21
80.02683
 31
0.0
  0
LINE
  5
B21B
  8
ALPHA
 10
87.341484
 20
80.58645
 30
0.0
 11
87.200062
 21
80.445028
 31
0.0
  0
LINE
  5
B21C
  8
ALPHA
 10
86.78793
 20
80.445028
 30
0.0
 11
87.11722
 21
80.774318
 31
0.0
  0
LINE
  5
B21D
  8
ALPHA
 10
87.341484
 20
81.091475
 30
0.0
 11
87.135418
 21
80.885409
 31
0.0
  0
LINE
  5
B21E
  8
ALPHA
 10
87.200062
 20
81.232896
 30
0.0
 11
86.993996
 21
81.02683
 31
0.0
  0
LINE
  5
B21F
  8
ALPHA
 10
87.341484
 20
81.58645
 30
0.0
 11
87.200062
 21
81.445028
 31
0.0
  0
LINE
  5
B220
  8
ALPHA
 10
86.78793
 20
81.445028
 30
0.0
 11
87.11722
 21
81.774318
 31
0.0
  0
ARC
  5
B221
  8
ALPHA
 10
90.243996
 20
73.338962
 30
0.0
 40
5.15
 50
95.68929
 51
99.310531
  0
ARC
  5
B222
  8
ALPHA
 10
87.99104
 20
77.118405
 30
0.0
 40
0.1
 50
223.0
 51
300.799502
  0
ARC
  5
B223
  8
ALPHA
 10
90.243996
 20
73.338962
 30
0.0
 40
4.3
 50
119.200498
 51
120.799502
  0
ARC
  5
B224
  8
ALPHA
 10
88.09738
 20
77.179801
 30
0.0
 40
0.1
 50
299.200498
 51
17.0
  0
ARC
  5
B225
  8
ALPHA
 10
88.206176
 20
77.850036
 30
0.0
 40
0.2
 50
114.303478
 51
197.0
  0
ARC
  5
B226
  8
ALPHA
 10
90.243996
 20
73.338962
 30
0.0
 40
5.15
 50
110.689802
 51
114.310193
  0
ARC
  5
B227
  8
ALPHA
 10
88.495141
 20
77.96973
 30
0.0
 40
0.2
 50
28.0
 51
110.696379
  0
ARC
  5
B228
  8
ALPHA
 10
89.046
 20
77.572732
 30
0.0
 40
0.1
 50
208.0
 51
285.799502
  0
ARC
  5
B229
  8
ALPHA
 10
90.243996
 20
73.338962
 30
0.0
 40
4.3
 50
104.200498
 51
105.799502
  0
ARC
  5
B22A
  8
ALPHA
 10
89.164607
 20
77.604512
 30
0.0
 40
0.1
 50
284.200498
 51
2.0
  0
ARC
  5
B22B
  8
ALPHA
 10
89.443165
 20
78.223752
 30
0.0
 40
0.2
 50
99.312192
 51
182.0
  0
LINE
  5
B22C
  8
ALPHA
 10
88.957705
 20
77.525785
 30
0.0
 11
88.671731
 21
78.063624
 31
0.0
  0
LINE
  5
B22D
  8
ALPHA
 10
88.014915
 20
77.791562
 30
0.0
 11
88.193011
 21
77.209038
 31
0.0
  0
LINE
  5
B22E
  8
ALPHA
 10
89.243287
 20
78.216772
 30
0.0
 11
89.264546
 21
77.608002
 31
0.0
  0
ARC
  5
B22F
  8
ALPHA
 10
89.753263
 20
78.264577
 30
0.0
 40
0.2
 50
13.0
 51
95.683193
  0
ARC
  5
B230
  8
ALPHA
 10
90.182601
 20
77.738534
 30
0.0
 40
0.1
 50
193.0
 51
270.799502
  0
ARC
  5
B231
  8
ALPHA
 10
90.243996
 20
73.338962
 30
0.0
 40
4.3
 50
89.200498
 51
90.799502
  0
ARC
  5
B232
  8
ALPHA
 10
90.305392
 20
77.738534
 30
0.0
 40
0.1
 50
269.200498
 51
347.0
  0
ARC
  5
B233
  8
ALPHA
 10
90.734729
 20
78.264577
 30
0.0
 40
0.2
 50
84.316807
 51
167.0
  0
ARC
  5
B234
  8
ALPHA
 10
90.243996
 20
73.338962
 30
0.0
 40
5.15
 50
80.689469
 51
84.31071
  0
ARC
  5
B235
  8
ALPHA
 10
91.044827
 20
78.223752
 30
0.0
 40
0.2
 50
358.0
 51
80.687808
  0
ARC
  5
B236
  8
ALPHA
 10
91.323386
 20
77.604512
 30
0.0
 40
0.1
 50
178.0
 51
255.799502
  0
ARC
  5
B237
  8
ALPHA
 10
90.243996
 20
73.338962
 30
0.0
 40
4.3
 50
74.200498
 51
75.799502
  0
ARC
  5
B238
  8
ALPHA
 10
91.441992
 20
77.572732
 30
0.0
 40
0.1
 50
254.200498
 51
332.0
  0
LINE
  5
B239
  8
ALPHA
 10
89.893996
 20
79.838962
 30
0.0
 11
90.593996
 21
79.838962
 31
0.0
  0
LINE
  5
B23A
  8
ALPHA
 10
90.085164
 20
77.716039
 30
0.0
 11
89.948137
 21
78.309567
 31
0.0
  0
LINE
  5
B23B
  8
ALPHA
 10
91.223447
 20
77.608002
 30
0.0
 11
91.244705
 21
78.216772
 31
0.0
  0
LINE
  5
B23C
  8
ALPHA
 10
90.539855
 20
78.309567
 30
0.0
 11
90.402829
 21
77.716039
 31
0.0
  0
LINE
  5
B23D
  8
ALPHA
 10
93.370773
 20
58.774318
 30
0.0
 11
93.700062
 21
58.445028
 31
0.0
  0
LINE
  5
B23E
  8
ALPHA
 10
93.700062
 20
47.232896
 30
0.0
 11
93.370773
 21
46.903607
 31
0.0
  0
ARC
  5
B23F
  8
ALPHA
 10
93.593996
 20
41.338962
 30
0.0
 40
0.15
 50
315.0
 51
45.0
  0
ARC
  5
B240
  8
ALPHA
 10
93.593996
 20
40.338962
 30
0.0
 40
0.15
 50
315.0
 51
45.0
  0
ARC
  5
B241
  8
ALPHA
 10
93.593996
 20
39.338962
 30
0.0
 40
0.15
 50
315.0
 51
45.0
  0
ARC
  5
B242
  8
ALPHA
 10
93.593996
 20
38.338962
 30
0.0
 40
0.15
 50
315.0
 51
45.0
  0
ARC
  5
B243
  8
ALPHA
 10
93.593996
 20
37.338962
 30
0.0
 40
0.15
 50
315.0
 51
45.0
  0
ARC
  5
B244
  8
ALPHA
 10
93.593996
 20
36.338962
 30
0.0
 40
0.15
 50
315.0
 51
45.0
  0
ARC
  5
B245
  8
ALPHA
 10
93.435418
 20
40.838962
 30
0.0
 40
0.091421
 50
135.0
 51
225.0
  0
ARC
  5
B246
  8
ALPHA
 10
93.435418
 20
39.838962
 30
0.0
 40
0.091421
 50
135.0
 51
225.0
  0
ARC
  5
B247
  8
ALPHA
 10
93.435418
 20
38.838962
 30
0.0
 40
0.091421
 50
135.0
 51
225.0
  0
ARC
  5
B248
  8
ALPHA
 10
93.435418
 20
37.838962
 30
0.0
 40
0.091421
 50
135.0
 51
225.0
  0
ARC
  5
B249
  8
ALPHA
 10
93.435418
 20
36.838962
 30
0.0
 40
0.091421
 50
135.0
 51
225.0
  0
ARC
  5
B24A
  8
ALPHA
 10
93.435418
 20
35.838962
 30
0.0
 40
0.091421
 50
135.0
 51
225.0
  0
LINE
  5
B24B
  8
ALPHA
 10
93.700062
 20
36.232896
 30
0.0
 11
93.370773
 21
35.903607
 31
0.0
  0
LINE
  5
B24C
  8
ALPHA
 10
93.700062
 20
37.232896
 30
0.0
 11
93.370773
 21
36.903607
 31
0.0
  0
LINE
  5
B24D
  8
ALPHA
 10
93.700062
 20
38.232896
 30
0.0
 11
93.370773
 21
37.903607
 31
0.0
  0
LINE
  5
B24E
  8
ALPHA
 10
93.700062
 20
39.232896
 30
0.0
 11
93.370773
 21
38.903607
 31
0.0
  0
LINE
  5
B24F
  8
ALPHA
 10
93.700062
 20
40.232896
 30
0.0
 11
93.370773
 21
39.903607
 31
0.0
  0
LINE
  5
B250
  8
ALPHA
 10
93.700062
 20
41.232896
 30
0.0
 11
93.370773
 21
40.903607
 31
0.0
  0
LINE
  5
B251
  8
ALPHA
 10
93.370773
 20
40.774318
 30
0.0
 11
93.700062
 21
40.445028
 31
0.0
  0
LINE
  5
B252
  8
ALPHA
 10
93.370773
 20
39.774318
 30
0.0
 11
93.700062
 21
39.445028
 31
0.0
  0
LINE
  5
B253
  8
ALPHA
 10
93.370773
 20
38.774318
 30
0.0
 11
93.700062
 21
38.445028
 31
0.0
  0
LINE
  5
B254
  8
ALPHA
 10
93.370773
 20
37.774318
 30
0.0
 11
93.700062
 21
37.445028
 31
0.0
  0
LINE
  5
B255
  8
ALPHA
 10
93.370773
 20
36.774318
 30
0.0
 11
93.700062
 21
36.445028
 31
0.0
  0
ARC
  5
B256
  8
ALPHA
 10
93.593996
 20
46.338962
 30
0.0
 40
0.15
 50
315.0
 51
45.0
  0
ARC
  5
B257
  8
ALPHA
 10
93.593996
 20
45.338962
 30
0.0
 40
0.15
 50
315.0
 51
45.0
  0
ARC
  5
B258
  8
ALPHA
 10
93.593996
 20
44.338962
 30
0.0
 40
0.15
 50
315.0
 51
45.0
  0
ARC
  5
B259
  8
ALPHA
 10
93.593996
 20
43.338962
 30
0.0
 40
0.15
 50
315.0
 51
45.0
  0
ARC
  5
B25A
  8
ALPHA
 10
93.593996
 20
42.338962
 30
0.0
 40
0.15
 50
315.0
 51
45.0
  0
ARC
  5
B25B
  8
ALPHA
 10
93.435418
 20
46.838962
 30
0.0
 40
0.091421
 50
135.0
 51
225.0
  0
ARC
  5
B25C
  8
ALPHA
 10
93.435418
 20
45.838962
 30
0.0
 40
0.091421
 50
135.0
 51
225.0
  0
ARC
  5
B25D
  8
ALPHA
 10
93.435418
 20
44.838962
 30
0.0
 40
0.091421
 50
135.0
 51
225.0
  0
ARC
  5
B25E
  8
ALPHA
 10
93.435418
 20
43.838962
 30
0.0
 40
0.091421
 50
135.0
 51
225.0
  0
ARC
  5
B25F
  8
ALPHA
 10
93.435418
 20
42.838962
 30
0.0
 40
0.091421
 50
135.0
 51
225.0
  0
ARC
  5
B260
  8
ALPHA
 10
93.435418
 20
41.838962
 30
0.0
 40
0.091421
 50
135.0
 51
225.0
  0
LINE
  5
B261
  8
ALPHA
 10
93.700062
 20
42.232896
 30
0.0
 11
93.370773
 21
41.903607
 31
0.0
  0
LINE
  5
B262
  8
ALPHA
 10
93.700062
 20
43.232896
 30
0.0
 11
93.370773
 21
42.903607
 31
0.0
  0
LINE
  5
B263
  8
ALPHA
 10
93.700062
 20
44.232896
 30
0.0
 11
93.370773
 21
43.903607
 31
0.0
  0
LINE
  5
B264
  8
ALPHA
 10
93.700062
 20
45.232896
 30
0.0
 11
93.370773
 21
44.903607
 31
0.0
  0
LINE
  5
B265
  8
ALPHA
 10
93.700062
 20
46.232896
 30
0.0
 11
93.370773
 21
45.903607
 31
0.0
  0
LINE
  5
B266
  8
ALPHA
 10
93.370773
 20
46.774318
 30
0.0
 11
93.700062
 21
46.445028
 31
0.0
  0
LINE
  5
B267
  8
ALPHA
 10
93.370773
 20
45.774318
 30
0.0
 11
93.700062
 21
45.445028
 31
0.0
  0
LINE
  5
B268
  8
ALPHA
 10
93.370773
 20
44.774318
 30
0.0
 11
93.700062
 21
44.445028
 31
0.0
  0
LINE
  5
B269
  8
ALPHA
 10
93.370773
 20
43.774318
 30
0.0
 11
93.700062
 21
43.445028
 31
0.0
  0
LINE
  5
B26A
  8
ALPHA
 10
93.370773
 20
42.774318
 30
0.0
 11
93.700062
 21
42.445028
 31
0.0
  0
LINE
  5
B26B
  8
ALPHA
 10
93.370773
 20
41.774318
 30
0.0
 11
93.700062
 21
41.445028
 31
0.0
  0
ARC
  5
B26C
  8
ALPHA
 10
93.435418
 20
52.838962
 30
0.0
 40
0.091421
 50
135.0
 51
225.0
  0
ARC
  5
B26D
  8
ALPHA
 10
93.593996
 20
52.338962
 30
0.0
 40
0.15
 50
315.0
 51
45.0
  0
ARC
  5
B26E
  8
ALPHA
 10
93.593996
 20
51.338962
 30
0.0
 40
0.15
 50
315.0
 51
45.0
  0
ARC
  5
B26F
  8
ALPHA
 10
93.593996
 20
50.338962
 30
0.0
 40
0.15
 50
315.0
 51
45.0
  0
ARC
  5
B270
  8
ALPHA
 10
93.593996
 20
49.338962
 30
0.0
 40
0.15
 50
315.0
 51
45.0
  0
ARC
  5
B271
  8
ALPHA
 10
93.593996
 20
48.338962
 30
0.0
 40
0.15
 50
315.0
 51
45.0
  0
ARC
  5
B272
  8
ALPHA
 10
93.593996
 20
47.338962
 30
0.0
 40
0.15
 50
315.0
 51
45.0
  0
ARC
  5
B273
  8
ALPHA
 10
93.435418
 20
51.838962
 30
0.0
 40
0.091421
 50
135.0
 51
225.0
  0
ARC
  5
B274
  8
ALPHA
 10
93.435418
 20
50.838962
 30
0.0
 40
0.091421
 50
135.0
 51
225.0
  0
ARC
  5
B275
  8
ALPHA
 10
93.435418
 20
49.838962
 30
0.0
 40
0.091421
 50
135.0
 51
225.0
  0
ARC
  5
B276
  8
ALPHA
 10
93.435418
 20
48.838962
 30
0.0
 40
0.091421
 50
135.0
 51
225.0
  0
ARC
  5
B277
  8
ALPHA
 10
93.435418
 20
47.838962
 30
0.0
 40
0.091421
 50
135.0
 51
225.0
  0
LINE
  5
B278
  8
ALPHA
 10
93.700062
 20
48.232896
 30
0.0
 11
93.370773
 21
47.903607
 31
0.0
  0
LINE
  5
B279
  8
ALPHA
 10
93.700062
 20
49.232896
 30
0.0
 11
93.370773
 21
48.903607
 31
0.0
  0
LINE
  5
B27A
  8
ALPHA
 10
93.700062
 20
50.232896
 30
0.0
 11
93.370773
 21
49.903607
 31
0.0
  0
LINE
  5
B27B
  8
ALPHA
 10
93.700062
 20
51.232896
 30
0.0
 11
93.370773
 21
50.903607
 31
0.0
  0
LINE
  5
B27C
  8
ALPHA
 10
93.700062
 20
52.232896
 30
0.0
 11
93.370773
 21
51.903607
 31
0.0
  0
LINE
  5
B27D
  8
ALPHA
 10
93.370773
 20
52.774318
 30
0.0
 11
93.700062
 21
52.445028
 31
0.0
  0
LINE
  5
B27E
  8
ALPHA
 10
93.370773
 20
51.774318
 30
0.0
 11
93.700062
 21
51.445028
 31
0.0
  0
LINE
  5
B27F
  8
ALPHA
 10
93.370773
 20
50.774318
 30
0.0
 11
93.700062
 21
50.445028
 31
0.0
  0
LINE
  5
B280
  8
ALPHA
 10
93.370773
 20
49.774318
 30
0.0
 11
93.700062
 21
49.445028
 31
0.0
  0
LINE
  5
B281
  8
ALPHA
 10
93.370773
 20
48.774318
 30
0.0
 11
93.700062
 21
48.445028
 31
0.0
  0
LINE
  5
B282
  8
ALPHA
 10
93.370773
 20
47.774318
 30
0.0
 11
93.700062
 21
47.445028
 31
0.0
  0
ARC
  5
B283
  8
ALPHA
 10
93.593996
 20
58.338962
 30
0.0
 40
0.15
 50
315.0
 51
45.0
  0
ARC
  5
B284
  8
ALPHA
 10
93.593996
 20
57.338962
 30
0.0
 40
0.15
 50
315.0
 51
45.0
  0
ARC
  5
B285
  8
ALPHA
 10
93.593996
 20
56.338962
 30
0.0
 40
0.15
 50
315.0
 51
45.0
  0
ARC
  5
B286
  8
ALPHA
 10
93.593996
 20
55.338962
 30
0.0
 40
0.15
 50
315.0
 51
45.0
  0
ARC
  5
B287
  8
ALPHA
 10
93.593996
 20
54.338962
 30
0.0
 40
0.15
 50
315.0
 51
45.0
  0
ARC
  5
B288
  8
ALPHA
 10
93.593996
 20
53.338962
 30
0.0
 40
0.15
 50
315.0
 51
45.0
  0
ARC
  5
B289
  8
ALPHA
 10
93.435418
 20
57.838962
 30
0.0
 40
0.091421
 50
135.0
 51
225.0
  0
ARC
  5
B28A
  8
ALPHA
 10
93.435418
 20
56.838962
 30
0.0
 40
0.091421
 50
135.0
 51
225.0
  0
ARC
  5
B28B
  8
ALPHA
 10
93.435418
 20
55.838962
 30
0.0
 40
0.091421
 50
135.0
 51
225.0
  0
ARC
  5
B28C
  8
ALPHA
 10
93.435418
 20
54.838962
 30
0.0
 40
0.091421
 50
135.0
 51
225.0
  0
ARC
  5
B28D
  8
ALPHA
 10
93.435418
 20
53.838962
 30
0.0
 40
0.091421
 50
135.0
 51
225.0
  0
LINE
  5
B28E
  8
ALPHA
 10
93.700062
 20
53.232896
 30
0.0
 11
93.370773
 21
52.903607
 31
0.0
  0
LINE
  5
B28F
  8
ALPHA
 10
93.700062
 20
54.232896
 30
0.0
 11
93.370773
 21
53.903607
 31
0.0
  0
LINE
  5
B290
  8
ALPHA
 10
93.700062
 20
55.232896
 30
0.0
 11
93.370773
 21
54.903607
 31
0.0
  0
LINE
  5
B291
  8
ALPHA
 10
93.700062
 20
56.232896
 30
0.0
 11
93.370773
 21
55.903607
 31
0.0
  0
LINE
  5
B292
  8
ALPHA
 10
93.700062
 20
57.232896
 30
0.0
 11
93.370773
 21
56.903607
 31
0.0
  0
LINE
  5
B293
  8
ALPHA
 10
93.700062
 20
58.232896
 30
0.0
 11
93.370773
 21
57.903607
 31
0.0
  0
LINE
  5
B294
  8
ALPHA
 10
93.370773
 20
57.774318
 30
0.0
 11
93.700062
 21
57.445028
 31
0.0
  0
LINE
  5
B295
  8
ALPHA
 10
93.370773
 20
56.774318
 30
0.0
 11
93.700062
 21
56.445028
 31
0.0
  0
LINE
  5
B296
  8
ALPHA
 10
93.370773
 20
55.774318
 30
0.0
 11
93.700062
 21
55.445028
 31
0.0
  0
LINE
  5
B297
  8
ALPHA
 10
93.370773
 20
54.774318
 30
0.0
 11
93.700062
 21
54.445028
 31
0.0
  0
LINE
  5
B298
  8
ALPHA
 10
93.370773
 20
53.774318
 30
0.0
 11
93.700062
 21
53.445028
 31
0.0
  0
ARC
  5
B299
  8
ALPHA
 10
93.593996
 20
70.338962
 30
0.0
 40
0.15
 50
315.0
 51
45.0
  0
ARC
  5
B29A
  8
ALPHA
 10
90.243996
 20
73.338962
 30
0.0
 40
4.3
 50
314.200498
 51
315.799502
  0
LINE
  5
B29B
  8
ALPHA
 10
93.451368
 20
70.356213
 30
0.0
 11
93.680316
 21
70.21315
 31
0.0
  0
ARC
  5
B29C
  8
ALPHA
 10
93.393996
 20
64.338962
 30
0.0
 40
0.349999
 50
135.0
 51
180.0
  0
LINE
  5
B29D
  8
ALPHA
 10
93.370773
 20
64.774318
 30
0.0
 11
93.700062
 21
64.445028
 31
0.0
  0
LINE
  5
B29E
  8
ALPHA
 10
93.28793
 20
64.445028
 30
0.0
 11
93.146509
 21
64.58645
 31
0.0
  0
LINE
  5
B29F
  8
ALPHA
 10
93.493996
 20
64.651094
 30
0.0
 11
93.28793
 21
64.445028
 31
0.0
  0
ARC
  5
B2A0
  8
ALPHA
 10
93.593996
 20
64.338962
 30
0.0
 40
0.15
 50
315.0
 51
45.0
  0
ARC
  5
B2A1
  8
ALPHA
 10
93.593996
 20
63.338962
 30
0.0
 40
0.15
 50
315.0
 51
45.0
  0
ARC
  5
B2A2
  8
ALPHA
 10
93.593996
 20
62.338962
 30
0.0
 40
0.15
 50
315.0
 51
45.0
  0
ARC
  5
B2A3
  8
ALPHA
 10
93.593996
 20
61.338962
 30
0.0
 40
0.15
 50
315.0
 51
45.0
  0
ARC
  5
B2A4
  8
ALPHA
 10
93.593996
 20
60.338962
 30
0.0
 40
0.15
 50
315.0
 51
45.0
  0
ARC
  5
B2A5
  8
ALPHA
 10
93.593996
 20
59.338962
 30
0.0
 40
0.15
 50
315.0
 51
45.0
  0
ARC
  5
B2A6
  8
ALPHA
 10
93.435418
 20
63.838962
 30
0.0
 40
0.091421
 50
135.0
 51
225.0
  0
ARC
  5
B2A7
  8
ALPHA
 10
93.435418
 20
62.838962
 30
0.0
 40
0.091421
 50
135.0
 51
225.0
  0
ARC
  5
B2A8
  8
ALPHA
 10
93.435418
 20
61.838962
 30
0.0
 40
0.091421
 50
135.0
 51
225.0
  0
ARC
  5
B2A9
  8
ALPHA
 10
93.435418
 20
60.838962
 30
0.0
 40
0.091421
 50
135.0
 51
225.0
  0
ARC
  5
B2AA
  8
ALPHA
 10
93.435418
 20
59.838962
 30
0.0
 40
0.091421
 50
135.0
 51
225.0
  0
ARC
  5
B2AB
  8
ALPHA
 10
93.435418
 20
58.838962
 30
0.0
 40
0.091421
 50
135.0
 51
225.0
  0
ARC
  5
B2AC
  8
ALPHA
 10
93.393996
 20
64.338962
 30
0.0
 40
0.15
 50
135.0
 51
180.0
  0
ARC
  5
B2AD
  8
ALPHA
 10
90.243996
 20
73.338962
 30
0.0
 40
10.0
 50
286.448613
 51
288.098365
  0
LINE
  5
B2AE
  8
ALPHA
 10
93.700062
 20
59.232896
 30
0.0
 11
93.370773
 21
58.903607
 31
0.0
  0
LINE
  5
B2AF
  8
ALPHA
 10
93.700062
 20
60.232896
 30
0.0
 11
93.370773
 21
59.903607
 31
0.0
  0
LINE
  5
B2B0
  8
ALPHA
 10
93.700062
 20
61.232896
 30
0.0
 11
93.370773
 21
60.903607
 31
0.0
  0
LINE
  5
B2B1
  8
ALPHA
 10
93.700062
 20
62.232896
 30
0.0
 11
93.370773
 21
61.903607
 31
0.0
  0
LINE
  5
B2B2
  8
ALPHA
 10
93.370773
 20
63.774318
 30
0.0
 11
93.700062
 21
63.445028
 31
0.0
  0
LINE
  5
B2B3
  8
ALPHA
 10
93.370773
 20
62.774318
 30
0.0
 11
93.700062
 21
62.445028
 31
0.0
  0
LINE
  5
B2B4
  8
ALPHA
 10
93.700062
 20
63.232896
 30
0.0
 11
93.370773
 21
62.903607
 31
0.0
  0
LINE
  5
B2B5
  8
ALPHA
 10
93.700062
 20
64.232896
 30
0.0
 11
93.370773
 21
63.903607
 31
0.0
  0
LINE
  5
B2B6
  8
ALPHA
 10
93.243996
 20
64.338962
 30
0.0
 11
93.243996
 21
64.125409
 31
0.0
  0
LINE
  5
B2B7
  8
ALPHA
 10
93.043996
 20
64.338962
 30
0.0
 11
93.043996
 21
63.689769
 31
0.0
  0
LINE
  5
B2B8
  8
ALPHA
 10
93.370773
 20
61.774318
 30
0.0
 11
93.700062
 21
61.445028
 31
0.0
  0
LINE
  5
B2B9
  8
ALPHA
 10
93.370773
 20
60.774318
 30
0.0
 11
93.700062
 21
60.445028
 31
0.0
  0
LINE
  5
B2BA
  8
ALPHA
 10
93.370773
 20
59.774318
 30
0.0
 11
93.700062
 21
59.445028
 31
0.0
  0
LINE
  5
B2BB
  8
ALPHA
 10
93.243996
 20
64.338962
 30
0.0
 11
93.043996
 21
64.338962
 31
0.0
  0
ARC
  5
B2BC
  8
ALPHA
 10
93.593996
 20
69.338962
 30
0.0
 40
0.15
 50
315.0
 51
45.0
  0
ARC
  5
B2BD
  8
ALPHA
 10
93.593996
 20
68.338962
 30
0.0
 40
0.15
 50
315.0
 51
45.0
  0
ARC
  5
B2BE
  8
ALPHA
 10
93.593996
 20
67.338962
 30
0.0
 40
0.15
 50
315.0
 51
45.0
  0
ARC
  5
B2BF
  8
ALPHA
 10
93.593996
 20
66.338962
 30
0.0
 40
0.15
 50
315.0
 51
45.0
  0
ARC
  5
B2C0
  8
ALPHA
 10
93.593996
 20
65.338962
 30
0.0
 40
0.15
 50
315.0
 51
45.0
  0
ARC
  5
B2C1
  8
ALPHA
 10
93.435418
 20
69.838962
 30
0.0
 40
0.091421
 50
135.0
 51
225.0
  0
ARC
  5
B2C2
  8
ALPHA
 10
93.435418
 20
68.838962
 30
0.0
 40
0.091421
 50
135.0
 51
225.0
  0
ARC
  5
B2C3
  8
ALPHA
 10
93.435418
 20
67.838962
 30
0.0
 40
0.091421
 50
135.0
 51
225.0
  0
ARC
  5
B2C4
  8
ALPHA
 10
93.435418
 20
66.838962
 30
0.0
 40
0.091421
 50
135.0
 51
225.0
  0
ARC
  5
B2C5
  8
ALPHA
 10
93.435418
 20
65.838962
 30
0.0
 40
0.091421
 50
135.0
 51
225.0
  0
ARC
  5
B2C6
  8
ALPHA
 10
93.435418
 20
64.838962
 30
0.0
 40
0.091421
 50
135.0
 51
225.0
  0
ARC
  5
B2C7
  8
ALPHA
 10
93.393996
 20
67.338962
 30
0.0
 40
0.35
 50
135.0
 51
225.0
  0
ARC
  5
B2C8
  8
ALPHA
 10
93.393996
 20
65.338962
 30
0.0
 40
0.35
 50
135.0
 51
225.0
  0
ARC
  5
B2C9
  8
ALPHA
 10
93.393996
 20
68.338962
 30
0.0
 40
0.35
 50
180.0
 51
225.0
  0
ARC
  5
B2CA
  8
ALPHA
 10
93.393996
 20
66.338962
 30
0.0
 40
0.35
 50
135.0
 51
225.0
  0
ARC
  5
B2CB
  8
ALPHA
 10
93.393996
 20
65.338962
 30
0.0
 40
0.15
 50
135.0
 51
225.0
  0
ARC
  5
B2CC
  8
ALPHA
 10
93.393996
 20
66.338962
 30
0.0
 40
0.15
 50
135.0
 51
225.0
  0
ARC
  5
B2CD
  8
ALPHA
 10
93.393996
 20
67.338962
 30
0.0
 40
0.15
 50
135.0
 51
225.0
  0
ARC
  5
B2CE
  8
ALPHA
 10
93.393996
 20
68.338962
 30
0.0
 40
0.15
 50
180.0
 51
225.0
  0
ARC
  5
B2CF
  8
ALPHA
 10
93.31155
 20
70.184582
 30
0.0
 40
0.1
 50
134.200498
 51
212.0
  0
ARC
  5
B2D0
  8
ALPHA
 10
93.379931
 20
69.509026
 30
0.0
 40
0.2
 50
309.310464
 51
22.793772
  0
ARC
  5
B2D1
  8
ALPHA
 10
90.243996
 20
73.338962
 30
0.0
 40
5.15
 50
305.689551
 51
309.310464
  0
ARC
  5
B2D2
  8
ALPHA
 10
93.131791
 20
69.318621
 30
0.0
 40
0.2
 50
223.0
 51
305.689918
  0
ARC
  5
B2D3
  8
ALPHA
 10
92.496952
 20
69.559519
 30
0.0
 40
0.1
 50
43.0
 51
120.799502
  0
ARC
  5
B2D4
  8
ALPHA
 10
90.243996
 20
73.338962
 30
0.0
 40
4.3
 50
299.200498
 51
300.799502
  0
ARC
  5
B2D5
  8
ALPHA
 10
92.390612
 20
69.498124
 30
0.0
 40
0.1
 50
119.200498
 51
197.0
  0
ARC
  5
B2D6
  8
ALPHA
 10
92.281816
 20
68.827888
 30
0.0
 40
0.2
 50
294.303478
 51
17.0
  0
ARC
  5
B2D7
  8
ALPHA
 10
90.243996
 20
73.338962
 30
0.0
 40
5.15
 50
290.689802
 51
294.310193
  0
ARC
  5
B2D8
  8
ALPHA
 10
91.992851
 20
68.708195
 30
0.0
 40
0.2
 50
208.0
 51
290.696379
  0
LINE
  5
B2D9
  8
ALPHA
 10
93.369645
 20
69.902902
 30
0.0
 11
93.226745
 21
70.13159
 31
0.0
  0
LINE
  5
B2DA
  8
ALPHA
 10
92.570087
 20
69.627719
 30
0.0
 11
92.98552
 21
69.182222
 31
0.0
  0
LINE
  5
B2DB
  8
ALPHA
 10
93.370773
 20
69.774318
 30
0.0
 11
93.700062
 21
69.445028
 31
0.0
  0
LINE
  5
B2DC
  8
ALPHA
 10
93.370773
 20
68.774318
 30
0.0
 11
93.700062
 21
68.445028
 31
0.0
  0
LINE
  5
B2DD
  8
ALPHA
 10
93.493996
 20
68.02683
 30
0.0
 11
93.28793
 21
68.232896
 31
0.0
  0
LINE
  5
B2DE
  8
ALPHA
 10
93.352575
 20
67.885409
 30
0.0
 11
93.146509
 21
68.091475
 31
0.0
  0
LINE
  5
B2DF
  8
ALPHA
 10
93.370773
 20
67.774318
 30
0.0
 11
93.700062
 21
67.445028
 31
0.0
  0
LINE
  5
B2E0
  8
ALPHA
 10
93.146509
 20
67.58645
 30
0.0
 11
93.28793
 21
67.445028
 31
0.0
  0
LINE
  5
B2E1
  8
ALPHA
 10
93.493996
 20
67.02683
 30
0.0
 11
93.28793
 21
67.232896
 31
0.0
  0
LINE
  5
B2E2
  8
ALPHA
 10
92.473077
 20
68.886362
 30
0.0
 11
92.294982
 21
69.468887
 31
0.0
  0
LINE
  5
B2E3
  8
ALPHA
 10
93.352575
 20
66.885409
 30
0.0
 11
93.146509
 21
67.091475
 31
0.0
  0
LINE
  5
B2E4
  8
ALPHA
 10
93.370773
 20
66.774318
 30
0.0
 11
93.700062
 21
66.445028
 31
0.0
  0
LINE
  5
B2E5
  8
ALPHA
 10
93.146509
 20
66.58645
 30
0.0
 11
93.28793
 21
66.445028
 31
0.0
  0
LINE
  5
B2E6
  8
ALPHA
 10
93.493996
 20
66.02683
 30
0.0
 11
93.28793
 21
66.232896
 31
0.0
  0
LINE
  5
B2E7
  8
ALPHA
 10
93.352575
 20
65.885409
 30
0.0
 11
93.146509
 21
66.091475
 31
0.0
  0
LINE
  5
B2E8
  8
ALPHA
 10
93.370773
 20
65.774318
 30
0.0
 11
93.700062
 21
65.445028
 31
0.0
  0
LINE
  5
B2E9
  8
ALPHA
 10
93.146509
 20
65.58645
 30
0.0
 11
93.28793
 21
65.445028
 31
0.0
  0
LINE
  5
B2EA
  8
ALPHA
 10
93.493996
 20
65.02683
 30
0.0
 11
93.28793
 21
65.232896
 31
0.0
  0
LINE
  5
B2EB
  8
ALPHA
 10
93.352575
 20
64.885409
 30
0.0
 11
93.146509
 21
65.091475
 31
0.0
  0
LINE
  5
B2EC
  8
ALPHA
 10
92.535284
 20
68.338962
 30
0.0
 11
93.243996
 21
68.338962
 31
0.0
  0
LINE
  5
B2ED
  8
ALPHA
 10
93.352575
 20
64.792516
 30
0.0
 11
93.146509
 21
64.58645
 31
0.0
  0
LINE
  5
B2EE
  8
ALPHA
 10
93.700062
 20
65.232896
 30
0.0
 11
93.370773
 21
64.903607
 31
0.0
  0
LINE
  5
B2EF
  8
ALPHA
 10
93.146509
 20
65.091475
 30
0.0
 11
93.28793
 21
65.232896
 31
0.0
  0
LINE
  5
B2F0
  8
ALPHA
 10
93.28793
 20
65.445028
 30
0.0
 11
93.493996
 21
65.651094
 31
0.0
  0
LINE
  5
B2F1
  8
ALPHA
 10
93.146509
 20
65.58645
 30
0.0
 11
93.352575
 21
65.792516
 31
0.0
  0
LINE
  5
B2F2
  8
ALPHA
 10
93.700062
 20
66.232896
 30
0.0
 11
93.370773
 21
65.903607
 31
0.0
  0
LINE
  5
B2F3
  8
ALPHA
 10
93.146509
 20
66.091475
 30
0.0
 11
93.28793
 21
66.232896
 31
0.0
  0
LINE
  5
B2F4
  8
ALPHA
 10
93.28793
 20
66.445028
 30
0.0
 11
93.493996
 21
66.651094
 31
0.0
  0
LINE
  5
B2F5
  8
ALPHA
 10
93.146509
 20
66.58645
 30
0.0
 11
93.352575
 21
66.792516
 31
0.0
  0
LINE
  5
B2F6
  8
ALPHA
 10
93.700062
 20
67.232896
 30
0.0
 11
93.370773
 21
66.903607
 31
0.0
  0
LINE
  5
B2F7
  8
ALPHA
 10
93.146509
 20
67.091475
 30
0.0
 11
93.28793
 21
67.232896
 31
0.0
  0
LINE
  5
B2F8
  8
ALPHA
 10
93.28793
 20
67.445028
 30
0.0
 11
93.493996
 21
67.651094
 31
0.0
  0
LINE
  5
B2F9
  8
ALPHA
 10
93.146509
 20
67.58645
 30
0.0
 11
93.352575
 21
67.792516
 31
0.0
  0
LINE
  5
B2FA
  8
ALPHA
 10
93.700062
 20
68.232896
 30
0.0
 11
93.370773
 21
67.903607
 31
0.0
  0
LINE
  5
B2FB
  8
ALPHA
 10
93.146509
 20
68.091475
 30
0.0
 11
93.28793
 21
68.232896
 31
0.0
  0
LINE
  5
B2FC
  8
ALPHA
 10
93.700062
 20
69.232896
 30
0.0
 11
93.370773
 21
68.903607
 31
0.0
  0
LINE
  5
B2FD
  8
ALPHA
 10
93.700062
 20
70.232896
 30
0.0
 11
93.370773
 21
69.903607
 31
0.0
  0
LINE
  5
B2FE
  8
ALPHA
 10
93.700062
 20
76.232896
 30
0.0
 11
93.370773
 21
75.903607
 31
0.0
  0
ARC
  5
B2FF
  8
ALPHA
 10
93.593996
 20
75.338962
 30
0.0
 40
0.15
 50
315.0
 51
45.0
  0
ARC
  5
B300
  8
ALPHA
 10
93.593996
 20
74.338962
 30
0.0
 40
0.15
 50
315.0
 51
45.0
  0
ARC
  5
B301
  8
ALPHA
 10
93.593996
 20
73.338962
 30
0.0
 40
0.15
 50
315.0
 51
45.0
  0
ARC
  5
B302
  8
ALPHA
 10
93.593996
 20
72.338962
 30
0.0
 40
0.15
 50
315.0
 51
45.0
  0
ARC
  5
B303
  8
ALPHA
 10
93.593996
 20
71.338962
 30
0.0
 40
0.15
 50
315.0
 51
45.0
  0
ARC
  5
B304
  8
ALPHA
 10
93.435418
 20
75.838962
 30
0.0
 40
0.091421
 50
135.0
 51
225.0
  0
ARC
  5
B305
  8
ALPHA
 10
93.435418
 20
74.838962
 30
0.0
 40
0.091421
 50
135.0
 51
225.0
  0
ARC
  5
B306
  8
ALPHA
 10
93.435418
 20
73.838962
 30
0.0
 40
0.091421
 50
135.0
 51
225.0
  0
ARC
  5
B307
  8
ALPHA
 10
93.435418
 20
72.838962
 30
0.0
 40
0.091421
 50
135.0
 51
225.0
  0
ARC
  5
B308
  8
ALPHA
 10
93.435418
 20
71.838962
 30
0.0
 40
0.091421
 50
135.0
 51
225.0
  0
ARC
  5
B309
  8
ALPHA
 10
93.435418
 20
70.838962
 30
0.0
 40
0.091421
 50
135.0
 51
225.0
  0
ARC
  5
B30A
  8
ALPHA
 10
93.398376
 20
70.271408
 30
0.0
 40
0.1
 50
58.0
 51
135.799502
  0
LINE
  5
B30B
  8
ALPHA
 10
93.370773
 20
75.774318
 30
0.0
 11
93.700062
 21
75.445028
 31
0.0
  0
LINE
  5
B30C
  8
ALPHA
 10
93.370773
 20
74.774318
 30
0.0
 11
93.700062
 21
74.445028
 31
0.0
  0
LINE
  5
B30D
  8
ALPHA
 10
93.370773
 20
73.774318
 30
0.0
 11
93.700062
 21
73.445028
 31
0.0
  0
LINE
  5
B30E
  8
ALPHA
 10
93.370773
 20
72.774318
 30
0.0
 11
93.700062
 21
72.445028
 31
0.0
  0
LINE
  5
B30F
  8
ALPHA
 10
93.370773
 20
71.774318
 30
0.0
 11
93.700062
 21
71.445028
 31
0.0
  0
LINE
  5
B310
  8
ALPHA
 10
93.370773
 20
70.774318
 30
0.0
 11
93.700062
 21
70.445028
 31
0.0
  0
LINE
  5
B311
  8
ALPHA
 10
93.700062
 20
71.232896
 30
0.0
 11
93.370773
 21
70.903607
 31
0.0
  0
LINE
  5
B312
  8
ALPHA
 10
93.700062
 20
72.232896
 30
0.0
 11
93.370773
 21
71.903607
 31
0.0
  0
LINE
  5
B313
  8
ALPHA
 10
93.700062
 20
73.232896
 30
0.0
 11
93.370773
 21
72.903607
 31
0.0
  0
LINE
  5
B314
  8
ALPHA
 10
93.700062
 20
74.232896
 30
0.0
 11
93.370773
 21
73.903607
 31
0.0
  0
LINE
  5
B315
  8
ALPHA
 10
93.700062
 20
75.232896
 30
0.0
 11
93.370773
 21
74.903607
 31
0.0
  0
ARC
  5
B316
  8
ALPHA
 10
93.593996
 20
81.338962
 30
0.0
 40
0.15
 50
315.0
 51
45.0
  0
ARC
  5
B317
  8
ALPHA
 10
93.593996
 20
80.338962
 30
0.0
 40
0.15
 50
315.0
 51
45.0
  0
ARC
  5
B318
  8
ALPHA
 10
93.593996
 20
79.338962
 30
0.0
 40
0.15
 50
315.0
 51
45.0
  0
ARC
  5
B319
  8
ALPHA
 10
93.593996
 20
78.338962
 30
0.0
 40
0.15
 50
315.0
 51
45.0
  0
ARC
  5
B31A
  8
ALPHA
 10
93.593996
 20
77.338962
 30
0.0
 40
0.15
 50
315.0
 51
45.0
  0
ARC
  5
B31B
  8
ALPHA
 10
93.593996
 20
76.338962
 30
0.0
 40
0.15
 50
315.0
 51
45.0
  0
ARC
  5
B31C
  8
ALPHA
 10
93.435418
 20
80.838962
 30
0.0
 40
0.091421
 50
135.0
 51
225.0
  0
ARC
  5
B31D
  8
ALPHA
 10
93.435418
 20
79.838962
 30
0.0
 40
0.091421
 50
135.0
 51
225.0
  0
ARC
  5
B31E
  8
ALPHA
 10
93.435418
 20
78.838962
 30
0.0
 40
0.091421
 50
135.0
 51
225.0
  0
ARC
  5
B31F
  8
ALPHA
 10
93.435418
 20
77.838962
 30
0.0
 40
0.091421
 50
135.0
 51
225.0
  0
ARC
  5
B320
  8
ALPHA
 10
93.435418
 20
76.838962
 30
0.0
 40
0.091421
 50
135.0
 51
225.0
  0
ARC
  5
B321
  8
ALPHA
 10
93.393996
 20
78.338962
 30
0.0
 40
0.35
 50
135.0
 51
180.0
  0
ARC
  5
B322
  8
ALPHA
 10
93.393996
 20
79.338962
 30
0.0
 40
0.35
 50
135.0
 51
225.0
  0
ARC
  5
B323
  8
ALPHA
 10
93.393996
 20
80.338962
 30
0.0
 40
0.35
 50
135.0
 51
225.0
  0
ARC
  5
B324
  8
ALPHA
 10
93.393996
 20
81.338962
 30
0.0
 40
0.35
 50
135.0
 51
225.0
  0
ARC
  5
B325
  8
ALPHA
 10
93.393996
 20
78.338962
 30
0.0
 40
0.15
 50
135.0
 51
180.0
  0
ARC
  5
B326
  8
ALPHA
 10
93.393996
 20
79.338962
 30
0.0
 40
0.15
 50
135.0
 51
225.0
  0
ARC
  5
B327
  8
ALPHA
 10
93.393996
 20
80.338962
 30
0.0
 40
0.15
 50
135.0
 51
225.0
  0
ARC
  5
B328
  8
ALPHA
 10
93.393996
 20
81.338962
 30
0.0
 40
0.15
 50
135.0
 51
225.0
  0
ARC
  5
B329
  8
ALPHA
 10
93.398376
 20
76.406516
 30
0.0
 40
0.1
 50
224.200498
 51
302.0
  0
ARC
  5
B32A
  8
ALPHA
 10
91.992851
 20
77.96973
 30
0.0
 40
0.2
 50
69.303621
 51
152.0
  0
ARC
  5
B32B
  8
ALPHA
 10
90.243996
 20
73.338962
 30
0.0
 40
5.15
 50
65.689807
 51
69.310198
  0
ARC
  5
B32C
  8
ALPHA
 10
92.281816
 20
77.850036
 30
0.0
 40
0.2
 50
343.0
 51
65.696522
  0
ARC
  5
B32D
  8
ALPHA
 10
92.390612
 20
77.179801
 30
0.0
 40
0.1
 50
163.0
 51
240.799502
  0
ARC
  5
B32E
  8
ALPHA
 10
90.243996
 20
73.338962
 30
0.0
 40
4.3
 50
59.200498
 51
60.799502
  0
ARC
  5
B32F
  8
ALPHA
 10
92.496952
 20
77.118405
 30
0.0
 40
0.1
 50
239.200498
 51
317.0
  0
ARC
  5
B330
  8
ALPHA
 10
93.131791
 20
77.359303
 30
0.0
 40
0.2
 50
54.310082
 51
137.0
  0
ARC
  5
B331
  8
ALPHA
 10
90.243996
 20
73.338962
 30
0.0
 40
5.15
 50
50.689536
 51
54.310449
  0
ARC
  5
B332
  8
ALPHA
 10
93.379931
 20
77.168899
 30
0.0
 40
0.2
 50
337.206228
 51
50.689536
  0
ARC
  5
B333
  8
ALPHA
 10
93.31155
 20
76.493342
 30
0.0
 40
0.1
 50
148.0
 51
225.799502
  0
ARC
  5
B334
  8
ALPHA
 10
90.243996
 20
73.338962
 30
0.0
 40
4.3
 50
44.200498
 51
45.799502
  0
LINE
  5
B335
  8
ALPHA
 10
93.370773
 20
81.774318
 30
0.0
 11
93.700062
 21
81.445028
 31
0.0
  0
LINE
  5
B336
  8
ALPHA
 10
93.146509
 20
81.58645
 30
0.0
 11
93.28793
 21
81.445028
 31
0.0
  0
LINE
  5
B337
  8
ALPHA
 10
93.493996
 20
81.02683
 30
0.0
 11
93.28793
 21
81.232896
 31
0.0
  0
LINE
  5
B338
  8
ALPHA
 10
93.352575
 20
80.885409
 30
0.0
 11
93.146509
 21
81.091475
 31
0.0
  0
LINE
  5
B339
  8
ALPHA
 10
93.370773
 20
80.774318
 30
0.0
 11
93.700062
 21
80.445028
 31
0.0
  0
LINE
  5
B33A
  8
ALPHA
 10
93.146509
 20
80.58645
 30
0.0
 11
93.28793
 21
80.445028
 31
0.0
  0
LINE
  5
B33B
  8
ALPHA
 10
93.493996
 20
80.02683
 30
0.0
 11
93.28793
 21
80.232896
 31
0.0
  0
LINE
  5
B33C
  8
ALPHA
 10
93.352575
 20
79.885409
 30
0.0
 11
93.146509
 21
80.091475
 31
0.0
  0
LINE
  5
B33D
  8
ALPHA
 10
93.370773
 20
79.774318
 30
0.0
 11
93.700062
 21
79.445028
 31
0.0
  0
LINE
  5
B33E
  8
ALPHA
 10
93.146509
 20
79.58645
 30
0.0
 11
93.28793
 21
79.445028
 31
0.0
  0
LINE
  5
B33F
  8
ALPHA
 10
93.493996
 20
79.02683
 30
0.0
 11
93.28793
 21
79.232896
 31
0.0
  0
LINE
  5
B340
  8
ALPHA
 10
93.352575
 20
78.885409
 30
0.0
 11
93.146509
 21
79.091475
 31
0.0
  0
LINE
  5
B341
  8
ALPHA
 10
93.370773
 20
78.774318
 30
0.0
 11
93.700062
 21
78.445028
 31
0.0
  0
LINE
  5
B342
  8
ALPHA
 10
93.28793
 20
78.445028
 30
0.0
 11
93.146509
 21
78.58645
 31
0.0
  0
LINE
  5
B343
  8
ALPHA
 10
93.370773
 20
77.774318
 30
0.0
 11
93.700062
 21
77.445028
 31
0.0
  0
LINE
  5
B344
  8
ALPHA
 10
93.243996
 20
78.338962
 30
0.0
 11
92.535284
 21
78.338962
 31
0.0
  0
LINE
  5
B345
  8
ALPHA
 10
93.370773
 20
76.774318
 30
0.0
 11
93.700062
 21
76.445028
 31
0.0
  0
LINE
  5
B346
  8
ALPHA
 10
92.294982
 20
77.209038
 30
0.0
 11
92.473077
 21
77.791562
 31
0.0
  0
LINE
  5
B347
  8
ALPHA
 10
93.700062
 20
77.232896
 30
0.0
 11
93.370773
 21
76.903607
 31
0.0
  0
LINE
  5
B348
  8
ALPHA
 10
93.226745
 20
76.546334
 30
0.0
 11
93.369645
 21
76.775022
 31
0.0
  0
LINE
  5
B349
  8
ALPHA
 10
93.680316
 20
76.464774
 30
0.0
 11
93.451368
 21
76.321711
 31
0.0
  0
LINE
  5
B34A
  8
ALPHA
 10
93.700062
 20
78.232896
 30
0.0
 11
93.370773
 21
77.903607
 31
0.0
  0
LINE
  5
B34B
  8
ALPHA
 10
93.493996
 20
78.651094
 30
0.0
 11
93.28793
 21
78.445028
 31
0.0
  0
LINE
  5
B34C
  8
ALPHA
 10
93.352575
 20
78.792516
 30
0.0
 11
93.146509
 21
78.58645
 31
0.0
  0
LINE
  5
B34D
  8
ALPHA
 10
93.700062
 20
79.232896
 30
0.0
 11
93.370773
 21
78.903607
 31
0.0
  0
LINE
  5
B34E
  8
ALPHA
 10
93.146509
 20
79.091475
 30
0.0
 11
93.28793
 21
79.232896
 31
0.0
  0
LINE
  5
B34F
  8
ALPHA
 10
93.28793
 20
79.445028
 30
0.0
 11
93.493996
 21
79.651094
 31
0.0
  0
LINE
  5
B350
  8
ALPHA
 10
93.146509
 20
79.58645
 30
0.0
 11
93.352575
 21
79.792516
 31
0.0
  0
LINE
  5
B351
  8
ALPHA
 10
93.700062
 20
80.232896
 30
0.0
 11
93.370773
 21
79.903607
 31
0.0
  0
LINE
  5
B352
  8
ALPHA
 10
93.146509
 20
80.091475
 30
0.0
 11
93.28793
 21
80.232896
 31
0.0
  0
LINE
  5
B353
  8
ALPHA
 10
93.28793
 20
80.445028
 30
0.0
 11
93.493996
 21
80.651094
 31
0.0
  0
LINE
  5
B354
  8
ALPHA
 10
93.146509
 20
80.58645
 30
0.0
 11
93.352575
 21
80.792516
 31
0.0
  0
LINE
  5
B355
  8
ALPHA
 10
93.700062
 20
81.232896
 30
0.0
 11
93.370773
 21
80.903607
 31
0.0
  0
LINE
  5
B356
  8
ALPHA
 10
93.146509
 20
81.091475
 30
0.0
 11
93.28793
 21
81.232896
 31
0.0
  0
LINE
  5
B357
  8
ALPHA
 10
93.28793
 20
81.445028
 30
0.0
 11
93.493996
 21
81.651094
 31
0.0
  0
LINE
  5
B358
  8
ALPHA
 10
93.146509
 20
81.58645
 30
0.0
 11
93.352575
 21
81.792516
 31
0.0
  0
LINE
  5
B359
  8
ALPHA
 10
92.98552
 20
77.495703
 30
0.0
 11
92.570087
 21
77.050205
 31
0.0
  0
ARC
  5
B375
  8
ALPHA
 10
90.243996
 20
90.838962
 30
0.0
 40
3.5
 50
6.842628
 51
173.157372
  0
CIRCLE
  5
B376
  8
ALPHA
 10
90.243996
 20
108.338962
 30
0.0
 40
4.25
  0
CIRCLE
  5
B377
  8
ALPHA
 10
90.243996
 20
108.338962
 30
0.0
 40
8.0
  0
ARC
  5
B378
  8
ALPHA
 10
90.243996
 20
81.438962
 30
0.0
 40
3.2
 50
20.364135
 51
159.635865
  0
CIRCLE
  5
B379
  8
ALPHA
 10
90.243996
 20
108.338962
 30
0.0
 40
4.15
  0
LINE
  5
B37A
  8
ALPHA
 10
82.892571
 20
85.351073
 30
0.0
 11
84.975211
 21
102.341779
 31
0.0
  0
ARC
  5
B37B
  8
ALPHA
 10
102.743996
 20
82.91778
 30
0.0
 40
20.0
 50
173.011816
 51
180.0
  0
LINE
  5
B37C
  8
ALPHA
 10
86.78793
 20
87.445028
 30
0.0
 11
87.11722
 21
87.774318
 31
0.0
  0
ARC
  5
B37D
  8
ALPHA
 10
86.893996
 20
87.338962
 30
0.0
 40
0.15
 50
135.0
 51
225.0
  0
ARC
  5
B37E
  8
ALPHA
 10
86.893996
 20
86.338962
 30
0.0
 40
0.15
 50
135.0
 51
225.0
  0
ARC
  5
B37F
  8
ALPHA
 10
86.893996
 20
85.338962
 30
0.0
 40
0.15
 50
135.0
 51
225.0
  0
ARC
  5
B380
  8
ALPHA
 10
86.893996
 20
84.338962
 30
0.0
 40
0.15
 50
135.0
 51
225.0
  0
ARC
  5
B381
  8
ALPHA
 10
86.893996
 20
83.338962
 30
0.0
 40
0.15
 50
135.0
 51
225.0
  0
ARC
  5
B382
  8
ALPHA
 10
86.893996
 20
82.338962
 30
0.0
 40
0.15
 50
135.0
 51
225.0
  0
ARC
  5
B383
  8
ALPHA
 10
87.052575
 20
82.838962
 30
0.0
 40
0.091421
 50
315.0
 51
45.0
  0
ARC
  5
B384
  8
ALPHA
 10
87.052575
 20
83.838962
 30
0.0
 40
0.091421
 50
315.0
 51
45.0
  0
ARC
  5
B385
  8
ALPHA
 10
87.052575
 20
84.838962
 30
0.0
 40
0.091421
 50
315.0
 51
45.0
  0
ARC
  5
B386
  8
ALPHA
 10
87.052575
 20
85.838962
 30
0.0
 40
0.091421
 50
315.0
 51
45.0
  0
ARC
  5
B387
  8
ALPHA
 10
87.052575
 20
86.838962
 30
0.0
 40
0.091421
 50
315.0
 51
45.0
  0
ARC
  5
B388
  8
ALPHA
 10
87.093996
 20
82.338962
 30
0.0
 40
0.349999
 50
315.0
 51
0.0
  0
ARC
  5
B389
  8
ALPHA
 10
87.093996
 20
82.338962
 30
0.0
 40
0.15
 50
315.0
 51
0.0
  0
ARC
  5
B38A
  8
ALPHA
 10
90.243996
 20
73.338962
 30
0.0
 40
10.0
 50
106.448613
 51
108.098365
  0
LINE
  5
B38B
  8
ALPHA
 10
87.243996
 20
82.338962
 30
0.0
 11
87.443996
 21
82.338962
 31
0.0
  0
LINE
  5
B38C
  8
ALPHA
 10
87.11722
 20
86.903607
 30
0.0
 11
86.78793
 21
87.232896
 31
0.0
  0
LINE
  5
B38D
  8
ALPHA
 10
87.11722
 20
85.903607
 30
0.0
 11
86.78793
 21
86.232896
 31
0.0
  0
LINE
  5
B38E
  8
ALPHA
 10
87.11722
 20
84.903607
 30
0.0
 11
86.78793
 21
85.232896
 31
0.0
  0
LINE
  5
B38F
  8
ALPHA
 10
87.11722
 20
83.903607
 30
0.0
 11
86.78793
 21
84.232896
 31
0.0
  0
LINE
  5
B390
  8
ALPHA
 10
87.11722
 20
82.903607
 30
0.0
 11
86.78793
 21
83.232896
 31
0.0
  0
LINE
  5
B391
  8
ALPHA
 10
87.200062
 20
82.232896
 30
0.0
 11
87.341484
 21
82.091475
 31
0.0
  0
LINE
  5
B392
  8
ALPHA
 10
87.11722
 20
81.903607
 30
0.0
 11
86.78793
 21
82.232896
 31
0.0
  0
LINE
  5
B393
  8
ALPHA
 10
87.443996
 20
82.338962
 30
0.0
 11
87.443996
 21
82.988156
 31
0.0
  0
LINE
  5
B394
  8
ALPHA
 10
87.243996
 20
82.338962
 30
0.0
 11
87.243996
 21
82.552515
 31
0.0
  0
LINE
  5
B395
  8
ALPHA
 10
86.993996
 20
82.02683
 30
0.0
 11
87.200062
 21
82.232896
 31
0.0
  0
LINE
  5
B396
  8
ALPHA
 10
86.78793
 20
82.445028
 30
0.0
 11
87.11722
 21
82.774318
 31
0.0
  0
LINE
  5
B397
  8
ALPHA
 10
86.78793
 20
83.445028
 30
0.0
 11
87.11722
 21
83.774318
 31
0.0
  0
LINE
  5
B398
  8
ALPHA
 10
86.78793
 20
84.445028
 30
0.0
 11
87.11722
 21
84.774318
 31
0.0
  0
LINE
  5
B399
  8
ALPHA
 10
86.78793
 20
85.445028
 30
0.0
 11
87.11722
 21
85.774318
 31
0.0
  0
LINE
  5
B39A
  8
ALPHA
 10
86.78793
 20
86.445028
 30
0.0
 11
87.11722
 21
86.774318
 31
0.0
  0
ARC
  5
B39B
  8
ALPHA
 10
86.893996
 20
90.338962
 30
0.0
 40
0.15
 50
135.0
 51
225.0
  0
ARC
  5
B39C
  8
ALPHA
 10
86.893996
 20
89.338962
 30
0.0
 40
0.15
 50
135.0
 51
225.0
  0
ARC
  5
B39D
  8
ALPHA
 10
86.893996
 20
88.338962
 30
0.0
 40
0.15
 50
135.0
 51
225.0
  0
ARC
  5
B39E
  8
ALPHA
 10
87.052575
 20
87.838962
 30
0.0
 40
0.091421
 50
315.0
 51
45.0
  0
ARC
  5
B39F
  8
ALPHA
 10
87.052575
 20
88.838962
 30
0.0
 40
0.091421
 50
315.0
 51
45.0
  0
ARC
  5
B3A0
  8
ALPHA
 10
87.052575
 20
89.838962
 30
0.0
 40
0.091421
 50
315.0
 51
45.0
  0
ARC
  5
B3A1
  8
ALPHA
 10
87.052575
 20
90.838962
 30
0.0
 40
0.091421
 50
315.0
 51
45.0
  0
ARC
  5
B3A2
  8
ALPHA
 10
86.893996
 20
91.338962
 30
0.0
 40
0.15
 50
213.607343
 51
225.0
  0
LINE
  5
B3A3
  8
ALPHA
 10
87.11722
 20
90.903607
 30
0.0
 11
86.78793
 21
91.232896
 31
0.0
  0
LINE
  5
B3A4
  8
ALPHA
 10
87.11722
 20
89.903607
 30
0.0
 11
86.78793
 21
90.232896
 31
0.0
  0
LINE
  5
B3A5
  8
ALPHA
 10
87.11722
 20
88.903607
 30
0.0
 11
86.78793
 21
89.232896
 31
0.0
  0
LINE
  5
B3A6
  8
ALPHA
 10
87.11722
 20
87.903607
 30
0.0
 11
86.78793
 21
88.232896
 31
0.0
  0
LINE
  5
B3A7
  8
ALPHA
 10
86.78793
 20
88.445028
 30
0.0
 11
87.11722
 21
88.774318
 31
0.0
  0
LINE
  5
B3A8
  8
ALPHA
 10
86.78793
 20
89.445028
 30
0.0
 11
87.11722
 21
89.774318
 31
0.0
  0
LINE
  5
B3A9
  8
ALPHA
 10
86.78793
 20
90.445028
 30
0.0
 11
87.11722
 21
90.774318
 31
0.0
  0
ARC
  5
B3AA
  8
ALPHA
 10
90.243996
 20
82.388962
 30
0.0
 40
0.25
 50
14.663584
 51
165.336416
  0
LINE
  5
B3AB
  8
ALPHA
 10
90.593996
 20
82.038962
 30
0.0
 11
90.485853
 21
82.452248
 31
0.0
  0
LINE
  5
B3AC
  8
ALPHA
 10
90.002139
 20
82.452248
 30
0.0
 11
89.893996
 21
82.038962
 31
0.0
  0
LINE
  5
B3AD
  8
ALPHA
 10
86.241084
 20
107.266385
 30
0.0
 11
86.150063
 21
107.241996
 31
0.0
  0
LINE
  5
B3AE
  8
ALPHA
 10
87.238792
 20
105.333758
 30
0.0
 11
87.31698
 21
105.411946
 31
0.0
  0
CIRCLE
  5
B3AF
  8
ALPHA
 10
90.243996
 20
108.338962
 30
0.0
 40
1.0
  0
LINE
  5
B3B0
  8
ALPHA
 10
89.144015
 20
112.444147
 30
0.0
 11
89.171419
 21
112.341875
 31
0.0
  0
LINE
  5
B3B1
  8
ALPHA
 10
91.316573
 20
112.341875
 30
0.0
 11
91.340962
 21
112.432895
 31
0.0
  0
LINE
  5
B3B2
  8
ALPHA
 10
95.512782
 20
102.341779
 30
0.0
 11
97.595421
 21
85.351073
 31
0.0
  0
LINE
  5
B3B3
  8
ALPHA
 10
93.370773
 20
87.774318
 30
0.0
 11
93.700062
 21
87.445028
 31
0.0
  0
ARC
  5
B3B4
  8
ALPHA
 10
93.593996
 20
87.338962
 30
0.0
 40
0.15
 50
315.0
 51
45.0
  0
ARC
  5
B3B5
  8
ALPHA
 10
93.593996
 20
86.338962
 30
0.0
 40
0.15
 50
315.0
 51
45.0
  0
ARC
  5
B3B6
  8
ALPHA
 10
93.593996
 20
85.338962
 30
0.0
 40
0.15
 50
315.0
 51
45.0
  0
ARC
  5
B3B7
  8
ALPHA
 10
93.593996
 20
84.338962
 30
0.0
 40
0.15
 50
315.0
 51
45.0
  0
ARC
  5
B3B8
  8
ALPHA
 10
93.593996
 20
83.338962
 30
0.0
 40
0.15
 50
315.0
 51
45.0
  0
ARC
  5
B3B9
  8
ALPHA
 10
93.593996
 20
82.338962
 30
0.0
 40
0.15
 50
315.0
 51
45.0
  0
ARC
  5
B3BA
  8
ALPHA
 10
93.435418
 20
86.838962
 30
0.0
 40
0.091421
 50
135.0
 51
225.0
  0
ARC
  5
B3BB
  8
ALPHA
 10
93.435418
 20
85.838962
 30
0.0
 40
0.091421
 50
135.0
 51
225.0
  0
ARC
  5
B3BC
  8
ALPHA
 10
93.435418
 20
84.838962
 30
0.0
 40
0.091421
 50
135.0
 51
225.0
  0
ARC
  5
B3BD
  8
ALPHA
 10
93.435418
 20
83.838962
 30
0.0
 40
0.091421
 50
135.0
 51
225.0
  0
ARC
  5
B3BE
  8
ALPHA
 10
93.435418
 20
82.838962
 30
0.0
 40
0.091421
 50
135.0
 51
225.0
  0
ARC
  5
B3BF
  8
ALPHA
 10
93.393996
 20
82.338962
 30
0.0
 40
0.35
 50
180.0
 51
225.0
  0
ARC
  5
B3C0
  8
ALPHA
 10
93.393996
 20
82.338962
 30
0.0
 40
0.15
 50
180.0
 51
225.0
  0
ARC
  5
B3C1
  8
ALPHA
 10
90.243996
 20
73.338962
 30
0.0
 40
10.0
 50
71.901635
 51
73.551387
  0
LINE
  5
B3C2
  8
ALPHA
 10
93.370773
 20
86.774318
 30
0.0
 11
93.700062
 21
86.445028
 31
0.0
  0
LINE
  5
B3C3
  8
ALPHA
 10
93.370773
 20
85.774318
 30
0.0
 11
93.700062
 21
85.445028
 31
0.0
  0
LINE
  5
B3C4
  8
ALPHA
 10
93.370773
 20
84.774318
 30
0.0
 11
93.700062
 21
84.445028
 31
0.0
  0
LINE
  5
B3C5
  8
ALPHA
 10
93.370773
 20
83.774318
 30
0.0
 11
93.700062
 21
83.445028
 31
0.0
  0
LINE
  5
B3C6
  8
ALPHA
 10
93.370773
 20
82.774318
 30
0.0
 11
93.700062
 21
82.445028
 31
0.0
  0
LINE
  5
B3C7
  8
ALPHA
 10
93.493996
 20
82.02683
 30
0.0
 11
93.28793
 21
82.232896
 31
0.0
  0
LINE
  5
B3C8
  8
ALPHA
 10
93.043996
 20
82.338962
 30
0.0
 11
93.243996
 21
82.338962
 31
0.0
  0
LINE
  5
B3C9
  8
ALPHA
 10
93.243996
 20
82.338962
 30
0.0
 11
93.243996
 21
82.552515
 31
0.0
  0
LINE
  5
B3CA
  8
ALPHA
 10
93.043996
 20
82.338962
 30
0.0
 11
93.043996
 21
82.988156
 31
0.0
  0
LINE
  5
B3CB
  8
ALPHA
 10
93.700062
 20
82.232896
 30
0.0
 11
93.370773
 21
81.903607
 31
0.0
  0
LINE
  5
B3CC
  8
ALPHA
 10
93.146509
 20
82.091475
 30
0.0
 11
93.28793
 21
82.232896
 31
0.0
  0
LINE
  5
B3CD
  8
ALPHA
 10
93.700062
 20
83.232896
 30
0.0
 11
93.370773
 21
82.903607
 31
0.0
  0
LINE
  5
B3CE
  8
ALPHA
 10
93.700062
 20
84.232896
 30
0.0
 11
93.370773
 21
83.903607
 31
0.0
  0
LINE
  5
B3CF
  8
ALPHA
 10
93.700062
 20
85.232896
 30
0.0
 11
93.370773
 21
84.903607
 31
0.0
  0
LINE
  5
B3D0
  8
ALPHA
 10
93.700062
 20
86.232896
 30
0.0
 11
93.370773
 21
85.903607
 31
0.0
  0
LINE
  5
B3D1
  8
ALPHA
 10
93.700062
 20
87.232896
 30
0.0
 11
93.370773
 21
86.903607
 31
0.0
  0
ARC
  5
B3D2
  8
ALPHA
 10
93.593996
 20
90.338962
 30
0.0
 40
0.15
 50
315.0
 51
45.0
  0
ARC
  5
B3D3
  8
ALPHA
 10
93.593996
 20
89.338962
 30
0.0
 40
0.15
 50
315.0
 51
45.0
  0
ARC
  5
B3D4
  8
ALPHA
 10
93.593996
 20
88.338962
 30
0.0
 40
0.15
 50
315.0
 51
45.0
  0
ARC
  5
B3D5
  8
ALPHA
 10
93.593996
 20
91.338962
 30
0.0
 40
0.15
 50
315.0
 51
326.392657
  0
ARC
  5
B3D6
  8
ALPHA
 10
93.435418
 20
90.838962
 30
0.0
 40
0.091421
 50
135.0
 51
225.0
  0
ARC
  5
B3D7
  8
ALPHA
 10
93.435418
 20
89.838962
 30
0.0
 40
0.091421
 50
135.0
 51
225.0
  0
ARC
  5
B3D8
  8
ALPHA
 10
93.435418
 20
88.838962
 30
0.0
 40
0.091421
 50
135.0
 51
225.0
  0
ARC
  5
B3D9
  8
ALPHA
 10
93.435418
 20
87.838962
 30
0.0
 40
0.091421
 50
135.0
 51
225.0
  0
LINE
  5
B3DA
  8
ALPHA
 10
93.370773
 20
90.774318
 30
0.0
 11
93.700062
 21
90.445028
 31
0.0
  0
LINE
  5
B3DB
  8
ALPHA
 10
93.370773
 20
89.774318
 30
0.0
 11
93.700062
 21
89.445028
 31
0.0
  0
LINE
  5
B3DC
  8
ALPHA
 10
93.370773
 20
88.774318
 30
0.0
 11
93.700062
 21
88.445028
 31
0.0
  0
LINE
  5
B3DD
  8
ALPHA
 10
93.700062
 20
88.232896
 30
0.0
 11
93.370773
 21
87.903607
 31
0.0
  0
LINE
  5
B3DE
  8
ALPHA
 10
93.700062
 20
89.232896
 30
0.0
 11
93.370773
 21
88.903607
 31
0.0
  0
LINE
  5
B3DF
  8
ALPHA
 10
93.700062
 20
90.232896
 30
0.0
 11
93.370773
 21
89.903607
 31
0.0
  0
LINE
  5
B3E0
  8
ALPHA
 10
93.700062
 20
91.232896
 30
0.0
 11
93.370773
 21
90.903607
 31
0.0
  0
ARC
  5
B3E1
  8
ALPHA
 10
77.743996
 20
82.91778
 30
0.0
 40
20.0
 50
0.0
 51
6.988184
  0
LINE
  5
B3E2
  8
ALPHA
 10
93.171013
 20
105.411946
 30
0.0
 11
93.2492
 21
105.333758
 31
0.0
  0
LINE
  5
B3E3
  8
ALPHA
 10
94.349181
 20
107.238981
 30
0.0
 11
94.246909
 21
107.266385
 31
0.0
  0
LINE
  5
B43D
  8
AXE
 10
77.243996
 20
108.338962
 30
0.0
 11
108.243996
 21
108.338962
 31
0.0
  0
TEXT
  5
B43E
  8
AXE
 10
104.196377
 20
109.338962
 30
0.0
 40
5.0
  1
X
 72
     2
 11
108.243996
 21
109.338962
 31
0.0
  0
LINE
  5
B43F
  8
AXE
 10
90.243996
 20
2.838962
 30
0.0
 11
90.243996
 21
121.338962
 31
0.0
  0
DIMENSION
  5
B440
  8
COTATION1
  2
*D3
 10
98.243996
 20
131.338962
 30
0.0
 11
90.243996
 21
134.588962
 31
0.0
  1
%%c<>
 13
82.243996
 23
108.338962
 33
0.0
 14
98.243996
 24
108.338962
 34
0.0
  0
DIMENSION
  5
B441
  8
COTATION1
  2
*D4
 10
115.423996
 20
12.838962
 30
0.0
 11
115.423996
 21
64.588962
 31
0.0
 13
90.243996
 23
116.338962
 33
0.0
 14
92.743996
 24
12.838962
 34
0.0
 50
90.0
  0
LINE
  5
B442
  8
AXE
 10
80.068107
 20
73.338962
 30
0.0
 11
100.419886
 21
73.338962
 31
0.0
  0
TEXT
  5
B483
  8
AXE
 10
85.196377
 20
2.838962
 30
0.0
 40
5.0
  1
Y
 72
     2
 11
89.243996
 21
2.838962
 31
0.0
  0
VIEWPORT
  5
494D
 67
     1
  8
0
 10
4.995325
 20
6.556512
 30
0.0
 40
22.70986
 41
13.988421
 68
    -1
 69
     1
1001
ACAD
1000
MVIEW
1002
{
1070
    16
1010
0.0
1020
0.0
1030
0.0
1010
0.0
1020
0.0
1030
1.0
1040
0.0
1040
13.988421
1040
4.995325
1040
6.556512
1040
50.0
1040
0.0
1040
0.0
1070
     0
1070
   100
1070
     1
1070
     1
1070
     0
1070
     0
1070
     0
1070
     0
1040
0.0
1040
0.0
1040
0.0
1040
10.0
1040
10.0
1040
10.0
1040
10.0
1070
     0
1002
{
1002
}
1002
}
  0
ENDSEC
  0
EOF
