  0
SECTION
  2
HEADER
  9
$ACADVER
  1
AC1009
  9
$INSBASE
 10
402.590624
 20
-1.041018
 30
0.0
  9
$EXTMIN
 10
86.167886
 20
5.709484
 30
0.0
  9
$EXTMAX
 10
128.216934
 20
77.609484
 30
0.0
  9
$LIMMIN
 10
-407.970438
 20
-367.832444
  9
$LIMMAX
 10
429.804077
 20
234.370848
  9
$ORTHOMODE
 70
     0
  9
$REGENMODE
 70
     1
  9
$FILLMODE
 70
     1
  9
$QTEXTMODE
 70
     0
  9
$MIRRTEXT
 70
     1
  9
$DRAGMODE
 70
     2
  9
$LTSCALE
 40
10.0
  9
$OSMODE
 70
    35
  9
$ATTMODE
 70
     1
  9
$TEXTSIZE
 40
6.0
  9
$TRACEWID
 40
1.0
  9
$TEXTSTYLE
  7
ROMANS
  9
$CLAYER
  8
ALPHA
  9
$CELTYPE
  6
BYLAYER
  9
$CECOLOR
 62
   256
  9
$DIMSCALE
 40
1.0
  9
$DIMASZ
 40
5.0
  9
$DIMEXO
 40
2.0
  9
$DIMDLI
 40
0.38
  9
$DIMRND
 40
0.0
  9
$DIMDLE
 40
0.0
  9
$DIMEXE
 40
2.5
  9
$DIMTP
 40
0.0
  9
$DIMTM
 40
0.0
  9
$DIMTXT
 40
2.5
  9
$DIMCEN
 40
0.0
  9
$DIMTSZ
 40
0.0
  9
$DIMTOL
 70
     0
  9
$DIMLIM
 70
     0
  9
$DIMTIH
 70
     1
  9
$DIMTOH
 70
     1
  9
$DIMSE1
 70
     0
  9
$DIMSE2
 70
     0
  9
$DIMTAD
 70
     1
  9
$DIMZIN
 70
    12
  9
$DIMBLK
  1
OPEN30
  9
$DIMASO
 70
     1
  9
$DIMSHO
 70
     1
  9
$DIMPOST
  1

  9
$DIMAPOST
  1

  9
$DIMALT
 70
     0
  9
$DIMALTD
 70
     2
  9
$DIMALTF
 40
25.4
  9
$DIMLFAC
 40
1.0
  9
$DIMTOFL
 70
     0
  9
$DIMTVP
 40
0.0
  9
$DIMTIX
 70
     0
  9
$DIMSOXD
 70
     0
  9
$DIMSAH
 70
     0
  9
$DIMBLK1
  1

  9
$DIMBLK2
  1

  9
$DIMSTYLE
  2
SC_DEFAUT
  9
$DIMCLRD
 70
     0
  9
$DIMCLRE
 70
     0
  9
$DIMCLRT
 70
     0
  9
$DIMTFAC
 40
1.0
  9
$DIMGAP
 40
2.0
  9
$LUNITS
 70
     2
  9
$LUPREC
 70
     1
  9
$SKETCHINC
 40
0.1
  9
$FILLETRAD
 40
0.0
  9
$AUNITS
 70
     0
  9
$AUPREC
 70
     0
  9
$MENU
  1
acad
  9
$ELEVATION
 40
0.0
  9
$PELEVATION
 40
0.0
  9
$THICKNESS
 40
0.0
  9
$LIMCHECK
 70
     0
  9
$BLIPMODE
 70
     0
  9
$CHAMFERA
 40
0.0
  9
$CHAMFERB
 40
0.0
  9
$SKPOLY
 70
     0
  9
$TDCREATE
 40
2450373.687919
  9
$TDUPDATE
 40
2453032.646144
  9
$TDINDWG
 40
1.098767
  9
$TDUSRTIMER
 40
1.098767
  9
$USRTIMER
 70
     1
  9
$ANGBASE
 50
0.0
  9
$ANGDIR
 70
     0
  9
$PDMODE
 70
    32
  9
$PDSIZE
 40
0.0
  9
$PLINEWID
 40
0.0
  9
$COORDS
 70
     1
  9
$SPLFRAME
 70
     0
  9
$SPLINETYPE
 70
     6
  9
$SPLINESEGS
 70
     8
  9
$ATTDIA
 70
     0
  9
$ATTREQ
 70
     1
  9
$HANDLING
 70
     1
  9
$HANDSEED
  5
AE43
  9
$SURFTAB1
 70
     6
  9
$SURFTAB2
 70
     6
  9
$SURFTYPE
 70
     6
  9
$SURFU
 70
     6
  9
$SURFV
 70
     6
  9
$UCSNAME
  2

  9
$UCSORG
 10
0.0
 20
0.0
 30
0.0
  9
$UCSXDIR
 10
1.0
 20
0.0
 30
0.0
  9
$UCSYDIR
 10
0.0
 20
1.0
 30
0.0
  9
$PUCSNAME
  2

  9
$PUCSORG
 10
0.0
 20
0.0
 30
0.0
  9
$PUCSXDIR
 10
1.0
 20
0.0
 30
0.0
  9
$PUCSYDIR
 10
0.0
 20
1.0
 30
0.0
  9
$USERI1
 70
     0
  9
$USERI2
 70
     0
  9
$USERI3
 70
     0
  9
$USERI4
 70
     0
  9
$USERI5
 70
     0
  9
$USERR1
 40
0.0
  9
$USERR2
 40
0.0
  9
$USERR3
 40
0.0
  9
$USERR4
 40
0.0
  9
$USERR5
 40
0.0
  9
$WORLDVIEW
 70
     1
  9
$SHADEDGE
 70
     3
  9
$SHADEDIF
 70
    70
  9
$TILEMODE
 70
     1
  9
$MAXACTVP
 70
    16
  9
$PLIMCHECK
 70
     0
  9
$PEXTMIN
 10
-1.452248
 20
-0.437698
 30
0.0
  9
$PEXTMAX
 10
12.749749
 20
8.310198
 30
0.0
  9
$PLIMMIN
 10
0.0
 20
0.0
  9
$PLIMMAX
 10
12.0
 20
9.0
  9
$UNITMODE
 70
     0
  9
$VISRETAIN
 70
     0
  9
$PLINEGEN
 70
     0
  9
$PSLTSCALE
 70
     0
  0
ENDSEC
  0
SECTION
  2
TABLES
  0
TABLE
  2
VPORT
 70
     2
  0
VPORT
  2
*ACTIVE
 70
     0
 10
0.0
 20
0.0
 11
1.0
 21
1.0
 12
107.207967
 22
41.652197
 13
0.0
 23
0.0
 14
1.0
 24
1.0
 15
10.0
 25
10.0
 16
0.0
 26
0.0
 36
1.0
 17
0.0
 27
0.0
 37
0.0
 40
72.467272
 41
1.466346
 42
50.0
 43
0.0
 44
0.0
 50
0.0
 51
0.0
 71
     0
 72
   100
 73
     1
 74
     0
 75
     0
 76
     0
 77
     0
 78
     0
  0
ENDTAB
  0
TABLE
  2
LTYPE
 70
     2
  0
LTYPE
  2
CONTINUOUS
 70
     0
  3
Solid line
 72
    65
 73
     0
 40
0.0
  0
LTYPE
  2
AXES2
 70
     0
  3
___ _ ___ _ ___ _ ___ _ ___ _ ___ _ ___ _ ___ _
 72
    65
 73
     4
 40
1.125
 49
0.75
 49
-0.125
 49
0.125
 49
-0.125
  0
ENDTAB
  0
TABLE
  2
LAYER
 70
     5
  0
LAYER
  2
0
 70
     0
 62
   255
  6
CONTINUOUS
  0
LAYER
  2
COTATION1
 70
     0
 62
     2
  6
CONTINUOUS
  0
LAYER
  2
AXE
 70
     0
 62
    80
  6
AXES2
  0
LAYER
  2
DEFPOINTS
 70
     0
 62
     7
  6
CONTINUOUS
  0
LAYER
  2
ALPHA
 70
     0
 62
   254
  6
CONTINUOUS
  0
ENDTAB
  0
TABLE
  2
STYLE
 70
     2
  0
STYLE
  2
ROMANS
 70
     0
 40
0.0
 41
1.0
 50
0.0
 71
     0
 42
6.0
  3
romans
  4

  0
STYLE
  2
STANDARD
 70
     0
 40
0.0
 41
1.0
 50
0.0
 71
     0
 42
0.2
  3
txt
  4

  0
ENDTAB
  0
TABLE
  2
VIEW
 70
     0
  0
ENDTAB
  0
TABLE
  2
UCS
 70
     0
  0
ENDTAB
  0
TABLE
  2
APPID
 70
     1
  0
APPID
  2
ACAD
 70
     0
  0
ENDTAB
  0
TABLE
  2
DIMSTYLE
 70
     2
  0
DIMSTYLE
  2
SC_DEFAUT
 70
     0
  3

  4

  5
OPEN30
  6

  7

 40
1.0
 41
5.0
 42
2.0
 43
0.38
 44
2.5
 45
0.0
 46
0.0
 47
0.0
 48
0.0
140
2.5
141
0.0
142
0.0
143
25.4
144
1.0
145
0.0
146
1.0
147
2.0
 71
     0
 72
     0
 73
     1
 74
     1
 75
     0
 76
     0
 77
     1
 78
    12
170
     0
171
     2
172
     0
173
     0
174
     0
175
     0
176
     0
177
     0
178
     0
  0
DIMSTYLE
  2
STANDARD
 70
     0
  3

  4

  5

  6

  7

 40
1.0
 41
0.18
 42
0.0625
 43
0.38
 44
0.18
 45
0.0
 46
0.0
 47
0.0
 48
0.0
140
0.18
141
0.09
142
0.0
143
25.4
144
1.0
145
0.0
146
1.0
147
0.09
 71
     0
 72
     0
 73
     1
 74
     1
 75
     0
 76
     0
 77
     0
 78
     0
170
     0
171
     2
172
     0
173
     0
174
     0
175
     0
176
     0
177
     0
178
     0
  0
ENDTAB
  0
ENDSEC
  0
SECTION
  2
BLOCKS
  0
BLOCK
  8
0
  2
$MODEL_SPACE
 70
     0
 10
0.0
 20
0.0
 30
0.0
  3
$MODEL_SPACE
  1

  0
ENDBLK
  5
AE3C
  8
0
  0
BLOCK
 67
     1
  8
0
  2
$PAPER_SPACE
 70
     0
 10
0.0
 20
0.0
 30
0.0
  3
$PAPER_SPACE
  1

  0
ENDBLK
  5
AE3A
 67
     1
  8
0
  0
BLOCK
  8
0
  2
COTE
 70
     0
 10
0.0
 20
0.0
 30
0.0
  3
COTE
  1

  0
ENDBLK
  5
F
  8
0
  0
BLOCK
  8
0
  2
FOND
 70
     0
 10
0.0
 20
0.0
 30
0.0
  3
FOND
  1

  0
ENDBLK
  5
75
  8
0
  0
BLOCK
  8
0
  2
_OPEN30
 70
     0
 10
0.0
 20
0.0
 30
0.0
  3
_OPEN30
  1

  0
LINE
  5
4B05
  8
COTATION1
 62
     0
 10
-1.0
 20
0.267949
 30
0.0
 11
0.0
 21
0.0
 31
0.0
1001
ACAD
1000
RTLwPs
1070
   158
  0
LINE
  5
4B06
  8
COTATION1
 62
     0
 10
0.0
 20
0.0
 30
0.0
 11
-1.0
 21
-0.267949
 31
0.0
1001
ACAD
1000
RTLwPs
1070
   158
  0
LINE
  5
4B07
  8
COTATION1
 62
     0
 10
0.0
 20
0.0
 30
0.0
 11
-1.0
 21
0.0
 31
0.0
1001
ACAD
1000
RTLwPs
1070
   158
  0
ENDBLK
  5
4B09
  8
0
  0
BLOCK
  8
0
  2
*D3
 70
     1
 10
0.0
 20
0.0
 30
0.0
  3
*D3
  1

  0
LINE
  5
AD0F
  8
COTATION1
 62
     0
 10
91.167886
 20
52.109484
 30
0.0
 11
91.167886
 21
75.609484
 31
0.0
1001
ACAD
1000
RTLwPs
1070
   158
  0
LINE
  5
AD10
  8
COTATION1
 62
     0
 10
107.167886
 20
52.109484
 30
0.0
 11
107.167886
 21
75.609484
 31
0.0
1001
ACAD
1000
RTLwPs
1070
   158
  0
LINE
  5
AD11
  8
COTATION1
 62
     0
 10
96.167886
 20
73.109484
 30
0.0
 11
102.167886
 21
73.109484
 31
0.0
1001
ACAD
1000
RTLwPs
1070
   158
  0
INSERT
  5
AD12
  8
COTATION1
 62
     0
  2
_OPEN30
 10
91.167886
 20
73.109484
 30
0.0
 41
5.0
 42
5.0
 43
5.0
 50
180.0
1001
ACAD
1000
RTLwPs
1070
   158
  0
INSERT
  5
AD13
  8
COTATION1
 62
     0
  2
_OPEN30
 10
107.167886
 20
73.109484
 30
0.0
 41
5.0
 42
5.0
 43
5.0
1001
ACAD
1000
RTLwPs
1070
   158
  0
TEXT
  5
AD14
  8
COTATION1
 62
     0
 10
95.775029
 20
75.109484
 30
0.0
 40
2.5
  1
%%c
1001
ACAD
1000
MTEXTBEGIN
1070
    73
1070
     1
1070
    44
1040
1.0
1070
    74
1070
     0
1000
MTEXTEND
  0
TEXT
  5
AE0D
  8
COTATION1
 62
     0
 10
98.036934
 20
75.109484
 30
0.0
 40
2.5
  1
16
1001
ACAD
1000
R13OBJECT
1002
{
1005
AD14
1002
}
  0
POINT
  5
AD15
  8
DEFPOINTS
 62
     0
 10
91.167886
 20
50.109484
 30
0.0
  0
POINT
  5
AD16
  8
DEFPOINTS
 62
     0
 10
107.167886
 20
50.109484
 30
0.0
  0
POINT
  5
AD17
  8
DEFPOINTS
 62
     0
 10
107.167886
 20
73.109484
 30
0.0
  0
ENDBLK
  5
97F8
  8
0
  0
BLOCK
  8
0
  2
*D4
 70
     1
 10
0.0
 20
0.0
 30
0.0
  3
*D4
  1

  0
LINE
  5
AD05
  8
COTATION1
 62
     0
 10
101.167886
 20
58.109484
 30
0.0
 11
126.847886
 21
58.109484
 31
0.0
1001
ACAD
1000
RTLwPs
1070
   158
  0
LINE
  5
AD06
  8
COTATION1
 62
     0
 10
101.167886
 20
15.709484
 30
0.0
 11
126.847886
 21
15.709484
 31
0.0
1001
ACAD
1000
RTLwPs
1070
   158
  0
LINE
  5
AD07
  8
COTATION1
 62
     0
 10
124.347886
 20
53.109484
 30
0.0
 11
124.347886
 21
40.159484
 31
0.0
1001
ACAD
1000
RTLwPs
1070
   158
  0
LINE
  5
AD08
  8
COTATION1
 62
     0
 10
124.347886
 20
20.709484
 30
0.0
 11
124.347886
 21
33.659484
 31
0.0
1001
ACAD
1000
RTLwPs
1070
   158
  0
INSERT
  5
AD09
  8
COTATION1
 62
     0
  2
_OPEN30
 10
124.347886
 20
58.109484
 30
0.0
 41
5.0
 42
5.0
 43
5.0
 50
90.0
1001
ACAD
1000
RTLwPs
1070
   158
  0
INSERT
  5
AD0A
  8
COTATION1
 62
     0
  2
_OPEN30
 10
124.347886
 20
15.709484
 30
0.0
 41
5.0
 42
5.0
 43
5.0
 50
270.0
1001
ACAD
1000
RTLwPs
1070
   158
  0
TEXT
  5
AD0B
  8
COTATION1
 62
     0
 10
120.121695
 20
35.659484
 30
0.0
 40
2.5
  1
42.4
1001
ACAD
1000
MTEXTBEGIN
1070
    73
1070
     1
1070
    44
1040
1.0
1070
    74
1070
     0
1000
MTEXTEND
  0
POINT
  5
AD0C
  8
DEFPOINTS
 62
     0
 10
99.167886
 20
58.109484
 30
0.0
  0
POINT
  5
AD0D
  8
DEFPOINTS
 62
     0
 10
99.167886
 20
15.709484
 30
0.0
  0
POINT
  5
AD0E
  8
DEFPOINTS
 62
     0
 10
124.347886
 20
15.709484
 30
0.0
  0
ENDBLK
  5
989A
  8
0
  0
ENDSEC
  0
SECTION
  2
ENTITIES
  0
INSERT
  5
A
  8
0
  2
COTE
 10
0.0
 20
0.0
 30
0.0
  0
INSERT
  5
17
  8
0
  2
COTE
 10
284.010391
 20
6.373258
 30
0.0
  0
INSERT
  5
72
  8
0
  2
FOND
 10
0.0
 20
0.0
 30
0.0
  0
LINE
  5
97AB
  8
AXE
 10
99.167886
 20
5.709484
 30
0.0
 11
99.167886
 21
63.109484
 31
0.0
  0
TEXT
  5
97AC
  8
AXE
 10
94.120267
 20
5.709484
 30
0.0
 40
5.0
  1
Y
 72
     2
 11
98.167886
 21
5.709484
 31
0.0
  0
TEXT
  5
97AF
  8
AXE
 10
113.120267
 20
51.109484
 30
0.0
 40
5.0
  1
X
 72
     2
 11
117.167886
 21
51.109484
 31
0.0
  0
LINE
  5
97B0
  8
AXE
 10
86.167886
 20
50.109484
 30
0.0
 11
117.167886
 21
50.109484
 31
0.0
  0
DIMENSION
  5
97EC
  8
COTATION1
  2
*D3
 10
107.167886
 20
73.109484
 30
0.0
 11
99.167886
 21
76.359484
 31
0.0
  1
%%c<>
 13
91.167886
 23
50.109484
 33
0.0
 14
107.167886
 24
50.109484
 34
0.0
  0
DIMENSION
  5
988B
  8
COTATION1
  2
*D4
 10
124.347886
 20
15.709484
 30
0.0
 11
124.347886
 21
36.909484
 31
0.0
 13
99.167886
 23
58.109484
 33
0.0
 14
99.167886
 24
15.709484
 34
0.0
 50
90.0
  0
LINE
  5
98A5
  8
AXE
 10
88.991997
 20
23.709484
 30
0.0
 11
109.343775
 21
23.709484
 31
0.0
  0
ARC
  5
AA1D
  8
ALPHA
 10
103.053477
 20
20.765371
 30
0.0
 40
0.3
 50
322.848784
 51
47.0
  0
LINE
  5
AA1E
  8
ALPHA
 10
103.936819
 20
21.70003
 30
0.0
 11
103.292591
 21
20.584195
 31
0.0
  0
ARC
  5
AA1F
  8
ALPHA
 10
95.282294
 20
20.765371
 30
0.0
 40
0.3
 50
133.0
 51
217.151216
  0
LINE
  5
AA20
  8
ALPHA
 10
95.043181
 20
20.584195
 30
0.0
 11
94.398953
 21
21.70003
 31
0.0
  0
ARC
  5
AA21
  8
ALPHA
 10
99.167886
 20
23.709484
 30
0.0
 40
8.0
 50
173.707306
 51
6.292694
  0
ARC
  5
AA25
  8
ALPHA
 10
99.167886
 20
23.709484
 30
0.0
 40
5.175
 50
247.151216
 51
262.848784
  0
LINE
  5
AA26
  8
ALPHA
 10
97.118273
 20
19.730728
 30
0.0
 11
96.98803
 21
19.304723
 31
0.0
  0
LINE
  5
AA27
  8
ALPHA
 10
96.443179
 20
19.619293
 30
0.0
 11
96.746988
 21
19.945089
 31
0.0
  0
ARC
  5
AA28
  8
ALPHA
 10
96.907886
 20
19.79505
 30
0.0
 40
0.22
 50
343.0
 51
137.0
  0
ARC
  5
AA29
  8
ALPHA
 10
96.223772
 20
19.823893
 30
0.0
 40
0.3
 50
232.848784
 51
317.0
  0
ARC
  5
AA2A
  8
ALPHA
 10
97.274922
 20
19.217012
 30
0.0
 40
0.3
 50
163.0
 51
247.151216
  0
LINE
  5
AA2B
  8
ALPHA
 10
97.158432
 20
18.940552
 30
0.0
 11
96.042596
 21
19.58478
 31
0.0
  0
ARC
  5
AA2C
  8
ALPHA
 10
99.167886
 20
23.709484
 30
0.0
 40
5.175
 50
217.151216
 51
232.848784
  0
LINE
  5
AA2D
  8
ALPHA
 10
101.588784
 20
19.945089
 30
0.0
 11
101.892593
 21
19.619293
 31
0.0
  0
ARC
  5
AA2E
  8
ALPHA
 10
102.111999
 20
19.823893
 30
0.0
 40
0.3
 50
223.0
 51
307.151216
  0
ARC
  5
AA2F
  8
ALPHA
 10
99.167886
 20
23.709484
 30
0.0
 40
5.175
 50
307.151216
 51
322.848784
  0
LINE
  5
AA30
  8
ALPHA
 10
101.347742
 20
19.304723
 30
0.0
 11
101.217499
 21
19.730728
 31
0.0
  0
ARC
  5
AA31
  8
ALPHA
 10
101.427886
 20
19.79505
 30
0.0
 40
0.22
 50
43.0
 51
197.0
  0
ARC
  5
AA32
  8
ALPHA
 10
99.167886
 20
19.189484
 30
0.0
 40
0.22
 50
13.0
 51
167.0
  0
ARC
  5
AA33
  8
ALPHA
 10
99.167886
 20
23.709484
 30
0.0
 40
5.175
 50
277.151216
 51
292.848784
  0
ARC
  5
AA34
  8
ALPHA
 10
99.774767
 20
18.872407
 30
0.0
 40
0.3
 50
193.0
 51
277.151216
  0
ARC
  5
AA35
  8
ALPHA
 10
98.561005
 20
18.872407
 30
0.0
 40
0.3
 50
262.848784
 51
347.0
  0
LINE
  5
AA36
  8
ALPHA
 10
99.167886
 20
18.534484
 30
0.0
 11
98.523658
 21
18.57474
 31
0.0
  0
LINE
  5
AA37
  8
ALPHA
 10
99.812114
 20
18.57474
 30
0.0
 11
99.167886
 21
18.534484
 31
0.0
  0
LINE
  5
AA38
  8
ALPHA
 10
99.382247
 20
19.238974
 30
0.0
 11
99.482456
 21
18.804921
 31
0.0
  0
LINE
  5
AA39
  8
ALPHA
 10
98.853316
 20
18.804921
 30
0.0
 11
98.953524
 21
19.238974
 31
0.0
  0
ARC
  5
AA3A
  8
ALPHA
 10
101.06085
 20
19.217012
 30
0.0
 40
0.3
 50
292.848784
 51
17.0
  0
LINE
  5
AA3B
  8
ALPHA
 10
102.293176
 20
19.58478
 30
0.0
 11
101.17734
 21
18.940552
 31
0.0
  0
CIRCLE
  5
AA60
  8
ALPHA
 10
99.167886
 20
50.109484
 30
0.0
 40
4.15
  0
CIRCLE
  5
AA61
  8
ALPHA
 10
99.167886
 20
50.109484
 30
0.0
 40
4.25
  0
ARC
  5
AA62
  8
ALPHA
 10
99.167886
 20
23.709484
 30
0.0
 40
5.175
 50
97.151216
 51
112.848784
  0
LINE
  5
AA63
  8
ALPHA
 10
105.758575
 20
35.690949
 30
0.0
 11
92.577197
 21
35.690949
 31
0.0
  0
LINE
  5
AA64
  8
ALPHA
 10
105.678064
 20
36.144103
 30
0.0
 11
92.657708
 21
36.144103
 31
0.0
  0
LINE
  5
AA65
  8
ALPHA
 10
93.534861
 20
38.991632
 30
0.0
 11
104.800911
 21
38.991632
 31
0.0
  0
LINE
  5
AA66
  8
ALPHA
 10
93.614502
 20
40.804248
 30
0.0
 11
104.72127
 21
40.804248
 31
0.0
  0
CIRCLE
  5
AA67
  8
ALPHA
 10
99.167886
 20
50.109484
 30
0.0
 40
8.0
  0
LINE
  5
AA68
  8
ALPHA
 10
92.440613
 20
35.690949
 30
0.0
 11
91.216086
 21
24.586345
 31
0.0
  0
LINE
  5
AA69
  8
ALPHA
 10
92.577197
 20
35.690949
 30
0.0
 11
91.216086
 21
24.586345
 31
0.0
  0
LINE
  5
AA6A
  8
ALPHA
 10
96.746988
 20
27.47388
 30
0.0
 11
96.443179
 21
27.799675
 31
0.0
  0
LINE
  5
AA6B
  8
ALPHA
 10
96.98803
 20
28.114246
 30
0.0
 11
97.118273
 21
27.688241
 31
0.0
  0
ARC
  5
AA6C
  8
ALPHA
 10
96.223772
 20
27.595076
 30
0.0
 40
0.3
 50
43.0
 51
127.151216
  0
ARC
  5
AA6D
  8
ALPHA
 10
96.907886
 20
27.623919
 30
0.0
 40
0.22
 50
223.0
 51
17.0
  0
ARC
  5
AA6E
  8
ALPHA
 10
97.274922
 20
28.201957
 30
0.0
 40
0.3
 50
112.848784
 51
197.0
  0
LINE
  5
AA6F
  8
ALPHA
 10
96.042596
 20
27.834189
 30
0.0
 11
97.158432
 21
28.478417
 31
0.0
  0
LINE
  5
AA70
  8
ALPHA
 10
95.189129
 20
25.759097
 30
0.0
 11
94.763125
 21
25.88934
 31
0.0
  0
ARC
  5
AA71
  8
ALPHA
 10
94.675413
 20
25.602449
 30
0.0
 40
0.3
 50
73.0
 51
157.151216
  0
ARC
  5
AA72
  8
ALPHA
 10
95.282294
 20
26.653598
 30
0.0
 40
0.3
 50
142.848784
 51
227.0
  0
LINE
  5
AA73
  8
ALPHA
 10
94.398953
 20
25.718939
 30
0.0
 11
95.043181
 21
26.834774
 31
0.0
  0
LINE
  5
AA74
  8
ALPHA
 10
94.263323
 20
24.024055
 30
0.0
 11
94.697375
 21
23.923846
 31
0.0
  0
LINE
  5
AA75
  8
ALPHA
 10
94.697375
 20
23.495123
 30
0.0
 11
94.263323
 21
23.394914
 31
0.0
  0
LINE
  5
AA76
  8
ALPHA
 10
94.763125
 20
21.529629
 30
0.0
 11
95.189129
 21
21.659871
 31
0.0
  0
ARC
  5
AA77
  8
ALPHA
 10
94.330808
 20
23.102603
 30
0.0
 40
0.3
 50
103.0
 51
187.151216
  0
ARC
  5
AA78
  8
ALPHA
 10
94.647886
 20
23.709484
 30
0.0
 40
0.22
 50
283.0
 51
77.0
  0
ARC
  5
AA79
  8
ALPHA
 10
94.330808
 20
24.316366
 30
0.0
 40
0.3
 50
172.848784
 51
257.0
  0
ARC
  5
AA7A
  8
ALPHA
 10
94.675413
 20
21.81652
 30
0.0
 40
0.3
 50
202.848784
 51
287.0
  0
ARC
  5
AA7B
  8
ALPHA
 10
99.167886
 20
23.709484
 30
0.0
 40
5.175
 50
187.151216
 51
202.848784
  0
LINE
  5
AA7C
  8
ALPHA
 10
94.033142
 20
23.065257
 30
0.0
 11
94.033142
 21
24.353712
 31
0.0
  0
ARC
  5
AA7D
  8
ALPHA
 10
99.167886
 20
23.709484
 30
0.0
 40
5.175
 50
157.151216
 51
172.848784
  0
LINE
  5
AA7E
  8
ALPHA
 10
95.077695
 20
26.434192
 30
0.0
 11
95.403491
 21
26.130382
 31
0.0
  0
LINE
  5
AA7F
  8
ALPHA
 10
95.403491
 20
21.288587
 30
0.0
 11
95.077695
 21
20.984777
 31
0.0
  0
ARC
  5
AA80
  8
ALPHA
 10
95.253451
 20
25.969484
 30
0.0
 40
0.22
 50
253.0
 51
47.0
  0
ARC
  5
AA81
  8
ALPHA
 10
95.253451
 20
21.449484
 30
0.0
 40
0.22
 50
313.0
 51
107.0
  0
ARC
  5
AA82
  8
ALPHA
 10
99.167886
 20
23.709484
 30
0.0
 40
5.175
 50
127.151216
 51
142.848784
  0
LINE
  5
AA83
  8
ALPHA
 10
93.534861
 20
40.804248
 30
0.0
 11
93.534861
 21
38.991632
 31
0.0
  0
LINE
  5
AA84
  8
ALPHA
 10
93.534861
 20
40.804248
 30
0.0
 11
93.614502
 21
40.804248
 31
0.0
  0
LINE
  5
AA85
  8
ALPHA
 10
93.534861
 20
38.991632
 30
0.0
 11
93.614502
 21
40.804248
 31
0.0
  0
LINE
  5
AA86
  8
ALPHA
 10
92.791868
 20
37.956719
 30
0.0
 11
92.61624
 21
37.034198
 31
0.0
  0
LINE
  5
AA87
  8
ALPHA
 10
92.791868
 20
37.956719
 30
0.0
 11
93.534861
 21
40.804248
 31
0.0
  0
LINE
  5
AA88
  8
ALPHA
 10
92.61624
 20
35.959599
 30
0.0
 11
92.657708
 21
36.144103
 31
0.0
  0
LINE
  5
AA89
  8
ALPHA
 10
92.577197
 20
35.690949
 30
0.0
 11
92.61624
 21
35.959599
 31
0.0
  0
LINE
  5
AA8A
  8
ALPHA
 10
92.61624
 20
35.959599
 30
0.0
 11
92.61624
 21
37.034198
 31
0.0
  0
LINE
  5
AA8B
  8
ALPHA
 10
92.657708
 20
36.144103
 30
0.0
 11
93.534861
 21
38.991632
 31
0.0
  0
LINE
  5
AA8C
  8
ALPHA
 10
92.61624
 20
37.034198
 30
0.0
 11
92.440613
 21
35.690949
 31
0.0
  0
LINE
  5
AA8D
  8
ALPHA
 10
93.614502
 20
40.804248
 30
0.0
 11
93.972217
 21
44.048185
 31
0.0
  0
LINE
  5
AA8E
  8
ALPHA
 10
96.24087
 20
53.036501
 30
0.0
 11
96.162682
 21
53.114688
 31
0.0
  0
LINE
  5
AA8F
  8
ALPHA
 10
95.073953
 20
51.20645
 30
0.0
 11
95.164973
 21
51.182062
 31
0.0
  0
LINE
  5
AA90
  8
ALPHA
 10
105.758575
 20
35.690949
 30
0.0
 11
107.119685
 21
24.586345
 31
0.0
  0
LINE
  5
AA91
  8
ALPHA
 10
105.895159
 20
35.690949
 30
0.0
 11
107.119685
 21
24.586345
 31
0.0
  0
LINE
  5
AA92
  8
ALPHA
 10
98.867886
 20
33.709484
 30
0.0
 11
98.867886
 21
30.709484
 31
0.0
  0
LINE
  5
AA93
  8
ALPHA
 10
99.167886
 20
30.709484
 30
0.0
 11
99.167886
 21
33.709484
 31
0.0
  0
LINE
  5
AA94
  8
ALPHA
 10
99.467886
 20
33.709484
 30
0.0
 11
99.467886
 21
30.709484
 31
0.0
  0
ARC
  5
AA95
  8
ALPHA
 10
103.660359
 20
25.602449
 30
0.0
 40
0.3
 50
22.848784
 51
107.0
  0
LINE
  5
AA96
  8
ALPHA
 10
103.638397
 20
23.923846
 30
0.0
 11
104.072449
 21
24.024055
 31
0.0
  0
LINE
  5
AA97
  8
ALPHA
 10
104.072449
 20
23.394914
 30
0.0
 11
103.638397
 21
23.495123
 31
0.0
  0
ARC
  5
AA98
  8
ALPHA
 10
103.660359
 20
21.81652
 30
0.0
 40
0.3
 50
253.0
 51
337.151216
  0
ARC
  5
AA99
  8
ALPHA
 10
104.004964
 20
24.316366
 30
0.0
 40
0.3
 50
283.0
 51
7.151216
  0
ARC
  5
AA9A
  8
ALPHA
 10
103.687886
 20
23.709484
 30
0.0
 40
0.22
 50
103.0
 51
257.0
  0
ARC
  5
AA9B
  8
ALPHA
 10
104.004964
 20
23.102603
 30
0.0
 40
0.3
 50
352.848784
 51
77.0
  0
ARC
  5
AA9C
  8
ALPHA
 10
99.167886
 20
23.709484
 30
0.0
 40
5.175
 50
337.151216
 51
352.848784
  0
LINE
  5
AA9D
  8
ALPHA
 10
104.30263
 20
24.353712
 30
0.0
 11
104.30263
 21
23.065257
 31
0.0
  0
ARC
  5
AA9E
  8
ALPHA
 10
99.167886
 20
23.709484
 30
0.0
 40
5.175
 50
7.151216
 51
22.848784
  0
LINE
  5
AA9F
  8
ALPHA
 10
101.892593
 20
27.799675
 30
0.0
 11
101.588784
 21
27.47388
 31
0.0
  0
LINE
  5
AAA0
  8
ALPHA
 10
102.932281
 20
26.130382
 30
0.0
 11
103.258077
 21
26.434192
 31
0.0
  0
ARC
  5
AAA1
  8
ALPHA
 10
103.053477
 20
26.653598
 30
0.0
 40
0.3
 50
313.0
 51
37.151216
  0
ARC
  5
AAA2
  8
ALPHA
 10
103.082321
 20
25.969484
 30
0.0
 40
0.22
 50
133.0
 51
287.0
  0
ARC
  5
AAA3
  8
ALPHA
 10
102.111999
 20
27.595076
 30
0.0
 40
0.3
 50
52.848784
 51
137.0
  0
ARC
  5
AAA4
  8
ALPHA
 10
99.167886
 20
23.709484
 30
0.0
 40
5.175
 50
37.151216
 51
52.848784
  0
LINE
  5
AAA5
  8
ALPHA
 10
99.482456
 20
28.614047
 30
0.0
 11
99.382247
 21
28.179995
 31
0.0
  0
LINE
  5
AAA6
  8
ALPHA
 10
101.217499
 20
27.688241
 30
0.0
 11
101.347742
 21
28.114246
 31
0.0
  0
ARC
  5
AAA7
  8
ALPHA
 10
99.774767
 20
28.546562
 30
0.0
 40
0.3
 50
82.848784
 51
167.0
  0
ARC
  5
AAA8
  8
ALPHA
 10
99.167886
 20
23.709484
 30
0.0
 40
5.175
 50
67.151216
 51
82.848784
  0
ARC
  5
AAA9
  8
ALPHA
 10
101.06085
 20
28.201957
 30
0.0
 40
0.3
 50
343.0
 51
67.151216
  0
ARC
  5
AAAA
  8
ALPHA
 10
101.427886
 20
27.623919
 30
0.0
 40
0.22
 50
163.0
 51
317.0
  0
LINE
  5
AAAB
  8
ALPHA
 10
101.17734
 20
28.478417
 30
0.0
 11
102.293176
 21
27.834189
 31
0.0
  0
LINE
  5
AAAC
  8
ALPHA
 10
103.258077
 20
20.984777
 30
0.0
 11
102.932281
 21
21.288587
 31
0.0
  0
ARC
  5
AAAD
  8
ALPHA
 10
103.082321
 20
21.449484
 30
0.0
 40
0.22
 50
73.0
 51
227.0
  0
LINE
  5
AAAE
  8
ALPHA
 10
98.953524
 20
28.179995
 30
0.0
 11
98.853316
 21
28.614047
 31
0.0
  0
ARC
  5
AAAF
  8
ALPHA
 10
98.561005
 20
28.546562
 30
0.0
 40
0.3
 50
13.0
 51
97.151216
  0
LINE
  5
AAB0
  8
ALPHA
 10
98.523658
 20
28.844228
 30
0.0
 11
99.167886
 21
28.884484
 31
0.0
  0
LINE
  5
AAB1
  8
ALPHA
 10
99.467886
 20
30.709484
 30
0.0
 11
98.867886
 21
30.709484
 31
0.0
  0
ARC
  5
AAB2
  8
ALPHA
 10
99.167886
 20
28.229484
 30
0.0
 40
0.22
 50
193.0
 51
347.0
  0
LINE
  5
AAB3
  8
ALPHA
 10
99.167886
 20
28.884484
 30
0.0
 11
99.812114
 21
28.844228
 31
0.0
  0
LINE
  5
AAB4
  8
ALPHA
 10
103.146643
 20
21.659871
 30
0.0
 11
103.572647
 21
21.529629
 31
0.0
  0
LINE
  5
AAB5
  8
ALPHA
 10
103.572647
 20
25.88934
 30
0.0
 11
103.146643
 21
25.759097
 31
0.0
  0
LINE
  5
AAB6
  8
ALPHA
 10
103.292591
 20
26.834774
 30
0.0
 11
103.936819
 21
25.718939
 31
0.0
  0
LINE
  5
AAB7
  8
ALPHA
 10
105.719531
 20
37.034198
 30
0.0
 11
105.543904
 21
37.956719
 31
0.0
  0
LINE
  5
AAB8
  8
ALPHA
 10
104.800911
 20
40.804248
 30
0.0
 11
104.72127
 21
40.804248
 31
0.0
  0
LINE
  5
AAB9
  8
ALPHA
 10
104.800911
 20
40.804248
 30
0.0
 11
104.800911
 21
38.991632
 31
0.0
  0
LINE
  5
AABA
  8
ALPHA
 10
104.800911
 20
38.991632
 30
0.0
 11
104.72127
 21
40.804248
 31
0.0
  0
LINE
  5
AABB
  8
ALPHA
 10
105.543904
 20
37.956719
 30
0.0
 11
104.800911
 21
40.804248
 31
0.0
  0
LINE
  5
AABC
  8
ALPHA
 10
105.719531
 20
35.959599
 30
0.0
 11
105.758575
 21
35.690949
 31
0.0
  0
LINE
  5
AABD
  8
ALPHA
 10
105.678064
 20
36.144103
 30
0.0
 11
105.719531
 21
35.959599
 31
0.0
  0
LINE
  5
AABE
  8
ALPHA
 10
105.678064
 20
36.144103
 30
0.0
 11
104.800911
 21
38.991632
 31
0.0
  0
LINE
  5
AABF
  8
ALPHA
 10
105.719531
 20
35.959599
 30
0.0
 11
105.719531
 21
37.034198
 31
0.0
  0
LINE
  5
AAC0
  8
ALPHA
 10
105.895159
 20
35.690949
 30
0.0
 11
105.719531
 21
37.034198
 31
0.0
  0
LINE
  5
AAC1
  8
ALPHA
 10
99.467886
 20
33.709484
 30
0.0
 11
98.867886
 21
33.709484
 31
0.0
  0
LINE
  5
AAC2
  8
ALPHA
 10
104.72127
 20
40.804248
 30
0.0
 11
104.363554
 21
44.048185
 31
0.0
  0
LINE
  5
AAC3
  8
ALPHA
 10
102.17309
 20
53.114688
 30
0.0
 11
102.094902
 21
53.036501
 31
0.0
  0
LINE
  5
AAC4
  8
ALPHA
 10
103.170799
 20
51.182062
 30
0.0
 11
103.261819
 21
51.20645
 31
0.0
  0
LINE
  5
AAC5
  8
ALPHA
 10
100.264852
 20
46.015552
 30
0.0
 11
100.240463
 21
46.106572
 31
0.0
  0
LINE
  5
AAC6
  8
ALPHA
 10
98.095309
 20
46.106572
 30
0.0
 11
98.07092
 21
46.015552
 31
0.0
  0
CIRCLE
  5
AAC7
  8
ALPHA
 10
99.167886
 20
50.109484
 30
0.0
 40
1.0
  0
VIEWPORT
  5
494D
 67
     1
  8
0
 10
4.995325
 20
6.556512
 30
0.0
 40
22.70986
 41
13.988421
 68
    -1
 69
     1
1001
ACAD
1000
MVIEW
1002
{
1070
    16
1010
0.0
1020
0.0
1030
0.0
1010
0.0
1020
0.0
1030
1.0
1040
0.0
1040
13.988421
1040
4.995325
1040
6.556512
1040
50.0
1040
0.0
1040
0.0
1070
     0
1070
   100
1070
     1
1070
     1
1070
     0
1070
     0
1070
     0
1070
     0
1040
0.0
1040
0.0
1040
0.0
1040
10.0
1040
10.0
1040
10.0
1040
10.0
1070
     0
1002
{
1002
}
1002
}
  0
ENDSEC
  0
EOF
