  0
SECTION
  2
HEADER
  9
$ACADVER
  1
AC1009
  9
$INSBASE
 10
402.590624
 20
-1.041018
 30
0.0
  9
$EXTMIN
 10
-5.86125
 20
-19.774573
 30
0.0
  9
$EXTMAX
 10
59.123033
 20
80.429038
 30
0.0
  9
$LIMMIN
 10
-407.970438
 20
-367.832444
  9
$LIMMAX
 10
429.804077
 20
234.370848
  9
$ORTHOMODE
 70
     1
  9
$REGENMODE
 70
     1
  9
$FILLMODE
 70
     1
  9
$QTEXTMODE
 70
     0
  9
$MIRRTEXT
 70
     1
  9
$DRAGMODE
 70
     2
  9
$LTSCALE
 40
10.0
  9
$OSMODE
 70
    35
  9
$ATTMODE
 70
     1
  9
$TEXTSIZE
 40
6.0
  9
$TRACEWID
 40
1.0
  9
$TEXTSTYLE
  7
ROMANS
  9
$CLAYER
  8
ALPHA
  9
$CELTYPE
  6
BYLAYER
  9
$CECOLOR
 62
   256
  9
$DIMSCALE
 40
1.0
  9
$DIMASZ
 40
5.0
  9
$DIMEXO
 40
2.0
  9
$DIMDLI
 40
0.38
  9
$DIMRND
 40
0.0
  9
$DIMDLE
 40
0.0
  9
$DIMEXE
 40
2.5
  9
$DIMTP
 40
0.0
  9
$DIMTM
 40
0.0
  9
$DIMTXT
 40
2.5
  9
$DIMCEN
 40
0.0
  9
$DIMTSZ
 40
0.0
  9
$DIMTOL
 70
     0
  9
$DIMLIM
 70
     0
  9
$DIMTIH
 70
     1
  9
$DIMTOH
 70
     1
  9
$DIMSE1
 70
     0
  9
$DIMSE2
 70
     0
  9
$DIMTAD
 70
     1
  9
$DIMZIN
 70
    12
  9
$DIMBLK
  1
OPEN30
  9
$DIMASO
 70
     1
  9
$DIMSHO
 70
     1
  9
$DIMPOST
  1

  9
$DIMAPOST
  1

  9
$DIMALT
 70
     0
  9
$DIMALTD
 70
     2
  9
$DIMALTF
 40
25.4
  9
$DIMLFAC
 40
1.0
  9
$DIMTOFL
 70
     0
  9
$DIMTVP
 40
0.0
  9
$DIMTIX
 70
     0
  9
$DIMSOXD
 70
     0
  9
$DIMSAH
 70
     0
  9
$DIMBLK1
  1

  9
$DIMBLK2
  1

  9
$DIMSTYLE
  2
SC_DEFAUT
  9
$DIMCLRD
 70
     0
  9
$DIMCLRE
 70
     0
  9
$DIMCLRT
 70
     0
  9
$DIMTFAC
 40
1.0
  9
$DIMGAP
 40
2.0
  9
$LUNITS
 70
     2
  9
$LUPREC
 70
     1
  9
$SKETCHINC
 40
0.1
  9
$FILLETRAD
 40
0.0
  9
$AUNITS
 70
     0
  9
$AUPREC
 70
     0
  9
$MENU
  1
acad
  9
$ELEVATION
 40
0.0
  9
$PELEVATION
 40
0.0
  9
$THICKNESS
 40
0.0
  9
$LIMCHECK
 70
     0
  9
$BLIPMODE
 70
     0
  9
$CHAMFERA
 40
0.0
  9
$CHAMFERB
 40
0.0
  9
$SKPOLY
 70
     0
  9
$TDCREATE
 40
2450373.687919
  9
$TDUPDATE
 40
2453035.649093
  9
$TDINDWG
 40
1.091035
  9
$TDUSRTIMER
 40
1.091035
  9
$USRTIMER
 70
     1
  9
$ANGBASE
 50
0.0
  9
$ANGDIR
 70
     0
  9
$PDMODE
 70
    32
  9
$PDSIZE
 40
0.0
  9
$PLINEWID
 40
0.0
  9
$COORDS
 70
     1
  9
$SPLFRAME
 70
     0
  9
$SPLINETYPE
 70
     6
  9
$SPLINESEGS
 70
     8
  9
$ATTDIA
 70
     0
  9
$ATTREQ
 70
     1
  9
$HANDLING
 70
     1
  9
$HANDSEED
  5
A9C0
  9
$SURFTAB1
 70
     6
  9
$SURFTAB2
 70
     6
  9
$SURFTYPE
 70
     6
  9
$SURFU
 70
     6
  9
$SURFV
 70
     6
  9
$UCSNAME
  2

  9
$UCSORG
 10
0.0
 20
0.0
 30
0.0
  9
$UCSXDIR
 10
1.0
 20
0.0
 30
0.0
  9
$UCSYDIR
 10
0.0
 20
1.0
 30
0.0
  9
$PUCSNAME
  2

  9
$PUCSORG
 10
0.0
 20
0.0
 30
0.0
  9
$PUCSXDIR
 10
1.0
 20
0.0
 30
0.0
  9
$PUCSYDIR
 10
0.0
 20
1.0
 30
0.0
  9
$USERI1
 70
     0
  9
$USERI2
 70
     0
  9
$USERI3
 70
     0
  9
$USERI4
 70
     0
  9
$USERI5
 70
     0
  9
$USERR1
 40
0.0
  9
$USERR2
 40
0.0
  9
$USERR3
 40
0.0
  9
$USERR4
 40
0.0
  9
$USERR5
 40
0.0
  9
$WORLDVIEW
 70
     1
  9
$SHADEDGE
 70
     3
  9
$SHADEDIF
 70
    70
  9
$TILEMODE
 70
     1
  9
$MAXACTVP
 70
    16
  9
$PLIMCHECK
 70
     0
  9
$PEXTMIN
 10
-1.452248
 20
-0.437698
 30
0.0
  9
$PEXTMAX
 10
12.749749
 20
8.310198
 30
0.0
  9
$PLIMMIN
 10
0.0
 20
0.0
  9
$PLIMMAX
 10
12.0
 20
9.0
  9
$UNITMODE
 70
     0
  9
$VISRETAIN
 70
     0
  9
$PLINEGEN
 70
     0
  9
$PSLTSCALE
 70
     0
  0
ENDSEC
  0
SECTION
  2
TABLES
  0
TABLE
  2
VPORT
 70
     2
  0
VPORT
  2
*ACTIVE
 70
     0
 10
0.0
 20
0.0
 11
1.0
 21
1.0
 12
26.640434
 22
30.326886
 13
0.0
 23
0.0
 14
1.0
 24
1.0
 15
10.0
 25
10.0
 16
0.0
 26
0.0
 36
1.0
 17
0.0
 27
0.0
 37
0.0
 40
100.926641
 41
1.466346
 42
50.0
 43
0.0
 44
0.0
 50
0.0
 51
0.0
 71
     0
 72
   100
 73
     1
 74
     0
 75
     0
 76
     0
 77
     0
 78
     0
  0
ENDTAB
  0
TABLE
  2
LTYPE
 70
     3
  0
LTYPE
  2
CONTINUOUS
 70
     0
  3
Solid line
 72
    65
 73
     0
 40
0.0
  0
LTYPE
  2
AXES2
 70
     0
  3
___ _ ___ _ ___ _ ___ _ ___ _ ___ _ ___ _ ___ _
 72
    65
 73
     4
 40
1.125
 49
0.75
 49
-0.125
 49
0.125
 49
-0.125
  0
LTYPE
  2
CACHE2
 70
     0
  3
Caché (x.5) _ _ _ _ _ _ _ _ _ _ _ _ _ _ _ _ _
 72
    65
 73
     2
 40
0.1875
 49
0.125
 49
-0.0625
  0
ENDTAB
  0
TABLE
  2
LAYER
 70
     6
  0
LAYER
  2
0
 70
     0
 62
   255
  6
CONTINUOUS
  0
LAYER
  2
COTATION1
 70
     0
 62
     2
  6
CONTINUOUS
  0
LAYER
  2
AXE
 70
     0
 62
    80
  6
AXES2
  0
LAYER
  2
DEFPOINTS
 70
     0
 62
     7
  6
CONTINUOUS
  0
LAYER
  2
ALPHA
 70
     0
 62
   254
  6
CONTINUOUS
  0
LAYER
  2
POINTILLE_COURT
 70
     0
 62
    41
  6
CACHE2
  0
ENDTAB
  0
TABLE
  2
STYLE
 70
     2
  0
STYLE
  2
ROMANS
 70
     0
 40
0.0
 41
1.0
 50
0.0
 71
     0
 42
6.0
  3
romans
  4

  0
STYLE
  2
STANDARD
 70
     0
 40
0.0
 41
1.0
 50
0.0
 71
     0
 42
0.2
  3
txt
  4

  0
ENDTAB
  0
TABLE
  2
VIEW
 70
     0
  0
ENDTAB
  0
TABLE
  2
UCS
 70
     0
  0
ENDTAB
  0
TABLE
  2
APPID
 70
     1
  0
APPID
  2
ACAD
 70
     0
  0
ENDTAB
  0
TABLE
  2
DIMSTYLE
 70
     2
  0
DIMSTYLE
  2
SC_DEFAUT
 70
     0
  3

  4

  5
OPEN30
  6

  7

 40
1.0
 41
5.0
 42
2.0
 43
0.38
 44
2.5
 45
0.0
 46
0.0
 47
0.0
 48
0.0
140
2.5
141
0.0
142
0.0
143
25.4
144
1.0
145
0.0
146
1.0
147
2.0
 71
     0
 72
     0
 73
     1
 74
     1
 75
     0
 76
     0
 77
     1
 78
    12
170
     0
171
     2
172
     0
173
     0
174
     0
175
     0
176
     0
177
     0
178
     0
  0
DIMSTYLE
  2
STANDARD
 70
     0
  3

  4

  5

  6

  7

 40
1.0
 41
0.18
 42
0.0625
 43
0.38
 44
0.18
 45
0.0
 46
0.0
 47
0.0
 48
0.0
140
0.18
141
0.09
142
0.0
143
25.4
144
1.0
145
0.0
146
1.0
147
0.09
 71
     0
 72
     0
 73
     1
 74
     1
 75
     0
 76
     0
 77
     0
 78
     0
170
     0
171
     2
172
     0
173
     0
174
     0
175
     0
176
     0
177
     0
178
     0
  0
ENDTAB
  0
ENDSEC
  0
SECTION
  2
BLOCKS
  0
BLOCK
  8
0
  2
$MODEL_SPACE
 70
     0
 10
0.0
 20
0.0
 30
0.0
  3
$MODEL_SPACE
  1

  0
ENDBLK
  5
A9B9
  8
0
  0
BLOCK
 67
     1
  8
0
  2
$PAPER_SPACE
 70
     0
 10
0.0
 20
0.0
 30
0.0
  3
$PAPER_SPACE
  1

  0
ENDBLK
  5
A9B7
 67
     1
  8
0
  0
BLOCK
  8
0
  2
COTE
 70
     0
 10
0.0
 20
0.0
 30
0.0
  3
COTE
  1

  0
ENDBLK
  5
F
  8
0
  0
BLOCK
  8
0
  2
FOND
 70
     0
 10
0.0
 20
0.0
 30
0.0
  3
FOND
  1

  0
ENDBLK
  5
75
  8
0
  0
BLOCK
  8
0
  2
_OPEN30
 70
     0
 10
0.0
 20
0.0
 30
0.0
  3
_OPEN30
  1

  0
LINE
  5
4B05
  8
COTATION1
 62
     0
 10
-1.0
 20
0.267949
 30
0.0
 11
0.0
 21
0.0
 31
0.0
1001
ACAD
1000
RTLwPs
1070
   158
  0
LINE
  5
4B06
  8
COTATION1
 62
     0
 10
0.0
 20
0.0
 30
0.0
 11
-1.0
 21
-0.267949
 31
0.0
1001
ACAD
1000
RTLwPs
1070
   158
  0
LINE
  5
4B07
  8
COTATION1
 62
     0
 10
0.0
 20
0.0
 30
0.0
 11
-1.0
 21
0.0
 31
0.0
1001
ACAD
1000
RTLwPs
1070
   158
  0
ENDBLK
  5
4B09
  8
0
  0
BLOCK
  8
0
  2
*D3
 70
     1
 10
0.0
 20
0.0
 30
0.0
  3
*D3
  1

  0
LINE
  5
A911
  8
COTATION1
 62
     0
 10
10.284628
 20
67.856235
 30
0.0
 11
10.284628
 21
78.356235
 31
0.0
1001
ACAD
1000
RTLwPs
1070
   158
  0
LINE
  5
A912
  8
COTATION1
 62
     0
 10
33.484628
 20
67.856235
 30
0.0
 11
33.484628
 21
78.356235
 31
0.0
1001
ACAD
1000
RTLwPs
1070
   158
  0
LINE
  5
A913
  8
COTATION1
 62
     0
 10
15.284628
 20
75.856235
 30
0.0
 11
28.484628
 21
75.856235
 31
0.0
1001
ACAD
1000
RTLwPs
1070
   158
  0
INSERT
  5
A914
  8
COTATION1
 62
     0
  2
_OPEN30
 10
10.284628
 20
75.856235
 30
0.0
 41
5.0
 42
5.0
 43
5.0
 50
180.0
1001
ACAD
1000
RTLwPs
1070
   158
  0
INSERT
  5
A915
  8
COTATION1
 62
     0
  2
_OPEN30
 10
33.484628
 20
75.856235
 30
0.0
 41
5.0
 42
5.0
 43
5.0
1001
ACAD
1000
RTLwPs
1070
   158
  0
TEXT
  5
A916
  8
COTATION1
 62
     0
 10
17.717962
 20
77.856235
 30
0.0
 40
2.5
  1
23.2
1001
ACAD
1000
MTEXTBEGIN
1070
    73
1070
     1
1070
    44
1040
1.0
1070
    74
1070
     0
1000
MTEXTEND
  0
POINT
  5
A917
  8
DEFPOINTS
 62
     0
 10
10.284628
 20
65.856235
 30
0.0
  0
POINT
  5
A918
  8
DEFPOINTS
 62
     0
 10
33.484628
 20
65.856235
 30
0.0
  0
POINT
  5
A919
  8
DEFPOINTS
 62
     0
 10
33.484628
 20
75.856235
 30
0.0
  0
ENDBLK
  5
9B98
  8
0
  0
BLOCK
  8
0
  2
*D4
 70
     1
 10
0.0
 20
0.0
 30
0.0
  3
*D4
  1

  0
LINE
  5
A941
  8
COTATION1
 62
     0
 10
5.784628
 20
50.856235
 30
0.0
 11
5.784628
 21
-5.522946
 31
0.0
1001
ACAD
1000
RTLwPs
1070
   158
  0
LINE
  5
A942
  8
COTATION1
 62
     0
 10
22.884628
 20
16.456235
 30
0.0
 11
22.884628
 21
-5.522946
 31
0.0
1001
ACAD
1000
RTLwPs
1070
   158
  0
LINE
  5
A943
  8
COTATION1
 62
     0
 10
10.784628
 20
-3.022946
 30
0.0
 11
17.884628
 21
-3.022946
 31
0.0
1001
ACAD
1000
RTLwPs
1070
   158
  0
INSERT
  5
A944
  8
COTATION1
 62
     0
  2
_OPEN30
 10
5.784628
 20
-3.022946
 30
0.0
 41
5.0
 42
5.0
 43
5.0
 50
180.0
1001
ACAD
1000
RTLwPs
1070
   158
  0
INSERT
  5
A945
  8
COTATION1
 62
     0
  2
_OPEN30
 10
22.884628
 20
-3.022946
 30
0.0
 41
5.0
 42
5.0
 43
5.0
1001
ACAD
1000
RTLwPs
1070
   158
  0
TEXT
  5
A946
  8
COTATION1
 62
     0
 10
10.346533
 20
-1.022946
 30
0.0
 40
2.5
  1
17.1
1001
ACAD
1000
MTEXTBEGIN
1070
    73
1070
     1
1070
    44
1040
1.0
1070
    74
1070
     0
1000
MTEXTEND
  0
POINT
  5
A947
  8
DEFPOINTS
 62
     0
 10
5.784628
 20
52.856235
 30
0.0
  0
POINT
  5
A948
  8
DEFPOINTS
 62
     0
 10
22.884628
 20
18.456235
 30
0.0
  0
POINT
  5
A949
  8
DEFPOINTS
 62
     0
 10
22.884628
 20
-3.022946
 30
0.0
  0
ENDBLK
  5
A8AA
  8
0
  0
BLOCK
  8
0
  2
*D5
 70
     1
 10
0.0
 20
0.0
 30
0.0
  3
*D5
  1

  0
LINE
  5
A92E
  8
COTATION1
 62
     0
 10
5.784628
 20
54.856235
 30
0.0
 11
5.784628
 21
78.356235
 31
0.0
1001
ACAD
1000
RTLwPs
1070
   158
  0
LINE
  5
A92F
  8
COTATION1
 62
     0
 10
10.284628
 20
67.856235
 30
0.0
 11
10.284628
 21
78.356235
 31
0.0
1001
ACAD
1000
RTLwPs
1070
   158
  0
LINE
  5
A930
  8
COTATION1
 62
     0
 10
0.784628
 20
75.856235
 30
0.0
 11
-4.215372
 21
75.856235
 31
0.0
1001
ACAD
1000
RTLwPs
1070
   158
  0
LINE
  5
A931
  8
COTATION1
 62
     0
 10
15.284628
 20
75.856235
 30
0.0
 11
20.284628
 21
75.856235
 31
0.0
1001
ACAD
1000
RTLwPs
1070
   158
  0
TEXT
  5
A932
  8
COTATION1
 62
     0
 10
-6.218393
 20
77.929038
 30
0.0
 40
2.5
  1
4.5
1001
ACAD
1000
MTEXTBEGIN
1070
    73
1070
     1
1070
    44
1040
1.0
1070
    74
1070
     0
1000
MTEXTEND
  0
INSERT
  5
A933
  8
COTATION1
 62
     0
  2
_OPEN30
 10
5.784628
 20
75.856235
 30
0.0
 41
5.0
 42
5.0
 43
5.0
1001
ACAD
1000
RTLwPs
1070
   158
  0
INSERT
  5
A934
  8
COTATION1
 62
     0
  2
_OPEN30
 10
10.284628
 20
75.856235
 30
0.0
 41
5.0
 42
5.0
 43
5.0
 50
180.0
1001
ACAD
1000
RTLwPs
1070
   158
  0
POINT
  5
A935
  8
DEFPOINTS
 62
     0
 10
5.784628
 20
52.856235
 30
0.0
  0
POINT
  5
A936
  8
DEFPOINTS
 62
     0
 10
10.284628
 20
65.856235
 30
0.0
  0
POINT
  5
A937
  8
DEFPOINTS
 62
     0
 10
10.284628
 20
75.856235
 30
0.0
  0
ENDBLK
  5
A8C3
  8
0
  0
ENDSEC
  0
SECTION
  2
ENTITIES
  0
INSERT
  5
A
  8
0
  2
COTE
 10
0.0
 20
0.0
 30
0.0
  0
INSERT
  5
17
  8
0
  2
COTE
 10
284.010391
 20
6.373258
 30
0.0
  0
INSERT
  5
72
  8
0
  2
FOND
 10
0.0
 20
0.0
 30
0.0
  0
DIMENSION
  5
9B8C
  8
COTATION1
  2
*D3
 10
33.484628
 20
75.856235
 30
0.0
 11
21.884628
 21
79.106235
 31
0.0
 13
10.284628
 23
65.856235
 33
0.0
 14
33.484628
 24
65.856235
 34
0.0
  0
LINE
  5
A341
  8
ALPHA
 10
22.884628
 20
18.456235
 30
0.0
 11
20.884628
 21
18.456235
 31
0.0
  0
LINE
  5
A604
  8
ALPHA
 10
15.334628
 20
43.869533
 30
0.0
 11
15.334628
 21
57.356235
 31
0.0
  0
LINE
  5
A605
  8
ALPHA
 10
13.334628
 20
43.550998
 30
0.0
 11
13.334628
 21
57.356235
 31
0.0
  0
LINE
  5
A606
  8
ALPHA
 10
12.784628
 20
45.056326
 30
0.0
 11
12.784628
 21
60.656143
 31
0.0
  0
LINE
  5
A607
  8
ALPHA
 10
12.584628
 20
44.856235
 30
0.0
 11
12.584628
 21
60.856235
 31
0.0
  0
LINE
  5
A608
  8
ALPHA
 10
7.984628
 20
44.856235
 30
0.0
 11
7.984628
 21
60.856235
 31
0.0
  0
LINE
  5
A609
  8
ALPHA
 10
7.784628
 20
45.056326
 30
0.0
 11
7.784628
 21
60.656143
 31
0.0
  0
LINE
  5
A60C
  8
ALPHA
 10
12.584628
 20
44.856235
 30
0.0
 11
7.984628
 21
44.856235
 31
0.0
  0
LINE
  5
A60D
  8
ALPHA
 10
7.984628
 20
44.856235
 30
0.0
 11
7.784628
 21
45.056235
 31
0.0
  0
LINE
  5
A60E
  8
ALPHA
 10
22.884628
 20
38.4377
 30
0.0
 11
22.884628
 21
18.456235
 31
0.0
  0
LINE
  5
A60F
  8
ALPHA
 10
20.884628
 20
38.4377
 30
0.0
 11
20.884628
 21
18.456235
 31
0.0
  0
ARC
  5
A611
  8
ALPHA
 10
20.384628
 20
38.4377
 30
0.0
 40
0.5
 50
0.0
 51
65.0
  0
LINE
  5
A612
  8
ALPHA
 10
21.441174
 20
40.703469
 30
0.0
 11
15.334628
 21
43.550998
 31
0.0
  0
LINE
  5
A613
  8
ALPHA
 10
20.595938
 20
38.890853
 30
0.0
 11
14.489392
 21
41.738382
 31
0.0
  0
LINE
  5
A614
  8
ALPHA
 10
15.334628
 20
43.550998
 30
0.0
 11
13.334628
 21
43.550998
 31
0.0
  0
LINE
  5
A615
  8
ALPHA
 10
15.334628
 20
43.550998
 30
0.0
 11
14.489392
 21
41.738382
 31
0.0
  0
ARC
  5
A616
  8
ALPHA
 10
15.334628
 20
43.550998
 30
0.0
 40
2.0
 50
180.0
 51
245.0
  0
LINE
  5
A617
  8
ALPHA
 10
12.784628
 20
45.056235
 30
0.0
 11
12.584628
 21
44.856235
 31
0.0
  0
ARC
  5
A618
  8
ALPHA
 10
15.834628
 20
43.869533
 30
0.0
 40
0.5
 50
180.0
 51
245.0
  0
LINE
  5
A619
  8
ALPHA
 10
22.884628
 20
27.333095
 30
0.0
 11
20.884628
 21
27.333095
 31
0.0
  0
LINE
  5
A61A
  8
ALPHA
 10
22.884628
 20
26.456235
 30
0.0
 11
20.884628
 21
26.456235
 31
0.0
  0
ARC
  5
A61B
  8
ALPHA
 10
20.384628
 20
38.4377
 30
0.0
 40
2.5
 50
0.0
 51
65.0
  0
LINE
  5
A61C
  8
ALPHA
 10
20.806324
 20
38.706349
 30
0.0
 11
22.493107
 21
39.780949
 31
0.0
  0
LINE
  5
A689
  8
ALPHA
 10
12.584628
 20
60.856235
 30
0.0
 11
7.984628
 21
60.856235
 31
0.0
  0
LINE
  5
A68A
  8
ALPHA
 10
5.88726
 20
56.356235
 30
0.0
 11
5.88726
 21
49.356235
 31
0.0
  0
LINE
  5
A68B
  8
ALPHA
 10
5.784628
 20
51.856235
 30
0.0
 11
5.784628
 21
53.856235
 31
0.0
  0
LINE
  5
A68C
  8
ALPHA
 10
5.88726
 20
49.356235
 30
0.0
 11
7.784628
 21
49.356235
 31
0.0
  0
ARC
  5
A68D
  8
ALPHA
 10
36.284628
 20
51.856235
 30
0.0
 40
30.5
 50
180.0
 51
184.70165
  0
LINE
  5
A68E
  8
ALPHA
 10
5.88726
 20
56.356235
 30
0.0
 11
7.784628
 21
56.356235
 31
0.0
  0
ARC
  5
A68F
  8
ALPHA
 10
36.284628
 20
53.856235
 30
0.0
 40
30.5
 50
175.29835
 51
180.0
  0
LINE
  5
A690
  8
ALPHA
 10
7.984628
 20
60.856235
 30
0.0
 11
7.784628
 21
60.656235
 31
0.0
  0
LINE
  5
A691
  8
ALPHA
 10
15.334628
 20
54.906235
 30
0.0
 11
16.834628
 21
54.906235
 31
0.0
  0
LINE
  5
A692
  8
ALPHA
 10
15.334628
 20
50.806235
 30
0.0
 11
16.834628
 21
50.806235
 31
0.0
  0
LINE
  5
A693
  8
ALPHA
 10
12.784628
 20
50.378107
 30
0.0
 11
13.334628
 21
50.426226
 31
0.0
  0
LINE
  5
A694
  8
ALPHA
 10
13.334628
 20
57.356235
 30
0.0
 11
15.334628
 21
57.356235
 31
0.0
  0
LINE
  5
A695
  8
ALPHA
 10
15.334628
 20
53.349469
 30
0.0
 11
13.334628
 21
53.349469
 31
0.0
  0
LINE
  5
A696
  8
ALPHA
 10
12.784628
 20
55.334363
 30
0.0
 11
13.334628
 21
55.286244
 31
0.0
  0
LINE
  5
A697
  8
ALPHA
 10
16.834628
 20
50.806235
 30
0.0
 11
16.834628
 21
54.906235
 31
0.0
  0
LINE
  5
A698
  8
ALPHA
 10
12.784628
 20
60.656235
 30
0.0
 11
12.584628
 21
60.856235
 31
0.0
  0
LINE
  5
A6B4
  8
AXE
 10
10.284628
 20
39.856235
 30
0.0
 11
10.284628
 21
65.856235
 31
0.0
  0
LINE
  5
A6B6
  8
AXE
 10
1.31294
 20
52.856235
 30
0.0
 11
46.89294
 21
52.856235
 31
0.0
  0
TEXT
  5
A6B7
  8
AXE
 10
42.845321
 20
53.856235
 30
0.0
 40
5.0
  1
Z
 72
     2
 11
46.89294
 21
53.856235
 31
0.0
  0
DIMENSION
  5
A845
  8
COTATION1
  2
*D4
 10
22.884628
 20
-3.022946
 30
0.0
 11
14.334628
 21
0.227054
 31
0.0
 13
5.784628
 23
52.856235
 33
0.0
 14
22.884628
 24
18.456235
 34
0.0
  0
DIMENSION
  5
A848
  8
COTATION1
  2
*D5
 10
10.284628
 20
75.856235
 30
0.0
 11
-3.242203
 21
79.179038
 31
0.0
 70
   128
 13
5.784628
 23
52.856235
 33
0.0
 14
10.284628
 24
65.856235
 34
0.0
  0
LINE
  5
A859
  8
COTATION1
 10
22.884628
 20
-5.522946
 30
0.0
 11
22.884628
 21
-19.774573
 31
0.0
  0
TEXT
  5
A85A
  8
COTATION1
 10
33.873033
 20
-14.873299
 30
0.0
 40
2.5
  1
PLANE_TO_LINE_UP
 41
0.626087
  7
STANDARD
 72
     5
 11
57.873033
 21
-14.873299
 31
0.0
  0
LINE
  5
A85B
  8
COTATION1
 10
59.123033
 20
-16.123299
 30
0.0
 11
32.623033
 21
-16.123299
 31
0.0
  0
LINE
  5
A85C
  8
COTATION1
 10
32.623033
 20
-11.123299
 30
0.0
 11
59.123033
 21
-11.123299
 31
0.0
  0
LINE
  5
A85D
  8
COTATION1
 10
25.384628
 20
-13.623299
 30
0.0
 11
32.623033
 21
-13.623299
 31
0.0
  0
SOLID
  5
A85E
  8
COTATION1
 10
22.884628
 20
-15.066674
 30
0.0
 11
22.884628
 21
-12.179923
 31
0.0
 12
25.384628
 22
-13.623299
 32
0.0
 13
25.384628
 23
-13.623299
 33
0.0
  0
LINE
  5
A85F
  8
COTATION1
 10
32.623033
 20
-16.123299
 30
0.0
 11
32.623033
 21
-11.123299
 31
0.0
  0
LINE
  5
A864
  8
COTATION1
 10
59.123033
 20
-11.123299
 30
0.0
 11
59.123033
 21
-16.123299
 31
0.0
  0
LINE
  5
A8E1
  8
POINTILLE_COURT
 10
31.184628
 20
60.856235
 30
0.0
 11
35.784628
 21
60.856235
 31
0.0
  0
LINE
  5
A8E2
  8
POINTILLE_COURT
 10
31.184628
 20
44.856235
 30
0.0
 11
35.784628
 21
44.856235
 31
0.0
  0
ARC
  5
A8E4
  8
POINTILLE_COURT
 10
7.484628
 20
51.856235
 30
0.0
 40
30.5
 50
355.29835
 51
0.0
  0
LINE
  5
A8E5
  8
POINTILLE_COURT
 10
37.881997
 20
56.356235
 30
0.0
 11
37.881997
 21
49.356235
 31
0.0
  0
LINE
  5
A8E6
  8
POINTILLE_COURT
 10
35.984628
 20
45.056326
 30
0.0
 11
35.984628
 21
60.656143
 31
0.0
  0
LINE
  5
A8E7
  8
POINTILLE_COURT
 10
35.784628
 20
44.856235
 30
0.0
 11
35.784628
 21
60.856235
 31
0.0
  0
LINE
  5
A8E8
  8
POINTILLE_COURT
 10
37.881997
 20
49.356235
 30
0.0
 11
35.984628
 21
49.356235
 31
0.0
  0
LINE
  5
A8E9
  8
POINTILLE_COURT
 10
35.784628
 20
44.856235
 30
0.0
 11
35.984628
 21
45.056235
 31
0.0
  0
LINE
  5
A8EA
  8
POINTILLE_COURT
 10
35.784628
 20
60.856235
 30
0.0
 11
35.984628
 21
60.656235
 31
0.0
  0
ARC
  5
A8EB
  8
POINTILLE_COURT
 10
7.484628
 20
53.856235
 30
0.0
 40
30.5
 50
0.0
 51
4.70165
  0
LINE
  5
A8EC
  8
POINTILLE_COURT
 10
37.881997
 20
56.356235
 30
0.0
 11
35.984628
 21
56.356235
 31
0.0
  0
LINE
  5
A8ED
  8
POINTILLE_COURT
 10
37.984628
 20
51.856235
 30
0.0
 11
37.984628
 21
53.856235
 31
0.0
  0
LINE
  5
A8EE
  8
POINTILLE_COURT
 10
26.934628
 20
50.806235
 30
0.0
 11
26.934628
 21
54.906235
 31
0.0
  0
LINE
  5
A8EF
  8
POINTILLE_COURT
 10
31.184628
 20
44.856235
 30
0.0
 11
31.184628
 21
60.856235
 31
0.0
  0
LINE
  5
A8F0
  8
POINTILLE_COURT
 10
30.984628
 20
45.056326
 30
0.0
 11
30.984628
 21
60.656143
 31
0.0
  0
LINE
  5
A8F1
  8
POINTILLE_COURT
 10
30.434628
 20
43.550998
 30
0.0
 11
30.434628
 21
57.356235
 31
0.0
  0
LINE
  5
A8F2
  8
POINTILLE_COURT
 10
28.434628
 20
43.869533
 30
0.0
 11
28.434628
 21
57.356235
 31
0.0
  0
LINE
  5
A8F3
  8
POINTILLE_COURT
 10
22.962933
 20
38.706349
 30
0.0
 11
21.27615
 21
39.780949
 31
0.0
  0
ARC
  5
A8F4
  8
POINTILLE_COURT
 10
23.384628
 20
38.4377
 30
0.0
 40
2.5
 50
115.0
 51
180.0
  0
LINE
  5
A8F5
  8
POINTILLE_COURT
 10
23.173319
 20
38.890853
 30
0.0
 11
29.279865
 21
41.738382
 31
0.0
  0
ARC
  5
A8F6
  8
POINTILLE_COURT
 10
23.384628
 20
38.4377
 30
0.0
 40
0.5
 50
115.0
 51
180.0
  0
LINE
  5
A8F7
  8
POINTILLE_COURT
 10
22.328083
 20
40.703469
 30
0.0
 11
28.434628
 21
43.550998
 31
0.0
  0
LINE
  5
A8F8
  8
POINTILLE_COURT
 10
30.984628
 20
50.378107
 30
0.0
 11
30.434628
 21
50.426226
 31
0.0
  0
LINE
  5
A8F9
  8
POINTILLE_COURT
 10
28.434628
 20
50.806235
 30
0.0
 11
26.934628
 21
50.806235
 31
0.0
  0
ARC
  5
A8FA
  8
POINTILLE_COURT
 10
27.934628
 20
43.869533
 30
0.0
 40
0.5
 50
295.0
 51
0.0
  0
LINE
  5
A8FB
  8
POINTILLE_COURT
 10
30.984628
 20
45.056235
 30
0.0
 11
31.184628
 21
44.856235
 31
0.0
  0
ARC
  5
A8FC
  8
POINTILLE_COURT
 10
28.434628
 20
43.550998
 30
0.0
 40
2.0
 50
295.0
 51
0.0
  0
LINE
  5
A8FD
  8
POINTILLE_COURT
 10
28.434628
 20
43.550998
 30
0.0
 11
29.279865
 21
41.738382
 31
0.0
  0
LINE
  5
A8FE
  8
POINTILLE_COURT
 10
28.434628
 20
43.550998
 30
0.0
 11
30.434628
 21
43.550998
 31
0.0
  0
LINE
  5
A8FF
  8
POINTILLE_COURT
 10
30.984628
 20
60.656235
 30
0.0
 11
31.184628
 21
60.856235
 31
0.0
  0
LINE
  5
A900
  8
POINTILLE_COURT
 10
30.984628
 20
55.334363
 30
0.0
 11
30.434628
 21
55.286244
 31
0.0
  0
LINE
  5
A901
  8
POINTILLE_COURT
 10
28.434628
 20
53.349469
 30
0.0
 11
30.434628
 21
53.349469
 31
0.0
  0
LINE
  5
A902
  8
POINTILLE_COURT
 10
30.434628
 20
57.356235
 30
0.0
 11
28.434628
 21
57.356235
 31
0.0
  0
LINE
  5
A903
  8
POINTILLE_COURT
 10
28.434628
 20
54.906235
 30
0.0
 11
26.934628
 21
54.906235
 31
0.0
  0
LINE
  5
A905
  8
AXE
 10
33.484628
 20
39.856235
 30
0.0
 11
33.484628
 21
65.856235
 31
0.0
  0
TEXT
  5
A906
  8
AXE
 10
16.837009
 20
6.977054
 30
0.0
 40
5.0
  1
Y
 72
     2
 11
20.884628
 21
6.977054
 31
0.0
  0
LINE
  5
A907
  8
AXE
 10
21.884628
 20
6.977054
 30
0.0
 11
21.884628
 21
44.500659
 31
0.0
  0
VIEWPORT
  5
494D
 67
     1
  8
0
 10
4.995325
 20
6.556512
 30
0.0
 40
22.70986
 41
13.988421
 68
    -1
 69
     1
1001
ACAD
1000
MVIEW
1002
{
1070
    16
1010
0.0
1020
0.0
1030
0.0
1010
0.0
1020
0.0
1030
1.0
1040
0.0
1040
13.988421
1040
4.995325
1040
6.556512
1040
50.0
1040
0.0
1040
0.0
1070
     0
1070
   100
1070
     1
1070
     1
1070
     0
1070
     0
1070
     0
1070
     0
1040
0.0
1040
0.0
1040
0.0
1040
10.0
1040
10.0
1040
10.0
1040
10.0
1070
     0
1002
{
1002
}
1002
}
  0
ENDSEC
  0
EOF
