  0
SECTION
  2
HEADER
  9
$ACADVER
  1
AC1009
  9
$INSBASE
 10
402.590624
 20
-1.041018
 30
0.0
  9
$EXTMIN
 10
86.057238
 20
8.456235
 30
0.0
  9
$EXTMAX
 10
133.106286
 20
80.356235
 30
0.0
  9
$LIMMIN
 10
-407.970438
 20
-367.832444
  9
$LIMMAX
 10
429.804077
 20
234.370848
  9
$ORTHOMODE
 70
     0
  9
$REGENMODE
 70
     1
  9
$FILLMODE
 70
     1
  9
$QTEXTMODE
 70
     0
  9
$MIRRTEXT
 70
     1
  9
$DRAGMODE
 70
     2
  9
$LTSCALE
 40
10.0
  9
$OSMODE
 70
    35
  9
$ATTMODE
 70
     1
  9
$TEXTSIZE
 40
6.0
  9
$TRACEWID
 40
1.0
  9
$TEXTSTYLE
  7
ROMANS
  9
$CLAYER
  8
ALPHA
  9
$CELTYPE
  6
BYLAYER
  9
$CECOLOR
 62
   256
  9
$DIMSCALE
 40
1.0
  9
$DIMASZ
 40
5.0
  9
$DIMEXO
 40
2.0
  9
$DIMDLI
 40
0.38
  9
$DIMRND
 40
0.0
  9
$DIMDLE
 40
0.0
  9
$DIMEXE
 40
2.5
  9
$DIMTP
 40
0.0
  9
$DIMTM
 40
0.0
  9
$DIMTXT
 40
2.5
  9
$DIMCEN
 40
0.0
  9
$DIMTSZ
 40
0.0
  9
$DIMTOL
 70
     0
  9
$DIMLIM
 70
     0
  9
$DIMTIH
 70
     1
  9
$DIMTOH
 70
     1
  9
$DIMSE1
 70
     0
  9
$DIMSE2
 70
     0
  9
$DIMTAD
 70
     1
  9
$DIMZIN
 70
    12
  9
$DIMBLK
  1
OPEN30
  9
$DIMASO
 70
     1
  9
$DIMSHO
 70
     1
  9
$DIMPOST
  1

  9
$DIMAPOST
  1

  9
$DIMALT
 70
     0
  9
$DIMALTD
 70
     2
  9
$DIMALTF
 40
25.4
  9
$DIMLFAC
 40
1.0
  9
$DIMTOFL
 70
     0
  9
$DIMTVP
 40
0.0
  9
$DIMTIX
 70
     0
  9
$DIMSOXD
 70
     0
  9
$DIMSAH
 70
     0
  9
$DIMBLK1
  1

  9
$DIMBLK2
  1

  9
$DIMSTYLE
  2
SC_DEFAUT
  9
$DIMCLRD
 70
     0
  9
$DIMCLRE
 70
     0
  9
$DIMCLRT
 70
     0
  9
$DIMTFAC
 40
1.0
  9
$DIMGAP
 40
2.0
  9
$LUNITS
 70
     2
  9
$LUPREC
 70
     1
  9
$SKETCHINC
 40
0.1
  9
$FILLETRAD
 40
0.0
  9
$AUNITS
 70
     0
  9
$AUPREC
 70
     0
  9
$MENU
  1
acad
  9
$ELEVATION
 40
0.0
  9
$PELEVATION
 40
0.0
  9
$THICKNESS
 40
0.0
  9
$LIMCHECK
 70
     0
  9
$BLIPMODE
 70
     0
  9
$CHAMFERA
 40
0.0
  9
$CHAMFERB
 40
0.0
  9
$SKPOLY
 70
     0
  9
$TDCREATE
 40
2450373.687919
  9
$TDUPDATE
 40
2453032.644045
  9
$TDINDWG
 40
1.088828
  9
$TDUSRTIMER
 40
1.088828
  9
$USRTIMER
 70
     1
  9
$ANGBASE
 50
0.0
  9
$ANGDIR
 70
     0
  9
$PDMODE
 70
    32
  9
$PDSIZE
 40
0.0
  9
$PLINEWID
 40
0.0
  9
$COORDS
 70
     1
  9
$SPLFRAME
 70
     0
  9
$SPLINETYPE
 70
     6
  9
$SPLINESEGS
 70
     8
  9
$ATTDIA
 70
     0
  9
$ATTREQ
 70
     1
  9
$HANDLING
 70
     1
  9
$HANDSEED
  5
A82C
  9
$SURFTAB1
 70
     6
  9
$SURFTAB2
 70
     6
  9
$SURFTYPE
 70
     6
  9
$SURFU
 70
     6
  9
$SURFV
 70
     6
  9
$UCSNAME
  2

  9
$UCSORG
 10
0.0
 20
0.0
 30
0.0
  9
$UCSXDIR
 10
1.0
 20
0.0
 30
0.0
  9
$UCSYDIR
 10
0.0
 20
1.0
 30
0.0
  9
$PUCSNAME
  2

  9
$PUCSORG
 10
0.0
 20
0.0
 30
0.0
  9
$PUCSXDIR
 10
1.0
 20
0.0
 30
0.0
  9
$PUCSYDIR
 10
0.0
 20
1.0
 30
0.0
  9
$USERI1
 70
     0
  9
$USERI2
 70
     0
  9
$USERI3
 70
     0
  9
$USERI4
 70
     0
  9
$USERI5
 70
     0
  9
$USERR1
 40
0.0
  9
$USERR2
 40
0.0
  9
$USERR3
 40
0.0
  9
$USERR4
 40
0.0
  9
$USERR5
 40
0.0
  9
$WORLDVIEW
 70
     1
  9
$SHADEDGE
 70
     3
  9
$SHADEDIF
 70
    70
  9
$TILEMODE
 70
     1
  9
$MAXACTVP
 70
    16
  9
$PLIMCHECK
 70
     0
  9
$PEXTMIN
 10
-1.452248
 20
-0.437698
 30
0.0
  9
$PEXTMAX
 10
12.749749
 20
8.310198
 30
0.0
  9
$PLIMMIN
 10
0.0
 20
0.0
  9
$PLIMMAX
 10
12.0
 20
9.0
  9
$UNITMODE
 70
     0
  9
$VISRETAIN
 70
     0
  9
$PLINEGEN
 70
     0
  9
$PSLTSCALE
 70
     0
  0
ENDSEC
  0
SECTION
  2
TABLES
  0
TABLE
  2
VPORT
 70
     2
  0
VPORT
  2
*ACTIVE
 70
     0
 10
0.0
 20
0.0
 11
1.0
 21
1.0
 12
109.572901
 22
44.408864
 13
0.0
 23
0.0
 14
1.0
 24
1.0
 15
10.0
 25
10.0
 16
0.0
 26
0.0
 36
1.0
 17
0.0
 27
0.0
 37
0.0
 40
72.467272
 41
1.466346
 42
50.0
 43
0.0
 44
0.0
 50
0.0
 51
0.0
 71
     0
 72
   100
 73
     1
 74
     0
 75
     0
 76
     0
 77
     0
 78
     0
  0
ENDTAB
  0
TABLE
  2
LTYPE
 70
     2
  0
LTYPE
  2
CONTINUOUS
 70
     0
  3
Solid line
 72
    65
 73
     0
 40
0.0
  0
LTYPE
  2
AXES2
 70
     0
  3
___ _ ___ _ ___ _ ___ _ ___ _ ___ _ ___ _ ___ _
 72
    65
 73
     4
 40
1.125
 49
0.75
 49
-0.125
 49
0.125
 49
-0.125
  0
ENDTAB
  0
TABLE
  2
LAYER
 70
     5
  0
LAYER
  2
0
 70
     0
 62
   255
  6
CONTINUOUS
  0
LAYER
  2
COTATION1
 70
     0
 62
     2
  6
CONTINUOUS
  0
LAYER
  2
AXE
 70
     0
 62
    80
  6
AXES2
  0
LAYER
  2
DEFPOINTS
 70
     0
 62
     7
  6
CONTINUOUS
  0
LAYER
  2
ALPHA
 70
     0
 62
   254
  6
CONTINUOUS
  0
ENDTAB
  0
TABLE
  2
STYLE
 70
     2
  0
STYLE
  2
ROMANS
 70
     0
 40
0.0
 41
1.0
 50
0.0
 71
     0
 42
6.0
  3
romans
  4

  0
STYLE
  2
STANDARD
 70
     0
 40
0.0
 41
1.0
 50
0.0
 71
     0
 42
0.2
  3
txt
  4

  0
ENDTAB
  0
TABLE
  2
VIEW
 70
     0
  0
ENDTAB
  0
TABLE
  2
UCS
 70
     0
  0
ENDTAB
  0
TABLE
  2
APPID
 70
     1
  0
APPID
  2
ACAD
 70
     0
  0
ENDTAB
  0
TABLE
  2
DIMSTYLE
 70
     2
  0
DIMSTYLE
  2
SC_DEFAUT
 70
     0
  3

  4

  5
OPEN30
  6

  7

 40
1.0
 41
5.0
 42
2.0
 43
0.38
 44
2.5
 45
0.0
 46
0.0
 47
0.0
 48
0.0
140
2.5
141
0.0
142
0.0
143
25.4
144
1.0
145
0.0
146
1.0
147
2.0
 71
     0
 72
     0
 73
     1
 74
     1
 75
     0
 76
     0
 77
     1
 78
    12
170
     0
171
     2
172
     0
173
     0
174
     0
175
     0
176
     0
177
     0
178
     0
  0
DIMSTYLE
  2
STANDARD
 70
     0
  3

  4

  5

  6

  7

 40
1.0
 41
0.18
 42
0.0625
 43
0.38
 44
0.18
 45
0.0
 46
0.0
 47
0.0
 48
0.0
140
0.18
141
0.09
142
0.0
143
25.4
144
1.0
145
0.0
146
1.0
147
0.09
 71
     0
 72
     0
 73
     1
 74
     1
 75
     0
 76
     0
 77
     0
 78
     0
170
     0
171
     2
172
     0
173
     0
174
     0
175
     0
176
     0
177
     0
178
     0
  0
ENDTAB
  0
ENDSEC
  0
SECTION
  2
BLOCKS
  0
BLOCK
  8
0
  2
$MODEL_SPACE
 70
     0
 10
0.0
 20
0.0
 30
0.0
  3
$MODEL_SPACE
  1

  0
ENDBLK
  5
A825
  8
0
  0
BLOCK
 67
     1
  8
0
  2
$PAPER_SPACE
 70
     0
 10
0.0
 20
0.0
 30
0.0
  3
$PAPER_SPACE
  1

  0
ENDBLK
  5
A823
 67
     1
  8
0
  0
BLOCK
  8
0
  2
COTE
 70
     0
 10
0.0
 20
0.0
 30
0.0
  3
COTE
  1

  0
ENDBLK
  5
F
  8
0
  0
BLOCK
  8
0
  2
FOND
 70
     0
 10
0.0
 20
0.0
 30
0.0
  3
FOND
  1

  0
ENDBLK
  5
75
  8
0
  0
BLOCK
  8
0
  2
_OPEN30
 70
     0
 10
0.0
 20
0.0
 30
0.0
  3
_OPEN30
  1

  0
LINE
  5
4B05
  8
COTATION1
 62
     0
 10
-1.0
 20
0.267949
 30
0.0
 11
0.0
 21
0.0
 31
0.0
1001
ACAD
1000
RTLwPs
1070
   158
  0
LINE
  5
4B06
  8
COTATION1
 62
     0
 10
0.0
 20
0.0
 30
0.0
 11
-1.0
 21
-0.267949
 31
0.0
1001
ACAD
1000
RTLwPs
1070
   158
  0
LINE
  5
4B07
  8
COTATION1
 62
     0
 10
0.0
 20
0.0
 30
0.0
 11
-1.0
 21
0.0
 31
0.0
1001
ACAD
1000
RTLwPs
1070
   158
  0
ENDBLK
  5
4B09
  8
0
  0
BLOCK
  8
0
  2
*D3
 70
     1
 10
0.0
 20
0.0
 30
0.0
  3
*D3
  1

  0
LINE
  5
A732
  8
COTATION1
 62
     0
 10
91.057238
 20
54.856235
 30
0.0
 11
91.057238
 21
78.356235
 31
0.0
1001
ACAD
1000
RTLwPs
1070
   158
  0
LINE
  5
A733
  8
COTATION1
 62
     0
 10
107.057238
 20
54.856235
 30
0.0
 11
107.057238
 21
78.356235
 31
0.0
1001
ACAD
1000
RTLwPs
1070
   158
  0
LINE
  5
A734
  8
COTATION1
 62
     0
 10
96.057238
 20
75.856235
 30
0.0
 11
102.057238
 21
75.856235
 31
0.0
1001
ACAD
1000
RTLwPs
1070
   158
  0
INSERT
  5
A735
  8
COTATION1
 62
     0
  2
_OPEN30
 10
91.057238
 20
75.856235
 30
0.0
 41
5.0
 42
5.0
 43
5.0
 50
180.0
1001
ACAD
1000
RTLwPs
1070
   158
  0
INSERT
  5
A736
  8
COTATION1
 62
     0
  2
_OPEN30
 10
107.057238
 20
75.856235
 30
0.0
 41
5.0
 42
5.0
 43
5.0
1001
ACAD
1000
RTLwPs
1070
   158
  0
TEXT
  5
A737
  8
COTATION1
 62
     0
 10
95.664381
 20
77.856235
 30
0.0
 40
2.5
  1
%%c
1001
ACAD
1000
MTEXTBEGIN
1070
    73
1070
     1
1070
    44
1040
1.0
1070
    74
1070
     0
1000
MTEXTEND
  0
TEXT
  5
A7F6
  8
COTATION1
 62
     0
 10
97.926286
 20
77.856235
 30
0.0
 40
2.5
  1
16
1001
ACAD
1000
R13OBJECT
1002
{
1005
A737
1002
}
  0
POINT
  5
A738
  8
DEFPOINTS
 62
     0
 10
91.057238
 20
52.856235
 30
0.0
  0
POINT
  5
A739
  8
DEFPOINTS
 62
     0
 10
107.057238
 20
52.856235
 30
0.0
  0
POINT
  5
A73A
  8
DEFPOINTS
 62
     0
 10
107.057238
 20
75.856235
 30
0.0
  0
ENDBLK
  5
97F8
  8
0
  0
BLOCK
  8
0
  2
*D4
 70
     1
 10
0.0
 20
0.0
 30
0.0
  3
*D4
  1

  0
LINE
  5
A728
  8
COTATION1
 62
     0
 10
101.057238
 20
60.856235
 30
0.0
 11
131.737238
 21
60.856235
 31
0.0
1001
ACAD
1000
RTLwPs
1070
   158
  0
LINE
  5
A729
  8
COTATION1
 62
     0
 10
101.057238
 20
18.456235
 30
0.0
 11
131.737238
 21
18.456235
 31
0.0
1001
ACAD
1000
RTLwPs
1070
   158
  0
LINE
  5
A72A
  8
COTATION1
 62
     0
 10
129.237238
 20
55.856235
 30
0.0
 11
129.237238
 21
42.906235
 31
0.0
1001
ACAD
1000
RTLwPs
1070
   158
  0
LINE
  5
A72B
  8
COTATION1
 62
     0
 10
129.237238
 20
23.456235
 30
0.0
 11
129.237238
 21
36.406235
 31
0.0
1001
ACAD
1000
RTLwPs
1070
   158
  0
INSERT
  5
A72C
  8
COTATION1
 62
     0
  2
_OPEN30
 10
129.237238
 20
60.856235
 30
0.0
 41
5.0
 42
5.0
 43
5.0
 50
90.0
1001
ACAD
1000
RTLwPs
1070
   158
  0
INSERT
  5
A72D
  8
COTATION1
 62
     0
  2
_OPEN30
 10
129.237238
 20
18.456235
 30
0.0
 41
5.0
 42
5.0
 43
5.0
 50
270.0
1001
ACAD
1000
RTLwPs
1070
   158
  0
TEXT
  5
A72E
  8
COTATION1
 62
     0
 10
125.011048
 20
38.406235
 30
0.0
 40
2.5
  1
42.4
1001
ACAD
1000
MTEXTBEGIN
1070
    73
1070
     1
1070
    44
1040
1.0
1070
    74
1070
     0
1000
MTEXTEND
  0
POINT
  5
A72F
  8
DEFPOINTS
 62
     0
 10
99.057238
 20
60.856235
 30
0.0
  0
POINT
  5
A730
  8
DEFPOINTS
 62
     0
 10
99.057238
 20
18.456235
 30
0.0
  0
POINT
  5
A731
  8
DEFPOINTS
 62
     0
 10
129.237238
 20
18.456235
 30
0.0
  0
ENDBLK
  5
989A
  8
0
  0
ENDSEC
  0
SECTION
  2
ENTITIES
  0
INSERT
  5
A
  8
0
  2
COTE
 10
0.0
 20
0.0
 30
0.0
  0
INSERT
  5
17
  8
0
  2
COTE
 10
284.010391
 20
6.373258
 30
0.0
  0
INSERT
  5
72
  8
0
  2
FOND
 10
0.0
 20
0.0
 30
0.0
  0
LINE
  5
97AB
  8
AXE
 10
99.057238
 20
8.456235
 30
0.0
 11
99.057238
 21
65.856235
 31
0.0
  0
TEXT
  5
97AC
  8
AXE
 10
94.009619
 20
8.456235
 30
0.0
 40
5.0
  1
Y
 72
     2
 11
98.057238
 21
8.456235
 31
0.0
  0
TEXT
  5
97AF
  8
AXE
 10
113.009619
 20
53.856235
 30
0.0
 40
5.0
  1
X
 72
     2
 11
117.057238
 21
53.856235
 31
0.0
  0
LINE
  5
97B0
  8
AXE
 10
86.057238
 20
52.856235
 30
0.0
 11
117.057238
 21
52.856235
 31
0.0
  0
DIMENSION
  5
97EC
  8
COTATION1
  2
*D3
 10
107.057238
 20
75.856235
 30
0.0
 11
99.057238
 21
79.106235
 31
0.0
  1
%%c<>
 13
91.057238
 23
52.856235
 33
0.0
 14
107.057238
 24
52.856235
 34
0.0
  0
DIMENSION
  5
988B
  8
COTATION1
  2
*D4
 10
129.237238
 20
18.456235
 30
0.0
 11
129.237238
 21
39.656235
 31
0.0
 13
99.057238
 23
60.856235
 33
0.0
 14
99.057238
 24
18.456235
 34
0.0
 50
90.0
  0
LINE
  5
98A5
  8
AXE
 10
88.881349
 20
26.456235
 30
0.0
 11
109.233128
 21
26.456235
 31
0.0
  0
ARC
  5
A5F9
  8
ALPHA
 10
99.057238
 20
26.456235
 30
0.0
 40
8.0
 50
173.707306
 51
6.292694
  0
CIRCLE
  5
A5FA
  8
ALPHA
 10
99.057238
 20
52.856235
 30
0.0
 40
6.29
  0
CIRCLE
  5
A5FB
  8
ALPHA
 10
99.057238
 20
52.856235
 30
0.0
 40
6.453393
  0
CIRCLE
  5
A5FC
  8
ALPHA
 10
99.057238
 20
52.856235
 30
0.0
 40
7.8
  0
CIRCLE
  5
A5FD
  8
ALPHA
 10
99.057238
 20
52.856235
 30
0.0
 40
6.247738
  0
CIRCLE
  5
A5FE
  8
ALPHA
 10
99.057238
 20
52.856235
 30
0.0
 40
6.5
  0
CIRCLE
  5
A5FF
  8
ALPHA
 10
99.057238
 20
52.856235
 30
0.0
 40
8.0
  0
LINE
  5
A600
  8
ALPHA
 10
105.433257
 20
40.703469
 30
0.0
 11
104.690263
 21
43.550998
 31
0.0
  0
LINE
  5
A601
  8
ALPHA
 10
105.567416
 20
38.890853
 30
0.0
 11
104.690263
 21
41.738382
 31
0.0
  0
LINE
  5
A602
  8
ALPHA
 10
105.567416
 20
38.890853
 30
0.0
 11
92.547061
 21
38.890853
 31
0.0
  0
LINE
  5
A603
  8
ALPHA
 10
105.647927
 20
38.4377
 30
0.0
 11
92.466549
 21
38.4377
 31
0.0
  0
LINE
  5
A60A
  8
ALPHA
 10
104.610622
 20
43.550998
 30
0.0
 11
104.254644
 21
46.779186
 31
0.0
  0
LINE
  5
A60B
  8
ALPHA
 10
93.503855
 20
43.550998
 30
0.0
 11
93.859833
 21
46.779186
 31
0.0
  0
LINE
  5
A61D
  8
ALPHA
 10
94.932534
 20
23.330945
 30
0.0
 11
94.288306
 21
24.44678
 31
0.0
  0
LINE
  5
A61E
  8
ALPHA
 10
103.826171
 20
24.44678
 30
0.0
 11
103.181943
 21
23.330945
 31
0.0
  0
ARC
  5
A61F
  8
ALPHA
 10
95.171647
 20
23.512121
 30
0.0
 40
0.3
 50
133.0
 51
217.151216
  0
ARC
  5
A620
  8
ALPHA
 10
102.94283
 20
23.512121
 30
0.0
 40
0.3
 50
322.848784
 51
47.0
  0
LINE
  5
A621
  8
ALPHA
 10
97.047784
 20
21.687302
 30
0.0
 11
95.931949
 21
22.33153
 31
0.0
  0
ARC
  5
A622
  8
ALPHA
 10
96.797238
 20
22.5418
 30
0.0
 40
0.22
 50
343.0
 51
137.0
  0
ARC
  5
A623
  8
ALPHA
 10
97.164274
 20
21.963762
 30
0.0
 40
0.3
 50
163.0
 51
247.151216
  0
ARC
  5
A624
  8
ALPHA
 10
96.113125
 20
22.570643
 30
0.0
 40
0.3
 50
232.848784
 51
317.0
  0
ARC
  5
A625
  8
ALPHA
 10
99.057238
 20
26.456235
 30
0.0
 40
5.175
 50
217.151216
 51
232.848784
  0
LINE
  5
A626
  8
ALPHA
 10
96.332531
 20
22.366044
 30
0.0
 11
96.636341
 21
22.69184
 31
0.0
  0
ARC
  5
A627
  8
ALPHA
 10
99.057238
 20
26.456235
 30
0.0
 40
5.175
 50
277.151216
 51
292.848784
  0
LINE
  5
A628
  8
ALPHA
 10
99.057238
 20
21.281235
 30
0.0
 11
98.413011
 21
21.321491
 31
0.0
  0
ARC
  5
A629
  8
ALPHA
 10
99.057238
 20
21.936235
 30
0.0
 40
0.22
 50
13.0
 51
167.0
  0
ARC
  5
A62A
  8
ALPHA
 10
98.450357
 20
21.619157
 30
0.0
 40
0.3
 50
262.848784
 51
347.0
  0
ARC
  5
A62B
  8
ALPHA
 10
99.057238
 20
26.456235
 30
0.0
 40
5.175
 50
247.151216
 51
262.848784
  0
LINE
  5
A62C
  8
ALPHA
 10
98.742668
 20
21.551672
 30
0.0
 11
98.842877
 21
21.985724
 31
0.0
  0
LINE
  5
A62D
  8
ALPHA
 10
97.007625
 20
22.477478
 30
0.0
 11
96.877383
 21
22.051473
 31
0.0
  0
LINE
  5
A62E
  8
ALPHA
 10
99.701466
 20
21.321491
 30
0.0
 11
99.057238
 21
21.281235
 31
0.0
  0
ARC
  5
A62F
  8
ALPHA
 10
99.66412
 20
21.619157
 30
0.0
 40
0.3
 50
193.0
 51
277.151216
  0
LINE
  5
A630
  8
ALPHA
 10
99.2716
 20
21.985724
 30
0.0
 11
99.371809
 21
21.551672
 31
0.0
  0
ARC
  5
A631
  8
ALPHA
 10
99.057238
 20
26.456235
 30
0.0
 40
5.175
 50
307.151216
 51
322.848784
  0
LINE
  5
A632
  8
ALPHA
 10
102.182528
 20
22.33153
 30
0.0
 11
101.066693
 21
21.687302
 31
0.0
  0
ARC
  5
A633
  8
ALPHA
 10
100.950203
 20
21.963762
 30
0.0
 40
0.3
 50
292.848784
 51
17.0
  0
ARC
  5
A634
  8
ALPHA
 10
101.317238
 20
22.5418
 30
0.0
 40
0.22
 50
43.0
 51
197.0
  0
ARC
  5
A635
  8
ALPHA
 10
102.001352
 20
22.570643
 30
0.0
 40
0.3
 50
223.0
 51
307.151216
  0
LINE
  5
A636
  8
ALPHA
 10
101.237094
 20
22.051473
 30
0.0
 11
101.106851
 21
22.477478
 31
0.0
  0
LINE
  5
A637
  8
ALPHA
 10
101.478136
 20
22.69184
 30
0.0
 11
101.781946
 21
22.366044
 31
0.0
  0
LINE
  5
A638
  8
ALPHA
 10
95.931949
 20
30.58094
 30
0.0
 11
97.047784
 21
31.225167
 31
0.0
  0
ARC
  5
A639
  8
ALPHA
 10
97.164274
 20
30.948707
 30
0.0
 40
0.3
 50
112.848784
 51
197.0
  0
ARC
  5
A63A
  8
ALPHA
 10
96.797238
 20
30.37067
 30
0.0
 40
0.22
 50
223.0
 51
17.0
  0
LINE
  5
A63B
  8
ALPHA
 10
93.503855
 20
43.550998
 30
0.0
 11
104.610622
 21
43.550998
 31
0.0
  0
LINE
  5
A63C
  8
ALPHA
 10
93.424214
 20
41.738382
 30
0.0
 11
104.690263
 21
41.738382
 31
0.0
  0
LINE
  5
A63D
  8
ALPHA
 10
92.466549
 20
38.4377
 30
0.0
 11
91.105439
 21
27.333095
 31
0.0
  0
LINE
  5
A63E
  8
ALPHA
 10
92.329965
 20
38.4377
 30
0.0
 11
91.105439
 21
27.333095
 31
0.0
  0
LINE
  5
A63F
  8
ALPHA
 10
94.288306
 20
28.465689
 30
0.0
 11
94.932534
 21
29.581524
 31
0.0
  0
ARC
  5
A640
  8
ALPHA
 10
95.171647
 20
29.400348
 30
0.0
 40
0.3
 50
142.848784
 51
227.0
  0
LINE
  5
A641
  8
ALPHA
 10
94.652477
 20
24.276379
 30
0.0
 11
95.078482
 21
24.406622
 31
0.0
  0
LINE
  5
A642
  8
ALPHA
 10
95.078482
 20
28.505848
 30
0.0
 11
94.652477
 21
28.63609
 31
0.0
  0
LINE
  5
A643
  8
ALPHA
 10
93.922494
 20
25.812007
 30
0.0
 11
93.922494
 21
27.100463
 31
0.0
  0
ARC
  5
A644
  8
ALPHA
 10
99.057238
 20
26.456235
 30
0.0
 40
5.175
 50
187.151216
 51
202.848784
  0
ARC
  5
A645
  8
ALPHA
 10
99.057238
 20
26.456235
 30
0.0
 40
5.175
 50
157.151216
 51
172.848784
  0
ARC
  5
A646
  8
ALPHA
 10
94.564766
 20
24.56327
 30
0.0
 40
0.3
 50
202.848784
 51
287.0
  0
ARC
  5
A647
  8
ALPHA
 10
94.220161
 20
27.063116
 30
0.0
 40
0.3
 50
172.848784
 51
257.0
  0
ARC
  5
A648
  8
ALPHA
 10
94.537238
 20
26.456235
 30
0.0
 40
0.22
 50
283.0
 51
77.0
  0
ARC
  5
A649
  8
ALPHA
 10
94.220161
 20
25.849353
 30
0.0
 40
0.3
 50
103.0
 51
187.151216
  0
ARC
  5
A64A
  8
ALPHA
 10
94.564766
 20
28.349199
 30
0.0
 40
0.3
 50
73.0
 51
157.151216
  0
LINE
  5
A64B
  8
ALPHA
 10
94.586728
 20
26.241873
 30
0.0
 11
94.152675
 21
26.141664
 31
0.0
  0
LINE
  5
A64C
  8
ALPHA
 10
94.152675
 20
26.770805
 30
0.0
 11
94.586728
 21
26.670596
 31
0.0
  0
ARC
  5
A64D
  8
ALPHA
 10
95.142804
 20
24.196235
 30
0.0
 40
0.22
 50
313.0
 51
107.0
  0
ARC
  5
A64E
  8
ALPHA
 10
95.142804
 20
28.716235
 30
0.0
 40
0.22
 50
253.0
 51
47.0
  0
LINE
  5
A64F
  8
ALPHA
 10
95.292843
 20
24.035337
 30
0.0
 11
94.967047
 21
23.731527
 31
0.0
  0
LINE
  5
A650
  8
ALPHA
 10
94.967047
 20
29.180942
 30
0.0
 11
95.292843
 21
28.877133
 31
0.0
  0
ARC
  5
A651
  8
ALPHA
 10
99.057238
 20
26.456235
 30
0.0
 40
5.175
 50
127.151216
 51
142.848784
  0
ARC
  5
A652
  8
ALPHA
 10
96.113125
 20
30.341826
 30
0.0
 40
0.3
 50
43.0
 51
127.151216
  0
LINE
  5
A653
  8
ALPHA
 10
96.636341
 20
30.22063
 30
0.0
 11
96.332531
 21
30.546426
 31
0.0
  0
LINE
  5
A654
  8
ALPHA
 10
92.547061
 20
38.890853
 30
0.0
 11
93.424214
 21
41.738382
 31
0.0
  0
LINE
  5
A655
  8
ALPHA
 10
92.68122
 20
40.703469
 30
0.0
 11
93.424214
 21
43.550998
 31
0.0
  0
LINE
  5
A656
  8
ALPHA
 10
92.466549
 20
38.4377
 30
0.0
 11
92.505593
 21
38.706349
 31
0.0
  0
LINE
  5
A657
  8
ALPHA
 10
92.505593
 20
38.706349
 30
0.0
 11
92.547061
 21
38.890853
 31
0.0
  0
LINE
  5
A658
  8
ALPHA
 10
92.68122
 20
40.703469
 30
0.0
 11
92.505593
 21
39.780949
 31
0.0
  0
LINE
  5
A659
  8
ALPHA
 10
92.505593
 20
39.780949
 30
0.0
 11
92.329965
 21
38.4377
 31
0.0
  0
LINE
  5
A65A
  8
ALPHA
 10
92.505593
 20
38.706349
 30
0.0
 11
92.505593
 21
39.780949
 31
0.0
  0
LINE
  5
A65B
  8
ALPHA
 10
93.424214
 20
41.738382
 30
0.0
 11
93.503855
 21
43.550998
 31
0.0
  0
LINE
  5
A65C
  8
ALPHA
 10
93.424214
 20
43.550998
 30
0.0
 11
93.503855
 21
43.550998
 31
0.0
  0
LINE
  5
A65D
  8
ALPHA
 10
93.424214
 20
43.550998
 30
0.0
 11
93.424214
 21
41.738382
 31
0.0
  0
LINE
  5
A65E
  8
ALPHA
 10
99.357238
 20
36.456235
 30
0.0
 11
99.357238
 21
33.456235
 31
0.0
  0
LINE
  5
A65F
  8
ALPHA
 10
99.057238
 20
33.456235
 30
0.0
 11
99.057238
 21
36.456235
 31
0.0
  0
LINE
  5
A660
  8
ALPHA
 10
98.757238
 20
36.456235
 30
0.0
 11
98.757238
 21
33.456235
 31
0.0
  0
ARC
  5
A661
  8
ALPHA
 10
99.057238
 20
26.456235
 30
0.0
 40
5.175
 50
67.151216
 51
82.848784
  0
LINE
  5
A662
  8
ALPHA
 10
98.413011
 20
31.590979
 30
0.0
 11
99.057238
 21
31.631235
 31
0.0
  0
ARC
  5
A663
  8
ALPHA
 10
99.057238
 20
30.976235
 30
0.0
 40
0.22
 50
193.0
 51
347.0
  0
LINE
  5
A664
  8
ALPHA
 10
99.357238
 20
33.456235
 30
0.0
 11
98.757238
 21
33.456235
 31
0.0
  0
ARC
  5
A665
  8
ALPHA
 10
99.057238
 20
26.456235
 30
0.0
 40
5.175
 50
97.151216
 51
112.848784
  0
ARC
  5
A666
  8
ALPHA
 10
98.450357
 20
31.293312
 30
0.0
 40
0.3
 50
13.0
 51
97.151216
  0
LINE
  5
A667
  8
ALPHA
 10
98.842877
 20
30.926745
 30
0.0
 11
98.742668
 21
31.360798
 31
0.0
  0
LINE
  5
A668
  8
ALPHA
 10
96.877383
 20
30.860996
 30
0.0
 11
97.007625
 21
30.434991
 31
0.0
  0
LINE
  5
A669
  8
ALPHA
 10
99.057238
 20
31.631235
 30
0.0
 11
99.701466
 21
31.590979
 31
0.0
  0
ARC
  5
A66A
  8
ALPHA
 10
99.66412
 20
31.293312
 30
0.0
 40
0.3
 50
82.848784
 51
167.0
  0
LINE
  5
A66B
  8
ALPHA
 10
99.371809
 20
31.360798
 30
0.0
 11
99.2716
 21
30.926745
 31
0.0
  0
LINE
  5
A66C
  8
ALPHA
 10
103.181943
 20
29.581524
 30
0.0
 11
103.826171
 21
28.465689
 31
0.0
  0
ARC
  5
A66D
  8
ALPHA
 10
102.94283
 20
29.400348
 30
0.0
 40
0.3
 50
313.0
 51
37.151216
  0
ARC
  5
A66E
  8
ALPHA
 10
102.971673
 20
28.716235
 30
0.0
 40
0.22
 50
133.0
 51
287.0
  0
ARC
  5
A66F
  8
ALPHA
 10
102.971673
 20
24.196235
 30
0.0
 40
0.22
 50
73.0
 51
227.0
  0
LINE
  5
A670
  8
ALPHA
 10
102.821634
 20
28.877133
 30
0.0
 11
103.147429
 21
29.180942
 31
0.0
  0
LINE
  5
A671
  8
ALPHA
 10
103.147429
 20
23.731527
 30
0.0
 11
102.821634
 21
24.035337
 31
0.0
  0
LINE
  5
A672
  8
ALPHA
 10
104.191982
 20
27.100463
 30
0.0
 11
104.191982
 21
25.812007
 31
0.0
  0
ARC
  5
A673
  8
ALPHA
 10
99.057238
 20
26.456235
 30
0.0
 40
5.175
 50
7.151216
 51
22.848784
  0
ARC
  5
A674
  8
ALPHA
 10
99.057238
 20
26.456235
 30
0.0
 40
5.175
 50
337.151216
 51
352.848784
  0
ARC
  5
A675
  8
ALPHA
 10
103.549711
 20
28.349199
 30
0.0
 40
0.3
 50
22.848784
 51
107.0
  0
ARC
  5
A676
  8
ALPHA
 10
103.894316
 20
25.849353
 30
0.0
 40
0.3
 50
352.848784
 51
77.0
  0
ARC
  5
A677
  8
ALPHA
 10
103.577238
 20
26.456235
 30
0.0
 40
0.22
 50
103.0
 51
257.0
  0
ARC
  5
A678
  8
ALPHA
 10
103.894316
 20
27.063116
 30
0.0
 40
0.3
 50
283.0
 51
7.151216
  0
ARC
  5
A679
  8
ALPHA
 10
103.549711
 20
24.56327
 30
0.0
 40
0.3
 50
253.0
 51
337.151216
  0
LINE
  5
A67A
  8
ALPHA
 10
103.462
 20
28.63609
 30
0.0
 11
103.035995
 21
28.505848
 31
0.0
  0
LINE
  5
A67B
  8
ALPHA
 10
103.961801
 20
26.141664
 30
0.0
 11
103.527749
 21
26.241873
 31
0.0
  0
LINE
  5
A67C
  8
ALPHA
 10
103.035995
 20
24.406622
 30
0.0
 11
103.462
 21
24.276379
 31
0.0
  0
LINE
  5
A67D
  8
ALPHA
 10
103.527749
 20
26.670596
 30
0.0
 11
103.961801
 21
26.770805
 31
0.0
  0
ARC
  5
A67E
  8
ALPHA
 10
99.057238
 20
26.456235
 30
0.0
 40
5.175
 50
37.151216
 51
52.848784
  0
LINE
  5
A67F
  8
ALPHA
 10
101.066693
 20
31.225167
 30
0.0
 11
102.182528
 21
30.58094
 31
0.0
  0
ARC
  5
A680
  8
ALPHA
 10
102.001352
 20
30.341826
 30
0.0
 40
0.3
 50
52.848784
 51
137.0
  0
ARC
  5
A681
  8
ALPHA
 10
101.317238
 20
30.37067
 30
0.0
 40
0.22
 50
163.0
 51
317.0
  0
ARC
  5
A682
  8
ALPHA
 10
100.950203
 20
30.948707
 30
0.0
 40
0.3
 50
343.0
 51
67.151216
  0
LINE
  5
A683
  8
ALPHA
 10
101.781946
 20
30.546426
 30
0.0
 11
101.478136
 21
30.22063
 31
0.0
  0
LINE
  5
A684
  8
ALPHA
 10
101.106851
 20
30.434991
 30
0.0
 11
101.237094
 21
30.860996
 31
0.0
  0
LINE
  5
A685
  8
ALPHA
 10
99.357238
 20
36.456235
 30
0.0
 11
98.757238
 21
36.456235
 31
0.0
  0
LINE
  5
A686
  8
ALPHA
 10
104.690263
 20
41.738382
 30
0.0
 11
104.610622
 21
43.550998
 31
0.0
  0
LINE
  5
A687
  8
ALPHA
 10
104.690263
 20
43.550998
 30
0.0
 11
104.690263
 21
41.738382
 31
0.0
  0
LINE
  5
A688
  8
ALPHA
 10
104.690263
 20
43.550998
 30
0.0
 11
104.610622
 21
43.550998
 31
0.0
  0
CIRCLE
  5
A699
  8
ALPHA
 10
99.057238
 20
52.856235
 30
0.0
 40
4.500595
  0
CIRCLE
  5
A69A
  8
ALPHA
 10
99.057238
 20
52.856235
 30
0.0
 40
4.385688
  0
CIRCLE
  5
A69B
  8
ALPHA
 10
99.057238
 20
52.856235
 30
0.0
 40
4.286791
  0
CIRCLE
  5
A69C
  8
ALPHA
 10
99.057238
 20
52.856235
 30
0.0
 40
4.0
  0
CIRCLE
  5
A69D
  8
ALPHA
 10
99.057238
 20
52.856235
 30
0.0
 40
4.24
  0
CIRCLE
  5
A69E
  8
ALPHA
 10
99.057238
 20
52.856235
 30
0.0
 40
4.2
  0
CIRCLE
  5
A69F
  8
ALPHA
 10
99.057238
 20
52.856235
 30
0.0
 40
3.5
  0
ARC
  5
A6A0
  8
ALPHA
 10
94.294099
 20
50.106235
 30
0.0
 40
1.5
 50
2.475961
 51
4.87406
  0
ARC
  5
A6A1
  8
ALPHA
 10
94.294099
 20
50.106235
 30
0.0
 40
1.5
 50
55.12594
 51
57.475252
  0
ARC
  5
A6A2
  8
ALPHA
 10
94.294099
 20
55.606235
 30
0.0
 40
1.5
 50
302.524748
 51
304.87406
  0
ARC
  5
A6A3
  8
ALPHA
 10
94.294099
 20
55.606235
 30
0.0
 40
1.5
 50
355.12594
 51
357.524039
  0
CIRCLE
  5
A6A4
  8
ALPHA
 10
99.057238
 20
52.856235
 30
0.0
 40
1.0
  0
ARC
  5
A6A5
  8
ALPHA
 10
99.057238
 20
47.356235
 30
0.0
 40
1.5
 50
115.12594
 51
117.114461
  0
ARC
  5
A6A6
  8
ALPHA
 10
99.057238
 20
47.356235
 30
0.0
 40
1.5
 50
62.885539
 51
64.87406
  0
ARC
  5
A6A7
  8
ALPHA
 10
99.057238
 20
58.356235
 30
0.0
 40
1.5
 50
242.885539
 51
244.87406
  0
ARC
  5
A6A8
  8
ALPHA
 10
99.057238
 20
58.356235
 30
0.0
 40
1.5
 50
295.12594
 51
297.114461
  0
ARC
  5
A6A9
  8
ALPHA
 10
103.820378
 20
50.106235
 30
0.0
 40
1.5
 50
175.12594
 51
177.524039
  0
ARC
  5
A6AA
  8
ALPHA
 10
103.820378
 20
50.106235
 30
0.0
 40
1.5
 50
122.524748
 51
124.87406
  0
ARC
  5
A6AB
  8
ALPHA
 10
103.820378
 20
55.606235
 30
0.0
 40
1.5
 50
182.475961
 51
184.87406
  0
ARC
  5
A6AC
  8
ALPHA
 10
103.820378
 20
55.606235
 30
0.0
 40
1.5
 50
235.12594
 51
237.475252
  0
LINE
  5
A6AD
  8
ALPHA
 10
105.784511
 20
38.4377
 30
0.0
 11
107.009038
 21
27.333095
 31
0.0
  0
LINE
  5
A6AE
  8
ALPHA
 10
105.647927
 20
38.4377
 30
0.0
 11
107.009038
 21
27.333095
 31
0.0
  0
LINE
  5
A6AF
  8
ALPHA
 10
105.567416
 20
38.890853
 30
0.0
 11
105.608884
 21
38.706349
 31
0.0
  0
LINE
  5
A6B0
  8
ALPHA
 10
105.608884
 20
38.706349
 30
0.0
 11
105.647927
 21
38.4377
 31
0.0
  0
LINE
  5
A6B1
  8
ALPHA
 10
105.784511
 20
38.4377
 30
0.0
 11
105.608884
 21
39.780949
 31
0.0
  0
LINE
  5
A6B2
  8
ALPHA
 10
105.608884
 20
39.780949
 30
0.0
 11
105.433257
 21
40.703469
 31
0.0
  0
LINE
  5
A6B3
  8
ALPHA
 10
105.608884
 20
38.706349
 30
0.0
 11
105.608884
 21
39.780949
 31
0.0
  0
VIEWPORT
  5
494D
 67
     1
  8
0
 10
4.995325
 20
6.556512
 30
0.0
 40
22.70986
 41
13.988421
 68
    -1
 69
     1
1001
ACAD
1000
MVIEW
1002
{
1070
    16
1010
0.0
1020
0.0
1030
0.0
1010
0.0
1020
0.0
1030
1.0
1040
0.0
1040
13.988421
1040
4.995325
1040
6.556512
1040
50.0
1040
0.0
1040
0.0
1070
     0
1070
   100
1070
     1
1070
     1
1070
     0
1070
     0
1070
     0
1070
     0
1040
0.0
1040
0.0
1040
0.0
1040
10.0
1040
10.0
1040
10.0
1040
10.0
1070
     0
1002
{
1002
}
1002
}
  0
ENDSEC
  0
EOF
