  0
SECTION
  2
HEADER
  9
$ACADVER
  1
AC1009
  9
$INSBASE
 10
402.590624
 20
-1.041018
 30
0.0
  9
$EXTMIN
 10
-7.636511
 20
6.562507
 30
0.0
  9
$EXTMAX
 10
46.458609
 20
103.076368
 30
0.0
  9
$LIMMIN
 10
-407.970438
 20
-367.832444
  9
$LIMMAX
 10
429.804077
 20
234.370848
  9
$ORTHOMODE
 70
     1
  9
$REGENMODE
 70
     1
  9
$FILLMODE
 70
     1
  9
$QTEXTMODE
 70
     0
  9
$MIRRTEXT
 70
     1
  9
$DRAGMODE
 70
     2
  9
$LTSCALE
 40
10.0
  9
$OSMODE
 70
    35
  9
$ATTMODE
 70
     1
  9
$TEXTSIZE
 40
6.0
  9
$TRACEWID
 40
1.0
  9
$TEXTSTYLE
  7
ROMANS
  9
$CLAYER
  8
ALPHA
  9
$CELTYPE
  6
BYLAYER
  9
$CECOLOR
 62
   256
  9
$DIMSCALE
 40
1.0
  9
$DIMASZ
 40
5.0
  9
$DIMEXO
 40
2.0
  9
$DIMDLI
 40
0.38
  9
$DIMRND
 40
0.0
  9
$DIMDLE
 40
0.0
  9
$DIMEXE
 40
2.5
  9
$DIMTP
 40
0.0
  9
$DIMTM
 40
0.0
  9
$DIMTXT
 40
2.5
  9
$DIMCEN
 40
0.0
  9
$DIMTSZ
 40
0.0
  9
$DIMTOL
 70
     0
  9
$DIMLIM
 70
     0
  9
$DIMTIH
 70
     1
  9
$DIMTOH
 70
     1
  9
$DIMSE1
 70
     0
  9
$DIMSE2
 70
     0
  9
$DIMTAD
 70
     1
  9
$DIMZIN
 70
    12
  9
$DIMBLK
  1
OPEN30
  9
$DIMASO
 70
     1
  9
$DIMSHO
 70
     1
  9
$DIMPOST
  1

  9
$DIMAPOST
  1

  9
$DIMALT
 70
     0
  9
$DIMALTD
 70
     2
  9
$DIMALTF
 40
25.4
  9
$DIMLFAC
 40
1.0
  9
$DIMTOFL
 70
     0
  9
$DIMTVP
 40
0.0
  9
$DIMTIX
 70
     0
  9
$DIMSOXD
 70
     0
  9
$DIMSAH
 70
     0
  9
$DIMBLK1
  1

  9
$DIMBLK2
  1

  9
$DIMSTYLE
  2
SC_DEFAUT
  9
$DIMCLRD
 70
     0
  9
$DIMCLRE
 70
     0
  9
$DIMCLRT
 70
     0
  9
$DIMTFAC
 40
1.0
  9
$DIMGAP
 40
2.0
  9
$LUNITS
 70
     2
  9
$LUPREC
 70
     1
  9
$SKETCHINC
 40
0.1
  9
$FILLETRAD
 40
0.0
  9
$AUNITS
 70
     0
  9
$AUPREC
 70
     0
  9
$MENU
  1
acad
  9
$ELEVATION
 40
0.0
  9
$PELEVATION
 40
0.0
  9
$THICKNESS
 40
0.0
  9
$LIMCHECK
 70
     0
  9
$BLIPMODE
 70
     0
  9
$CHAMFERA
 40
0.0
  9
$CHAMFERB
 40
0.0
  9
$SKPOLY
 70
     0
  9
$TDCREATE
 40
2450373.687919
  9
$TDUPDATE
 40
2453035.668351
  9
$TDINDWG
 40
1.073957
  9
$TDUSRTIMER
 40
1.073957
  9
$USRTIMER
 70
     1
  9
$ANGBASE
 50
0.0
  9
$ANGDIR
 70
     0
  9
$PDMODE
 70
    32
  9
$PDSIZE
 40
0.0
  9
$PLINEWID
 40
0.0
  9
$COORDS
 70
     1
  9
$SPLFRAME
 70
     0
  9
$SPLINETYPE
 70
     6
  9
$SPLINESEGS
 70
     8
  9
$ATTDIA
 70
     0
  9
$ATTREQ
 70
     1
  9
$HANDLING
 70
     1
  9
$HANDSEED
  5
AA34
  9
$SURFTAB1
 70
     6
  9
$SURFTAB2
 70
     6
  9
$SURFTYPE
 70
     6
  9
$SURFU
 70
     6
  9
$SURFV
 70
     6
  9
$UCSNAME
  2

  9
$UCSORG
 10
0.0
 20
0.0
 30
0.0
  9
$UCSXDIR
 10
1.0
 20
0.0
 30
0.0
  9
$UCSYDIR
 10
0.0
 20
1.0
 30
0.0
  9
$PUCSNAME
  2

  9
$PUCSORG
 10
0.0
 20
0.0
 30
0.0
  9
$PUCSXDIR
 10
1.0
 20
0.0
 30
0.0
  9
$PUCSYDIR
 10
0.0
 20
1.0
 30
0.0
  9
$USERI1
 70
     0
  9
$USERI2
 70
     0
  9
$USERI3
 70
     0
  9
$USERI4
 70
     0
  9
$USERI5
 70
     0
  9
$USERR1
 40
0.0
  9
$USERR2
 40
0.0
  9
$USERR3
 40
0.0
  9
$USERR4
 40
0.0
  9
$USERR5
 40
0.0
  9
$WORLDVIEW
 70
     1
  9
$SHADEDGE
 70
     3
  9
$SHADEDIF
 70
    70
  9
$TILEMODE
 70
     1
  9
$MAXACTVP
 70
    16
  9
$PLIMCHECK
 70
     0
  9
$PEXTMIN
 10
-1.452248
 20
-0.437698
 30
0.0
  9
$PEXTMAX
 10
12.749749
 20
8.310198
 30
0.0
  9
$PLIMMIN
 10
0.0
 20
0.0
  9
$PLIMMAX
 10
12.0
 20
9.0
  9
$UNITMODE
 70
     0
  9
$VISRETAIN
 70
     0
  9
$PLINEGEN
 70
     0
  9
$PSLTSCALE
 70
     0
  0
ENDSEC
  0
SECTION
  2
TABLES
  0
TABLE
  2
VPORT
 70
     2
  0
VPORT
  2
*ACTIVE
 70
     0
 10
0.0
 20
0.0
 11
1.0
 21
1.0
 12
19.417799
 22
54.815286
 13
0.0
 23
0.0
 14
1.0
 24
1.0
 15
10.0
 25
10.0
 16
0.0
 26
0.0
 36
1.0
 17
0.0
 27
0.0
 37
0.0
 40
97.22461
 41
1.466346
 42
50.0
 43
0.0
 44
0.0
 50
0.0
 51
0.0
 71
     0
 72
   100
 73
     1
 74
     0
 75
     0
 76
     0
 77
     0
 78
     0
  0
ENDTAB
  0
TABLE
  2
LTYPE
 70
     3
  0
LTYPE
  2
CONTINUOUS
 70
     0
  3
Solid line
 72
    65
 73
     0
 40
0.0
  0
LTYPE
  2
AXES2
 70
     0
  3
___ _ ___ _ ___ _ ___ _ ___ _ ___ _ ___ _ ___ _
 72
    65
 73
     4
 40
1.125
 49
0.75
 49
-0.125
 49
0.125
 49
-0.125
  0
LTYPE
  2
CACHE2
 70
     0
  3
Caché (x.5) _ _ _ _ _ _ _ _ _ _ _ _ _ _ _ _ _
 72
    65
 73
     2
 40
0.1875
 49
0.125
 49
-0.0625
  0
ENDTAB
  0
TABLE
  2
LAYER
 70
     6
  0
LAYER
  2
0
 70
     0
 62
   255
  6
CONTINUOUS
  0
LAYER
  2
COTATION1
 70
     0
 62
     2
  6
CONTINUOUS
  0
LAYER
  2
AXE
 70
     0
 62
    80
  6
AXES2
  0
LAYER
  2
DEFPOINTS
 70
     0
 62
     7
  6
CONTINUOUS
  0
LAYER
  2
ALPHA
 70
     0
 62
   254
  6
CONTINUOUS
  0
LAYER
  2
POINTILLE_COURT
 70
     0
 62
    41
  6
CACHE2
  0
ENDTAB
  0
TABLE
  2
STYLE
 70
     2
  0
STYLE
  2
ROMANS
 70
     0
 40
0.0
 41
1.0
 50
0.0
 71
     0
 42
6.0
  3
romans
  4

  0
STYLE
  2
STANDARD
 70
     0
 40
0.0
 41
1.0
 50
0.0
 71
     0
 42
0.2
  3
txt
  4

  0
ENDTAB
  0
TABLE
  2
VIEW
 70
     0
  0
ENDTAB
  0
TABLE
  2
UCS
 70
     0
  0
ENDTAB
  0
TABLE
  2
APPID
 70
     1
  0
APPID
  2
ACAD
 70
     0
  0
ENDTAB
  0
TABLE
  2
DIMSTYLE
 70
     2
  0
DIMSTYLE
  2
SC_DEFAUT
 70
     0
  3

  4

  5
OPEN30
  6

  7

 40
1.0
 41
5.0
 42
2.0
 43
0.38
 44
2.5
 45
0.0
 46
0.0
 47
0.0
 48
0.0
140
2.5
141
0.0
142
0.0
143
25.4
144
1.0
145
0.0
146
1.0
147
2.0
 71
     0
 72
     0
 73
     1
 74
     1
 75
     0
 76
     0
 77
     1
 78
    12
170
     0
171
     2
172
     0
173
     0
174
     0
175
     0
176
     0
177
     0
178
     0
  0
DIMSTYLE
  2
STANDARD
 70
     0
  3

  4

  5

  6

  7

 40
1.0
 41
0.18
 42
0.0625
 43
0.38
 44
0.18
 45
0.0
 46
0.0
 47
0.0
 48
0.0
140
0.18
141
0.09
142
0.0
143
25.4
144
1.0
145
0.0
146
1.0
147
0.09
 71
     0
 72
     0
 73
     1
 74
     1
 75
     0
 76
     0
 77
     0
 78
     0
170
     0
171
     2
172
     0
173
     0
174
     0
175
     0
176
     0
177
     0
178
     0
  0
ENDTAB
  0
ENDSEC
  0
SECTION
  2
BLOCKS
  0
BLOCK
  8
0
  2
$MODEL_SPACE
 70
     0
 10
0.0
 20
0.0
 30
0.0
  3
$MODEL_SPACE
  1

  0
ENDBLK
  5
AA2D
  8
0
  0
BLOCK
 67
     1
  8
0
  2
$PAPER_SPACE
 70
     0
 10
0.0
 20
0.0
 30
0.0
  3
$PAPER_SPACE
  1

  0
ENDBLK
  5
AA2B
 67
     1
  8
0
  0
BLOCK
  8
0
  2
COTE
 70
     0
 10
0.0
 20
0.0
 30
0.0
  3
COTE
  1

  0
ENDBLK
  5
F
  8
0
  0
BLOCK
  8
0
  2
FOND
 70
     0
 10
0.0
 20
0.0
 30
0.0
  3
FOND
  1

  0
ENDBLK
  5
75
  8
0
  0
BLOCK
  8
0
  2
_OPEN30
 70
     0
 10
0.0
 20
0.0
 30
0.0
  3
_OPEN30
  1

  0
LINE
  5
4B05
  8
COTATION1
 62
     0
 10
-1.0
 20
0.267949
 30
0.0
 11
0.0
 21
0.0
 31
0.0
1001
ACAD
1000
RTLwPs
1070
   158
  0
LINE
  5
4B06
  8
COTATION1
 62
     0
 10
0.0
 20
0.0
 30
0.0
 11
-1.0
 21
-0.267949
 31
0.0
1001
ACAD
1000
RTLwPs
1070
   158
  0
LINE
  5
4B07
  8
COTATION1
 62
     0
 10
0.0
 20
0.0
 30
0.0
 11
-1.0
 21
0.0
 31
0.0
1001
ACAD
1000
RTLwPs
1070
   158
  0
ENDBLK
  5
4B09
  8
0
  0
BLOCK
  8
0
  2
*D3
 70
     1
 10
0.0
 20
0.0
 30
0.0
  3
*D3
  1

  0
LINE
  5
A8EE
  8
COTATION1
 62
     0
 10
12.720205
 20
81.214135
 30
0.0
 11
12.720205
 21
91.714135
 31
0.0
1001
ACAD
1000
RTLwPs
1070
   158
  0
LINE
  5
A8EF
  8
COTATION1
 62
     0
 10
19.270205
 20
70.264135
 30
0.0
 11
19.270205
 21
91.714135
 31
0.0
1001
ACAD
1000
RTLwPs
1070
   158
  0
LINE
  5
A8F0
  8
COTATION1
 62
     0
 10
7.720205
 20
89.214135
 30
0.0
 11
2.720205
 21
89.214135
 31
0.0
1001
ACAD
1000
RTLwPs
1070
   158
  0
LINE
  5
A8F1
  8
COTATION1
 62
     0
 10
24.270205
 20
89.214135
 30
0.0
 11
29.270205
 21
89.214135
 31
0.0
1001
ACAD
1000
RTLwPs
1070
   158
  0
TEXT
  5
A8F2
  8
COTATION1
 62
     0
 10
12.95949
 20
90.576368
 30
0.0
 40
2.5
  1
6.5
1001
ACAD
1000
MTEXTBEGIN
1070
    73
1070
     1
1070
    44
1040
1.0
1070
    74
1070
     0
1000
MTEXTEND
  0
INSERT
  5
A8F3
  8
COTATION1
 62
     0
  2
_OPEN30
 10
12.720205
 20
89.214135
 30
0.0
 41
5.0
 42
5.0
 43
5.0
1001
ACAD
1000
RTLwPs
1070
   158
  0
INSERT
  5
A8F4
  8
COTATION1
 62
     0
  2
_OPEN30
 10
19.270205
 20
89.214135
 30
0.0
 41
5.0
 42
5.0
 43
5.0
 50
180.0
1001
ACAD
1000
RTLwPs
1070
   158
  0
POINT
  5
A8F5
  8
DEFPOINTS
 62
     0
 10
12.720205
 20
79.214135
 30
0.0
  0
POINT
  5
A8F6
  8
DEFPOINTS
 62
     0
 10
19.270205
 20
68.264135
 30
0.0
  0
POINT
  5
A8F7
  8
DEFPOINTS
 62
     0
 10
19.270205
 20
89.214135
 30
0.0
  0
ENDBLK
  5
9DF7
  8
0
  0
BLOCK
  8
0
  2
*D4
 70
     1
 10
0.0
 20
0.0
 30
0.0
  3
*D4
  1

  0
LINE
  5
A924
  8
COTATION1
 62
     0
 10
5.720205
 20
81.214135
 30
0.0
 11
5.720205
 21
101.714135
 31
0.0
1001
ACAD
1000
RTLwPs
1070
   158
  0
LINE
  5
A925
  8
COTATION1
 62
     0
 10
12.720205
 20
81.214135
 30
0.0
 11
12.720205
 21
101.714135
 31
0.0
1001
ACAD
1000
RTLwPs
1070
   158
  0
LINE
  5
A926
  8
COTATION1
 62
     0
 10
0.720205
 20
99.214135
 30
0.0
 11
-4.279795
 21
99.214135
 31
0.0
1001
ACAD
1000
RTLwPs
1070
   158
  0
LINE
  5
A927
  8
COTATION1
 62
     0
 10
17.720205
 20
99.214135
 30
0.0
 11
22.720205
 21
99.214135
 31
0.0
1001
ACAD
1000
RTLwPs
1070
   158
  0
TEXT
  5
A928
  8
COTATION1
 62
     0
 10
8.110626
 20
100.576368
 30
0.0
 40
2.5
  1
7
1001
ACAD
1000
MTEXTBEGIN
1070
    73
1070
     1
1070
    44
1040
1.0
1070
    74
1070
     0
1000
MTEXTEND
  0
INSERT
  5
A929
  8
COTATION1
 62
     0
  2
_OPEN30
 10
5.720205
 20
99.214135
 30
0.0
 41
5.0
 42
5.0
 43
5.0
1001
ACAD
1000
RTLwPs
1070
   158
  0
INSERT
  5
A92A
  8
COTATION1
 62
     0
  2
_OPEN30
 10
12.720205
 20
99.214135
 30
0.0
 41
5.0
 42
5.0
 43
5.0
 50
180.0
1001
ACAD
1000
RTLwPs
1070
   158
  0
POINT
  5
A92B
  8
DEFPOINTS
 62
     0
 10
5.720205
 20
79.214135
 30
0.0
  0
POINT
  5
A92C
  8
DEFPOINTS
 62
     0
 10
12.720205
 20
79.214135
 30
0.0
  0
POINT
  5
A92D
  8
DEFPOINTS
 62
     0
 10
12.720205
 20
99.214135
 30
0.0
  0
ENDBLK
  5
A905
  8
0
  0
BLOCK
  8
0
  2
*D5
 70
     1
 10
0.0
 20
0.0
 30
0.0
  3
*D5
  1

  0
LINE
  5
A976
  8
COTATION1
 62
     0
 10
8.220205
 20
29.814135
 30
0.0
 11
8.220205
 21
19.739664
 31
0.0
1001
ACAD
1000
RTLwPs
1070
   158
  0
LINE
  5
A977
  8
COTATION1
 62
     0
 10
19.270205
 20
62.164135
 30
0.0
 11
19.270205
 21
19.739664
 31
0.0
1001
ACAD
1000
RTLwPs
1070
   158
  0
LINE
  5
A978
  8
COTATION1
 62
     0
 10
3.220205
 20
22.239664
 30
0.0
 11
-1.779795
 21
22.239664
 31
0.0
1001
ACAD
1000
RTLwPs
1070
   158
  0
LINE
  5
A979
  8
COTATION1
 62
     0
 10
24.270205
 20
22.239664
 30
0.0
 11
29.270205
 21
22.239664
 31
0.0
1001
ACAD
1000
RTLwPs
1070
   158
  0
TEXT
  5
A97A
  8
COTATION1
 62
     0
 10
26.562186
 20
23.90998
 30
0.0
 40
2.5
  1
11.1
1001
ACAD
1000
MTEXTBEGIN
1070
    73
1070
     1
1070
    44
1040
1.0
1070
    74
1070
     0
1000
MTEXTEND
  0
INSERT
  5
A97B
  8
COTATION1
 62
     0
  2
_OPEN30
 10
8.220205
 20
22.239664
 30
0.0
 41
5.0
 42
5.0
 43
5.0
1001
ACAD
1000
RTLwPs
1070
   158
  0
INSERT
  5
A97C
  8
COTATION1
 62
     0
  2
_OPEN30
 10
19.270205
 20
22.239664
 30
0.0
 41
5.0
 42
5.0
 43
5.0
 50
180.0
1001
ACAD
1000
RTLwPs
1070
   158
  0
POINT
  5
A97D
  8
DEFPOINTS
 62
     0
 10
8.220205
 20
31.814135
 30
0.0
  0
POINT
  5
A97E
  8
DEFPOINTS
 62
     0
 10
19.270205
 20
64.164135
 30
0.0
  0
POINT
  5
A97F
  8
DEFPOINTS
 62
     0
 10
19.270205
 20
22.239664
 30
0.0
  0
ENDBLK
  5
A93A
  8
0
  0
ENDSEC
  0
SECTION
  2
ENTITIES
  0
INSERT
  5
A
  8
0
  2
COTE
 10
0.0
 20
0.0
 30
0.0
  0
INSERT
  5
17
  8
0
  2
COTE
 10
284.010391
 20
6.373258
 30
0.0
  0
INSERT
  5
72
  8
0
  2
FOND
 10
0.0
 20
0.0
 30
0.0
  0
LINE
  5
9D80
  8
COTATION1
 10
46.458609
 20
10.213782
 30
0.0
 11
19.958609
 21
10.213782
 31
0.0
  0
LINE
  5
9D81
  8
COTATION1
 10
19.958609
 20
15.213782
 30
0.0
 11
46.458609
 21
15.213782
 31
0.0
  0
LINE
  5
9D82
  8
COTATION1
 10
10.220205
 20
30.814135
 30
0.0
 11
10.220205
 21
6.562507
 31
0.0
  0
SOLID
  5
9D83
  8
COTATION1
 10
10.220205
 20
11.270406
 30
0.0
 11
10.220205
 21
14.157158
 31
0.0
 12
12.720205
 22
12.713782
 32
0.0
 13
12.720205
 23
12.713782
 33
0.0
  0
LINE
  5
9D84
  8
COTATION1
 10
19.958609
 20
10.213782
 30
0.0
 11
19.958609
 21
15.213782
 31
0.0
  0
LINE
  5
9D85
  8
COTATION1
 10
12.720205
 20
12.713782
 30
0.0
 11
19.958609
 21
12.713782
 31
0.0
  0
TEXT
  5
9D86
  8
COTATION1
 10
21.208609
 20
11.463782
 30
0.0
 40
2.5
  1
PLANE_TO_LINE_UP
 41
0.626087
  7
STANDARD
 72
     5
 11
45.208609
 21
11.463782
 31
0.0
  0
LINE
  5
9D87
  8
COTATION1
 10
46.458609
 20
15.213782
 30
0.0
 11
46.458609
 21
10.213782
 31
0.0
  0
DIMENSION
  5
9DE7
  8
COTATION1
  2
*D3
 10
19.270205
 20
89.214135
 30
0.0
 11
15.995205
 21
91.826368
 31
0.0
 70
   128
 13
12.720205
 23
79.214135
 33
0.0
 14
19.270205
 24
68.264135
 34
0.0
  0
LINE
  5
9DE8
  8
AXE
 10
-7.636511
 20
66.214135
 30
0.0
 11
29.950205
 21
66.214135
 31
0.0
  0
TEXT
  5
9DE9
  8
AXE
 10
25.902586
 20
67.214135
 30
0.0
 40
5.0
  1
Z
 72
     2
 11
29.950205
 21
67.214135
 31
0.0
  0
LINE
  5
9DEA
  8
AXE
 10
12.720205
 20
53.214135
 30
0.0
 11
12.720205
 21
79.214135
 31
0.0
  0
LINE
  5
A19B
  8
ALPHA
 10
8.220205
 20
31.814135
 30
0.0
 11
8.220205
 21
51.795599
 31
0.0
  0
LINE
  5
A19C
  8
ALPHA
 10
10.220205
 20
31.814135
 30
0.0
 11
10.220205
 21
51.795599
 31
0.0
  0
LINE
  5
A54F
  8
ALPHA
 10
8.220205
 20
31.814135
 30
0.0
 11
8.220205
 21
51.795599
 31
0.0
  0
LINE
  5
A550
  8
ALPHA
 10
10.220205
 20
31.814135
 30
0.0
 11
10.220205
 21
51.795599
 31
0.0
  0
LINE
  5
A551
  8
ALPHA
 10
8.220205
 20
39.814135
 30
0.0
 11
10.220205
 21
39.814135
 31
0.0
  0
LINE
  5
A552
  8
ALPHA
 10
10.220205
 20
31.814135
 30
0.0
 11
8.220205
 21
31.814135
 31
0.0
  0
ARC
  5
A553
  8
ALPHA
 10
38.720205
 20
65.214135
 30
0.0
 40
30.5
 50
180.0
 51
184.70165
  0
LINE
  5
A554
  8
ALPHA
 10
15.220205
 20
63.736007
 30
0.0
 11
15.770205
 21
63.784126
 31
0.0
  0
LINE
  5
A555
  8
ALPHA
 10
8.322836
 20
69.714135
 30
0.0
 11
8.322836
 21
62.714135
 31
0.0
  0
LINE
  5
A556
  8
ALPHA
 10
10.220205
 20
58.414226
 30
0.0
 11
10.220205
 21
74.014043
 31
0.0
  0
LINE
  5
A557
  8
ALPHA
 10
10.420205
 20
58.214135
 30
0.0
 11
10.420205
 21
74.214135
 31
0.0
  0
LINE
  5
A558
  8
ALPHA
 10
15.020205
 20
58.214135
 30
0.0
 11
15.020205
 21
74.214135
 31
0.0
  0
LINE
  5
A559
  8
ALPHA
 10
15.220205
 20
58.414226
 30
0.0
 11
15.220205
 21
74.014043
 31
0.0
  0
LINE
  5
A55A
  8
ALPHA
 10
15.770205
 20
57.227433
 30
0.0
 11
15.770205
 21
70.714135
 31
0.0
  0
LINE
  5
A55B
  8
ALPHA
 10
17.770205
 20
56.908898
 30
0.0
 11
17.770205
 21
70.714135
 31
0.0
  0
LINE
  5
A55C
  8
ALPHA
 10
10.420205
 20
58.214135
 30
0.0
 11
15.020205
 21
58.214135
 31
0.0
  0
LINE
  5
A55D
  8
ALPHA
 10
9.663659
 20
54.061369
 30
0.0
 11
15.770205
 21
56.908898
 31
0.0
  0
LINE
  5
A55E
  8
ALPHA
 10
10.508895
 20
52.248753
 30
0.0
 11
16.615441
 21
55.096282
 31
0.0
  0
ARC
  5
A55F
  8
ALPHA
 10
10.720205
 20
51.795599
 30
0.0
 40
0.5
 50
115.0
 51
180.0
  0
ARC
  5
A560
  8
ALPHA
 10
10.720205
 20
51.795599
 30
0.0
 40
2.5
 50
115.0
 51
180.0
  0
LINE
  5
A561
  8
ALPHA
 10
8.220205
 20
40.690995
 30
0.0
 11
10.220205
 21
40.690995
 31
0.0
  0
LINE
  5
A562
  8
ALPHA
 10
8.322836
 20
62.714135
 30
0.0
 11
10.220205
 21
62.714135
 31
0.0
  0
LINE
  5
A563
  8
ALPHA
 10
10.220205
 20
58.414135
 30
0.0
 11
10.420205
 21
58.214135
 31
0.0
  0
LINE
  5
A564
  8
ALPHA
 10
10.298509
 20
52.064249
 30
0.0
 11
8.611726
 21
53.138848
 31
0.0
  0
LINE
  5
A565
  8
ALPHA
 10
15.770205
 20
56.908898
 30
0.0
 11
16.615441
 21
55.096282
 31
0.0
  0
ARC
  5
A566
  8
ALPHA
 10
15.270205
 20
57.227433
 30
0.0
 40
0.5
 50
295.0
 51
0.0
  0
LINE
  5
A567
  8
ALPHA
 10
15.770205
 20
56.908898
 30
0.0
 11
17.770205
 21
56.908898
 31
0.0
  0
ARC
  5
A568
  8
ALPHA
 10
15.770205
 20
56.908898
 30
0.0
 40
2.0
 50
295.0
 51
0.0
  0
LINE
  5
A569
  8
ALPHA
 10
15.020205
 20
58.214135
 30
0.0
 11
15.220205
 21
58.414135
 31
0.0
  0
LINE
  5
A56A
  8
ALPHA
 10
10.420205
 20
74.214135
 30
0.0
 11
15.020205
 21
74.214135
 31
0.0
  0
LINE
  5
A56B
  8
ALPHA
 10
10.220205
 20
74.014135
 30
0.0
 11
10.420205
 21
74.214135
 31
0.0
  0
ARC
  5
A56C
  8
ALPHA
 10
38.720205
 20
67.214135
 30
0.0
 40
30.5
 50
175.29835
 51
180.0
  0
LINE
  5
A56D
  8
ALPHA
 10
8.322836
 20
69.714135
 30
0.0
 11
10.220205
 21
69.714135
 31
0.0
  0
LINE
  5
A56E
  8
ALPHA
 10
8.220205
 20
65.214135
 30
0.0
 11
8.220205
 21
67.214135
 31
0.0
  0
LINE
  5
A56F
  8
ALPHA
 10
17.770205
 20
68.264135
 30
0.0
 11
19.270205
 21
68.264135
 31
0.0
  0
LINE
  5
A570
  8
ALPHA
 10
15.770205
 20
66.707369
 30
0.0
 11
17.770205
 21
66.707369
 31
0.0
  0
LINE
  5
A571
  8
ALPHA
 10
17.770205
 20
70.714135
 30
0.0
 11
15.770205
 21
70.714135
 31
0.0
  0
LINE
  5
A572
  8
ALPHA
 10
15.020205
 20
74.214135
 30
0.0
 11
15.220205
 21
74.014135
 31
0.0
  0
LINE
  5
A573
  8
ALPHA
 10
15.220205
 20
68.692262
 30
0.0
 11
15.770205
 21
68.644144
 31
0.0
  0
LINE
  5
A574
  8
ALPHA
 10
17.770205
 20
64.164135
 30
0.0
 11
19.270205
 21
64.164135
 31
0.0
  0
LINE
  5
A575
  8
ALPHA
 10
19.270205
 20
64.164135
 30
0.0
 11
19.270205
 21
68.264135
 31
0.0
  0
LINE
  5
A8BE
  8
POINTILLE_COURT
 10
8.020205
 20
74.214135
 30
0.0
 11
3.420205
 21
74.214135
 31
0.0
  0
LINE
  5
A8BF
  8
POINTILLE_COURT
 10
7.931514
 20
52.248753
 30
0.0
 11
1.824968
 21
55.096282
 31
0.0
  0
LINE
  5
A8C0
  8
POINTILLE_COURT
 10
8.77675
 20
54.061369
 30
0.0
 11
2.670205
 21
56.908898
 31
0.0
  0
LINE
  5
A8C1
  8
POINTILLE_COURT
 10
8.020205
 20
58.214135
 30
0.0
 11
3.420205
 21
58.214135
 31
0.0
  0
LINE
  5
A8C2
  8
POINTILLE_COURT
 10
8.020205
 20
58.214135
 30
0.0
 11
8.020205
 21
74.214135
 31
0.0
  0
LINE
  5
A8C3
  8
POINTILLE_COURT
 10
8.220205
 20
58.414226
 30
0.0
 11
8.220205
 21
74.014043
 31
0.0
  0
LINE
  5
A8C4
  8
POINTILLE_COURT
 10
8.1419
 20
52.064249
 30
0.0
 11
9.828683
 21
53.138848
 31
0.0
  0
LINE
  5
A8C5
  8
POINTILLE_COURT
 10
8.220205
 20
58.414135
 30
0.0
 11
8.020205
 21
58.214135
 31
0.0
  0
ARC
  5
A8C6
  8
POINTILLE_COURT
 10
7.720205
 20
51.795599
 30
0.0
 40
2.5
 50
0.0
 51
65.0
  0
ARC
  5
A8C7
  8
POINTILLE_COURT
 10
7.720205
 20
51.795599
 30
0.0
 40
0.5
 50
0.0
 51
65.0
  0
LINE
  5
A8C8
  8
POINTILLE_COURT
 10
10.220205
 20
65.214135
 30
0.0
 11
10.220205
 21
67.214135
 31
0.0
  0
LINE
  5
A8C9
  8
POINTILLE_COURT
 10
10.117573
 20
69.714135
 30
0.0
 11
8.220205
 21
69.714135
 31
0.0
  0
ARC
  5
A8CA
  8
POINTILLE_COURT
 10
-20.279795
 20
67.214135
 30
0.0
 40
30.5
 50
0.0
 51
4.70165
  0
LINE
  5
A8CB
  8
POINTILLE_COURT
 10
8.220205
 20
74.014135
 30
0.0
 11
8.020205
 21
74.214135
 31
0.0
  0
LINE
  5
A8CC
  8
POINTILLE_COURT
 10
10.117573
 20
62.714135
 30
0.0
 11
8.220205
 21
62.714135
 31
0.0
  0
LINE
  5
A8CD
  8
POINTILLE_COURT
 10
10.117573
 20
69.714135
 30
0.0
 11
10.117573
 21
62.714135
 31
0.0
  0
ARC
  5
A8CE
  8
POINTILLE_COURT
 10
-20.279795
 20
65.214135
 30
0.0
 40
30.5
 50
355.29835
 51
0.0
  0
LINE
  5
A8CF
  8
AXE
 10
5.720205
 20
53.214135
 30
0.0
 11
5.720205
 21
79.214135
 31
0.0
  0
LINE
  5
A8D0
  8
POINTILLE_COURT
 10
0.670205
 20
56.908898
 30
0.0
 11
0.670205
 21
70.714135
 31
0.0
  0
LINE
  5
A8D1
  8
POINTILLE_COURT
 10
2.670205
 20
57.227433
 30
0.0
 11
2.670205
 21
70.714135
 31
0.0
  0
LINE
  5
A8D2
  8
POINTILLE_COURT
 10
3.220205
 20
58.414226
 30
0.0
 11
3.220205
 21
74.014043
 31
0.0
  0
LINE
  5
A8D3
  8
POINTILLE_COURT
 10
3.420205
 20
58.214135
 30
0.0
 11
3.420205
 21
74.214135
 31
0.0
  0
LINE
  5
A8D4
  8
POINTILLE_COURT
 10
3.420205
 20
58.214135
 30
0.0
 11
3.220205
 21
58.414135
 31
0.0
  0
ARC
  5
A8D5
  8
POINTILLE_COURT
 10
2.670205
 20
56.908898
 30
0.0
 40
2.0
 50
180.0
 51
245.0
  0
LINE
  5
A8D6
  8
POINTILLE_COURT
 10
2.670205
 20
56.908898
 30
0.0
 11
0.670205
 21
56.908898
 31
0.0
  0
ARC
  5
A8D7
  8
POINTILLE_COURT
 10
3.170205
 20
57.227433
 30
0.0
 40
0.5
 50
180.0
 51
245.0
  0
LINE
  5
A8D8
  8
POINTILLE_COURT
 10
2.670205
 20
56.908898
 30
0.0
 11
1.824968
 21
55.096282
 31
0.0
  0
LINE
  5
A8D9
  8
POINTILLE_COURT
 10
0.670205
 20
64.164135
 30
0.0
 11
-0.829795
 21
64.164135
 31
0.0
  0
LINE
  5
A8DA
  8
POINTILLE_COURT
 10
0.670205
 20
68.264135
 30
0.0
 11
-0.829795
 21
68.264135
 31
0.0
  0
LINE
  5
A8DB
  8
POINTILLE_COURT
 10
3.220205
 20
68.692262
 30
0.0
 11
2.670205
 21
68.644144
 31
0.0
  0
LINE
  5
A8DC
  8
POINTILLE_COURT
 10
3.420205
 20
74.214135
 30
0.0
 11
3.220205
 21
74.014135
 31
0.0
  0
LINE
  5
A8DD
  8
POINTILLE_COURT
 10
0.670205
 20
70.714135
 30
0.0
 11
2.670205
 21
70.714135
 31
0.0
  0
LINE
  5
A8DE
  8
POINTILLE_COURT
 10
2.670205
 20
66.707369
 30
0.0
 11
0.670205
 21
66.707369
 31
0.0
  0
LINE
  5
A8DF
  8
POINTILLE_COURT
 10
3.220205
 20
63.736007
 30
0.0
 11
2.670205
 21
63.784126
 31
0.0
  0
LINE
  5
A8E0
  8
POINTILLE_COURT
 10
-0.829795
 20
64.164135
 30
0.0
 11
-0.829795
 21
68.264135
 31
0.0
  0
LINE
  5
A8E2
  8
AXE
 10
9.220205
 20
9.71815
 30
0.0
 11
9.220205
 21
57.858559
 31
0.0
  0
TEXT
  5
A8E3
  8
AXE
 10
4.172586
 20
9.71815
 30
0.0
 40
5.0
  1
Y
 72
     2
 11
8.220205
 21
9.71815
 31
0.0
  0
DIMENSION
  5
A8F8
  8
COTATION1
  2
*D4
 10
12.720205
 20
99.214135
 30
0.0
 11
9.301102
 21
101.826368
 31
0.0
 70
   128
 13
5.720205
 23
79.214135
 33
0.0
 14
12.720205
 24
79.214135
 34
0.0
  0
DIMENSION
  5
A92E
  8
COTATION1
  2
*D5
 10
19.270205
 20
22.239664
 30
0.0
 11
30.550281
 21
25.15998
 31
0.0
 70
   128
 13
8.220205
 23
31.814135
 33
0.0
 14
19.270205
 24
64.164135
 34
0.0
  0
LINE
  5
A96B
  8
COTATION1
 10
8.220205
 20
22.239664
 30
0.0
 11
34.134031
 21
22.239664
 31
0.0
  0
VIEWPORT
  5
494D
 67
     1
  8
0
 10
4.995325
 20
6.556512
 30
0.0
 40
22.70986
 41
13.988421
 68
    -1
 69
     1
1001
ACAD
1000
MVIEW
1002
{
1070
    16
1010
0.0
1020
0.0
1030
0.0
1010
0.0
1020
0.0
1030
1.0
1040
0.0
1040
13.988421
1040
4.995325
1040
6.556512
1040
50.0
1040
0.0
1040
0.0
1070
     0
1070
   100
1070
     1
1070
     1
1070
     0
1070
     0
1070
     0
1070
     0
1040
0.0
1040
0.0
1040
0.0
1040
10.0
1040
10.0
1040
10.0
1040
10.0
1070
     0
1002
{
1002
}
1002
}
  0
ENDSEC
  0
EOF
