  0
SECTION
  2
HEADER
  9
$ACADVER
  1
AC1009
  9
$INSBASE
 10
402.590624
 20
-1.041018
 30
0.0
  9
$EXTMIN
 10
77.099393
 20
23.314135
 30
0.0
  9
$EXTMAX
 10
121.96844
 20
93.714135
 30
0.0
  9
$LIMMIN
 10
-407.970438
 20
-367.832444
  9
$LIMMAX
 10
429.804077
 20
234.370848
  9
$ORTHOMODE
 70
     0
  9
$REGENMODE
 70
     1
  9
$FILLMODE
 70
     1
  9
$QTEXTMODE
 70
     0
  9
$MIRRTEXT
 70
     1
  9
$DRAGMODE
 70
     2
  9
$LTSCALE
 40
10.0
  9
$OSMODE
 70
    35
  9
$ATTMODE
 70
     1
  9
$TEXTSIZE
 40
6.0
  9
$TRACEWID
 40
1.0
  9
$TEXTSTYLE
  7
ROMANS
  9
$CLAYER
  8
ALPHA
  9
$CELTYPE
  6
BYLAYER
  9
$CECOLOR
 62
   256
  9
$DIMSCALE
 40
1.0
  9
$DIMASZ
 40
5.0
  9
$DIMEXO
 40
2.0
  9
$DIMDLI
 40
0.38
  9
$DIMRND
 40
0.0
  9
$DIMDLE
 40
0.0
  9
$DIMEXE
 40
2.5
  9
$DIMTP
 40
0.0
  9
$DIMTM
 40
0.0
  9
$DIMTXT
 40
2.5
  9
$DIMCEN
 40
0.0
  9
$DIMTSZ
 40
0.0
  9
$DIMTOL
 70
     0
  9
$DIMLIM
 70
     0
  9
$DIMTIH
 70
     1
  9
$DIMTOH
 70
     1
  9
$DIMSE1
 70
     0
  9
$DIMSE2
 70
     0
  9
$DIMTAD
 70
     1
  9
$DIMZIN
 70
    12
  9
$DIMBLK
  1
OPEN30
  9
$DIMASO
 70
     1
  9
$DIMSHO
 70
     1
  9
$DIMPOST
  1

  9
$DIMAPOST
  1

  9
$DIMALT
 70
     0
  9
$DIMALTD
 70
     2
  9
$DIMALTF
 40
25.4
  9
$DIMLFAC
 40
1.0
  9
$DIMTOFL
 70
     0
  9
$DIMTVP
 40
0.0
  9
$DIMTIX
 70
     0
  9
$DIMSOXD
 70
     0
  9
$DIMSAH
 70
     0
  9
$DIMBLK1
  1

  9
$DIMBLK2
  1

  9
$DIMSTYLE
  2
SC_DEFAUT
  9
$DIMCLRD
 70
     0
  9
$DIMCLRE
 70
     0
  9
$DIMCLRT
 70
     0
  9
$DIMTFAC
 40
1.0
  9
$DIMGAP
 40
2.0
  9
$LUNITS
 70
     2
  9
$LUPREC
 70
     1
  9
$SKETCHINC
 40
0.1
  9
$FILLETRAD
 40
0.0
  9
$AUNITS
 70
     0
  9
$AUPREC
 70
     0
  9
$MENU
  1
acad
  9
$ELEVATION
 40
0.0
  9
$PELEVATION
 40
0.0
  9
$THICKNESS
 40
0.0
  9
$LIMCHECK
 70
     0
  9
$BLIPMODE
 70
     0
  9
$CHAMFERA
 40
0.0
  9
$CHAMFERB
 40
0.0
  9
$SKPOLY
 70
     0
  9
$TDCREATE
 40
2450373.687919
  9
$TDUPDATE
 40
2453032.634366
  9
$TDINDWG
 40
1.06906
  9
$TDUSRTIMER
 40
1.06906
  9
$USRTIMER
 70
     1
  9
$ANGBASE
 50
0.0
  9
$ANGDIR
 70
     0
  9
$PDMODE
 70
    32
  9
$PDSIZE
 40
0.0
  9
$PLINEWID
 40
0.0
  9
$COORDS
 70
     1
  9
$SPLFRAME
 70
     0
  9
$SPLINETYPE
 70
     6
  9
$SPLINESEGS
 70
     8
  9
$ATTDIA
 70
     0
  9
$ATTREQ
 70
     1
  9
$HANDLING
 70
     1
  9
$HANDSEED
  5
A7CF
  9
$SURFTAB1
 70
     6
  9
$SURFTAB2
 70
     6
  9
$SURFTYPE
 70
     6
  9
$SURFU
 70
     6
  9
$SURFV
 70
     6
  9
$UCSNAME
  2

  9
$UCSORG
 10
0.0
 20
0.0
 30
0.0
  9
$UCSXDIR
 10
1.0
 20
0.0
 30
0.0
  9
$UCSYDIR
 10
0.0
 20
1.0
 30
0.0
  9
$PUCSNAME
  2

  9
$PUCSORG
 10
0.0
 20
0.0
 30
0.0
  9
$PUCSXDIR
 10
1.0
 20
0.0
 30
0.0
  9
$PUCSYDIR
 10
0.0
 20
1.0
 30
0.0
  9
$USERI1
 70
     0
  9
$USERI2
 70
     0
  9
$USERI3
 70
     0
  9
$USERI4
 70
     0
  9
$USERI5
 70
     0
  9
$USERR1
 40
0.0
  9
$USERR2
 40
0.0
  9
$USERR3
 40
0.0
  9
$USERR4
 40
0.0
  9
$USERR5
 40
0.0
  9
$WORLDVIEW
 70
     1
  9
$SHADEDGE
 70
     3
  9
$SHADEDIF
 70
    70
  9
$TILEMODE
 70
     1
  9
$MAXACTVP
 70
    16
  9
$PLIMCHECK
 70
     0
  9
$PEXTMIN
 10
-1.452248
 20
-0.437698
 30
0.0
  9
$PEXTMAX
 10
12.749749
 20
8.310198
 30
0.0
  9
$PLIMMIN
 10
0.0
 20
0.0
  9
$PLIMMAX
 10
12.0
 20
9.0
  9
$UNITMODE
 70
     0
  9
$VISRETAIN
 70
     0
  9
$PLINEGEN
 70
     0
  9
$PSLTSCALE
 70
     0
  0
ENDSEC
  0
SECTION
  2
TABLES
  0
TABLE
  2
VPORT
 70
     2
  0
VPORT
  2
*ACTIVE
 70
     0
 10
0.0
 20
0.0
 11
1.0
 21
1.0
 12
99.537913
 22
58.513815
 13
0.0
 23
0.0
 14
1.0
 24
1.0
 15
10.0
 25
10.0
 16
0.0
 26
0.0
 36
1.0
 17
0.0
 27
0.0
 37
0.0
 40
70.986459
 41
1.466346
 42
50.0
 43
0.0
 44
0.0
 50
0.0
 51
0.0
 71
     0
 72
   100
 73
     1
 74
     0
 75
     0
 76
     0
 77
     0
 78
     0
  0
ENDTAB
  0
TABLE
  2
LTYPE
 70
     2
  0
LTYPE
  2
CONTINUOUS
 70
     0
  3
Solid line
 72
    65
 73
     0
 40
0.0
  0
LTYPE
  2
AXES2
 70
     0
  3
___ _ ___ _ ___ _ ___ _ ___ _ ___ _ ___ _ ___ _
 72
    65
 73
     4
 40
1.125
 49
0.75
 49
-0.125
 49
0.125
 49
-0.125
  0
ENDTAB
  0
TABLE
  2
LAYER
 70
     5
  0
LAYER
  2
0
 70
     0
 62
   255
  6
CONTINUOUS
  0
LAYER
  2
COTATION1
 70
     0
 62
     2
  6
CONTINUOUS
  0
LAYER
  2
AXE
 70
     0
 62
    80
  6
AXES2
  0
LAYER
  2
DEFPOINTS
 70
     0
 62
     7
  6
CONTINUOUS
  0
LAYER
  2
ALPHA
 70
     0
 62
   254
  6
CONTINUOUS
  0
ENDTAB
  0
TABLE
  2
STYLE
 70
     2
  0
STYLE
  2
ROMANS
 70
     0
 40
0.0
 41
1.0
 50
0.0
 71
     0
 42
6.0
  3
romans
  4

  0
STYLE
  2
STANDARD
 70
     0
 40
0.0
 41
1.0
 50
0.0
 71
     0
 42
0.2
  3
txt
  4

  0
ENDTAB
  0
TABLE
  2
VIEW
 70
     0
  0
ENDTAB
  0
TABLE
  2
UCS
 70
     0
  0
ENDTAB
  0
TABLE
  2
APPID
 70
     1
  0
APPID
  2
ACAD
 70
     0
  0
ENDTAB
  0
TABLE
  2
DIMSTYLE
 70
     2
  0
DIMSTYLE
  2
SC_DEFAUT
 70
     0
  3

  4

  5
OPEN30
  6

  7

 40
1.0
 41
5.0
 42
2.0
 43
0.38
 44
2.5
 45
0.0
 46
0.0
 47
0.0
 48
0.0
140
2.5
141
0.0
142
0.0
143
25.4
144
1.0
145
0.0
146
1.0
147
2.0
 71
     0
 72
     0
 73
     1
 74
     1
 75
     0
 76
     0
 77
     1
 78
    12
170
     0
171
     2
172
     0
173
     0
174
     0
175
     0
176
     0
177
     0
178
     0
  0
DIMSTYLE
  2
STANDARD
 70
     0
  3

  4

  5

  6

  7

 40
1.0
 41
0.18
 42
0.0625
 43
0.38
 44
0.18
 45
0.0
 46
0.0
 47
0.0
 48
0.0
140
0.18
141
0.09
142
0.0
143
25.4
144
1.0
145
0.0
146
1.0
147
0.09
 71
     0
 72
     0
 73
     1
 74
     1
 75
     0
 76
     0
 77
     0
 78
     0
170
     0
171
     2
172
     0
173
     0
174
     0
175
     0
176
     0
177
     0
178
     0
  0
ENDTAB
  0
ENDSEC
  0
SECTION
  2
BLOCKS
  0
BLOCK
  8
0
  2
$MODEL_SPACE
 70
     0
 10
0.0
 20
0.0
 30
0.0
  3
$MODEL_SPACE
  1

  0
ENDBLK
  5
A7C8
  8
0
  0
BLOCK
 67
     1
  8
0
  2
$PAPER_SPACE
 70
     0
 10
0.0
 20
0.0
 30
0.0
  3
$PAPER_SPACE
  1

  0
ENDBLK
  5
A7C6
 67
     1
  8
0
  0
BLOCK
  8
0
  2
COTE
 70
     0
 10
0.0
 20
0.0
 30
0.0
  3
COTE
  1

  0
ENDBLK
  5
F
  8
0
  0
BLOCK
  8
0
  2
FOND
 70
     0
 10
0.0
 20
0.0
 30
0.0
  3
FOND
  1

  0
ENDBLK
  5
75
  8
0
  0
BLOCK
  8
0
  2
_OPEN30
 70
     0
 10
0.0
 20
0.0
 30
0.0
  3
_OPEN30
  1

  0
LINE
  5
4B05
  8
COTATION1
 62
     0
 10
-1.0
 20
0.267949
 30
0.0
 11
0.0
 21
0.0
 31
0.0
1001
ACAD
1000
RTLwPs
1070
   158
  0
LINE
  5
4B06
  8
COTATION1
 62
     0
 10
0.0
 20
0.0
 30
0.0
 11
-1.0
 21
-0.267949
 31
0.0
1001
ACAD
1000
RTLwPs
1070
   158
  0
LINE
  5
4B07
  8
COTATION1
 62
     0
 10
0.0
 20
0.0
 30
0.0
 11
-1.0
 21
0.0
 31
0.0
1001
ACAD
1000
RTLwPs
1070
   158
  0
ENDBLK
  5
4B09
  8
0
  0
BLOCK
  8
0
  2
*D3
 70
     1
 10
0.0
 20
0.0
 30
0.0
  3
*D3
  1

  0
LINE
  5
A704
  8
COTATION1
 62
     0
 10
82.099393
 20
68.214135
 30
0.0
 11
82.099393
 21
91.714135
 31
0.0
1001
ACAD
1000
RTLwPs
1070
   158
  0
LINE
  5
A705
  8
COTATION1
 62
     0
 10
98.099393
 20
68.214135
 30
0.0
 11
98.099393
 21
91.714135
 31
0.0
1001
ACAD
1000
RTLwPs
1070
   158
  0
LINE
  5
A706
  8
COTATION1
 62
     0
 10
87.099393
 20
89.214135
 30
0.0
 11
93.099393
 21
89.214135
 31
0.0
1001
ACAD
1000
RTLwPs
1070
   158
  0
INSERT
  5
A707
  8
COTATION1
 62
     0
  2
_OPEN30
 10
82.099393
 20
89.214135
 30
0.0
 41
5.0
 42
5.0
 43
5.0
 50
180.0
1001
ACAD
1000
RTLwPs
1070
   158
  0
INSERT
  5
A708
  8
COTATION1
 62
     0
  2
_OPEN30
 10
98.099393
 20
89.214135
 30
0.0
 41
5.0
 42
5.0
 43
5.0
1001
ACAD
1000
RTLwPs
1070
   158
  0
TEXT
  5
A709
  8
COTATION1
 62
     0
 10
86.706536
 20
91.214135
 30
0.0
 40
2.5
  1
%%c
1001
ACAD
1000
MTEXTBEGIN
1070
    73
1070
     1
1070
    44
1040
1.0
1070
    74
1070
     0
1000
MTEXTEND
  0
TEXT
  5
A799
  8
COTATION1
 62
     0
 10
88.96844
 20
91.214135
 30
0.0
 40
2.5
  1
16
1001
ACAD
1000
R13OBJECT
1002
{
1005
A709
1002
}
  0
POINT
  5
A70A
  8
DEFPOINTS
 62
     0
 10
82.099393
 20
66.214135
 30
0.0
  0
POINT
  5
A70B
  8
DEFPOINTS
 62
     0
 10
98.099393
 20
66.214135
 30
0.0
  0
POINT
  5
A70C
  8
DEFPOINTS
 62
     0
 10
98.099393
 20
89.214135
 30
0.0
  0
ENDBLK
  5
9D9C
  8
0
  0
BLOCK
  8
0
  2
*D4
 70
     1
 10
0.0
 20
0.0
 30
0.0
  3
*D4
  1

  0
LINE
  5
A717
  8
COTATION1
 62
     0
 10
92.099393
 20
74.214135
 30
0.0
 11
120.599393
 21
74.214135
 31
0.0
1001
ACAD
1000
RTLwPs
1070
   158
  0
LINE
  5
A718
  8
COTATION1
 62
     0
 10
92.099393
 20
31.814135
 30
0.0
 11
120.599393
 21
31.814135
 31
0.0
1001
ACAD
1000
RTLwPs
1070
   158
  0
LINE
  5
A719
  8
COTATION1
 62
     0
 10
118.099393
 20
69.214135
 30
0.0
 11
118.099393
 21
56.264135
 31
0.0
1001
ACAD
1000
RTLwPs
1070
   158
  0
LINE
  5
A71A
  8
COTATION1
 62
     0
 10
118.099393
 20
36.814135
 30
0.0
 11
118.099393
 21
49.764135
 31
0.0
1001
ACAD
1000
RTLwPs
1070
   158
  0
INSERT
  5
A71B
  8
COTATION1
 62
     0
  2
_OPEN30
 10
118.099393
 20
74.214135
 30
0.0
 41
5.0
 42
5.0
 43
5.0
 50
90.0
1001
ACAD
1000
RTLwPs
1070
   158
  0
INSERT
  5
A71C
  8
COTATION1
 62
     0
  2
_OPEN30
 10
118.099393
 20
31.814135
 30
0.0
 41
5.0
 42
5.0
 43
5.0
 50
270.0
1001
ACAD
1000
RTLwPs
1070
   158
  0
TEXT
  5
A71D
  8
COTATION1
 62
     0
 10
113.873202
 20
51.764135
 30
0.0
 40
2.5
  1
42.4
1001
ACAD
1000
MTEXTBEGIN
1070
    73
1070
     1
1070
    44
1040
1.0
1070
    74
1070
     0
1000
MTEXTEND
  0
POINT
  5
A71E
  8
DEFPOINTS
 62
     0
 10
90.099393
 20
74.214135
 30
0.0
  0
POINT
  5
A71F
  8
DEFPOINTS
 62
     0
 10
90.099393
 20
31.814135
 30
0.0
  0
POINT
  5
A720
  8
DEFPOINTS
 62
     0
 10
118.099393
 20
31.814135
 30
0.0
  0
ENDBLK
  5
9DA9
  8
0
  0
ENDSEC
  0
SECTION
  2
ENTITIES
  0
INSERT
  5
A
  8
0
  2
COTE
 10
0.0
 20
0.0
 30
0.0
  0
INSERT
  5
17
  8
0
  2
COTE
 10
284.010391
 20
6.373258
 30
0.0
  0
INSERT
  5
72
  8
0
  2
FOND
 10
0.0
 20
0.0
 30
0.0
  0
LINE
  5
9D88
  8
AXE
 10
90.099393
 20
23.314135
 30
0.0
 11
90.099393
 21
79.214135
 31
0.0
  0
TEXT
  5
9D89
  8
AXE
 10
85.051774
 20
23.314135
 30
0.0
 40
5.0
  1
Y
 72
     2
 11
89.099393
 21
23.314135
 31
0.0
  0
DIMENSION
  5
9D8A
  8
COTATION1
  2
*D4
 10
118.099393
 20
31.814135
 30
0.0
 11
118.099393
 21
53.014135
 31
0.0
 13
90.099393
 23
74.214135
 33
0.0
 14
90.099393
 24
31.814135
 34
0.0
 50
90.0
  0
LINE
  5
9D8E
  8
AXE
 10
77.099393
 20
66.214135
 30
0.0
 11
108.099393
 21
66.214135
 31
0.0
  0
TEXT
  5
9D8F
  8
AXE
 10
104.051774
 20
67.214135
 30
0.0
 40
5.0
  1
X
 72
     2
 11
108.099393
 21
67.214135
 31
0.0
  0
DIMENSION
  5
9D90
  8
COTATION1
  2
*D3
 10
98.099393
 20
89.214135
 30
0.0
 11
90.099393
 21
92.464135
 31
0.0
  1
%%c<>
 13
82.099393
 23
66.214135
 33
0.0
 14
98.099393
 24
66.214135
 34
0.0
  0
LINE
  5
9E9B
  8
AXE
 10
79.923503
 20
39.814135
 30
0.0
 11
100.275282
 21
39.814135
 31
0.0
  0
LINE
  5
A576
  8
ALPHA
 10
83.37212
 20
51.795599
 30
0.0
 11
96.826666
 21
51.795599
 31
0.0
  0
LINE
  5
A577
  8
ALPHA
 10
83.723375
 20
54.061369
 30
0.0
 11
96.475411
 21
54.061369
 31
0.0
  0
LINE
  5
A578
  8
ALPHA
 10
84.531164
 20
56.774279
 30
0.0
 11
95.667621
 21
56.774279
 31
0.0
  0
LINE
  5
A579
  8
ALPHA
 10
84.581134
 20
57.227433
 30
0.0
 11
95.617651
 21
57.227433
 31
0.0
  0
CIRCLE
  5
A57A
  8
ALPHA
 10
90.099393
 20
66.214135
 30
0.0
 40
6.5
  0
CIRCLE
  5
A57B
  8
ALPHA
 10
90.099393
 20
66.214135
 30
0.0
 40
4.24
  0
CIRCLE
  5
A57C
  8
ALPHA
 10
90.099393
 20
66.214135
 30
0.0
 40
8.0
  0
CIRCLE
  5
A57D
  8
ALPHA
 10
90.099393
 20
66.214135
 30
0.0
 40
4.2
  0
CIRCLE
  5
A57E
  8
ALPHA
 10
90.099393
 20
66.214135
 30
0.0
 40
6.247738
  0
CIRCLE
  5
A57F
  8
ALPHA
 10
90.099393
 20
66.214135
 30
0.0
 40
4.0
  0
CIRCLE
  5
A580
  8
ALPHA
 10
90.099393
 20
66.214135
 30
0.0
 40
4.500595
  0
CIRCLE
  5
A581
  8
ALPHA
 10
90.099393
 20
66.214135
 30
0.0
 40
4.385688
  0
CIRCLE
  5
A582
  8
ALPHA
 10
90.099393
 20
66.214135
 30
0.0
 40
4.286791
  0
CIRCLE
  5
A583
  8
ALPHA
 10
90.099393
 20
66.214135
 30
0.0
 40
6.453393
  0
CIRCLE
  5
A584
  8
ALPHA
 10
90.099393
 20
66.214135
 30
0.0
 40
6.29
  0
CIRCLE
  5
A585
  8
ALPHA
 10
90.099393
 20
66.214135
 30
0.0
 40
7.8
  0
LINE
  5
A586
  8
ALPHA
 10
94.189584
 20
42.538842
 30
0.0
 11
93.863788
 21
42.235032
 31
0.0
  0
ARC
  5
A587
  8
ALPHA
 10
94.013827
 20
42.074135
 30
0.0
 40
0.22
 50
133.0
 51
287.0
  0
ARC
  5
A588
  8
ALPHA
 10
94.013827
 20
37.554135
 30
0.0
 40
0.22
 50
73.0
 51
227.0
  0
LINE
  5
A589
  8
ALPHA
 10
93.863788
 20
37.393237
 30
0.0
 11
94.189584
 21
37.089427
 31
0.0
  0
ARC
  5
A58A
  8
ALPHA
 10
90.099393
 20
39.814135
 30
0.0
 40
5.175
 50
307.149989
 51
322.849726
  0
ARC
  5
A58B
  8
ALPHA
 10
90.099393
 20
39.814135
 30
0.0
 40
5.175
 50
37.150027
 51
52.84983
  0
ARC
  5
A58C
  8
ALPHA
 10
90.099393
 20
39.814135
 30
0.0
 40
8.0
 50
173.707306
 51
6.292694
  0
LINE
  5
A58D
  8
ALPHA
 10
84.964641
 20
40.458268
 30
0.0
 11
84.964645
 21
39.169952
 31
0.0
  0
ARC
  5
A58E
  8
ALPHA
 10
85.262315
 20
40.421016
 30
0.0
 40
0.3
 50
172.848784
 51
257.0
  0
LINE
  5
A58F
  8
ALPHA
 10
86.120636
 20
37.764522
 30
0.0
 11
85.694631
 21
37.634279
 31
0.0
  0
LINE
  5
A590
  8
ALPHA
 10
85.330491
 20
37.804615
 30
0.0
 11
85.974704
 21
36.688822
 31
0.0
  0
LINE
  5
A591
  8
ALPHA
 10
85.628882
 20
40.028496
 30
0.0
 11
85.19483
 21
40.128705
 31
0.0
  0
LINE
  5
A592
  8
ALPHA
 10
85.19483
 20
39.499564
 30
0.0
 11
85.628882
 21
39.599773
 31
0.0
  0
ARC
  5
A593
  8
ALPHA
 10
85.60692
 20
37.92117
 30
0.0
 40
0.3
 50
202.848784
 51
287.0
  0
ARC
  5
A594
  8
ALPHA
 10
85.579393
 20
39.814135
 30
0.0
 40
0.22
 50
283.0
 51
77.0
  0
ARC
  5
A595
  8
ALPHA
 10
90.099393
 20
39.814135
 30
0.0
 40
5.175
 50
187.150716
 51
202.849581
  0
ARC
  5
A596
  8
ALPHA
 10
85.262315
 20
39.207253
 30
0.0
 40
0.3
 50
103.0
 51
187.151216
  0
LINE
  5
A597
  8
ALPHA
 10
92.8241
 20
35.723944
 30
0.0
 11
92.52029
 21
36.049739
 31
0.0
  0
LINE
  5
A598
  8
ALPHA
 10
92.149006
 20
35.835378
 30
0.0
 11
92.279248
 21
35.409373
 31
0.0
  0
ARC
  5
A599
  8
ALPHA
 10
93.043506
 20
35.928543
 30
0.0
 40
0.3
 50
223.0
 51
307.151216
  0
ARC
  5
A59A
  8
ALPHA
 10
92.359393
 20
35.8997
 30
0.0
 40
0.22
 50
43.0
 51
197.0
  0
ARC
  5
A59B
  8
ALPHA
 10
91.992357
 20
35.321662
 30
0.0
 40
0.3
 50
292.848784
 51
17.0
  0
LINE
  5
A59C
  8
ALPHA
 10
92.108914
 20
35.045233
 30
0.0
 11
93.224591
 21
35.689367
 31
0.0
  0
LINE
  5
A59D
  8
ALPHA
 10
90.413963
 20
34.909572
 30
0.0
 11
90.313754
 21
35.343624
 31
0.0
  0
LINE
  5
A59E
  8
ALPHA
 10
89.885031
 20
35.343624
 30
0.0
 11
89.784822
 21
34.909572
 31
0.0
  0
ARC
  5
A59F
  8
ALPHA
 10
90.706274
 20
34.977057
 30
0.0
 40
0.3
 50
193.0
 51
277.151216
  0
ARC
  5
A5A0
  8
ALPHA
 10
90.099393
 20
35.294135
 30
0.0
 40
0.22
 50
13.0
 51
167.0
  0
ARC
  5
A5A1
  8
ALPHA
 10
89.492511
 20
34.977057
 30
0.0
 40
0.3
 50
262.848784
 51
347.0
  0
LINE
  5
A5A2
  8
ALPHA
 10
90.099393
 20
34.639135
 30
0.0
 11
90.744055
 21
34.679431
 31
0.0
  0
LINE
  5
A5A3
  8
ALPHA
 10
89.45473
 20
34.679431
 30
0.0
 11
90.099393
 21
34.639135
 31
0.0
  0
ARC
  5
A5A4
  8
ALPHA
 10
90.099393
 20
39.814135
 30
0.0
 40
5.175
 50
277.156047
 51
292.849601
  0
ARC
  5
A5A5
  8
ALPHA
 10
86.184958
 20
37.554135
 30
0.0
 40
0.22
 50
313.0
 51
107.0
  0
LINE
  5
A5A6
  8
ALPHA
 10
87.919537
 20
35.409373
 30
0.0
 11
88.04978
 21
35.835378
 31
0.0
  0
LINE
  5
A5A7
  8
ALPHA
 10
87.678495
 20
36.049739
 30
0.0
 11
87.374685
 21
35.723944
 31
0.0
  0
ARC
  5
A5A8
  8
ALPHA
 10
88.206428
 20
35.321662
 30
0.0
 40
0.3
 50
163.0
 51
247.151216
  0
ARC
  5
A5A9
  8
ALPHA
 10
87.839393
 20
35.8997
 30
0.0
 40
0.22
 50
343.0
 51
137.0
  0
ARC
  5
A5AA
  8
ALPHA
 10
90.099393
 20
39.814135
 30
0.0
 40
5.175
 50
217.151526
 51
232.848486
  0
ARC
  5
A5AB
  8
ALPHA
 10
86.213801
 20
36.870021
 30
0.0
 40
0.3
 50
133.0
 51
217.151216
  0
ARC
  5
A5AC
  8
ALPHA
 10
87.155279
 20
35.928543
 30
0.0
 40
0.3
 50
232.848784
 51
317.0
  0
LINE
  5
A5AD
  8
ALPHA
 10
86.974081
 20
35.689445
 30
0.0
 11
88.089962
 21
35.045191
 31
0.0
  0
LINE
  5
A5AE
  8
ALPHA
 10
86.009202
 20
37.089427
 30
0.0
 11
86.334997
 21
37.393237
 31
0.0
  0
ARC
  5
A5AF
  8
ALPHA
 10
90.099393
 20
39.814135
 30
0.0
 40
5.175
 50
247.151509
 51
262.843953
  0
CIRCLE
  5
A5B0
  8
ALPHA
 10
90.099393
 20
66.214135
 30
0.0
 40
3.5
  0
LINE
  5
A5B1
  8
ALPHA
 10
83.37212
 20
51.795599
 30
0.0
 11
83.547747
 21
53.138848
 31
0.0
  0
LINE
  5
A5B2
  8
ALPHA
 10
85.694631
 20
41.99399
 30
0.0
 11
86.120636
 21
41.863748
 31
0.0
  0
LINE
  5
A5B3
  8
ALPHA
 10
85.974632
 20
42.939344
 30
0.0
 11
85.330497
 21
41.823668
 31
0.0
  0
ARC
  5
A5B4
  8
ALPHA
 10
85.60692
 20
41.707099
 30
0.0
 40
0.3
 50
73.0
 51
157.151216
  0
ARC
  5
A5B5
  8
ALPHA
 10
90.099393
 20
39.814135
 30
0.0
 40
5.175
 50
157.150246
 51
172.849828
  0
LINE
  5
A5B6
  8
ALPHA
 10
83.37212
 20
51.795599
 30
0.0
 11
82.147593
 21
40.690995
 31
0.0
  0
LINE
  5
A5B7
  8
ALPHA
 10
89.799393
 20
49.814135
 30
0.0
 11
90.399393
 21
49.814135
 31
0.0
  0
LINE
  5
A5B8
  8
ALPHA
 10
92.279248
 20
44.218896
 30
0.0
 11
92.149006
 21
43.792891
 31
0.0
  0
LINE
  5
A5B9
  8
ALPHA
 10
92.52029
 20
43.57853
 30
0.0
 11
92.8241
 21
43.904326
 31
0.0
  0
ARC
  5
A5BA
  8
ALPHA
 10
91.992357
 20
44.306607
 30
0.0
 40
0.3
 50
343.0
 51
67.151216
  0
ARC
  5
A5BB
  8
ALPHA
 10
92.359393
 20
43.728569
 30
0.0
 40
0.22
 50
163.0
 51
317.0
  0
ARC
  5
A5BC
  8
ALPHA
 10
93.043506
 20
43.699726
 30
0.0
 40
0.3
 50
52.848784
 51
137.0
  0
LINE
  5
A5BD
  8
ALPHA
 10
93.224605
 20
43.938893
 30
0.0
 11
92.108886
 21
44.583049
 31
0.0
  0
LINE
  5
A5BE
  8
ALPHA
 10
89.799393
 20
46.814135
 30
0.0
 11
90.399393
 21
46.814135
 31
0.0
  0
LINE
  5
A5BF
  8
ALPHA
 10
89.784822
 20
44.718698
 30
0.0
 11
89.885031
 21
44.284645
 31
0.0
  0
LINE
  5
A5C0
  8
ALPHA
 10
90.313754
 20
44.284645
 30
0.0
 11
90.413963
 21
44.718698
 31
0.0
  0
ARC
  5
A5C1
  8
ALPHA
 10
89.492511
 20
44.651212
 30
0.0
 40
0.3
 50
13.0
 51
97.151216
  0
ARC
  5
A5C2
  8
ALPHA
 10
90.099393
 20
44.334135
 30
0.0
 40
0.22
 50
193.0
 51
347.0
  0
ARC
  5
A5C3
  8
ALPHA
 10
90.706274
 20
44.651212
 30
0.0
 40
0.3
 50
82.848784
 51
167.0
  0
LINE
  5
A5C4
  8
ALPHA
 10
90.743657
 20
44.948875
 30
0.0
 11
90.099393
 21
44.989135
 31
0.0
  0
LINE
  5
A5C5
  8
ALPHA
 10
90.099393
 20
44.989135
 30
0.0
 11
89.454817
 21
44.948846
 31
0.0
  0
ARC
  5
A5C6
  8
ALPHA
 10
90.099393
 20
39.814135
 30
0.0
 40
5.175
 50
67.150734
 51
82.848374
  0
LINE
  5
A5C7
  8
ALPHA
 10
89.799393
 20
49.814135
 30
0.0
 11
89.799393
 21
46.814135
 31
0.0
  0
LINE
  5
A5C8
  8
ALPHA
 10
90.099393
 20
46.814135
 30
0.0
 11
90.099393
 21
49.814135
 31
0.0
  0
LINE
  5
A5C9
  8
ALPHA
 10
90.399393
 20
49.814135
 30
0.0
 11
90.399393
 21
46.814135
 31
0.0
  0
LINE
  5
A5CA
  8
ALPHA
 10
87.374685
 20
43.904326
 30
0.0
 11
87.678495
 21
43.57853
 31
0.0
  0
LINE
  5
A5CB
  8
ALPHA
 10
88.04978
 20
43.792891
 30
0.0
 11
87.919537
 21
44.218896
 31
0.0
  0
ARC
  5
A5CC
  8
ALPHA
 10
87.839393
 20
43.728569
 30
0.0
 40
0.22
 50
223.0
 51
17.0
  0
ARC
  5
A5CD
  8
ALPHA
 10
88.206428
 20
44.306607
 30
0.0
 40
0.3
 50
112.848784
 51
197.0
  0
ARC
  5
A5CE
  8
ALPHA
 10
87.155279
 20
43.699726
 30
0.0
 40
0.3
 50
43.0
 51
127.151216
  0
LINE
  5
A5CF
  8
ALPHA
 10
88.089855
 20
44.583028
 30
0.0
 11
86.974192
 21
43.938901
 31
0.0
  0
ARC
  5
A5D0
  8
ALPHA
 10
90.099393
 20
39.814135
 30
0.0
 40
5.175
 50
97.155077
 51
112.849802
  0
LINE
  5
A5D1
  8
ALPHA
 10
86.334997
 20
42.235032
 30
0.0
 11
86.009202
 21
42.538842
 31
0.0
  0
ARC
  5
A5D2
  8
ALPHA
 10
86.184958
 20
42.074135
 30
0.0
 40
0.22
 50
253.0
 51
47.0
  0
ARC
  5
A5D3
  8
ALPHA
 10
86.213801
 20
42.758248
 30
0.0
 40
0.3
 50
142.848784
 51
227.0
  0
ARC
  5
A5D4
  8
ALPHA
 10
90.099393
 20
39.814135
 30
0.0
 40
5.175
 50
127.150013
 51
142.849866
  0
LINE
  5
A5D5
  8
ALPHA
 10
84.531164
 20
56.774279
 30
0.0
 11
84.581134
 21
57.227433
 31
0.0
  0
LINE
  5
A5D6
  8
ALPHA
 10
84.581134
 20
57.227433
 30
0.0
 11
84.901987
 21
60.137086
 31
0.0
  0
LINE
  5
A5D7
  8
ALPHA
 10
84.466368
 20
56.908898
 30
0.0
 11
84.546009
 21
56.908898
 31
0.0
  0
LINE
  5
A5D8
  8
ALPHA
 10
83.547747
 20
53.138848
 30
0.0
 11
83.723375
 21
54.061369
 31
0.0
  0
LINE
  5
A5D9
  8
ALPHA
 10
83.723375
 20
54.061369
 30
0.0
 11
84.466368
 21
56.908898
 31
0.0
  0
ARC
  5
A5DA
  8
ALPHA
 10
94.862532
 20
63.464135
 30
0.0
 40
1.5
 50
175.12594
 51
177.524039
  0
ARC
  5
A5DB
  8
ALPHA
 10
90.099393
 20
60.714135
 30
0.0
 40
1.5
 50
62.168316
 51
64.87406
  0
ARC
  5
A5DC
  8
ALPHA
 10
90.099393
 20
60.714135
 30
0.0
 40
1.5
 50
115.12594
 51
117.831684
  0
ARC
  5
A5DD
  8
ALPHA
 10
85.336253
 20
63.464135
 30
0.0
 40
1.5
 50
2.475961
 51
4.87406
  0
ARC
  5
A5DE
  8
ALPHA
 10
94.862532
 20
68.964135
 30
0.0
 40
1.5
 50
182.475961
 51
184.87406
  0
ARC
  5
A5DF
  8
ALPHA
 10
94.862532
 20
68.964135
 30
0.0
 40
1.5
 50
235.12594
 51
237.475252
  0
ARC
  5
A5E0
  8
ALPHA
 10
90.099393
 20
71.714135
 30
0.0
 40
1.5
 50
242.168316
 51
244.87406
  0
ARC
  5
A5E1
  8
ALPHA
 10
90.099393
 20
71.714135
 30
0.0
 40
1.5
 50
295.12594
 51
297.831684
  0
ARC
  5
A5E2
  8
ALPHA
 10
94.862532
 20
63.464135
 30
0.0
 40
1.5
 50
122.524748
 51
124.87406
  0
ARC
  5
A5E3
  8
ALPHA
 10
85.336253
 20
68.964135
 30
0.0
 40
1.5
 50
302.524748
 51
304.87406
  0
ARC
  5
A5E4
  8
ALPHA
 10
85.336253
 20
68.964135
 30
0.0
 40
1.5
 50
355.12594
 51
357.524039
  0
ARC
  5
A5E5
  8
ALPHA
 10
85.336253
 20
63.464135
 30
0.0
 40
1.5
 50
55.12594
 51
57.475252
  0
CIRCLE
  5
A5E6
  8
ALPHA
 10
90.099393
 20
66.214135
 30
0.0
 40
1.0
  0
ARC
  5
A5E7
  8
ALPHA
 10
94.93647
 20
40.421016
 30
0.0
 40
0.3
 50
283.0
 51
7.151216
  0
LINE
  5
A5E8
  8
ALPHA
 10
95.234144
 20
39.169997
 30
0.0
 11
95.234147
 21
40.458243
 31
0.0
  0
LINE
  5
A5E9
  8
ALPHA
 10
95.003956
 20
40.128705
 30
0.0
 11
94.569903
 21
40.028496
 31
0.0
  0
LINE
  5
A5EA
  8
ALPHA
 10
94.504154
 20
37.634279
 30
0.0
 11
94.078149
 21
37.764522
 31
0.0
  0
LINE
  5
A5EB
  8
ALPHA
 10
94.569903
 20
39.599773
 30
0.0
 11
95.003956
 21
39.499564
 31
0.0
  0
ARC
  5
A5EC
  8
ALPHA
 10
90.099393
 20
39.814135
 30
0.0
 40
5.175
 50
337.149914
 51
352.849787
  0
ARC
  5
A5ED
  8
ALPHA
 10
94.619393
 20
39.814135
 30
0.0
 40
0.22
 50
103.0
 51
257.0
  0
ARC
  5
A5EE
  8
ALPHA
 10
94.93647
 20
39.207253
 30
0.0
 40
0.3
 50
352.848784
 51
77.0
  0
ARC
  5
A5EF
  8
ALPHA
 10
94.591865
 20
37.92117
 30
0.0
 40
0.3
 50
253.0
 51
337.151216
  0
ARC
  5
A5F0
  8
ALPHA
 10
93.984984
 20
36.870021
 30
0.0
 40
0.3
 50
322.848784
 51
47.0
  0
LINE
  5
A5F1
  8
ALPHA
 10
94.224146
 20
36.688915
 30
0.0
 11
94.868275
 21
37.804574
 31
0.0
  0
LINE
  5
A5F2
  8
ALPHA
 10
96.651038
 20
53.138848
 30
0.0
 11
96.826666
 21
51.795599
 31
0.0
  0
LINE
  5
A5F3
  8
ALPHA
 10
94.078149
 20
41.863748
 30
0.0
 11
94.504154
 21
41.99399
 31
0.0
  0
ARC
  5
A5F4
  8
ALPHA
 10
90.099393
 20
39.814135
 30
0.0
 40
5.175
 50
7.149887
 51
22.849851
  0
ARC
  5
A5F5
  8
ALPHA
 10
93.984984
 20
42.758248
 30
0.0
 40
0.3
 50
313.0
 51
37.151216
  0
ARC
  5
A5F6
  8
ALPHA
 10
94.591865
 20
41.707099
 30
0.0
 40
0.3
 50
22.848784
 51
107.0
  0
LINE
  5
A5F7
  8
ALPHA
 10
94.868284
 20
41.823676
 30
0.0
 11
94.224159
 21
42.939336
 31
0.0
  0
LINE
  5
A5F8
  8
ALPHA
 10
96.826666
 20
51.795599
 30
0.0
 11
98.051192
 21
40.690995
 31
0.0
  0
LINE
  5
A5F9
  8
ALPHA
 10
95.732417
 20
56.908898
 30
0.0
 11
95.652776
 21
56.908898
 31
0.0
  0
LINE
  5
A5FA
  8
ALPHA
 10
95.617651
 20
57.227433
 30
0.0
 11
95.667621
 21
56.774279
 31
0.0
  0
LINE
  5
A5FB
  8
ALPHA
 10
95.617651
 20
57.227433
 30
0.0
 11
95.296798
 21
60.137086
 31
0.0
  0
LINE
  5
A5FC
  8
ALPHA
 10
96.475411
 20
54.061369
 30
0.0
 11
96.651038
 21
53.138848
 31
0.0
  0
LINE
  5
A5FD
  8
ALPHA
 10
96.475411
 20
54.061369
 30
0.0
 11
95.732417
 21
56.908898
 31
0.0
  0
VIEWPORT
  5
494D
 67
     1
  8
0
 10
4.995325
 20
6.556512
 30
0.0
 40
22.70986
 41
13.988421
 68
    -1
 69
     1
1001
ACAD
1000
MVIEW
1002
{
1070
    16
1010
0.0
1020
0.0
1030
0.0
1010
0.0
1020
0.0
1030
1.0
1040
0.0
1040
13.988421
1040
4.995325
1040
6.556512
1040
50.0
1040
0.0
1040
0.0
1070
     0
1070
   100
1070
     1
1070
     1
1070
     0
1070
     0
1070
     0
1070
     0
1040
0.0
1040
0.0
1040
0.0
1040
10.0
1040
10.0
1040
10.0
1040
10.0
1070
     0
1002
{
1002
}
1002
}
  0
ENDSEC
  0
EOF
