  0
SECTION
  2
HEADER
  9
$ACADVER
  1
AC1009
  9
$INSBASE
 10
402.590624
 20
-1.041018
 30
0.0
  9
$EXTMIN
 10
-6.13495
 20
-21.689868
 30
0.0
  9
$EXTMAX
 10
54.603454
 20
78.513743
 30
0.0
  9
$LIMMIN
 10
-407.970438
 20
-367.832444
  9
$LIMMAX
 10
429.804077
 20
234.370848
  9
$ORTHOMODE
 70
     1
  9
$REGENMODE
 70
     1
  9
$FILLMODE
 70
     1
  9
$QTEXTMODE
 70
     0
  9
$MIRRTEXT
 70
     1
  9
$DRAGMODE
 70
     2
  9
$LTSCALE
 40
10.0
  9
$OSMODE
 70
    35
  9
$ATTMODE
 70
     1
  9
$TEXTSIZE
 40
6.0
  9
$TRACEWID
 40
1.0
  9
$TEXTSTYLE
  7
ROMANS
  9
$CLAYER
  8
ALPHA
  9
$CELTYPE
  6
BYLAYER
  9
$CECOLOR
 62
   256
  9
$DIMSCALE
 40
1.0
  9
$DIMASZ
 40
5.0
  9
$DIMEXO
 40
2.0
  9
$DIMDLI
 40
0.38
  9
$DIMRND
 40
0.0
  9
$DIMDLE
 40
0.0
  9
$DIMEXE
 40
2.5
  9
$DIMTP
 40
0.0
  9
$DIMTM
 40
0.0
  9
$DIMTXT
 40
2.5
  9
$DIMCEN
 40
0.0
  9
$DIMTSZ
 40
0.0
  9
$DIMTOL
 70
     0
  9
$DIMLIM
 70
     0
  9
$DIMTIH
 70
     1
  9
$DIMTOH
 70
     1
  9
$DIMSE1
 70
     0
  9
$DIMSE2
 70
     0
  9
$DIMTAD
 70
     1
  9
$DIMZIN
 70
    12
  9
$DIMBLK
  1
OPEN30
  9
$DIMASO
 70
     1
  9
$DIMSHO
 70
     1
  9
$DIMPOST
  1

  9
$DIMAPOST
  1

  9
$DIMALT
 70
     0
  9
$DIMALTD
 70
     2
  9
$DIMALTF
 40
25.4
  9
$DIMLFAC
 40
1.0
  9
$DIMTOFL
 70
     0
  9
$DIMTVP
 40
0.0
  9
$DIMTIX
 70
     0
  9
$DIMSOXD
 70
     0
  9
$DIMSAH
 70
     0
  9
$DIMBLK1
  1

  9
$DIMBLK2
  1

  9
$DIMSTYLE
  2
SC_DEFAUT
  9
$DIMCLRD
 70
     0
  9
$DIMCLRE
 70
     0
  9
$DIMCLRT
 70
     0
  9
$DIMTFAC
 40
1.0
  9
$DIMGAP
 40
2.0
  9
$LUNITS
 70
     2
  9
$LUPREC
 70
     1
  9
$SKETCHINC
 40
0.1
  9
$FILLETRAD
 40
0.0
  9
$AUNITS
 70
     0
  9
$AUPREC
 70
     0
  9
$MENU
  1
acad
  9
$ELEVATION
 40
0.0
  9
$PELEVATION
 40
0.0
  9
$THICKNESS
 40
0.0
  9
$LIMCHECK
 70
     0
  9
$BLIPMODE
 70
     0
  9
$CHAMFERA
 40
0.0
  9
$CHAMFERB
 40
0.0
  9
$SKPOLY
 70
     0
  9
$TDCREATE
 40
2450373.687919
  9
$TDUPDATE
 40
2453035.666855
  9
$TDINDWG
 40
1.060167
  9
$TDUSRTIMER
 40
1.060167
  9
$USRTIMER
 70
     1
  9
$ANGBASE
 50
0.0
  9
$ANGDIR
 70
     0
  9
$PDMODE
 70
    32
  9
$PDSIZE
 40
0.0
  9
$PLINEWID
 40
0.0
  9
$COORDS
 70
     1
  9
$SPLFRAME
 70
     0
  9
$SPLINETYPE
 70
     6
  9
$SPLINESEGS
 70
     8
  9
$ATTDIA
 70
     0
  9
$ATTREQ
 70
     1
  9
$HANDLING
 70
     1
  9
$HANDSEED
  5
9F25
  9
$SURFTAB1
 70
     6
  9
$SURFTAB2
 70
     6
  9
$SURFTYPE
 70
     6
  9
$SURFU
 70
     6
  9
$SURFV
 70
     6
  9
$UCSNAME
  2

  9
$UCSORG
 10
0.0
 20
0.0
 30
0.0
  9
$UCSXDIR
 10
1.0
 20
0.0
 30
0.0
  9
$UCSYDIR
 10
0.0
 20
1.0
 30
0.0
  9
$PUCSNAME
  2

  9
$PUCSORG
 10
0.0
 20
0.0
 30
0.0
  9
$PUCSXDIR
 10
1.0
 20
0.0
 30
0.0
  9
$PUCSYDIR
 10
0.0
 20
1.0
 30
0.0
  9
$USERI1
 70
     0
  9
$USERI2
 70
     0
  9
$USERI3
 70
     0
  9
$USERI4
 70
     0
  9
$USERI5
 70
     0
  9
$USERR1
 40
0.0
  9
$USERR2
 40
0.0
  9
$USERR3
 40
0.0
  9
$USERR4
 40
0.0
  9
$USERR5
 40
0.0
  9
$WORLDVIEW
 70
     1
  9
$SHADEDGE
 70
     3
  9
$SHADEDIF
 70
    70
  9
$TILEMODE
 70
     1
  9
$MAXACTVP
 70
    16
  9
$PLIMCHECK
 70
     0
  9
$PEXTMIN
 10
-1.452248
 20
-0.437698
 30
0.0
  9
$PEXTMAX
 10
12.749749
 20
8.310198
 30
0.0
  9
$PLIMMIN
 10
0.0
 20
0.0
  9
$PLIMMAX
 10
12.0
 20
9.0
  9
$UNITMODE
 70
     0
  9
$VISRETAIN
 70
     0
  9
$PLINEGEN
 70
     0
  9
$PSLTSCALE
 70
     0
  0
ENDSEC
  0
SECTION
  2
TABLES
  0
TABLE
  2
VPORT
 70
     2
  0
VPORT
  2
*ACTIVE
 70
     0
 10
0.0
 20
0.0
 11
1.0
 21
1.0
 12
24.243542
 22
28.420191
 13
0.0
 23
0.0
 14
1.0
 24
1.0
 15
10.0
 25
10.0
 16
0.0
 26
0.0
 36
1.0
 17
0.0
 27
0.0
 37
0.0
 40
100.972917
 41
1.466346
 42
50.0
 43
0.0
 44
0.0
 50
0.0
 51
0.0
 71
     0
 72
   100
 73
     1
 74
     0
 75
     0
 76
     0
 77
     0
 78
     0
  0
ENDTAB
  0
TABLE
  2
LTYPE
 70
     3
  0
LTYPE
  2
CONTINUOUS
 70
     0
  3
Solid line
 72
    65
 73
     0
 40
0.0
  0
LTYPE
  2
AXES2
 70
     0
  3
___ _ ___ _ ___ _ ___ _ ___ _ ___ _ ___ _ ___ _
 72
    65
 73
     4
 40
1.125
 49
0.75
 49
-0.125
 49
0.125
 49
-0.125
  0
LTYPE
  2
CACHE2
 70
     0
  3
Caché (x.5) _ _ _ _ _ _ _ _ _ _ _ _ _ _ _ _ _
 72
    65
 73
     2
 40
0.1875
 49
0.125
 49
-0.0625
  0
ENDTAB
  0
TABLE
  2
LAYER
 70
     6
  0
LAYER
  2
0
 70
     0
 62
   255
  6
CONTINUOUS
  0
LAYER
  2
COTATION1
 70
     0
 62
     2
  6
CONTINUOUS
  0
LAYER
  2
AXE
 70
     0
 62
    80
  6
AXES2
  0
LAYER
  2
DEFPOINTS
 70
     0
 62
     7
  6
CONTINUOUS
  0
LAYER
  2
ALPHA
 70
     0
 62
   254
  6
CONTINUOUS
  0
LAYER
  2
POINTILLE_COURT
 70
     0
 62
    41
  6
CACHE2
  0
ENDTAB
  0
TABLE
  2
STYLE
 70
     2
  0
STYLE
  2
ROMANS
 70
     0
 40
0.0
 41
1.0
 50
0.0
 71
     0
 42
6.0
  3
romans
  4

  0
STYLE
  2
STANDARD
 70
     0
 40
0.0
 41
1.0
 50
0.0
 71
     0
 42
0.2
  3
txt
  4

  0
ENDTAB
  0
TABLE
  2
VIEW
 70
     0
  0
ENDTAB
  0
TABLE
  2
UCS
 70
     0
  0
ENDTAB
  0
TABLE
  2
APPID
 70
     1
  0
APPID
  2
ACAD
 70
     0
  0
ENDTAB
  0
TABLE
  2
DIMSTYLE
 70
     2
  0
DIMSTYLE
  2
SC_DEFAUT
 70
     0
  3

  4

  5
OPEN30
  6

  7

 40
1.0
 41
5.0
 42
2.0
 43
0.38
 44
2.5
 45
0.0
 46
0.0
 47
0.0
 48
0.0
140
2.5
141
0.0
142
0.0
143
25.4
144
1.0
145
0.0
146
1.0
147
2.0
 71
     0
 72
     0
 73
     1
 74
     1
 75
     0
 76
     0
 77
     1
 78
    12
170
     0
171
     2
172
     0
173
     0
174
     0
175
     0
176
     0
177
     0
178
     0
  0
DIMSTYLE
  2
STANDARD
 70
     0
  3

  4

  5

  6

  7

 40
1.0
 41
0.18
 42
0.0625
 43
0.38
 44
0.18
 45
0.0
 46
0.0
 47
0.0
 48
0.0
140
0.18
141
0.09
142
0.0
143
25.4
144
1.0
145
0.0
146
1.0
147
0.09
 71
     0
 72
     0
 73
     1
 74
     1
 75
     0
 76
     0
 77
     0
 78
     0
170
     0
171
     2
172
     0
173
     0
174
     0
175
     0
176
     0
177
     0
178
     0
  0
ENDTAB
  0
ENDSEC
  0
SECTION
  2
BLOCKS
  0
BLOCK
  8
0
  2
$MODEL_SPACE
 70
     0
 10
0.0
 20
0.0
 30
0.0
  3
$MODEL_SPACE
  1

  0
ENDBLK
  5
9F1E
  8
0
  0
BLOCK
 67
     1
  8
0
  2
$PAPER_SPACE
 70
     0
 10
0.0
 20
0.0
 30
0.0
  3
$PAPER_SPACE
  1

  0
ENDBLK
  5
9F1C
 67
     1
  8
0
  0
BLOCK
  8
0
  2
COTE
 70
     0
 10
0.0
 20
0.0
 30
0.0
  3
COTE
  1

  0
ENDBLK
  5
F
  8
0
  0
BLOCK
  8
0
  2
FOND
 70
     0
 10
0.0
 20
0.0
 30
0.0
  3
FOND
  1

  0
ENDBLK
  5
75
  8
0
  0
BLOCK
  8
0
  2
_OPEN30
 70
     0
 10
0.0
 20
0.0
 30
0.0
  3
_OPEN30
  1

  0
LINE
  5
4B05
  8
COTATION1
 62
     0
 10
-1.0
 20
0.267949
 30
0.0
 11
0.0
 21
0.0
 31
0.0
1001
ACAD
1000
RTLwPs
1070
   158
  0
LINE
  5
4B06
  8
COTATION1
 62
     0
 10
0.0
 20
0.0
 30
0.0
 11
-1.0
 21
-0.267949
 31
0.0
1001
ACAD
1000
RTLwPs
1070
   158
  0
LINE
  5
4B07
  8
COTATION1
 62
     0
 10
0.0
 20
0.0
 30
0.0
 11
-1.0
 21
0.0
 31
0.0
1001
ACAD
1000
RTLwPs
1070
   158
  0
ENDBLK
  5
4B09
  8
0
  0
BLOCK
  8
0
  2
*D3
 70
     1
 10
0.0
 20
0.0
 30
0.0
  3
*D3
  1

  0
LINE
  5
9E1F
  8
COTATION1
 62
     0
 10
3.86505
 20
51.44094
 30
0.0
 11
3.86505
 21
76.44094
 31
0.0
1001
ACAD
1000
RTLwPs
1070
   158
  0
LINE
  5
9E20
  8
COTATION1
 62
     0
 10
8.86505
 20
65.94094
 30
0.0
 11
8.86505
 21
76.44094
 31
0.0
1001
ACAD
1000
RTLwPs
1070
   158
  0
LINE
  5
9E21
  8
COTATION1
 62
     0
 10
-1.13495
 20
73.94094
 30
0.0
 11
-6.13495
 21
73.94094
 31
0.0
1001
ACAD
1000
RTLwPs
1070
   158
  0
LINE
  5
9E22
  8
COTATION1
 62
     0
 10
13.86505
 20
73.94094
 30
0.0
 11
18.86505
 21
73.94094
 31
0.0
1001
ACAD
1000
RTLwPs
1070
   158
  0
TEXT
  5
9E23
  8
COTATION1
 62
     0
 10
5.174573
 20
76.013743
 30
0.0
 40
2.5
  1
5
1001
ACAD
1000
MTEXTBEGIN
1070
    73
1070
     1
1070
    44
1040
1.0
1070
    74
1070
     0
1000
MTEXTEND
  0
INSERT
  5
9E24
  8
COTATION1
 62
     0
  2
_OPEN30
 10
3.86505
 20
73.94094
 30
0.0
 41
5.0
 42
5.0
 43
5.0
1001
ACAD
1000
RTLwPs
1070
   158
  0
INSERT
  5
9E25
  8
COTATION1
 62
     0
  2
_OPEN30
 10
8.86505
 20
73.94094
 30
0.0
 41
5.0
 42
5.0
 43
5.0
 50
180.0
1001
ACAD
1000
RTLwPs
1070
   158
  0
POINT
  5
9E26
  8
DEFPOINTS
 62
     0
 10
3.86505
 20
49.44094
 30
0.0
  0
POINT
  5
9E27
  8
DEFPOINTS
 62
     0
 10
8.86505
 20
63.94094
 30
0.0
  0
POINT
  5
9E28
  8
DEFPOINTS
 62
     0
 10
8.86505
 20
73.94094
 30
0.0
  0
ENDBLK
  5
9B98
  8
0
  0
BLOCK
  8
0
  2
*D4
 70
     1
 10
0.0
 20
0.0
 30
0.0
  3
*D4
  1

  0
LINE
  5
9DC6
  8
COTATION1
 62
     0
 10
8.86505
 20
65.94094
 30
0.0
 11
8.86505
 21
76.44094
 31
0.0
1001
ACAD
1000
RTLwPs
1070
   158
  0
LINE
  5
9DC7
  8
COTATION1
 62
     0
 10
25.86505
 20
65.94094
 30
0.0
 11
25.86505
 21
76.44094
 31
0.0
1001
ACAD
1000
RTLwPs
1070
   158
  0
LINE
  5
9DC8
  8
COTATION1
 62
     0
 10
13.86505
 20
73.94094
 30
0.0
 11
20.86505
 21
73.94094
 31
0.0
1001
ACAD
1000
RTLwPs
1070
   158
  0
INSERT
  5
9DC9
  8
COTATION1
 62
     0
  2
_OPEN30
 10
8.86505
 20
73.94094
 30
0.0
 41
5.0
 42
5.0
 43
5.0
 50
180.0
1001
ACAD
1000
RTLwPs
1070
   158
  0
INSERT
  5
9DCA
  8
COTATION1
 62
     0
  2
_OPEN30
 10
25.86505
 20
73.94094
 30
0.0
 41
5.0
 42
5.0
 43
5.0
1001
ACAD
1000
RTLwPs
1070
   158
  0
TEXT
  5
9DCB
  8
COTATION1
 62
     0
 10
14.805526
 20
75.94094
 30
0.0
 40
2.5
  1
17
1001
ACAD
1000
MTEXTBEGIN
1070
    73
1070
     1
1070
    44
1040
1.0
1070
    74
1070
     0
1000
MTEXTEND
  0
POINT
  5
9DCC
  8
DEFPOINTS
 62
     0
 10
8.86505
 20
63.94094
 30
0.0
  0
POINT
  5
9DCD
  8
DEFPOINTS
 62
     0
 10
25.86505
 20
63.94094
 30
0.0
  0
POINT
  5
9DCE
  8
DEFPOINTS
 62
     0
 10
25.86505
 20
73.94094
 30
0.0
  0
ENDBLK
  5
9D8E
  8
0
  0
BLOCK
  8
0
  2
*D5
 70
     1
 10
0.0
 20
0.0
 30
0.0
  3
*D5
  1

  0
LINE
  5
9E02
  8
COTATION1
 62
     0
 10
3.86505
 20
47.44094
 30
0.0
 11
3.86505
 21
-7.43824
 31
0.0
1001
ACAD
1000
RTLwPs
1070
   158
  0
LINE
  5
9E03
  8
COTATION1
 62
     0
 10
18.36505
 20
14.54094
 30
0.0
 11
18.36505
 21
-7.43824
 31
0.0
1001
ACAD
1000
RTLwPs
1070
   158
  0
LINE
  5
9E04
  8
COTATION1
 62
     0
 10
8.86505
 20
-4.93824
 30
0.0
 11
13.36505
 21
-4.93824
 31
0.0
1001
ACAD
1000
RTLwPs
1070
   158
  0
INSERT
  5
9E05
  8
COTATION1
 62
     0
  2
_OPEN30
 10
3.86505
 20
-4.93824
 30
0.0
 41
5.0
 42
5.0
 43
5.0
 50
180.0
1001
ACAD
1000
RTLwPs
1070
   158
  0
INSERT
  5
9E06
  8
COTATION1
 62
     0
  2
_OPEN30
 10
18.36505
 20
-4.93824
 30
0.0
 41
5.0
 42
5.0
 43
5.0
1001
ACAD
1000
RTLwPs
1070
   158
  0
TEXT
  5
9E07
  8
COTATION1
 62
     0
 10
6.769812
 20
-2.93824
 30
0.0
 40
2.5
  1
14.5
1001
ACAD
1000
MTEXTBEGIN
1070
    73
1070
     1
1070
    44
1040
1.0
1070
    74
1070
     0
1000
MTEXTEND
  0
POINT
  5
9E08
  8
DEFPOINTS
 62
     0
 10
3.86505
 20
49.44094
 30
0.0
  0
POINT
  5
9E09
  8
DEFPOINTS
 62
     0
 10
18.36505
 20
16.54094
 30
0.0
  0
POINT
  5
9E0A
  8
DEFPOINTS
 62
     0
 10
18.36505
 20
-4.93824
 30
0.0
  0
ENDBLK
  5
9DDB
  8
0
  0
ENDSEC
  0
SECTION
  2
ENTITIES
  0
INSERT
  5
A
  8
0
  2
COTE
 10
0.0
 20
0.0
 30
0.0
  0
INSERT
  5
17
  8
0
  2
COTE
 10
284.010391
 20
6.373258
 30
0.0
  0
INSERT
  5
72
  8
0
  2
FOND
 10
0.0
 20
0.0
 30
0.0
  0
LINE
  5
968C
  8
ALPHA
 10
14.41505
 20
42.757529
 30
0.0
 11
14.41505
 21
55.44094
 31
0.0
  0
LINE
  5
968D
  8
ALPHA
 10
12.41505
 20
42.585365
 30
0.0
 11
12.41505
 21
55.44094
 31
0.0
  0
LINE
  5
968E
  8
ALPHA
 10
11.86505
 20
58.64094
 30
0.0
 11
11.86505
 21
40.240941
 31
0.0
  0
LINE
  5
968F
  8
ALPHA
 10
11.56505
 20
58.94094
 30
0.0
 11
11.56505
 21
39.94094
 31
0.0
  0
LINE
  5
9690
  8
ALPHA
 10
6.16505
 20
58.94094
 30
0.0
 11
6.16505
 21
39.94094
 31
0.0
  0
LINE
  5
9691
  8
ALPHA
 10
5.86505
 20
58.64094
 30
0.0
 11
5.86505
 21
40.24094
 31
0.0
  0
LINE
  5
9692
  8
ALPHA
 10
11.56505
 20
39.94094
 30
0.0
 11
6.16505
 21
39.94094
 31
0.0
  0
ARC
  5
9693
  8
ALPHA
 10
6.16505
 20
40.24094
 30
0.0
 40
0.3
 50
180.0
 51
270.0
  0
LINE
  5
9694
  8
ALPHA
 10
18.36505
 20
36.668777
 30
0.0
 11
18.36505
 21
16.54094
 31
0.0
  0
LINE
  5
9695
  8
ALPHA
 10
16.36505
 20
36.668777
 30
0.0
 11
16.36505
 21
16.54094
 31
0.0
  0
LINE
  5
9696
  8
ALPHA
 10
18.36505
 20
16.54094
 30
0.0
 11
16.36505
 21
16.54094
 31
0.0
  0
LINE
  5
9697
  8
ALPHA
 10
17.835077
 20
38.20793
 30
0.0
 11
14.41505
 21
42.585365
 31
0.0
  0
LINE
  5
9698
  8
ALPHA
 10
16.337809
 20
36.831561
 30
0.0
 11
18.228846
 21
37.482697
 31
0.0
  0
LINE
  5
9699
  8
ALPHA
 10
18.36505
 20
25.534471
 30
0.0
 11
16.36505
 21
25.534471
 31
0.0
  0
LINE
  5
969A
  8
ALPHA
 10
18.36505
 20
24.54094
 30
0.0
 11
16.36505
 21
24.54094
 31
0.0
  0
LINE
  5
969B
  8
ALPHA
 10
14.41505
 20
42.585365
 30
0.0
 11
12.41505
 21
42.585365
 31
0.0
  0
LINE
  5
969C
  8
ALPHA
 10
16.259055
 20
36.976607
 30
0.0
 11
12.839028
 21
41.354042
 31
0.0
  0
LINE
  5
969D
  8
ALPHA
 10
14.41505
 20
42.585365
 30
0.0
 11
12.839028
 21
41.354042
 31
0.0
  0
ARC
  5
969E
  8
ALPHA
 10
14.41505
 20
42.585365
 30
0.0
 40
2.0
 50
180.0
 51
218.0
  0
ARC
  5
969F
  8
ALPHA
 10
11.56505
 20
40.24094
 30
0.0
 40
0.3
 50
270.0
 51
0.0
  0
ARC
  5
96A0
  8
ALPHA
 10
15.86505
 20
36.668777
 30
0.0
 40
0.5
 50
0.0
 51
38.0
  0
ARC
  5
96A1
  8
ALPHA
 10
14.91505
 20
42.757529
 30
0.0
 40
0.5
 50
180.0
 51
218.0
  0
ARC
  5
96A2
  8
ALPHA
 10
15.86505
 20
36.668777
 30
0.0
 40
2.5
 50
0.0
 51
38.0
  0
LINE
  5
970D
  8
ALPHA
 10
11.56505
 20
58.94094
 30
0.0
 11
6.16505
 21
58.94094
 31
0.0
  0
LINE
  5
970E
  8
ALPHA
 10
3.967681
 20
52.94094
 30
0.0
 11
5.86505
 21
52.94094
 31
0.0
  0
LINE
  5
970F
  8
ALPHA
 10
3.967681
 20
45.94094
 30
0.0
 11
5.86505
 21
45.94094
 31
0.0
  0
LINE
  5
9710
  8
ALPHA
 10
3.967681
 20
52.94094
 30
0.0
 11
3.967681
 21
45.94094
 31
0.0
  0
LINE
  5
9711
  8
ALPHA
 10
3.86505
 20
48.440985
 30
0.0
 11
3.86505
 21
50.440896
 31
0.0
  0
ARC
  5
9712
  8
ALPHA
 10
34.36505
 20
48.44094
 30
0.0
 40
30.5
 50
180.0
 51
184.70165
  0
ARC
  5
9713
  8
ALPHA
 10
34.36505
 20
50.44094
 30
0.0
 40
30.5
 50
175.29835
 51
180.0
  0
ARC
  5
9714
  8
ALPHA
 10
6.16505
 20
58.64094
 30
0.0
 40
0.3
 50
90.0
 51
180.0
  0
LINE
  5
9715
  8
ALPHA
 10
14.41505
 20
51.499802
 30
0.0
 11
12.41505
 21
51.499802
 31
0.0
  0
LINE
  5
9716
  8
ALPHA
 10
11.86505
 20
46.962813
 30
0.0
 11
12.41505
 21
47.010931
 31
0.0
  0
LINE
  5
9717
  8
ALPHA
 10
11.86505
 20
51.919068
 30
0.0
 11
12.41505
 21
51.87095
 31
0.0
  0
LINE
  5
9718
  8
ALPHA
 10
15.91505
 20
47.39094
 30
0.0
 11
15.91505
 21
51.49094
 31
0.0
  0
LINE
  5
9719
  8
ALPHA
 10
14.41505
 20
47.39094
 30
0.0
 11
15.91505
 21
47.39094
 31
0.0
  0
LINE
  5
971A
  8
ALPHA
 10
14.41505
 20
51.49094
 30
0.0
 11
15.91505
 21
51.49094
 31
0.0
  0
LINE
  5
971B
  8
ALPHA
 10
12.41505
 20
55.44094
 30
0.0
 11
14.41505
 21
55.44094
 31
0.0
  0
ARC
  5
971C
  8
ALPHA
 10
11.56505
 20
58.64094
 30
0.0
 40
0.3
 50
0.0
 51
90.0
  0
LINE
  5
9A33
  8
COTATION1
 10
20.86505
 20
-15.538593
 30
0.0
 11
28.103454
 21
-15.538593
 31
0.0
  0
LINE
  5
9A4A
  8
COTATION1
 10
18.36505
 20
-7.43824
 30
0.0
 11
18.36505
 21
-21.689868
 31
0.0
  0
SOLID
  5
9A78
  8
COTATION1
 10
18.36505
 20
-16.981969
 30
0.0
 11
18.36505
 21
-14.095217
 31
0.0
 12
20.86505
 22
-15.538593
 32
0.0
 13
20.86505
 23
-15.538593
 33
0.0
  0
LINE
  5
9B48
  8
COTATION1
 10
28.103454
 20
-13.038593
 30
0.0
 11
54.603454
 21
-13.038593
 31
0.0
  0
LINE
  5
9B49
  8
COTATION1
 10
54.603454
 20
-18.038593
 30
0.0
 11
28.103454
 21
-18.038593
 31
0.0
  0
TEXT
  5
9B4A
  8
COTATION1
 10
29.353454
 20
-16.788593
 30
0.0
 40
2.5
  1
PLANE_TO_LINE_UP
 41
0.626087
  7
STANDARD
 72
     5
 11
53.353454
 21
-16.788593
 31
0.0
  0
LINE
  5
9B4B
  8
COTATION1
 10
28.103454
 20
-18.038593
 30
0.0
 11
28.103454
 21
-13.038593
 31
0.0
  0
LINE
  5
9B4C
  8
COTATION1
 10
54.603454
 20
-13.038593
 30
0.0
 11
54.603454
 21
-18.038593
 31
0.0
  0
DIMENSION
  5
9B8C
  8
COTATION1
  2
*D3
 10
8.86505
 20
73.94094
 30
0.0
 11
6.36505
 21
77.263743
 31
0.0
 70
   128
 13
3.86505
 23
49.44094
 33
0.0
 14
8.86505
 24
63.94094
 34
0.0
  0
LINE
  5
9BBF
  8
AXE
 10
8.86505
 20
34.94094
 30
0.0
 11
8.86505
 21
63.94094
 31
0.0
  0
TEXT
  5
9BC2
  8
AXE
 10
36.997431
 20
50.44094
 30
0.0
 40
5.0
  1
Z
 72
     2
 11
41.04505
 21
50.44094
 31
0.0
  0
LINE
  5
9BC3
  8
AXE
 10
-1.13495
 20
49.44094
 30
0.0
 11
41.04505
 21
49.44094
 31
0.0
  0
LINE
  5
9D5C
  8
POINTILLE_COURT
 10
23.16505
 20
58.94094
 30
0.0
 11
28.56505
 21
58.94094
 31
0.0
  0
LINE
  5
9D5D
  8
POINTILLE_COURT
 10
23.16505
 20
39.94094
 30
0.0
 11
28.56505
 21
39.94094
 31
0.0
  0
ARC
  5
9D5E
  8
POINTILLE_COURT
 10
0.36505
 20
50.44094
 30
0.0
 40
30.5
 50
0.0
 51
4.70165
  0
LINE
  5
9D5F
  8
POINTILLE_COURT
 10
30.762418
 20
52.94094
 30
0.0
 11
30.762418
 21
45.94094
 31
0.0
  0
LINE
  5
9D60
  8
POINTILLE_COURT
 10
28.86505
 20
58.64094
 30
0.0
 11
28.86505
 21
40.24094
 31
0.0
  0
LINE
  5
9D61
  8
POINTILLE_COURT
 10
28.56505
 20
58.94094
 30
0.0
 11
28.56505
 21
39.94094
 31
0.0
  0
ARC
  5
9D62
  8
POINTILLE_COURT
 10
0.36505
 20
48.44094
 30
0.0
 40
30.5
 50
355.29835
 51
0.0
  0
LINE
  5
9D63
  8
POINTILLE_COURT
 10
30.86505
 20
48.440985
 30
0.0
 11
30.86505
 21
50.440896
 31
0.0
  0
LINE
  5
9D64
  8
POINTILLE_COURT
 10
30.762418
 20
45.94094
 30
0.0
 11
28.86505
 21
45.94094
 31
0.0
  0
ARC
  5
9D65
  8
POINTILLE_COURT
 10
28.56505
 20
40.24094
 30
0.0
 40
0.3
 50
270.0
 51
0.0
  0
ARC
  5
9D66
  8
POINTILLE_COURT
 10
28.56505
 20
58.64094
 30
0.0
 40
0.3
 50
0.0
 51
90.0
  0
LINE
  5
9D67
  8
POINTILLE_COURT
 10
30.762418
 20
52.94094
 30
0.0
 11
28.86505
 21
52.94094
 31
0.0
  0
LINE
  5
9D68
  8
POINTILLE_COURT
 10
18.81505
 20
47.39094
 30
0.0
 11
18.81505
 21
51.49094
 31
0.0
  0
LINE
  5
9D69
  8
POINTILLE_COURT
 10
23.16505
 20
58.94094
 30
0.0
 11
23.16505
 21
39.94094
 31
0.0
  0
LINE
  5
9D6A
  8
POINTILLE_COURT
 10
22.86505
 20
58.64094
 30
0.0
 11
22.86505
 21
40.240941
 31
0.0
  0
LINE
  5
9D6B
  8
POINTILLE_COURT
 10
22.31505
 20
42.585365
 30
0.0
 11
22.31505
 21
55.44094
 31
0.0
  0
LINE
  5
9D6C
  8
POINTILLE_COURT
 10
20.31505
 20
42.757529
 30
0.0
 11
20.31505
 21
55.44094
 31
0.0
  0
LINE
  5
9D6D
  8
POINTILLE_COURT
 10
18.471044
 20
36.976607
 30
0.0
 11
21.891071
 21
41.354042
 31
0.0
  0
LINE
  5
9D6E
  8
POINTILLE_COURT
 10
16.895023
 20
38.20793
 30
0.0
 11
20.31505
 21
42.585365
 31
0.0
  0
ARC
  5
9D6F
  8
POINTILLE_COURT
 10
18.86505
 20
36.668777
 30
0.0
 40
2.5
 50
142.0
 51
180.0
  0
ARC
  5
9D70
  8
POINTILLE_COURT
 10
18.86505
 20
36.668777
 30
0.0
 40
0.5
 50
142.0
 51
180.0
  0
LINE
  5
9D71
  8
POINTILLE_COURT
 10
18.39229
 20
36.831561
 30
0.0
 11
16.501253
 21
37.482697
 31
0.0
  0
LINE
  5
9D72
  8
POINTILLE_COURT
 10
20.31505
 20
47.39094
 30
0.0
 11
18.81505
 21
47.39094
 31
0.0
  0
LINE
  5
9D73
  8
POINTILLE_COURT
 10
22.86505
 20
46.962813
 30
0.0
 11
22.31505
 21
47.010931
 31
0.0
  0
ARC
  5
9D74
  8
POINTILLE_COURT
 10
19.81505
 20
42.757529
 30
0.0
 40
0.5
 50
322.0
 51
0.0
  0
ARC
  5
9D75
  8
POINTILLE_COURT
 10
23.16505
 20
40.24094
 30
0.0
 40
0.3
 50
180.0
 51
270.0
  0
ARC
  5
9D76
  8
POINTILLE_COURT
 10
20.31505
 20
42.585365
 30
0.0
 40
2.0
 50
322.0
 51
0.0
  0
LINE
  5
9D77
  8
POINTILLE_COURT
 10
20.31505
 20
42.585365
 30
0.0
 11
21.891071
 21
41.354042
 31
0.0
  0
LINE
  5
9D78
  8
POINTILLE_COURT
 10
20.31505
 20
42.585365
 30
0.0
 11
22.31505
 21
42.585365
 31
0.0
  0
ARC
  5
9D79
  8
POINTILLE_COURT
 10
23.16505
 20
58.64094
 30
0.0
 40
0.3
 50
90.0
 51
180.0
  0
LINE
  5
9D7A
  8
POINTILLE_COURT
 10
22.31505
 20
55.44094
 30
0.0
 11
20.31505
 21
55.44094
 31
0.0
  0
LINE
  5
9D7B
  8
POINTILLE_COURT
 10
20.31505
 20
51.49094
 30
0.0
 11
18.81505
 21
51.49094
 31
0.0
  0
LINE
  5
9D7C
  8
POINTILLE_COURT
 10
22.86505
 20
51.919068
 30
0.0
 11
22.31505
 21
51.87095
 31
0.0
  0
LINE
  5
9D7D
  8
POINTILLE_COURT
 10
20.31505
 20
51.499802
 30
0.0
 11
22.31505
 21
51.499802
 31
0.0
  0
LINE
  5
9D7E
  8
AXE
 10
25.86505
 20
34.94094
 30
0.0
 11
25.86505
 21
63.94094
 31
0.0
  0
LINE
  5
9D7F
  8
AXE
 10
17.36505
 20
5.06176
 30
0.0
 11
17.36505
 21
42.585365
 31
0.0
  0
TEXT
  5
9D80
  8
AXE
 10
12.317431
 20
5.06176
 30
0.0
 40
5.0
  1
Y
 72
     2
 11
16.36505
 21
5.06176
 31
0.0
  0
DIMENSION
  5
9D82
  8
COTATION1
  2
*D4
 10
25.86505
 20
73.94094
 30
0.0
 11
17.36505
 21
77.19094
 31
0.0
 13
8.86505
 23
63.94094
 33
0.0
 14
25.86505
 24
63.94094
 34
0.0
  0
DIMENSION
  5
9DCF
  8
COTATION1
  2
*D5
 10
18.36505
 20
-4.93824
 30
0.0
 11
11.11505
 21
-1.68824
 31
0.0
 13
3.86505
 23
49.44094
 33
0.0
 14
18.36505
 24
16.54094
 34
0.0
  0
VIEWPORT
  5
494D
 67
     1
  8
0
 10
4.995325
 20
6.556512
 30
0.0
 40
22.70986
 41
13.988421
 68
    -1
 69
     1
1001
ACAD
1000
MVIEW
1002
{
1070
    16
1010
0.0
1020
0.0
1030
0.0
1010
0.0
1020
0.0
1030
1.0
1040
0.0
1040
13.988421
1040
4.995325
1040
6.556512
1040
50.0
1040
0.0
1040
0.0
1070
     0
1070
   100
1070
     1
1070
     1
1070
     0
1070
     0
1070
     0
1070
     0
1040
0.0
1040
0.0
1040
0.0
1040
10.0
1040
10.0
1040
10.0
1040
10.0
1070
     0
1002
{
1002
}
1002
}
  0
ENDSEC
  0
EOF
