  0
SECTION
  2
HEADER
  9
$ACADVER
  1
AC1009
  9
$INSBASE
 10
402.590624
 20
-1.041018
 30
0.0
  9
$EXTMIN
 10
80.03766
 20
6.54094
 30
0.0
  9
$EXTMAX
 10
128.586707
 20
78.44094
 30
0.0
  9
$LIMMIN
 10
-407.970438
 20
-367.832444
  9
$LIMMAX
 10
429.804077
 20
234.370848
  9
$ORTHOMODE
 70
     0
  9
$REGENMODE
 70
     1
  9
$FILLMODE
 70
     1
  9
$QTEXTMODE
 70
     0
  9
$MIRRTEXT
 70
     1
  9
$DRAGMODE
 70
     2
  9
$LTSCALE
 40
10.0
  9
$OSMODE
 70
    35
  9
$ATTMODE
 70
     1
  9
$TEXTSIZE
 40
6.0
  9
$TRACEWID
 40
1.0
  9
$TEXTSTYLE
  7
ROMANS
  9
$CLAYER
  8
ALPHA
  9
$CELTYPE
  6
BYLAYER
  9
$CECOLOR
 62
   256
  9
$DIMSCALE
 40
1.0
  9
$DIMASZ
 40
5.0
  9
$DIMEXO
 40
2.0
  9
$DIMDLI
 40
0.38
  9
$DIMRND
 40
0.0
  9
$DIMDLE
 40
0.0
  9
$DIMEXE
 40
2.5
  9
$DIMTP
 40
0.0
  9
$DIMTM
 40
0.0
  9
$DIMTXT
 40
2.5
  9
$DIMCEN
 40
0.0
  9
$DIMTSZ
 40
0.0
  9
$DIMTOL
 70
     0
  9
$DIMLIM
 70
     0
  9
$DIMTIH
 70
     1
  9
$DIMTOH
 70
     1
  9
$DIMSE1
 70
     0
  9
$DIMSE2
 70
     0
  9
$DIMTAD
 70
     1
  9
$DIMZIN
 70
    12
  9
$DIMBLK
  1
OPEN30
  9
$DIMASO
 70
     1
  9
$DIMSHO
 70
     1
  9
$DIMPOST
  1

  9
$DIMAPOST
  1

  9
$DIMALT
 70
     0
  9
$DIMALTD
 70
     2
  9
$DIMALTF
 40
25.4
  9
$DIMLFAC
 40
1.0
  9
$DIMTOFL
 70
     0
  9
$DIMTVP
 40
0.0
  9
$DIMTIX
 70
     0
  9
$DIMSOXD
 70
     0
  9
$DIMSAH
 70
     0
  9
$DIMBLK1
  1

  9
$DIMBLK2
  1

  9
$DIMSTYLE
  2
SC_DEFAUT
  9
$DIMCLRD
 70
     0
  9
$DIMCLRE
 70
     0
  9
$DIMCLRT
 70
     0
  9
$DIMTFAC
 40
1.0
  9
$DIMGAP
 40
2.0
  9
$LUNITS
 70
     2
  9
$LUPREC
 70
     1
  9
$SKETCHINC
 40
0.1
  9
$FILLETRAD
 40
0.0
  9
$AUNITS
 70
     0
  9
$AUPREC
 70
     0
  9
$MENU
  1
acad
  9
$ELEVATION
 40
0.0
  9
$PELEVATION
 40
0.0
  9
$THICKNESS
 40
0.0
  9
$LIMCHECK
 70
     0
  9
$BLIPMODE
 70
     0
  9
$CHAMFERA
 40
0.0
  9
$CHAMFERB
 40
0.0
  9
$SKPOLY
 70
     0
  9
$TDCREATE
 40
2450373.687919
  9
$TDUPDATE
 40
2453032.63046
  9
$TDINDWG
 40
1.05015
  9
$TDUSRTIMER
 40
1.05015
  9
$USRTIMER
 70
     1
  9
$ANGBASE
 50
0.0
  9
$ANGDIR
 70
     0
  9
$PDMODE
 70
    32
  9
$PDSIZE
 40
0.0
  9
$PLINEWID
 40
0.0
  9
$COORDS
 70
     1
  9
$SPLFRAME
 70
     0
  9
$SPLINETYPE
 70
     6
  9
$SPLINESEGS
 70
     8
  9
$ATTDIA
 70
     0
  9
$ATTREQ
 70
     1
  9
$HANDLING
 70
     1
  9
$HANDSEED
  5
9DC0
  9
$SURFTAB1
 70
     6
  9
$SURFTAB2
 70
     6
  9
$SURFTYPE
 70
     6
  9
$SURFU
 70
     6
  9
$SURFV
 70
     6
  9
$UCSNAME
  2

  9
$UCSORG
 10
0.0
 20
0.0
 30
0.0
  9
$UCSXDIR
 10
1.0
 20
0.0
 30
0.0
  9
$UCSYDIR
 10
0.0
 20
1.0
 30
0.0
  9
$PUCSNAME
  2

  9
$PUCSORG
 10
0.0
 20
0.0
 30
0.0
  9
$PUCSXDIR
 10
1.0
 20
0.0
 30
0.0
  9
$PUCSYDIR
 10
0.0
 20
1.0
 30
0.0
  9
$USERI1
 70
     0
  9
$USERI2
 70
     0
  9
$USERI3
 70
     0
  9
$USERI4
 70
     0
  9
$USERI5
 70
     0
  9
$USERR1
 40
0.0
  9
$USERR2
 40
0.0
  9
$USERR3
 40
0.0
  9
$USERR4
 40
0.0
  9
$USERR5
 40
0.0
  9
$WORLDVIEW
 70
     1
  9
$SHADEDGE
 70
     3
  9
$SHADEDIF
 70
    70
  9
$TILEMODE
 70
     1
  9
$MAXACTVP
 70
    16
  9
$PLIMCHECK
 70
     0
  9
$PEXTMIN
 10
-1.452248
 20
-0.437698
 30
0.0
  9
$PEXTMAX
 10
12.749749
 20
8.310198
 30
0.0
  9
$PLIMMIN
 10
0.0
 20
0.0
  9
$PLIMMAX
 10
12.0
 20
9.0
  9
$UNITMODE
 70
     0
  9
$VISRETAIN
 70
     0
  9
$PLINEGEN
 70
     0
  9
$PSLTSCALE
 70
     0
  0
ENDSEC
  0
SECTION
  2
TABLES
  0
TABLE
  2
VPORT
 70
     2
  0
VPORT
  2
*ACTIVE
 70
     0
 10
0.0
 20
0.0
 11
1.0
 21
1.0
 12
104.299738
 22
42.479197
 13
0.0
 23
0.0
 14
1.0
 24
1.0
 15
10.0
 25
10.0
 16
0.0
 26
0.0
 36
1.0
 17
0.0
 27
0.0
 37
0.0
 40
72.467272
 41
1.466346
 42
50.0
 43
0.0
 44
0.0
 50
0.0
 51
0.0
 71
     0
 72
   100
 73
     1
 74
     0
 75
     0
 76
     0
 77
     0
 78
     0
  0
ENDTAB
  0
TABLE
  2
LTYPE
 70
     2
  0
LTYPE
  2
CONTINUOUS
 70
     0
  3
Solid line
 72
    65
 73
     0
 40
0.0
  0
LTYPE
  2
AXES2
 70
     0
  3
___ _ ___ _ ___ _ ___ _ ___ _ ___ _ ___ _ ___ _
 72
    65
 73
     4
 40
1.125
 49
0.75
 49
-0.125
 49
0.125
 49
-0.125
  0
ENDTAB
  0
TABLE
  2
LAYER
 70
     5
  0
LAYER
  2
0
 70
     0
 62
   255
  6
CONTINUOUS
  0
LAYER
  2
COTATION1
 70
     0
 62
     2
  6
CONTINUOUS
  0
LAYER
  2
AXE
 70
     0
 62
    80
  6
AXES2
  0
LAYER
  2
DEFPOINTS
 70
     0
 62
     7
  6
CONTINUOUS
  0
LAYER
  2
ALPHA
 70
     0
 62
   254
  6
CONTINUOUS
  0
ENDTAB
  0
TABLE
  2
STYLE
 70
     2
  0
STYLE
  2
ROMANS
 70
     0
 40
0.0
 41
1.0
 50
0.0
 71
     0
 42
6.0
  3
romans
  4

  0
STYLE
  2
STANDARD
 70
     0
 40
0.0
 41
1.0
 50
0.0
 71
     0
 42
0.2
  3
txt
  4

  0
ENDTAB
  0
TABLE
  2
VIEW
 70
     0
  0
ENDTAB
  0
TABLE
  2
UCS
 70
     0
  0
ENDTAB
  0
TABLE
  2
APPID
 70
     1
  0
APPID
  2
ACAD
 70
     0
  0
ENDTAB
  0
TABLE
  2
DIMSTYLE
 70
     2
  0
DIMSTYLE
  2
SC_DEFAUT
 70
     0
  3

  4

  5
OPEN30
  6

  7

 40
1.0
 41
5.0
 42
2.0
 43
0.38
 44
2.5
 45
0.0
 46
0.0
 47
0.0
 48
0.0
140
2.5
141
0.0
142
0.0
143
25.4
144
1.0
145
0.0
146
1.0
147
2.0
 71
     0
 72
     0
 73
     1
 74
     1
 75
     0
 76
     0
 77
     1
 78
    12
170
     0
171
     2
172
     0
173
     0
174
     0
175
     0
176
     0
177
     0
178
     0
  0
DIMSTYLE
  2
STANDARD
 70
     0
  3

  4

  5

  6

  7

 40
1.0
 41
0.18
 42
0.0625
 43
0.38
 44
0.18
 45
0.0
 46
0.0
 47
0.0
 48
0.0
140
0.18
141
0.09
142
0.0
143
25.4
144
1.0
145
0.0
146
1.0
147
0.09
 71
     0
 72
     0
 73
     1
 74
     1
 75
     0
 76
     0
 77
     0
 78
     0
170
     0
171
     2
172
     0
173
     0
174
     0
175
     0
176
     0
177
     0
178
     0
  0
ENDTAB
  0
ENDSEC
  0
SECTION
  2
BLOCKS
  0
BLOCK
  8
0
  2
$MODEL_SPACE
 70
     0
 10
0.0
 20
0.0
 30
0.0
  3
$MODEL_SPACE
  1

  0
ENDBLK
  5
9DB9
  8
0
  0
BLOCK
 67
     1
  8
0
  2
$PAPER_SPACE
 70
     0
 10
0.0
 20
0.0
 30
0.0
  3
$PAPER_SPACE
  1

  0
ENDBLK
  5
9DB7
 67
     1
  8
0
  0
BLOCK
  8
0
  2
COTE
 70
     0
 10
0.0
 20
0.0
 30
0.0
  3
COTE
  1

  0
ENDBLK
  5
F
  8
0
  0
BLOCK
  8
0
  2
FOND
 70
     0
 10
0.0
 20
0.0
 30
0.0
  3
FOND
  1

  0
ENDBLK
  5
75
  8
0
  0
BLOCK
  8
0
  2
_OPEN30
 70
     0
 10
0.0
 20
0.0
 30
0.0
  3
_OPEN30
  1

  0
LINE
  5
4B05
  8
COTATION1
 62
     0
 10
-1.0
 20
0.267949
 30
0.0
 11
0.0
 21
0.0
 31
0.0
1001
ACAD
1000
RTLwPs
1070
   158
  0
LINE
  5
4B06
  8
COTATION1
 62
     0
 10
0.0
 20
0.0
 30
0.0
 11
-1.0
 21
-0.267949
 31
0.0
1001
ACAD
1000
RTLwPs
1070
   158
  0
LINE
  5
4B07
  8
COTATION1
 62
     0
 10
0.0
 20
0.0
 30
0.0
 11
-1.0
 21
0.0
 31
0.0
1001
ACAD
1000
RTLwPs
1070
   158
  0
ENDBLK
  5
4B09
  8
0
  0
BLOCK
  8
0
  2
*D3
 70
     1
 10
0.0
 20
0.0
 30
0.0
  3
*D3
  1

  0
LINE
  5
9CC6
  8
COTATION1
 62
     0
 10
85.03766
 20
51.44094
 30
0.0
 11
85.03766
 21
76.44094
 31
0.0
1001
ACAD
1000
RTLwPs
1070
   158
  0
LINE
  5
9CC7
  8
COTATION1
 62
     0
 10
104.03766
 20
51.44094
 30
0.0
 11
104.03766
 21
76.44094
 31
0.0
1001
ACAD
1000
RTLwPs
1070
   158
  0
LINE
  5
9CC8
  8
COTATION1
 62
     0
 10
90.03766
 20
73.94094
 30
0.0
 11
99.03766
 21
73.94094
 31
0.0
1001
ACAD
1000
RTLwPs
1070
   158
  0
INSERT
  5
9CC9
  8
COTATION1
 62
     0
  2
_OPEN30
 10
85.03766
 20
73.94094
 30
0.0
 41
5.0
 42
5.0
 43
5.0
 50
180.0
1001
ACAD
1000
RTLwPs
1070
   158
  0
INSERT
  5
9CCA
  8
COTATION1
 62
     0
  2
_OPEN30
 10
104.03766
 20
73.94094
 30
0.0
 41
5.0
 42
5.0
 43
5.0
1001
ACAD
1000
RTLwPs
1070
   158
  0
TEXT
  5
9CCB
  8
COTATION1
 62
     0
 10
91.204326
 20
75.94094
 30
0.0
 40
2.5
  1
%%c
1001
ACAD
1000
MTEXTBEGIN
1070
    73
1070
     1
1070
    44
1040
1.0
1070
    74
1070
     0
1000
MTEXTEND
  0
TEXT
  5
9D8A
  8
COTATION1
 62
     0
 10
93.466231
 20
75.94094
 30
0.0
 40
2.5
  1
19
1001
ACAD
1000
R13OBJECT
1002
{
1005
9CCB
1002
}
  0
POINT
  5
9CCC
  8
DEFPOINTS
 62
     0
 10
85.03766
 20
49.44094
 30
0.0
  0
POINT
  5
9CCD
  8
DEFPOINTS
 62
     0
 10
104.03766
 20
49.44094
 30
0.0
  0
POINT
  5
9CCE
  8
DEFPOINTS
 62
     0
 10
104.03766
 20
73.94094
 30
0.0
  0
ENDBLK
  5
97F8
  8
0
  0
BLOCK
  8
0
  2
*D4
 70
     1
 10
0.0
 20
0.0
 30
0.0
  3
*D4
  1

  0
LINE
  5
9CBC
  8
COTATION1
 62
     0
 10
96.53766
 20
58.94094
 30
0.0
 11
127.21766
 21
58.94094
 31
0.0
1001
ACAD
1000
RTLwPs
1070
   158
  0
LINE
  5
9CBD
  8
COTATION1
 62
     0
 10
96.53766
 20
16.54094
 30
0.0
 11
127.21766
 21
16.54094
 31
0.0
1001
ACAD
1000
RTLwPs
1070
   158
  0
LINE
  5
9CBE
  8
COTATION1
 62
     0
 10
124.71766
 20
53.94094
 30
0.0
 11
124.71766
 21
40.99094
 31
0.0
1001
ACAD
1000
RTLwPs
1070
   158
  0
LINE
  5
9CBF
  8
COTATION1
 62
     0
 10
124.71766
 20
21.54094
 30
0.0
 11
124.71766
 21
34.49094
 31
0.0
1001
ACAD
1000
RTLwPs
1070
   158
  0
INSERT
  5
9CC0
  8
COTATION1
 62
     0
  2
_OPEN30
 10
124.71766
 20
58.94094
 30
0.0
 41
5.0
 42
5.0
 43
5.0
 50
90.0
1001
ACAD
1000
RTLwPs
1070
   158
  0
INSERT
  5
9CC1
  8
COTATION1
 62
     0
  2
_OPEN30
 10
124.71766
 20
16.54094
 30
0.0
 41
5.0
 42
5.0
 43
5.0
 50
270.0
1001
ACAD
1000
RTLwPs
1070
   158
  0
TEXT
  5
9CC2
  8
COTATION1
 62
     0
 10
120.491469
 20
36.49094
 30
0.0
 40
2.5
  1
42.4
1001
ACAD
1000
MTEXTBEGIN
1070
    73
1070
     1
1070
    44
1040
1.0
1070
    74
1070
     0
1000
MTEXTEND
  0
POINT
  5
9CC3
  8
DEFPOINTS
 62
     0
 10
94.53766
 20
58.94094
 30
0.0
  0
POINT
  5
9CC4
  8
DEFPOINTS
 62
     0
 10
94.53766
 20
16.54094
 30
0.0
  0
POINT
  5
9CC5
  8
DEFPOINTS
 62
     0
 10
124.71766
 20
16.54094
 30
0.0
  0
ENDBLK
  5
989A
  8
0
  0
ENDSEC
  0
SECTION
  2
ENTITIES
  0
INSERT
  5
A
  8
0
  2
COTE
 10
0.0
 20
0.0
 30
0.0
  0
INSERT
  5
17
  8
0
  2
COTE
 10
284.010391
 20
6.373258
 30
0.0
  0
INSERT
  5
72
  8
0
  2
FOND
 10
0.0
 20
0.0
 30
0.0
  0
ARC
  5
9681
  8
ALPHA
 10
94.53766
 20
24.54094
 30
0.0
 40
8.0
 50
172.86594
 51
7.13406
  0
CIRCLE
  5
9682
  8
ALPHA
 10
94.53766
 20
49.44094
 30
0.0
 40
8.044648
  0
CIRCLE
  5
9683
  8
ALPHA
 10
94.53766
 20
49.44094
 30
0.0
 40
8.20804
  0
CIRCLE
  5
9684
  8
ALPHA
 10
94.53766
 20
49.44094
 30
0.0
 40
9.2
  0
CIRCLE
  5
9685
  8
ALPHA
 10
94.53766
 20
49.44094
 30
0.0
 40
8.002386
  0
CIRCLE
  5
9686
  8
ALPHA
 10
94.53766
 20
49.44094
 30
0.0
 40
9.5
  0
CIRCLE
  5
9687
  8
ALPHA
 10
94.53766
 20
49.44094
 30
0.0
 40
8.25
  0
LINE
  5
9688
  8
ALPHA
 10
100.866672
 20
38.20793
 30
0.0
 11
100.282294
 21
41.887181
 31
0.0
  0
LINE
  5
9689
  8
ALPHA
 10
100.950273
 20
36.976607
 30
0.0
 11
100.171401
 21
41.354042
 31
0.0
  0
LINE
  5
968A
  8
ALPHA
 10
100.950273
 20
36.976607
 30
0.0
 11
88.125046
 21
36.976607
 31
0.0
  0
LINE
  5
968B
  8
ALPHA
 10
100.997273
 20
36.668777
 30
0.0
 11
88.078046
 21
36.668777
 31
0.0
  0
ARC
  5
96A3
  8
ALPHA
 10
93.930778
 20
19.703863
 30
0.0
 40
0.3
 50
262.848784
 51
347.0
  0
ARC
  5
96A4
  8
ALPHA
 10
95.144541
 20
19.703863
 30
0.0
 40
0.3
 50
193.0
 51
277.151216
  0
ARC
  5
96A5
  8
ALPHA
 10
94.53766
 20
24.54094
 30
0.0
 40
5.175
 50
277.151216
 51
292.848784
  0
ARC
  5
96A6
  8
ALPHA
 10
94.53766
 20
24.54094
 30
0.0
 40
5.175
 50
247.151216
 51
262.848784
  0
LINE
  5
96A7
  8
ALPHA
 10
95.181887
 20
19.406196
 30
0.0
 11
94.53766
 21
19.36594
 31
0.0
  0
LINE
  5
96A8
  8
ALPHA
 10
94.53766
 20
19.36594
 30
0.0
 11
93.893432
 21
19.406196
 31
0.0
  0
ARC
  5
96A9
  8
ALPHA
 10
94.53766
 20
24.54094
 30
0.0
 40
5.175
 50
97.151216
 51
112.848784
  0
LINE
  5
96AA
  8
ALPHA
 10
88.078046
 20
36.668777
 30
0.0
 11
86.599593
 21
25.534471
 31
0.0
  0
LINE
  5
96AB
  8
ALPHA
 10
87.993166
 20
36.668777
 30
0.0
 11
86.599593
 21
25.534471
 31
0.0
  0
ARC
  5
96AC
  8
ALPHA
 10
94.53766
 20
24.54094
 30
0.0
 40
5.175
 50
157.151216
 51
172.848784
  0
ARC
  5
96AD
  8
ALPHA
 10
94.53766
 20
24.54094
 30
0.0
 40
5.175
 50
217.151216
 51
232.848784
  0
ARC
  5
96AE
  8
ALPHA
 10
90.623225
 20
22.28094
 30
0.0
 40
0.22
 50
313.0
 51
107.0
  0
LINE
  5
96AF
  8
ALPHA
 10
90.773264
 20
22.120043
 30
0.0
 11
90.447469
 21
21.816233
 31
0.0
  0
LINE
  5
96B0
  8
ALPHA
 10
90.412955
 20
21.415651
 30
0.0
 11
89.768727
 21
22.531486
 31
0.0
  0
LINE
  5
96B1
  8
ALPHA
 10
89.402916
 20
23.896713
 30
0.0
 11
89.402916
 21
25.185168
 31
0.0
  0
ARC
  5
96B2
  8
ALPHA
 10
94.53766
 20
24.54094
 30
0.0
 40
5.175
 50
187.151216
 51
202.848784
  0
ARC
  5
96B3
  8
ALPHA
 10
90.045187
 20
22.647976
 30
0.0
 40
0.3
 50
202.848784
 51
287.0
  0
ARC
  5
96B4
  8
ALPHA
 10
90.652068
 20
21.596827
 30
0.0
 40
0.3
 50
133.0
 51
217.151216
  0
ARC
  5
96B5
  8
ALPHA
 10
89.700582
 20
25.147822
 30
0.0
 40
0.3
 50
172.848784
 51
257.0
  0
ARC
  5
96B6
  8
ALPHA
 10
90.01766
 20
24.54094
 30
0.0
 40
0.22
 50
283.0
 51
77.0
  0
ARC
  5
96B7
  8
ALPHA
 10
89.700582
 20
23.934059
 30
0.0
 40
0.3
 50
103.0
 51
187.151216
  0
LINE
  5
96B8
  8
ALPHA
 10
90.132898
 20
22.361085
 30
0.0
 11
90.558903
 21
22.491327
 31
0.0
  0
LINE
  5
96B9
  8
ALPHA
 10
90.067149
 20
24.326579
 30
0.0
 11
89.633097
 21
24.22637
 31
0.0
  0
LINE
  5
96BA
  8
ALPHA
 10
89.633097
 20
24.855511
 30
0.0
 11
90.067149
 21
24.755302
 31
0.0
  0
LINE
  5
96BB
  8
ALPHA
 10
92.528205
 20
19.772008
 30
0.0
 11
91.41237
 21
20.416236
 31
0.0
  0
ARC
  5
96BC
  8
ALPHA
 10
91.593546
 20
20.655349
 30
0.0
 40
0.3
 50
232.848784
 51
317.0
  0
ARC
  5
96BD
  8
ALPHA
 10
92.27766
 20
20.626506
 30
0.0
 40
0.22
 50
343.0
 51
137.0
  0
ARC
  5
96BE
  8
ALPHA
 10
92.644695
 20
20.048468
 30
0.0
 40
0.3
 50
163.0
 51
247.151216
  0
LINE
  5
96BF
  8
ALPHA
 10
91.812952
 20
20.450749
 30
0.0
 11
92.116762
 21
20.776545
 31
0.0
  0
LINE
  5
96C0
  8
ALPHA
 10
92.488047
 20
20.562184
 30
0.0
 11
92.357804
 21
20.136179
 31
0.0
  0
ARC
  5
96C1
  8
ALPHA
 10
94.53766
 20
24.54094
 30
0.0
 40
5.175
 50
127.151216
 51
142.848784
  0
ARC
  5
96C2
  8
ALPHA
 10
90.623225
 20
26.80094
 30
0.0
 40
0.22
 50
253.0
 51
47.0
  0
LINE
  5
96C3
  8
ALPHA
 10
90.447469
 20
27.265648
 30
0.0
 11
90.773264
 21
26.961838
 31
0.0
  0
LINE
  5
96C4
  8
ALPHA
 10
89.768727
 20
26.550395
 30
0.0
 11
90.412955
 21
27.66623
 31
0.0
  0
ARC
  5
96C5
  8
ALPHA
 10
90.652068
 20
27.485054
 30
0.0
 40
0.3
 50
142.848784
 51
227.0
  0
ARC
  5
96C6
  8
ALPHA
 10
90.045187
 20
26.433905
 30
0.0
 40
0.3
 50
73.0
 51
157.151216
  0
LINE
  5
96C7
  8
ALPHA
 10
90.558903
 20
26.590553
 30
0.0
 11
90.132898
 21
26.720796
 31
0.0
  0
LINE
  5
96C8
  8
ALPHA
 10
91.41237
 20
28.665645
 30
0.0
 11
92.528205
 21
29.309873
 31
0.0
  0
ARC
  5
96C9
  8
ALPHA
 10
92.644695
 20
29.033413
 30
0.0
 40
0.3
 50
112.848784
 51
197.0
  0
ARC
  5
96CA
  8
ALPHA
 10
92.27766
 20
28.455375
 30
0.0
 40
0.22
 50
223.0
 51
17.0
  0
ARC
  5
96CB
  8
ALPHA
 10
91.593546
 20
28.426532
 30
0.0
 40
0.3
 50
43.0
 51
127.151216
  0
LINE
  5
96CC
  8
ALPHA
 10
92.357804
 20
28.945702
 30
0.0
 11
92.488047
 21
28.519697
 31
0.0
  0
LINE
  5
96CD
  8
ALPHA
 10
92.116762
 20
28.305336
 30
0.0
 11
91.812952
 21
28.631131
 31
0.0
  0
LINE
  5
96CE
  8
ALPHA
 10
88.125046
 20
36.976607
 30
0.0
 11
88.903918
 21
41.354042
 31
0.0
  0
LINE
  5
96CF
  8
ALPHA
 10
88.208647
 20
38.20793
 30
0.0
 11
88.793165
 21
41.88806
 31
0.0
  0
LINE
  5
96D0
  8
ALPHA
 10
88.100907
 20
36.831561
 30
0.0
 11
88.125046
 21
36.976607
 31
0.0
  0
LINE
  5
96D1
  8
ALPHA
 10
88.100907
 20
37.482697
 30
0.0
 11
87.993166
 21
36.668777
 31
0.0
  0
LINE
  5
96D2
  8
ALPHA
 10
88.100907
 20
36.831561
 30
0.0
 11
88.100907
 21
37.482697
 31
0.0
  0
LINE
  5
96D3
  8
ALPHA
 10
88.078046
 20
36.668777
 30
0.0
 11
88.100907
 21
36.831561
 31
0.0
  0
LINE
  5
96D4
  8
ALPHA
 10
88.208647
 20
38.20793
 30
0.0
 11
88.100907
 21
37.482697
 31
0.0
  0
LINE
  5
96D5
  8
ALPHA
 10
88.903918
 20
41.354042
 30
0.0
 11
88.924177
 21
41.789656
 31
0.0
  0
LINE
  5
96D6
  8
ALPHA
 10
88.903918
 20
41.354042
 30
0.0
 11
89.568464
 21
41.354042
 31
0.0
  0
LINE
  5
96D7
  8
ALPHA
 10
88.903918
 20
41.806055
 30
0.0
 11
88.903918
 21
41.354042
 31
0.0
  0
LINE
  5
96D8
  8
ALPHA
 10
96.547114
 20
29.309873
 30
0.0
 11
97.662949
 21
28.665645
 31
0.0
  0
LINE
  5
96D9
  8
ALPHA
 10
97.662949
 20
20.416236
 30
0.0
 11
96.547114
 21
19.772008
 31
0.0
  0
ARC
  5
96DA
  8
ALPHA
 10
96.79766
 20
28.455375
 30
0.0
 40
0.22
 50
163.0
 51
317.0
  0
ARC
  5
96DB
  8
ALPHA
 10
96.430624
 20
29.033413
 30
0.0
 40
0.3
 50
343.0
 51
67.151216
  0
ARC
  5
96DC
  8
ALPHA
 10
96.430624
 20
20.048468
 30
0.0
 40
0.3
 50
292.848784
 51
17.0
  0
ARC
  5
96DD
  8
ALPHA
 10
96.79766
 20
20.626506
 30
0.0
 40
0.22
 50
43.0
 51
197.0
  0
ARC
  5
96DE
  8
ALPHA
 10
94.53766
 20
20.02094
 30
0.0
 40
0.22
 50
13.0
 51
167.0
  0
LINE
  5
96DF
  8
ALPHA
 10
94.223089
 20
19.636377
 30
0.0
 11
94.323298
 21
20.07043
 31
0.0
  0
LINE
  5
96E0
  8
ALPHA
 10
94.752021
 20
20.07043
 30
0.0
 11
94.85223
 21
19.636377
 31
0.0
  0
LINE
  5
96E1
  8
ALPHA
 10
96.717515
 20
20.136179
 30
0.0
 11
96.587273
 21
20.562184
 31
0.0
  0
LINE
  5
96E2
  8
ALPHA
 10
94.53766
 20
29.71594
 30
0.0
 11
95.181887
 21
29.675684
 31
0.0
  0
ARC
  5
96E3
  8
ALPHA
 10
94.53766
 20
29.06094
 30
0.0
 40
0.22
 50
193.0
 51
347.0
  0
LINE
  5
96E4
  8
ALPHA
 10
93.893432
 20
29.675684
 30
0.0
 11
94.53766
 21
29.71594
 31
0.0
  0
ARC
  5
96E5
  8
ALPHA
 10
93.930778
 20
29.378018
 30
0.0
 40
0.3
 50
13.0
 51
97.151216
  0
LINE
  5
96E6
  8
ALPHA
 10
94.323298
 20
29.011451
 30
0.0
 11
94.223089
 21
29.445503
 31
0.0
  0
ARC
  5
96E7
  8
ALPHA
 10
94.53766
 20
24.54094
 30
0.0
 40
5.175
 50
67.151216
 51
82.848784
  0
ARC
  5
96E8
  8
ALPHA
 10
95.144541
 20
29.378018
 30
0.0
 40
0.3
 50
82.848784
 51
167.0
  0
LINE
  5
96E9
  8
ALPHA
 10
96.587273
 20
28.519697
 30
0.0
 11
96.717515
 21
28.945702
 31
0.0
  0
LINE
  5
96EA
  8
ALPHA
 10
94.85223
 20
29.445503
 30
0.0
 11
94.752021
 21
29.011451
 31
0.0
  0
ARC
  5
96EB
  8
ALPHA
 10
94.53766
 20
24.54094
 30
0.0
 40
5.175
 50
7.151216
 51
22.848784
  0
LINE
  5
96EC
  8
ALPHA
 10
99.306592
 20
22.531486
 30
0.0
 11
98.662364
 21
21.415651
 31
0.0
  0
LINE
  5
96ED
  8
ALPHA
 10
98.516416
 20
22.491327
 30
0.0
 11
98.942421
 21
22.361085
 31
0.0
  0
ARC
  5
96EE
  8
ALPHA
 10
94.53766
 20
24.54094
 30
0.0
 40
5.175
 50
307.151216
 51
322.848784
  0
ARC
  5
96EF
  8
ALPHA
 10
98.423251
 20
21.596827
 30
0.0
 40
0.3
 50
322.848784
 51
47.0
  0
ARC
  5
96F0
  8
ALPHA
 10
98.452094
 20
22.28094
 30
0.0
 40
0.22
 50
73.0
 51
227.0
  0
ARC
  5
96F1
  8
ALPHA
 10
97.481773
 20
20.655349
 30
0.0
 40
0.3
 50
223.0
 51
307.151216
  0
LINE
  5
96F2
  8
ALPHA
 10
98.627851
 20
21.816233
 30
0.0
 11
98.302055
 21
22.120043
 31
0.0
  0
LINE
  5
96F3
  8
ALPHA
 10
96.958557
 20
20.776545
 30
0.0
 11
97.262367
 21
20.450749
 31
0.0
  0
LINE
  5
96F4
  8
ALPHA
 10
99.672404
 20
25.185168
 30
0.0
 11
99.672404
 21
23.896713
 31
0.0
  0
ARC
  5
96F5
  8
ALPHA
 10
94.53766
 20
24.54094
 30
0.0
 40
5.175
 50
337.151216
 51
352.848784
  0
ARC
  5
96F6
  8
ALPHA
 10
99.374737
 20
23.934059
 30
0.0
 40
0.3
 50
352.848784
 51
77.0
  0
ARC
  5
96F7
  8
ALPHA
 10
99.05766
 20
24.54094
 30
0.0
 40
0.22
 50
103.0
 51
257.0
  0
ARC
  5
96F8
  8
ALPHA
 10
99.374737
 20
25.147822
 30
0.0
 40
0.3
 50
283.0
 51
7.151216
  0
ARC
  5
96F9
  8
ALPHA
 10
99.030132
 20
22.647976
 30
0.0
 40
0.3
 50
253.0
 51
337.151216
  0
LINE
  5
96FA
  8
ALPHA
 10
99.442223
 20
24.22637
 30
0.0
 11
99.00817
 21
24.326579
 31
0.0
  0
LINE
  5
96FB
  8
ALPHA
 10
99.00817
 20
24.755302
 30
0.0
 11
99.442223
 21
24.855511
 31
0.0
  0
LINE
  5
96FC
  8
ALPHA
 10
98.662364
 20
27.66623
 30
0.0
 11
99.306592
 21
26.550395
 31
0.0
  0
LINE
  5
96FD
  8
ALPHA
 10
98.942421
 20
26.720796
 30
0.0
 11
98.516416
 21
26.590553
 31
0.0
  0
ARC
  5
96FE
  8
ALPHA
 10
94.53766
 20
24.54094
 30
0.0
 40
5.175
 50
37.151216
 51
52.848784
  0
ARC
  5
96FF
  8
ALPHA
 10
97.481773
 20
28.426532
 30
0.0
 40
0.3
 50
52.848784
 51
137.0
  0
ARC
  5
9700
  8
ALPHA
 10
98.452094
 20
26.80094
 30
0.0
 40
0.22
 50
133.0
 51
287.0
  0
ARC
  5
9701
  8
ALPHA
 10
98.423251
 20
27.485054
 30
0.0
 40
0.3
 50
313.0
 51
37.151216
  0
LINE
  5
9702
  8
ALPHA
 10
98.302055
 20
26.961838
 30
0.0
 11
98.627851
 21
27.265648
 31
0.0
  0
LINE
  5
9703
  8
ALPHA
 10
97.262367
 20
28.631131
 30
0.0
 11
96.958557
 21
28.305336
 31
0.0
  0
ARC
  5
9704
  8
ALPHA
 10
99.030132
 20
26.433905
 30
0.0
 40
0.3
 50
22.848784
 51
107.0
  0
LINE
  5
9705
  8
ALPHA
 10
94.83766
 20
34.54094
 30
0.0
 11
94.23766
 21
34.54094
 31
0.0
  0
LINE
  5
9706
  8
ALPHA
 10
94.83766
 20
31.54094
 30
0.0
 11
94.23766
 21
31.54094
 31
0.0
  0
LINE
  5
9707
  8
ALPHA
 10
94.53766
 20
31.54094
 30
0.0
 11
94.53766
 21
34.54094
 31
0.0
  0
LINE
  5
9708
  8
ALPHA
 10
94.23766
 20
34.54094
 30
0.0
 11
94.23766
 21
31.54094
 31
0.0
  0
LINE
  5
9709
  8
ALPHA
 10
94.83766
 20
34.54094
 30
0.0
 11
94.83766
 21
31.54094
 31
0.0
  0
LINE
  5
970A
  8
ALPHA
 10
100.171401
 20
41.354042
 30
0.0
 11
100.151142
 21
41.789656
 31
0.0
  0
LINE
  5
970B
  8
ALPHA
 10
100.171401
 20
41.806055
 30
0.0
 11
100.171401
 21
41.354042
 31
0.0
  0
LINE
  5
970C
  8
ALPHA
 10
99.505359
 20
41.354042
 30
0.0
 11
100.171401
 21
41.354042
 31
0.0
  0
CIRCLE
  5
971D
  8
ALPHA
 10
94.53766
 20
49.44094
 30
0.0
 40
5.535688
  0
CIRCLE
  5
971E
  8
ALPHA
 10
94.53766
 20
49.44094
 30
0.0
 40
5.650595
  0
CIRCLE
  5
971F
  8
ALPHA
 10
94.53766
 20
49.44094
 30
0.0
 40
5.436791
  0
CIRCLE
  5
9720
  8
ALPHA
 10
94.53766
 20
49.44094
 30
0.0
 40
5.39
  0
CIRCLE
  5
9721
  8
ALPHA
 10
94.53766
 20
49.44094
 30
0.0
 40
5.35
  0
CIRCLE
  5
9722
  8
ALPHA
 10
94.53766
 20
49.44094
 30
0.0
 40
3.5
  0
ARC
  5
9723
  8
ALPHA
 10
88.735289
 20
46.09094
 30
0.0
 40
2.05
 50
71.603192
 51
72.436446
  0
ARC
  5
9724
  8
ALPHA
 10
88.735289
 20
46.09094
 30
0.0
 40
2.05
 50
347.442289
 51
348.396808
  0
ARC
  5
9725
  8
ALPHA
 10
88.735289
 20
52.79094
 30
0.0
 40
2.05
 50
287.563554
 51
288.396808
  0
ARC
  5
9726
  8
ALPHA
 10
88.735289
 20
52.79094
 30
0.0
 40
2.05
 50
11.603192
 51
12.557711
  0
CIRCLE
  5
9727
  8
ALPHA
 10
94.53766
 20
49.44094
 30
0.0
 40
1.0
  0
ARC
  5
9728
  8
ALPHA
 10
94.53766
 20
42.74094
 30
0.0
 40
2.05
 50
131.603192
 51
132.860775
  0
ARC
  5
9729
  8
ALPHA
 10
94.53766
 20
42.74094
 30
0.0
 40
2.05
 50
47.139225
 51
48.396808
  0
ARC
  5
972A
  8
ALPHA
 10
100.34003
 20
46.09094
 30
0.0
 40
2.05
 50
191.603192
 51
192.557711
  0
ARC
  5
972B
  8
ALPHA
 10
100.34003
 20
46.09094
 30
0.0
 40
2.05
 50
107.563554
 51
108.396808
  0
ARC
  5
972C
  8
ALPHA
 10
100.34003
 20
52.79094
 30
0.0
 40
2.05
 50
167.442289
 51
168.396808
  0
ARC
  5
972D
  8
ALPHA
 10
100.34003
 20
52.79094
 30
0.0
 40
2.05
 50
251.603192
 51
252.436446
  0
ARC
  5
972E
  8
ALPHA
 10
94.53766
 20
56.14094
 30
0.0
 40
2.05
 50
227.139225
 51
228.396808
  0
ARC
  5
972F
  8
ALPHA
 10
94.53766
 20
56.14094
 30
0.0
 40
2.05
 50
311.603192
 51
312.860775
  0
LINE
  5
9730
  8
ALPHA
 10
101.082153
 20
36.668777
 30
0.0
 11
102.475726
 21
25.534471
 31
0.0
  0
LINE
  5
9731
  8
ALPHA
 10
100.997273
 20
36.668777
 30
0.0
 11
102.475726
 21
25.534471
 31
0.0
  0
LINE
  5
9732
  8
ALPHA
 10
100.950273
 20
36.976607
 30
0.0
 11
100.974412
 21
36.831561
 31
0.0
  0
LINE
  5
9733
  8
ALPHA
 10
101.082153
 20
36.668777
 30
0.0
 11
100.974412
 21
37.482697
 31
0.0
  0
LINE
  5
9734
  8
ALPHA
 10
100.974412
 20
36.831561
 30
0.0
 11
100.974412
 21
37.482697
 31
0.0
  0
LINE
  5
9735
  8
ALPHA
 10
100.974412
 20
36.831561
 30
0.0
 11
100.997273
 21
36.668777
 31
0.0
  0
LINE
  5
9736
  8
ALPHA
 10
100.974412
 20
37.482697
 30
0.0
 11
100.866672
 21
38.20793
 31
0.0
  0
LINE
  5
97AB
  8
AXE
 10
94.53766
 20
6.54094
 30
0.0
 11
94.53766
 21
63.94094
 31
0.0
  0
TEXT
  5
97AC
  8
AXE
 10
89.490041
 20
6.54094
 30
0.0
 40
5.0
  1
Y
 72
     2
 11
93.53766
 21
6.54094
 31
0.0
  0
TEXT
  5
97AF
  8
AXE
 10
110.670041
 20
50.44094
 30
0.0
 40
5.0
  1
X
 72
     2
 11
114.71766
 21
50.44094
 31
0.0
  0
LINE
  5
97B0
  8
AXE
 10
80.03766
 20
49.44094
 30
0.0
 11
114.71766
 21
49.44094
 31
0.0
  0
DIMENSION
  5
97EC
  8
COTATION1
  2
*D3
 10
104.03766
 20
73.94094
 30
0.0
 11
94.53766
 21
77.19094
 31
0.0
  1
%%c<>
 13
85.03766
 23
49.44094
 33
0.0
 14
104.03766
 24
49.44094
 34
0.0
  0
DIMENSION
  5
988B
  8
COTATION1
  2
*D4
 10
124.71766
 20
16.54094
 30
0.0
 11
124.71766
 21
37.74094
 31
0.0
 13
94.53766
 23
58.94094
 33
0.0
 14
94.53766
 24
16.54094
 34
0.0
 50
90.0
  0
LINE
  5
98A5
  8
AXE
 10
84.36177
 20
24.54094
 30
0.0
 11
104.713549
 21
24.54094
 31
0.0
  0
VIEWPORT
  5
494D
 67
     1
  8
0
 10
4.995325
 20
6.556512
 30
0.0
 40
22.70986
 41
13.988421
 68
    -1
 69
     1
1001
ACAD
1000
MVIEW
1002
{
1070
    16
1010
0.0
1020
0.0
1030
0.0
1010
0.0
1020
0.0
1030
1.0
1040
0.0
1040
13.988421
1040
4.995325
1040
6.556512
1040
50.0
1040
0.0
1040
0.0
1070
     0
1070
   100
1070
     1
1070
     1
1070
     0
1070
     0
1070
     0
1070
     0
1040
0.0
1040
0.0
1040
0.0
1040
10.0
1040
10.0
1040
10.0
1040
10.0
1070
     0
1002
{
1002
}
1002
}
  0
ENDSEC
  0
EOF
