  0
SECTION
  2
HEADER
  9
$ACADVER
  1
AC1009
  9
$INSBASE
 10
402.590624
 20
-1.041018
 30
0.0
  9
$EXTMIN
 10
-171.081042
 20
29.228457
 30
0.0
  9
$EXTMAX
 10
-49.877264
 20
148.228457
 30
0.0
  9
$LIMMIN
 10
-407.970438
 20
-367.832444
  9
$LIMMAX
 10
429.804077
 20
234.370848
  9
$ORTHOMODE
 70
     0
  9
$REGENMODE
 70
     1
  9
$FILLMODE
 70
     1
  9
$QTEXTMODE
 70
     0
  9
$MIRRTEXT
 70
     1
  9
$DRAGMODE
 70
     2
  9
$LTSCALE
 40
10.0
  9
$OSMODE
 70
    37
  9
$ATTMODE
 70
     1
  9
$TEXTSIZE
 40
6.0
  9
$TRACEWID
 40
1.0
  9
$TEXTSTYLE
  7
ROMANS
  9
$CLAYER
  8
ALPHA
  9
$CELTYPE
  6
BYLAYER
  9
$CECOLOR
 62
   256
  9
$DIMSCALE
 40
1.0
  9
$DIMASZ
 40
5.0
  9
$DIMEXO
 40
2.0
  9
$DIMDLI
 40
0.38
  9
$DIMRND
 40
0.0
  9
$DIMDLE
 40
0.0
  9
$DIMEXE
 40
2.5
  9
$DIMTP
 40
0.0
  9
$DIMTM
 40
0.0
  9
$DIMTXT
 40
2.5
  9
$DIMCEN
 40
0.0
  9
$DIMTSZ
 40
0.0
  9
$DIMTOL
 70
     0
  9
$DIMLIM
 70
     0
  9
$DIMTIH
 70
     1
  9
$DIMTOH
 70
     1
  9
$DIMSE1
 70
     0
  9
$DIMSE2
 70
     0
  9
$DIMTAD
 70
     1
  9
$DIMZIN
 70
    12
  9
$DIMBLK
  1
OPEN30
  9
$DIMASO
 70
     1
  9
$DIMSHO
 70
     1
  9
$DIMPOST
  1

  9
$DIMAPOST
  1

  9
$DIMALT
 70
     0
  9
$DIMALTD
 70
     2
  9
$DIMALTF
 40
25.4
  9
$DIMLFAC
 40
1.0
  9
$DIMTOFL
 70
     0
  9
$DIMTVP
 40
0.0
  9
$DIMTIX
 70
     0
  9
$DIMSOXD
 70
     0
  9
$DIMSAH
 70
     0
  9
$DIMBLK1
  1

  9
$DIMBLK2
  1

  9
$DIMSTYLE
  2
SC_DEFAUT
  9
$DIMCLRD
 70
     0
  9
$DIMCLRE
 70
     0
  9
$DIMCLRT
 70
     0
  9
$DIMTFAC
 40
1.0
  9
$DIMGAP
 40
2.0
  9
$LUNITS
 70
     2
  9
$LUPREC
 70
     1
  9
$SKETCHINC
 40
0.1
  9
$FILLETRAD
 40
0.5
  9
$AUNITS
 70
     0
  9
$AUPREC
 70
     0
  9
$MENU
  1
acad
  9
$ELEVATION
 40
0.0
  9
$PELEVATION
 40
0.0
  9
$THICKNESS
 40
0.0
  9
$LIMCHECK
 70
     0
  9
$BLIPMODE
 70
     0
  9
$CHAMFERA
 40
0.0
  9
$CHAMFERB
 40
0.0
  9
$SKPOLY
 70
     0
  9
$TDCREATE
 40
2450373.687919
  9
$TDUPDATE
 40
2452850.675802
  9
$TDINDWG
 40
1.389046
  9
$TDUSRTIMER
 40
1.389046
  9
$USRTIMER
 70
     1
  9
$ANGBASE
 50
0.0
  9
$ANGDIR
 70
     0
  9
$PDMODE
 70
    32
  9
$PDSIZE
 40
0.0
  9
$PLINEWID
 40
0.0
  9
$COORDS
 70
     1
  9
$SPLFRAME
 70
     0
  9
$SPLINETYPE
 70
     6
  9
$SPLINESEGS
 70
     8
  9
$ATTDIA
 70
     0
  9
$ATTREQ
 70
     1
  9
$HANDLING
 70
     1
  9
$HANDSEED
  5
EF0D
  9
$SURFTAB1
 70
     6
  9
$SURFTAB2
 70
     6
  9
$SURFTYPE
 70
     6
  9
$SURFU
 70
     6
  9
$SURFV
 70
     6
  9
$UCSNAME
  2

  9
$UCSORG
 10
0.0
 20
0.0
 30
0.0
  9
$UCSXDIR
 10
1.0
 20
0.0
 30
0.0
  9
$UCSYDIR
 10
0.0
 20
1.0
 30
0.0
  9
$PUCSNAME
  2

  9
$PUCSORG
 10
0.0
 20
0.0
 30
0.0
  9
$PUCSXDIR
 10
1.0
 20
0.0
 30
0.0
  9
$PUCSYDIR
 10
0.0
 20
1.0
 30
0.0
  9
$USERI1
 70
     0
  9
$USERI2
 70
     0
  9
$USERI3
 70
     0
  9
$USERI4
 70
     0
  9
$USERI5
 70
     0
  9
$USERR1
 40
0.0
  9
$USERR2
 40
0.0
  9
$USERR3
 40
0.0
  9
$USERR4
 40
0.0
  9
$USERR5
 40
0.0
  9
$WORLDVIEW
 70
     1
  9
$SHADEDGE
 70
     3
  9
$SHADEDIF
 70
    70
  9
$TILEMODE
 70
     1
  9
$MAXACTVP
 70
    16
  9
$PLIMCHECK
 70
     0
  9
$PEXTMIN
 10
-1.452248
 20
-0.437698
 30
0.0
  9
$PEXTMAX
 10
12.749749
 20
8.310198
 30
0.0
  9
$PLIMMIN
 10
0.0
 20
0.0
  9
$PLIMMAX
 10
12.0
 20
9.0
  9
$UNITMODE
 70
     0
  9
$VISRETAIN
 70
     0
  9
$PLINEGEN
 70
     0
  9
$PSLTSCALE
 70
     0
  0
ENDSEC
  0
SECTION
  2
TABLES
  0
TABLE
  2
VPORT
 70
     2
  0
VPORT
  2
*ACTIVE
 70
     0
 10
0.0
 20
0.0
 11
1.0
 21
1.0
 12
-110.493754
 22
88.722301
 13
0.0
 23
0.0
 14
1.0
 24
1.0
 15
10.0
 25
10.0
 16
0.0
 26
0.0
 36
1.0
 17
0.0
 27
0.0
 37
0.0
 40
120.061014
 41
1.56
 42
50.0
 43
0.0
 44
0.0
 50
0.0
 51
0.0
 71
     0
 72
   100
 73
     1
 74
     0
 75
     0
 76
     0
 77
     0
 78
     0
  0
ENDTAB
  0
TABLE
  2
LTYPE
 70
     3
  0
LTYPE
  2
CONTINUOUS
 70
     0
  3
Solid line
 72
    65
 73
     0
 40
0.0
  0
LTYPE
  2
AXES2
 70
     0
  3
___ _ ___ _ ___ _ ___ _ ___ _ ___ _ ___ _ ___ _
 72
    65
 73
     4
 40
1.125
 49
0.75
 49
-0.125
 49
0.125
 49
-0.125
  0
LTYPE
  2
CACHE2
 70
     0
  3
Caché (x.5) _ _ _ _ _ _ _ _ _ _ _ _ _ _ _ _ _
 72
    65
 73
     2
 40
0.1875
 49
0.125
 49
-0.0625
  0
ENDTAB
  0
TABLE
  2
LAYER
 70
     6
  0
LAYER
  2
0
 70
     0
 62
   255
  6
CONTINUOUS
  0
LAYER
  2
COTATION1
 70
     0
 62
     2
  6
CONTINUOUS
  0
LAYER
  2
AXE
 70
     0
 62
    80
  6
AXES2
  0
LAYER
  2
DEFPOINTS
 70
     0
 62
     7
  6
CONTINUOUS
  0
LAYER
  2
ALPHA
 70
     0
 62
   254
  6
CONTINUOUS
  0
LAYER
  2
POINTILLE_COURT
 70
     0
 62
    41
  6
CACHE2
  0
ENDTAB
  0
TABLE
  2
STYLE
 70
     2
  0
STYLE
  2
ROMANS
 70
     0
 40
0.0
 41
1.0
 50
0.0
 71
     0
 42
6.0
  3
romans
  4

  0
STYLE
  2
STANDARD
 70
     0
 40
0.2
 41
1.0
 50
0.0
 71
     0
 42
0.2
  3
txt
  4

  0
ENDTAB
  0
TABLE
  2
VIEW
 70
     0
  0
ENDTAB
  0
TABLE
  2
UCS
 70
     0
  0
ENDTAB
  0
TABLE
  2
APPID
 70
     1
  0
APPID
  2
ACAD
 70
     0
  0
ENDTAB
  0
TABLE
  2
DIMSTYLE
 70
     1
  0
DIMSTYLE
  2
SC_DEFAUT
 70
     0
  3

  4

  5
OPEN30
  6

  7

 40
1.0
 41
5.0
 42
2.0
 43
0.38
 44
2.5
 45
0.0
 46
0.0
 47
0.0
 48
0.0
140
2.5
141
0.0
142
0.0
143
25.4
144
1.0
145
0.0
146
1.0
147
2.0
 71
     0
 72
     0
 73
     1
 74
     1
 75
     0
 76
     0
 77
     1
 78
    12
170
     0
171
     2
172
     0
173
     0
174
     0
175
     0
176
     0
177
     0
178
     0
  0
ENDTAB
  0
ENDSEC
  0
SECTION
  2
BLOCKS
  0
BLOCK
  8
0
  2
$MODEL_SPACE
 70
     0
 10
0.0
 20
0.0
 30
0.0
  3
$MODEL_SPACE
  1

  0
ENDBLK
  5
EEB8
  8
0
  0
BLOCK
 67
     1
  8
0
  2
$PAPER_SPACE
 70
     0
 10
0.0
 20
0.0
 30
0.0
  3
$PAPER_SPACE
  1

  0
ENDBLK
  5
EEB6
 67
     1
  8
0
  0
BLOCK
  8
0
  2
COTE
 70
     0
 10
0.0
 20
0.0
 30
0.0
  3
COTE
  1

  0
ENDBLK
  5
F
  8
0
  0
BLOCK
  8
0
  2
FOND
 70
     0
 10
0.0
 20
0.0
 30
0.0
  3
FOND
  1

  0
ENDBLK
  5
75
  8
0
  0
BLOCK
  8
0
  2
_OPEN30
 70
     0
 10
0.0
 20
0.0
 30
0.0
  3
_OPEN30
  1

  0
LINE
  5
4B05
  8
COTATION1
 62
     0
 10
-1.0
 20
0.267949
 30
0.0
 11
0.0
 21
0.0
 31
0.0
1001
ACAD
1000
RTLwPs
1070
   158
  0
LINE
  5
4B06
  8
COTATION1
 62
     0
 10
0.0
 20
0.0
 30
0.0
 11
-1.0
 21
-0.267949
 31
0.0
1001
ACAD
1000
RTLwPs
1070
   158
  0
LINE
  5
4B07
  8
COTATION1
 62
     0
 10
0.0
 20
0.0
 30
0.0
 11
-1.0
 21
0.0
 31
0.0
1001
ACAD
1000
RTLwPs
1070
   158
  0
ENDBLK
  5
4B09
  8
0
  0
BLOCK
  8
0
  2
*D3
 70
     1
 10
0.0
 20
0.0
 30
0.0
  3
*D3
  1

  0
LINE
  5
ECA3
  8
COTATION1
 62
     0
 10
-114.377264
 20
118.728457
 30
0.0
 11
-49.877264
 21
118.728457
 31
0.0
1001
ACAD
1000
RTLwPs
1070
   158
  0
LINE
  5
ECA4
  8
COTATION1
 62
     0
 10
-89.377264
 20
67.728457
 30
0.0
 11
-49.877264
 21
67.728457
 31
0.0
1001
ACAD
1000
RTLwPs
1070
   158
  0
LINE
  5
ECA5
  8
COTATION1
 62
     0
 10
-52.377264
 20
113.728457
 30
0.0
 11
-52.377264
 21
96.478457
 31
0.0
1001
ACAD
1000
RTLwPs
1070
   158
  0
LINE
  5
ECA6
  8
COTATION1
 62
     0
 10
-52.377264
 20
72.728457
 30
0.0
 11
-52.377264
 21
89.978457
 31
0.0
1001
ACAD
1000
RTLwPs
1070
   158
  0
INSERT
  5
ECA7
  8
COTATION1
 62
     0
  2
_OPEN30
 10
-52.377264
 20
118.728457
 30
0.0
 41
5.0
 42
5.0
 43
5.0
 50
90.0
1001
ACAD
1000
RTLwPs
1070
   158
  0
INSERT
  5
ECA8
  8
COTATION1
 62
     0
  2
_OPEN30
 10
-52.377264
 20
67.728457
 30
0.0
 41
5.0
 42
5.0
 43
5.0
 50
270.0
1001
ACAD
1000
RTLwPs
1070
   158
  0
TEXT
  5
ECA9
  8
COTATION1
 62
     0
 10
-54.401074
 20
91.978457
 30
0.0
 40
2.5
  1
51
1001
ACAD
1000
MTEXTBEGIN
1070
    73
1070
     1
1070
    44
1040
1.0
1070
    74
1070
     0
1000
MTEXTEND
1000
MTEXTBEGIN
1070
    73
1070
     1
1070
    44
1040
1.0
1070
    74
1070
     0
1000
MTEXTEND
  0
POINT
  5
ECAA
  8
DEFPOINTS
 62
     0
 10
-116.377264
 20
118.728457
 30
0.0
  0
POINT
  5
ECAB
  8
DEFPOINTS
 62
     0
 10
-91.377264
 20
67.728457
 30
0.0
  0
POINT
  5
ECAC
  8
DEFPOINTS
 62
     0
 10
-52.377264
 20
67.728457
 30
0.0
  0
ENDBLK
  5
EB80
  8
0
  0
BLOCK
  8
0
  2
*D4
 70
     1
 10
0.0
 20
0.0
 30
0.0
  3
*D4
  1

  0
LINE
  5
ECD4
  8
COTATION1
 62
     0
 10
-127.377264
 20
116.878457
 30
0.0
 11
-127.377264
 21
146.228457
 31
0.0
1001
ACAD
1000
RTLwPs
1070
   158
  0
LINE
  5
ECD5
  8
COTATION1
 62
     0
 10
-105.377264
 20
116.878457
 30
0.0
 11
-105.377264
 21
146.228457
 31
0.0
1001
ACAD
1000
RTLwPs
1070
   158
  0
LINE
  5
ECD6
  8
COTATION1
 62
     0
 10
-122.377264
 20
143.728457
 30
0.0
 11
-110.377264
 21
143.728457
 31
0.0
1001
ACAD
1000
RTLwPs
1070
   158
  0
INSERT
  5
ECD7
  8
COTATION1
 62
     0
  2
_OPEN30
 10
-127.377264
 20
143.728457
 30
0.0
 41
5.0
 42
5.0
 43
5.0
 50
180.0
1001
ACAD
1000
RTLwPs
1070
   158
  0
INSERT
  5
ECD8
  8
COTATION1
 62
     0
  2
_OPEN30
 10
-105.377264
 20
143.728457
 30
0.0
 41
5.0
 42
5.0
 43
5.0
1001
ACAD
1000
RTLwPs
1070
   158
  0
TEXT
  5
ECD9
  8
COTATION1
 62
     0
 10
-118.758217
 20
145.728457
 30
0.0
 40
2.5
  1
22
1001
ACAD
1000
MTEXTBEGIN
1070
    73
1070
     1
1070
    44
1040
1.0
1070
    74
1070
     0
1000
MTEXTEND
1000
MTEXTBEGIN
1070
    73
1070
     1
1070
    44
1040
1.0
1070
    74
1070
     0
1000
MTEXTEND
  0
POINT
  5
ECDA
  8
DEFPOINTS
 62
     0
 10
-127.377264
 20
114.878457
 30
0.0
  0
POINT
  5
ECDB
  8
DEFPOINTS
 62
     0
 10
-105.377264
 20
114.878457
 30
0.0
  0
POINT
  5
ECDC
  8
DEFPOINTS
 62
     0
 10
-105.377264
 20
143.728457
 30
0.0
  0
ENDBLK
  5
EB8C
  8
0
  0
BLOCK
  8
0
  2
*D5
 70
     1
 10
0.0
 20
0.0
 30
0.0
  3
*D5
  1

  0
LINE
  5
ECCB
  8
COTATION1
 62
     0
 10
-126.377264
 20
114.878457
 30
0.0
 11
-126.377264
 21
136.228457
 31
0.0
1001
ACAD
1000
RTLwPs
1070
   158
  0
LINE
  5
ECCC
  8
COTATION1
 62
     0
 10
-106.377264
 20
114.878457
 30
0.0
 11
-106.377264
 21
136.228457
 31
0.0
1001
ACAD
1000
RTLwPs
1070
   158
  0
LINE
  5
ECCD
  8
COTATION1
 62
     0
 10
-121.377264
 20
133.728457
 30
0.0
 11
-111.377264
 21
133.728457
 31
0.0
1001
ACAD
1000
RTLwPs
1070
   158
  0
INSERT
  5
ECCE
  8
COTATION1
 62
     0
  2
_OPEN30
 10
-126.377264
 20
133.728457
 30
0.0
 41
5.0
 42
5.0
 43
5.0
 50
180.0
1001
ACAD
1000
RTLwPs
1070
   158
  0
INSERT
  5
ECCF
  8
COTATION1
 62
     0
  2
_OPEN30
 10
-106.377264
 20
133.728457
 30
0.0
 41
5.0
 42
5.0
 43
5.0
1001
ACAD
1000
RTLwPs
1070
   158
  0
TEXT
  5
ECD0
  8
COTATION1
 62
     0
 10
-118.758217
 20
135.728457
 30
0.0
 40
2.5
  1
20
1001
ACAD
1000
MTEXTBEGIN
1070
    73
1070
     1
1070
    44
1040
1.0
1070
    74
1070
     0
1000
MTEXTEND
1000
MTEXTBEGIN
1070
    73
1070
     1
1070
    44
1040
1.0
1070
    74
1070
     0
1000
MTEXTEND
  0
POINT
  5
ECD1
  8
DEFPOINTS
 62
     0
 10
-126.377264
 20
112.878457
 30
0.0
  0
POINT
  5
ECD2
  8
DEFPOINTS
 62
     0
 10
-106.377264
 20
112.878457
 30
0.0
  0
POINT
  5
ECD3
  8
DEFPOINTS
 62
     0
 10
-106.377264
 20
133.728457
 30
0.0
  0
ENDBLK
  5
EB98
  8
0
  0
BLOCK
  8
0
  2
*D6
 70
     1
 10
0.0
 20
0.0
 30
0.0
  3
*D6
  1

  0
LINE
  5
EC91
  8
COTATION1
 62
     0
 10
-145.377264
 20
67.728457
 30
0.0
 11
-145.377264
 21
29.228457
 31
0.0
1001
ACAD
1000
RTLwPs
1070
   158
  0
LINE
  5
EC92
  8
COTATION1
 62
     0
 10
-87.377264
 20
67.728457
 30
0.0
 11
-87.377264
 21
29.228457
 31
0.0
1001
ACAD
1000
RTLwPs
1070
   158
  0
LINE
  5
EC93
  8
COTATION1
 62
     0
 10
-140.377264
 20
31.728457
 30
0.0
 11
-92.377264
 21
31.728457
 31
0.0
1001
ACAD
1000
RTLwPs
1070
   158
  0
INSERT
  5
EC94
  8
COTATION1
 62
     0
  2
_OPEN30
 10
-145.377264
 20
31.728457
 30
0.0
 41
5.0
 42
5.0
 43
5.0
 50
180.0
1001
ACAD
1000
RTLwPs
1070
   158
  0
INSERT
  5
EC95
  8
COTATION1
 62
     0
  2
_OPEN30
 10
-87.377264
 20
31.728457
 30
0.0
 41
5.0
 42
5.0
 43
5.0
1001
ACAD
1000
RTLwPs
1070
   158
  0
TEXT
  5
EC96
  8
COTATION1
 62
     0
 10
-118.758217
 20
33.728457
 30
0.0
 40
2.5
  1
58
1001
ACAD
1000
MTEXTBEGIN
1070
    73
1070
     1
1070
    44
1040
1.0
1070
    74
1070
     0
1000
MTEXTEND
1000
MTEXTBEGIN
1070
    73
1070
     1
1070
    44
1040
1.0
1070
    74
1070
     0
1000
MTEXTEND
  0
POINT
  5
EC97
  8
DEFPOINTS
 62
     0
 10
-145.377264
 20
69.728457
 30
0.0
  0
POINT
  5
EC98
  8
DEFPOINTS
 62
     0
 10
-87.377264
 20
69.728457
 30
0.0
  0
POINT
  5
EC99
  8
DEFPOINTS
 62
     0
 10
-87.377264
 20
31.728457
 30
0.0
  0
ENDBLK
  5
EBF1
  8
0
  0
BLOCK
  8
0
  2
*D7
 70
     1
 10
0.0
 20
0.0
 30
0.0
  3
*D7
  1

  0
LINE
  5
EC9A
  8
COTATION1
 62
     0
 10
-136.377264
 20
102.578457
 30
0.0
 11
-136.377264
 21
86.093522
 31
0.0
1001
ACAD
1000
RTLwPs
1070
   158
  0
LINE
  5
EC9B
  8
COTATION1
 62
     0
 10
-96.377264
 20
102.578457
 30
0.0
 11
-96.377264
 21
86.093522
 31
0.0
1001
ACAD
1000
RTLwPs
1070
   158
  0
LINE
  5
EC9C
  8
COTATION1
 62
     0
 10
-131.377264
 20
88.593522
 30
0.0
 11
-101.377264
 21
88.593522
 31
0.0
1001
ACAD
1000
RTLwPs
1070
   158
  0
INSERT
  5
EC9D
  8
COTATION1
 62
     0
  2
_OPEN30
 10
-136.377264
 20
88.593522
 30
0.0
 41
5.0
 42
5.0
 43
5.0
 50
180.0
1001
ACAD
1000
RTLwPs
1070
   158
  0
INSERT
  5
EC9E
  8
COTATION1
 62
     0
  2
_OPEN30
 10
-96.377264
 20
88.593522
 30
0.0
 41
5.0
 42
5.0
 43
5.0
1001
ACAD
1000
RTLwPs
1070
   158
  0
TEXT
  5
EC9F
  8
COTATION1
 62
     0
 10
-123.93103
 20
90.593522
 30
0.0
 40
2.5
  1
40
1001
ACAD
1000
MTEXTBEGIN
1070
    73
1070
     1
1070
    44
1040
1.0
1070
    74
1070
     0
1000
MTEXTEND
1000
MTEXTBEGIN
1070
    73
1070
     1
1070
    44
1040
1.0
1070
    74
1070
     0
1000
MTEXTEND
  0
POINT
  5
ECA0
  8
DEFPOINTS
 62
     0
 10
-136.377264
 20
104.578457
 30
0.0
  0
POINT
  5
ECA1
  8
DEFPOINTS
 62
     0
 10
-96.377264
 20
104.578457
 30
0.0
  0
POINT
  5
ECA2
  8
DEFPOINTS
 62
     0
 10
-96.377264
 20
88.593522
 30
0.0
  0
ENDBLK
  5
EBFD
  8
0
  0
BLOCK
  8
0
  2
*D8
 70
     1
 10
0.0
 20
0.0
 30
0.0
  3
*D8
  1

  0
LINE
  5
ECAD
  8
COTATION1
 62
     0
 10
-89.727264
 20
108.728457
 30
0.0
 11
-59.877264
 21
108.728457
 31
0.0
1001
ACAD
1000
RTLwPs
1070
   158
  0
LINE
  5
ECAE
  8
COTATION1
 62
     0
 10
-89.877264
 20
71.128457
 30
0.0
 11
-59.877264
 21
71.128457
 31
0.0
1001
ACAD
1000
RTLwPs
1070
   158
  0
LINE
  5
ECAF
  8
COTATION1
 62
     0
 10
-62.377264
 20
103.728457
 30
0.0
 11
-62.377264
 21
93.178457
 31
0.0
1001
ACAD
1000
RTLwPs
1070
   158
  0
LINE
  5
ECB0
  8
COTATION1
 62
     0
 10
-62.377264
 20
76.128457
 30
0.0
 11
-62.377264
 21
86.678457
 31
0.0
1001
ACAD
1000
RTLwPs
1070
   158
  0
INSERT
  5
ECB1
  8
COTATION1
 62
     0
  2
_OPEN30
 10
-62.377264
 20
108.728457
 30
0.0
 41
5.0
 42
5.0
 43
5.0
 50
90.0
1001
ACAD
1000
RTLwPs
1070
   158
  0
INSERT
  5
ECB2
  8
COTATION1
 62
     0
  2
_OPEN30
 10
-62.377264
 20
71.128457
 30
0.0
 41
5.0
 42
5.0
 43
5.0
 50
270.0
1001
ACAD
1000
RTLwPs
1070
   158
  0
TEXT
  5
ECB3
  8
COTATION1
 62
     0
 10
-66.543931
 20
88.678457
 30
0.0
 40
2.5
  1
37.6
1001
ACAD
1000
MTEXTBEGIN
1070
    73
1070
     1
1070
    44
1040
1.0
1070
    74
1070
     0
1000
MTEXTEND
1000
MTEXTBEGIN
1070
    73
1070
     1
1070
    44
1040
1.0
1070
    74
1070
     0
1000
MTEXTEND
  0
POINT
  5
ECB4
  8
DEFPOINTS
 62
     0
 10
-91.727264
 20
108.728457
 30
0.0
  0
POINT
  5
ECB5
  8
DEFPOINTS
 62
     0
 10
-91.877264
 20
71.128457
 30
0.0
  0
POINT
  5
ECB6
  8
DEFPOINTS
 62
     0
 10
-62.377264
 20
71.128457
 30
0.0
  0
ENDBLK
  5
EC14
  8
0
  0
BLOCK
  8
0
  2
*D9
 70
     1
 10
0.0
 20
0.0
 30
0.0
  3
*D9
  1

  0
LINE
  5
EE19
  8
COTATION1
 62
     0
 10
-88.727264
 20
110.728457
 30
0.0
 11
-69.877264
 21
110.728457
 31
0.0
  0
LINE
  5
EE1A
  8
COTATION1
 62
     0
 10
-89.727264
 20
108.728457
 30
0.0
 11
-69.877264
 21
108.728457
 31
0.0
  0
LINE
  5
EE1B
  8
COTATION1
 62
     0
 10
-72.377264
 20
115.728457
 30
0.0
 11
-72.377264
 21
120.728457
 31
0.0
  0
LINE
  5
EE1C
  8
COTATION1
 62
     0
 10
-72.377264
 20
103.728457
 30
0.0
 11
-72.377264
 21
98.728457
 31
0.0
  0
TEXT
  5
EE1D
  8
COTATION1
 62
     0
 10
-71.275338
 20
99.133275
 30
0.0
 40
2.5
  1
2
  0
INSERT
  5
EE1E
  8
COTATION1
 62
     0
  2
_OPEN30
 10
-72.377264
 20
110.728457
 30
0.0
 41
5.0
 42
5.0
 43
5.0
 50
270.0
  0
INSERT
  5
EE1F
  8
COTATION1
 62
     0
  2
_OPEN30
 10
-72.377264
 20
108.728457
 30
0.0
 41
5.0
 42
5.0
 43
5.0
 50
90.0
  0
POINT
  5
EE20
  8
DEFPOINTS
 62
     0
 10
-90.727264
 20
110.728457
 30
0.0
  0
POINT
  5
EE21
  8
DEFPOINTS
 62
     0
 10
-91.727264
 20
108.728457
 30
0.0
  0
POINT
  5
EE22
  8
DEFPOINTS
 62
     0
 10
-72.377264
 20
108.728457
 30
0.0
  0
ENDBLK
  5
EC21
  8
0
  0
BLOCK
  8
0
  2
*D10
 70
     1
 10
0.0
 20
0.0
 30
0.0
  3
*D10
  1

  0
LINE
  5
ECC1
  8
COTATION1
 62
     0
 10
-114.377264
 20
118.728457
 30
0.0
 11
-59.877264
 21
118.728457
 31
0.0
1001
ACAD
1000
RTLwPs
1070
   158
  0
LINE
  5
ECC2
  8
COTATION1
 62
     0
 10
-89.727264
 20
108.728457
 30
0.0
 11
-59.877264
 21
108.728457
 31
0.0
1001
ACAD
1000
RTLwPs
1070
   158
  0
LINE
  5
ECC3
  8
COTATION1
 62
     0
 10
-62.377264
 20
123.728457
 30
0.0
 11
-62.377264
 21
128.728457
 31
0.0
1001
ACAD
1000
RTLwPs
1070
   158
  0
LINE
  5
ECC4
  8
COTATION1
 62
     0
 10
-62.377264
 20
103.728457
 30
0.0
 11
-62.377264
 21
98.728457
 31
0.0
1001
ACAD
1000
RTLwPs
1070
   158
  0
INSERT
  5
ECC5
  8
COTATION1
 62
     0
  2
_OPEN30
 10
-62.377264
 20
118.728457
 30
0.0
 41
5.0
 42
5.0
 43
5.0
 50
270.0
1001
ACAD
1000
RTLwPs
1070
   158
  0
INSERT
  5
ECC6
  8
COTATION1
 62
     0
  2
_OPEN30
 10
-62.377264
 20
108.728457
 30
0.0
 41
5.0
 42
5.0
 43
5.0
 50
90.0
1001
ACAD
1000
RTLwPs
1070
   158
  0
TEXT
  5
ECC7
  8
COTATION1
 62
     0
 10
-64.936788
 20
112.478457
 30
0.0
 40
2.5
  1
10
1001
ACAD
1000
MTEXTBEGIN
1070
    73
1070
     1
1070
    44
1040
1.0
1070
    74
1070
     0
1000
MTEXTEND
1000
MTEXTBEGIN
1070
    73
1070
     1
1070
    44
1040
1.0
1070
    74
1070
     0
1000
MTEXTEND
  0
POINT
  5
ECC8
  8
DEFPOINTS
 62
     0
 10
-116.377264
 20
118.728457
 30
0.0
  0
POINT
  5
ECC9
  8
DEFPOINTS
 62
     0
 10
-91.727264
 20
108.728457
 30
0.0
  0
POINT
  5
ECCA
  8
DEFPOINTS
 62
     0
 10
-62.377264
 20
108.728457
 30
0.0
  0
ENDBLK
  5
EC2E
  8
0
  0
BLOCK
  8
0
  2
*D11
 70
     1
 10
0.0
 20
0.0
 30
0.0
  3
*D11
  1

  0
LINE
  5
ECDD
  8
COTATION1
 62
     0
 10
-136.377264
 20
64.628457
 30
0.0
 11
-136.377264
 21
39.228457
 31
0.0
1001
ACAD
1000
RTLwPs
1070
   158
  0
LINE
  5
ECDE
  8
COTATION1
 62
     0
 10
-96.377264
 20
64.628457
 30
0.0
 11
-96.377264
 21
39.228457
 31
0.0
1001
ACAD
1000
RTLwPs
1070
   158
  0
LINE
  5
ECDF
  8
COTATION1
 62
     0
 10
-131.377264
 20
41.728457
 30
0.0
 11
-101.377264
 21
41.728457
 31
0.0
1001
ACAD
1000
RTLwPs
1070
   158
  0
INSERT
  5
ECE0
  8
COTATION1
 62
     0
  2
_OPEN30
 10
-136.377264
 20
41.728457
 30
0.0
 41
5.0
 42
5.0
 43
5.0
 50
180.0
1001
ACAD
1000
RTLwPs
1070
   158
  0
INSERT
  5
ECE1
  8
COTATION1
 62
     0
  2
_OPEN30
 10
-96.377264
 20
41.728457
 30
0.0
 41
5.0
 42
5.0
 43
5.0
1001
ACAD
1000
RTLwPs
1070
   158
  0
TEXT
  5
ECE2
  8
COTATION1
 62
     0
 10
-118.758217
 20
43.728457
 30
0.0
 40
2.5
  1
40
1001
ACAD
1000
MTEXTBEGIN
1070
    73
1070
     1
1070
    44
1040
1.0
1070
    74
1070
     0
1000
MTEXTEND
1000
MTEXTBEGIN
1070
    73
1070
     1
1070
    44
1040
1.0
1070
    74
1070
     0
1000
MTEXTEND
  0
POINT
  5
ECE3
  8
DEFPOINTS
 62
     0
 10
-136.377264
 20
66.628457
 30
0.0
  0
POINT
  5
ECE4
  8
DEFPOINTS
 62
     0
 10
-96.377264
 20
66.628457
 30
0.0
  0
POINT
  5
ECE5
  8
DEFPOINTS
 62
     0
 10
-96.377264
 20
41.728457
 30
0.0
  0
ENDBLK
  5
EC4C
  8
0
  0
BLOCK
  8
0
  2
*D12
 70
     1
 10
0.0
 20
0.0
 30
0.0
  3
*D12
  1

  0
LINE
  5
ECE6
  8
COTATION1
 62
     0
 10
-137.377264
 20
104.578457
 30
0.0
 11
-137.377264
 21
77.496957
 31
0.0
1001
ACAD
1000
RTLwPs
1070
   158
  0
LINE
  5
ECE7
  8
COTATION1
 62
     0
 10
-95.377264
 20
104.578457
 30
0.0
 11
-95.377264
 21
77.496957
 31
0.0
1001
ACAD
1000
RTLwPs
1070
   158
  0
LINE
  5
ECE8
  8
COTATION1
 62
     0
 10
-132.377264
 20
79.996957
 30
0.0
 11
-100.377264
 21
79.996957
 31
0.0
1001
ACAD
1000
RTLwPs
1070
   158
  0
INSERT
  5
ECE9
  8
COTATION1
 62
     0
  2
_OPEN30
 10
-137.377264
 20
79.996957
 30
0.0
 41
5.0
 42
5.0
 43
5.0
 50
180.0
1001
ACAD
1000
RTLwPs
1070
   158
  0
INSERT
  5
ECEA
  8
COTATION1
 62
     0
  2
_OPEN30
 10
-95.377264
 20
79.996957
 30
0.0
 41
5.0
 42
5.0
 43
5.0
1001
ACAD
1000
RTLwPs
1070
   158
  0
TEXT
  5
ECEB
  8
COTATION1
 62
     0
 10
-123.658655
 20
81.996957
 30
0.0
 40
2.5
  1
42
1001
ACAD
1000
MTEXTBEGIN
1070
    73
1070
     1
1070
    44
1040
1.0
1070
    74
1070
     0
1000
MTEXTEND
1000
MTEXTBEGIN
1070
    73
1070
     1
1070
    44
1040
1.0
1070
    74
1070
     0
1000
MTEXTEND
  0
POINT
  5
ECEC
  8
DEFPOINTS
 62
     0
 10
-137.377264
 20
106.578457
 30
0.0
  0
POINT
  5
ECED
  8
DEFPOINTS
 62
     0
 10
-95.377264
 20
106.578457
 30
0.0
  0
POINT
  5
ECEE
  8
DEFPOINTS
 62
     0
 10
-95.377264
 20
79.996957
 30
0.0
  0
ENDBLK
  5
EC58
  8
0
  0
BLOCK
  8
0
  2
*D13
 70
     1
 10
0.0
 20
0.0
 30
0.0
  3
*D13
  1

  0
LINE
  5
ED1E
  8
COTATION1
 62
     0
 10
-142.654048
 20
115.553191
 30
0.0
 11
-149.20009
 21
121.538451
 31
0.0
1001
ACAD
1000
RTLwPs
1070
   158
  0
LINE
  5
ED1F
  8
COTATION1
 62
     0
 10
-149.20009
 20
121.538451
 30
0.0
 11
-171.081042
 21
121.538451
 31
0.0
1001
ACAD
1000
RTLwPs
1070
   158
  0
INSERT
  5
ED20
  8
COTATION1
 62
     0
  2
_OPEN30
 10
-138.963989
 20
112.179251
 30
0.0
 41
5.0
 42
5.0
 43
5.0
 50
317.562311
1001
ACAD
1000
RTLwPs
1070
   158
  0
TEXT
  5
ED21
  8
COTATION1
 62
     0
 10
-171.438185
 20
123.538451
 30
0.0
 40
2.5
  1
4x%%c4.3x6.3
1001
ACAD
1000
MTEXTBEGIN
1070
    73
1070
     1
1070
    44
1040
1.0
1070
    74
1070
     0
1000
MTEXTEND
1000
MTEXTBEGIN
1070
    73
1070
     1
1070
    44
1040
1.0
1070
    74
1070
     0
1000
MTEXTEND
  0
POINT
  5
ED22
  8
DEFPOINTS
 62
     0
 10
-138.963989
 20
112.179251
 30
0.0
  0
POINT
  5
ED23
  8
DEFPOINTS
 62
     0
 10
-135.79054
 20
109.277663
 30
0.0
  0
ENDBLK
  5
EC61
  8
0
  0
BLOCK
  8
0
  2
*D14
 70
     1
 10
0.0
 20
0.0
 30
0.0
  3
*D14
  1

  0
LINE
  5
ECF5
  8
COTATION1
 62
     0
 10
-91.393064
 20
66.956198
 30
0.0
 11
-75.555896
 21
53.698953
 31
0.0
1001
ACAD
1000
RTLwPs
1070
   158
  0
LINE
  5
ECF6
  8
COTATION1
 62
     0
 10
-75.555896
 20
53.698953
 30
0.0
 11
-65.222563
 21
53.698953
 31
0.0
1001
ACAD
1000
RTLwPs
1070
   158
  0
INSERT
  5
ECF7
  8
COTATION1
 62
     0
  2
_OPEN30
 10
-95.227064
 20
70.165628
 30
0.0
 41
5.0
 42
5.0
 43
5.0
 50
140.067401
1001
ACAD
1000
RTLwPs
1070
   158
  0
TEXT
  5
ECF8
  8
COTATION1
 62
     0
 10
-73.913039
 20
55.698953
 30
0.0
 40
2.5
  1
2x%%c3
1001
ACAD
1000
MTEXTBEGIN
1070
    73
1070
     1
1070
    44
1040
1.0
1070
    74
1070
     0
1000
MTEXTEND
1000
MTEXTBEGIN
1070
    73
1070
     1
1070
    44
1040
1.0
1070
    74
1070
     0
1000
MTEXTEND
  0
POINT
  5
ECF9
  8
DEFPOINTS
 62
     0
 10
-95.227064
 20
70.165628
 30
0.0
  0
POINT
  5
ECFA
  8
DEFPOINTS
 62
     0
 10
-97.527465
 20
72.091286
 30
0.0
  0
ENDBLK
  5
EC6A
  8
0
  0
BLOCK
  8
0
  2
*D15
 70
     1
 10
0.0
 20
0.0
 30
0.0
  3
*D15
  1

  0
LINE
  5
ECFB
  8
COTATION1
 62
     0
 10
-130.457772
 20
104.718206
 30
0.0
 11
-114.727392
 21
94.061418
 31
0.0
1001
ACAD
1000
RTLwPs
1070
   158
  0
LINE
  5
ECFC
  8
COTATION1
 62
     0
 10
-114.727392
 20
94.061418
 30
0.0
 11
-100.82263
 21
94.061418
 31
0.0
1001
ACAD
1000
RTLwPs
1070
   158
  0
INSERT
  5
ECFD
  8
COTATION1
 62
     0
  2
_OPEN30
 10
-134.597277
 20
107.522577
 30
0.0
 41
5.0
 42
5.0
 43
5.0
 50
145.883719
1001
ACAD
1000
RTLwPs
1070
   158
  0
TEXT
  5
ECFE
  8
COTATION1
 62
     0
 10
-113.084535
 20
96.061418
 30
0.0
 40
2.5
  1
4x%%c4.3
1001
ACAD
1000
MTEXTBEGIN
1070
    73
1070
     1
1070
    44
1040
1.0
1070
    74
1070
     0
1000
MTEXTEND
1000
MTEXTBEGIN
1070
    73
1070
     1
1070
    44
1040
1.0
1070
    74
1070
     0
1000
MTEXTEND
  0
POINT
  5
ECFF
  8
DEFPOINTS
 62
     0
 10
-134.597277
 20
107.522577
 30
0.0
  0
POINT
  5
ED00
  8
DEFPOINTS
 62
     0
 10
-138.157252
 20
109.934337
 30
0.0
  0
ENDBLK
  5
EC73
  8
0
  0
ENDSEC
  0
SECTION
  2
ENTITIES
  0
INSERT
  5
A
  8
0
  2
COTE
 10
0.0
 20
0.0
 30
0.0
  0
INSERT
  5
17
  8
0
  2
COTE
 10
284.010391
 20
6.373258
 30
0.0
  0
INSERT
  5
72
  8
0
  2
FOND
 10
0.0
 20
0.0
 30
0.0
  0
POLYLINE
  5
D689
  8
ALPHA
 66
     1
 10
0.0
 20
0.0
 30
0.0
 70
   128
  0
VERTEX
  5
EEBE
  8
ALPHA
 10
-107.969864
 20
115.970697
 30
0.0
  0
VERTEX
  5
EEBF
  8
ALPHA
 10
-107.672503
 20
115.970697
 30
0.0
  0
VERTEX
  5
EEC0
  8
ALPHA
 10
-107.018309
 20
115.970697
 30
0.0
  0
VERTEX
  5
EEC1
  8
ALPHA
 10
-106.364115
 20
115.970697
 30
0.0
  0
VERTEX
  5
EEC2
  8
ALPHA
 10
-106.066754
 20
115.970697
 30
0.0
  0
SEQEND
  5
EEC3
  8
ALPHA
  0
LINE
  5
D68A
  8
ALPHA
 10
-106.066754
 20
115.970697
 30
0.0
 11
-106.066754
 21
116.841567
 31
0.0
  0
POLYLINE
  5
D68B
  8
ALPHA
 66
     1
 10
0.0
 20
0.0
 30
0.0
 70
   128
  0
VERTEX
  5
EEC4
  8
ALPHA
 10
-107.969864
 20
114.294425
 30
0.0
  0
VERTEX
  5
EEC5
  8
ALPHA
 10
-107.969864
 20
114.556342
 30
0.0
  0
VERTEX
  5
EEC6
  8
ALPHA
 10
-107.969864
 20
115.132561
 30
0.0
  0
VERTEX
  5
EEC7
  8
ALPHA
 10
-107.969864
 20
115.708779
 30
0.0
  0
VERTEX
  5
EEC8
  8
ALPHA
 10
-107.969864
 20
115.970697
 30
0.0
  0
SEQEND
  5
EEC9
  8
ALPHA
  0
POLYLINE
  5
D68C
  8
ALPHA
 66
     1
 10
0.0
 20
0.0
 30
0.0
 70
   128
  0
VERTEX
  5
EECA
  8
ALPHA
 10
-113.060357
 20
112.359106
 30
0.0
  0
VERTEX
  5
EECB
  8
ALPHA
 10
-110.415141
 20
113.123742
 30
0.0
  0
VERTEX
  5
EECC
  8
ALPHA
 10
-107.969864
 20
114.294425
 30
0.0
  0
SEQEND
  5
EECD
  8
ALPHA
  0
POLYLINE
  5
D68D
  8
ALPHA
 66
     1
 10
0.0
 20
0.0
 30
0.0
 70
   128
210
0.0
220
0.0
230
-1.0
  0
VERTEX
  5
EECE
  8
ALPHA
 10
119.690745
 20
112.359106
 30
0.0
  0
VERTEX
  5
EECF
  8
ALPHA
 10
122.335961
 20
113.123742
 30
0.0
  0
VERTEX
  5
EED0
  8
ALPHA
 10
124.781238
 20
114.294425
 30
0.0
  0
SEQEND
  5
EED1
  8
ALPHA
  0
LINE
  5
D68E
  8
ALPHA
 10
-126.684347
 20
115.970697
 30
0.0
 11
-126.67479
 21
116.842542
 31
0.0
  0
POLYLINE
  5
D68F
  8
ALPHA
 66
     1
 10
0.0
 20
0.0
 30
0.0
 70
   128
  0
VERTEX
  5
EED2
  8
ALPHA
 10
-124.781238
 20
115.970697
 30
0.0
  0
VERTEX
  5
EED3
  8
ALPHA
 10
-125.078599
 20
115.970697
 30
0.0
  0
VERTEX
  5
EED4
  8
ALPHA
 10
-125.732793
 20
115.970697
 30
0.0
  0
VERTEX
  5
EED5
  8
ALPHA
 10
-126.386987
 20
115.970697
 30
0.0
  0
VERTEX
  5
EED6
  8
ALPHA
 10
-126.684347
 20
115.970697
 30
0.0
  0
SEQEND
  5
EED7
  8
ALPHA
  0
POLYLINE
  5
D690
  8
ALPHA
 66
     1
 10
0.0
 20
0.0
 30
0.0
 70
   128
  0
VERTEX
  5
EED8
  8
ALPHA
 10
-124.781238
 20
114.294425
 30
0.0
  0
VERTEX
  5
EED9
  8
ALPHA
 10
-124.781238
 20
114.556342
 30
0.0
  0
VERTEX
  5
EEDA
  8
ALPHA
 10
-124.781238
 20
115.132561
 30
0.0
  0
VERTEX
  5
EEDB
  8
ALPHA
 10
-124.781238
 20
115.708779
 30
0.0
  0
VERTEX
  5
EEDC
  8
ALPHA
 10
-124.781238
 20
115.970697
 30
0.0
  0
SEQEND
  5
EEDD
  8
ALPHA
  0
POLYLINE
  5
D691
  8
ALPHA
 66
     1
 10
0.0
 20
0.0
 30
0.0
 70
   128
210
0.0
220
0.0
230
-1.0
  0
VERTEX
  5
EEDE
  8
ALPHA
 10
108.202968
 20
104.396452
 30
0.0
  0
VERTEX
  5
EEDF
  8
ALPHA
 10
109.177051
 20
104.841135
 30
0.0
  0
VERTEX
  5
EEE0
  8
ALPHA
 10
109.60226
 20
105.229763
 30
0.0
  0
VERTEX
  5
EEE1
  8
ALPHA
 10
109.768626
 20
105.475128
 30
0.0
  0
VERTEX
  5
EEE2
  8
ALPHA
 10
109.803913
 20
105.542246
 30
0.0
  0
VERTEX
  5
EEE3
  8
ALPHA
 10
109.901187
 20
105.749787
 30
0.0
  0
VERTEX
  5
EEE4
  8
ALPHA
 10
110.225546
 20
106.459189
 30
0.0
  0
VERTEX
  5
EEE5
  8
ALPHA
 10
111.582506
 20
109.472178
 30
0.0
  0
VERTEX
  5
EEE6
  8
ALPHA
 10
113.048181
 20
112.335134
 30
0.0
  0
VERTEX
  5
EEE7
  8
ALPHA
 10
113.827402
 20
113.530914
 30
0.0
  0
VERTEX
  5
EEE8
  8
ALPHA
 10
114.64054
 20
114.473863
 30
0.0
  0
VERTEX
  5
EEE9
  8
ALPHA
 10
115.489842
 20
115.092207
 30
0.0
  0
VERTEX
  5
EEEA
  8
ALPHA
 10
116.377553
 20
115.314173
 30
0.0
  0
VERTEX
  5
EEEB
  8
ALPHA
 10
117.265391
 20
115.091933
 30
0.0
  0
VERTEX
  5
EEEC
  8
ALPHA
 10
118.114763
 20
114.47336
 30
0.0
  0
VERTEX
  5
EEED
  8
ALPHA
 10
118.927946
 20
113.530227
 30
0.0
  0
VERTEX
  5
EEEE
  8
ALPHA
 10
119.707217
 20
112.334309
 30
0.0
  0
VERTEX
  5
EEEF
  8
ALPHA
 10
121.173131
 20
109.471215
 30
0.0
  0
VERTEX
  5
EEF0
  8
ALPHA
 10
122.530722
 20
106.458269
 30
0.0
  0
VERTEX
  5
EEF1
  8
ALPHA
 10
122.855329
 20
105.748906
 30
0.0
  0
VERTEX
  5
EEF2
  8
ALPHA
 10
122.952351
 20
105.542073
 30
0.0
  0
VERTEX
  5
EEF3
  8
ALPHA
 10
122.987639
 20
105.474961
 30
0.0
  0
VERTEX
  5
EEF4
  8
ALPHA
 10
123.153958
 20
105.229618
 30
0.0
  0
VERTEX
  5
EEF5
  8
ALPHA
 10
123.578869
 20
104.841032
 30
0.0
  0
VERTEX
  5
EEF6
  8
ALPHA
 10
124.551975
 20
104.39641
 30
0.0
  0
SEQEND
  5
EEF7
  8
ALPHA
  0
POLYLINE
  5
D692
  8
ALPHA
 66
     1
 10
0.0
 20
0.0
 30
0.0
 70
   128
  0
VERTEX
  5
EEF8
  8
ALPHA
 10
-91.377264
 20
101.240446
 30
0.0
  0
VERTEX
  5
EEF9
  8
ALPHA
 10
-91.597418
 20
101.741405
 30
0.0
  0
VERTEX
  5
EEFA
  8
ALPHA
 10
-91.996651
 20
102.066719
 30
0.0
  0
VERTEX
  5
EEFB
  8
ALPHA
 10
-96.260935
 20
102.712782
 30
0.0
  0
VERTEX
  5
EEFC
  8
ALPHA
 10
-100.010994
 20
103.279722
 30
0.0
  0
VERTEX
  5
EEFD
  8
ALPHA
 10
-103.330124
 20
103.765374
 30
0.0
  0
VERTEX
  5
EEFE
  8
ALPHA
 10
-106.301624
 20
104.167576
 30
0.0
  0
VERTEX
  5
EEFF
  8
ALPHA
 10
-109.008791
 20
104.484165
 30
0.0
  0
VERTEX
  5
EF00
  8
ALPHA
 10
-111.534922
 20
104.712977
 30
0.0
  0
VERTEX
  5
EF01
  8
ALPHA
 10
-116.377264
 20
104.898623
 30
0.0
  0
VERTEX
  5
EF02
  8
ALPHA
 10
-121.219616
 20
104.712977
 30
0.0
  0
VERTEX
  5
EF03
  8
ALPHA
 10
-123.745767
 20
104.484165
 30
0.0
  0
VERTEX
  5
EF04
  8
ALPHA
 10
-126.452973
 20
104.167576
 30
0.0
  0
VERTEX
  5
EF05
  8
ALPHA
 10
-129.424539
 20
103.765374
 30
0.0
  0
VERTEX
  5
EF06
  8
ALPHA
 10
-132.743767
 20
103.279722
 30
0.0
  0
VERTEX
  5
EF07
  8
ALPHA
 10
-136.493962
 20
102.712782
 30
0.0
  0
VERTEX
  5
EF08
  8
ALPHA
 10
-140.758428
 20
102.066719
 30
0.0
  0
VERTEX
  5
EF09
  8
ALPHA
 10
-141.157798
 20
101.741405
 30
0.0
  0
VERTEX
  5
EF0A
  8
ALPHA
 10
-141.377264
 20
101.240446
 30
0.0
  0
SEQEND
  5
EF0B
  8
ALPHA
  0
LINE
  5
D6AA
  8
AXE
 10
-95.377264
 20
106.578457
 30
0.0
 11
-95.377264
 21
114.878457
 31
0.0
  0
LINE
  5
D6AB
  8
AXE
 10
-96.377264
 20
104.578457
 30
0.0
 11
-96.377264
 21
112.878457
 31
0.0
  0
ARC
  5
D6AC
  8
ALPHA
 10
-95.377264
 20
110.728457
 30
0.0
 40
2.15
 50
0.0
 51
180.0
  0
ARC
  5
D6AD
  8
ALPHA
 10
-137.377264
 20
110.728457
 30
0.0
 40
2.15
 50
0.0
 51
180.0
  0
LINE
  5
D6AE
  8
AXE
 10
-136.377264
 20
104.578457
 30
0.0
 11
-136.377264
 21
112.878457
 31
0.0
  0
LINE
  5
D6AF
  8
AXE
 10
-137.377264
 20
106.578457
 30
0.0
 11
-137.377264
 21
114.878457
 31
0.0
  0
LINE
  5
D6B0
  8
ALPHA
 10
-141.377264
 20
116.028457
 30
0.0
 11
-141.377264
 21
67.728457
 31
0.0
  0
LINE
  5
D6B1
  8
ALPHA
 10
-91.377264
 20
116.028457
 30
0.0
 11
-91.377264
 21
67.728457
 31
0.0
  0
ARC
  5
D6B2
  8
ALPHA
 10
-105.377264
 20
110.728457
 30
0.0
 40
2.15
 50
0.0
 51
180.0
  0
ARC
  5
D6B3
  8
ALPHA
 10
-127.377264
 20
110.728457
 30
0.0
 40
2.15
 50
0.0
 51
180.0
  0
LINE
  5
D6B4
  8
AXE
 10
-126.377264
 20
104.578457
 30
0.0
 11
-126.377264
 21
112.878457
 31
0.0
  0
LINE
  5
D6B5
  8
AXE
 10
-127.377264
 20
106.578457
 30
0.0
 11
-127.377264
 21
114.878457
 31
0.0
  0
LINE
  5
D6B6
  8
AXE
 10
-106.377264
 20
104.578457
 30
0.0
 11
-106.377264
 21
112.878457
 31
0.0
  0
LINE
  5
D6B7
  8
AXE
 10
-105.377264
 20
106.578457
 30
0.0
 11
-105.377264
 21
114.878457
 31
0.0
  0
LINE
  5
D6B8
  8
AXE
 10
-116.377264
 20
123.728457
 30
0.0
 11
-116.377264
 21
51.728457
 31
0.0
  0
ARC
  5
D6B9
  8
ALPHA
 10
-95.377264
 20
108.728457
 30
0.0
 40
2.15
 50
270.0
 51
0.0
  0
LINE
  5
D6BA
  8
AXE
 10
-142.027264
 20
110.728457
 30
0.0
 11
-90.727264
 21
110.728457
 31
0.0
  0
LINE
  5
D6BB
  8
AXE
 10
-141.027264
 20
108.728457
 30
0.0
 11
-91.727264
 21
108.728457
 31
0.0
  0
LINE
  5
D6BC
  8
ALPHA
 10
-91.377264
 20
67.728457
 30
0.0
 11
-116.377264
 21
67.728457
 31
0.0
  0
LINE
  5
D6BD
  8
AXE
 10
-100.877264
 20
71.128457
 30
0.0
 11
-91.877264
 21
71.128457
 31
0.0
  0
CIRCLE
  5
D6BE
  8
POINTILLE_COURT
 10
-96.377264
 20
71.128457
 30
0.0
 40
1.5
  0
LINE
  5
D6BF
  8
AXE
 10
-150.377264
 20
85.48308
 30
0.0
 11
-74.877264
 21
85.48308
 31
0.0
  0
LINE
  5
D6C0
  8
AXE
 10
-136.377264
 20
66.628457
 30
0.0
 11
-136.377264
 21
75.628457
 31
0.0
  0
LINE
  5
D6C1
  8
AXE
 10
-96.377264
 20
66.628457
 30
0.0
 11
-96.377264
 21
75.628457
 31
0.0
  0
TEXT
  5
D6C2
  8
AXE
 10
-123.853455
 20
51.728457
 30
0.0
 40
8.0
  1
Y
 72
     2
 11
-117.377264
 21
51.728457
 31
0.0
  0
ARC
  5
D6C3
  8
ALPHA
 10
-137.377264
 20
108.728457
 30
0.0
 40
2.15
 50
180.0
 51
270.0
  0
LINE
  5
D6C4
  8
ALPHA
 10
-141.377264
 20
67.728457
 30
0.0
 11
-116.377264
 21
67.728457
 31
0.0
  0
LINE
  5
D6C5
  8
AXE
 10
-131.877264
 20
71.128457
 30
0.0
 11
-140.877264
 21
71.128457
 31
0.0
  0
LINE
  5
D6C6
  8
ALPHA
 10
-145.377264
 20
101.240446
 30
0.0
 11
-145.377264
 21
69.728457
 31
0.0
  0
LINE
  5
D6C7
  8
ALPHA
 10
-145.377264
 20
69.728457
 30
0.0
 11
-141.377264
 21
69.728457
 31
0.0
  0
LINE
  5
D6C8
  8
ALPHA
 10
-139.527264
 20
110.728457
 30
0.0
 11
-139.527264
 21
108.728457
 31
0.0
  0
LINE
  5
D6C9
  8
ALPHA
 10
-141.377264
 20
101.240446
 30
0.0
 11
-145.377264
 21
101.240446
 31
0.0
  0
CIRCLE
  5
D6CA
  8
POINTILLE_COURT
 10
-136.377264
 20
71.128457
 30
0.0
 40
1.5
  0
LINE
  5
D6CB
  8
ALPHA
 10
-116.367368
 20
106.874421
 30
0.0
 11
-117.829702
 21
105.41209
 31
0.0
  0
LINE
  5
D6CC
  8
ALPHA
 10
-116.950654
 20
109.145437
 30
0.0
 11
-117.795068
 21
108.302121
 31
0.0
  0
CIRCLE
  5
D6CD
  8
ALPHA
 10
-116.377264
 20
107.728457
 30
0.0
 40
2.735279
  0
LINE
  5
D6CE
  8
ALPHA
 10
-135.227264
 20
110.728457
 30
0.0
 11
-135.227264
 21
110.545047
 31
0.0
  0
LINE
  5
D6CF
  8
ALPHA
 10
-137.377264
 20
106.578457
 30
0.0
 11
-136.377264
 21
106.578457
 31
0.0
  0
ARC
  5
D6D0
  8
ALPHA
 10
-136.377264
 20
108.728457
 30
0.0
 40
2.15
 50
270.0
 51
57.663974
  0
LINE
  5
D6D1
  8
ALPHA
 10
-125.227264
 20
110.728457
 30
0.0
 11
-125.227264
 21
110.545047
 31
0.0
  0
LINE
  5
D6D2
  8
ALPHA
 10
-127.377264
 20
106.578457
 30
0.0
 11
-126.377264
 21
106.578457
 31
0.0
  0
ARC
  5
D6D3
  8
ALPHA
 10
-127.377264
 20
108.728457
 30
0.0
 40
2.15
 50
180.0
 51
270.0
  0
LINE
  5
D6D4
  8
ALPHA
 10
-129.527264
 20
110.728457
 30
0.0
 11
-129.527264
 21
108.728457
 31
0.0
  0
ARC
  5
D6D5
  8
ALPHA
 10
-126.377264
 20
108.728457
 30
0.0
 40
2.15
 50
270.0
 51
57.663974
  0
LINE
  5
D6D6
  8
ALPHA
 10
-117.795068
 20
108.302121
 30
0.0
 11
-117.221678
 21
107.729281
 31
0.0
  0
LINE
  5
D6D7
  8
ALPHA
 10
-117.221678
 20
107.729281
 30
0.0
 11
-118.683463
 21
106.266401
 31
0.0
  0
ARC
  5
D6D8
  8
ALPHA
 10
-96.377264
 20
108.728457
 30
0.0
 40
2.15
 50
122.336026
 51
270.0
  0
LINE
  5
D6D9
  8
ALPHA
 10
-95.377264
 20
106.578457
 30
0.0
 11
-96.377264
 21
106.578457
 31
0.0
  0
LINE
  5
D6DA
  8
ALPHA
 10
-97.527264
 20
110.728457
 30
0.0
 11
-97.527264
 21
110.545047
 31
0.0
  0
ARC
  5
D6DB
  8
ALPHA
 10
-105.377264
 20
108.728457
 30
0.0
 40
2.15
 50
270.0
 51
0.0
  0
LINE
  5
D6DC
  8
ALPHA
 10
-107.527264
 20
110.728457
 30
0.0
 11
-107.527264
 21
110.545047
 31
0.0
  0
LINE
  5
D6DD
  8
ALPHA
 10
-105.377264
 20
106.578457
 30
0.0
 11
-106.377264
 21
106.578457
 31
0.0
  0
ARC
  5
D6DE
  8
ALPHA
 10
-106.377264
 20
108.728457
 30
0.0
 40
2.15
 50
122.336026
 51
270.0
  0
LINE
  5
D6DF
  8
ALPHA
 10
-103.227264
 20
110.728457
 30
0.0
 11
-103.227264
 21
108.728457
 31
0.0
  0
LINE
  5
D6E0
  8
ALPHA
 10
-114.066119
 20
109.175673
 30
0.0
 11
-115.522954
 21
107.717737
 31
0.0
  0
LINE
  5
D6E1
  8
ALPHA
 10
-115.522954
 20
107.717737
 30
0.0
 11
-114.949564
 21
107.145998
 31
0.0
  0
LINE
  5
D6E2
  8
ALPHA
 10
-114.949564
 20
107.145998
 30
0.0
 11
-115.793982
 21
106.301584
 31
0.0
  0
LINE
  5
D6E3
  8
ALPHA
 10
-116.377264
 20
108.573698
 30
0.0
 11
-116.950654
 21
109.145437
 31
0.0
  0
LINE
  5
D6E4
  8
ALPHA
 10
-115.793982
 20
106.301584
 30
0.0
 11
-116.367368
 21
106.874421
 31
0.0
  0
LINE
  5
D6E5
  8
ALPHA
 10
-114.920429
 20
110.030533
 30
0.0
 11
-116.377264
 21
108.573698
 31
0.0
  0
LINE
  5
D6E6
  8
ALPHA
 10
-87.377264
 20
101.240446
 30
0.0
 11
-87.377264
 21
69.728457
 31
0.0
  0
TEXT
  5
D6E7
  8
AXE
 10
-81.353455
 20
86.48308
 30
0.0
 40
8.0
  1
X
 72
     2
 11
-74.877264
 21
86.48308
 31
0.0
  0
LINE
  5
D6E8
  8
ALPHA
 10
-87.377264
 20
69.728457
 30
0.0
 11
-91.377264
 21
69.728457
 31
0.0
  0
LINE
  5
D6E9
  8
ALPHA
 10
-93.227264
 20
110.728457
 30
0.0
 11
-93.227264
 21
108.728457
 31
0.0
  0
LINE
  5
D6EA
  8
ALPHA
 10
-87.377264
 20
101.240446
 30
0.0
 11
-91.377264
 21
101.240446
 31
0.0
  0
ARC
  5
D6EB
  8
ALPHA
 10
-116.377264
 20
-26.088794
 30
0.0
 40
143.317251
 50
80.140492
 51
99.859508
  0
ARC
  5
D6EC
  8
ALPHA
 10
-116.377264
 20
-24.588794
 30
0.0
 40
143.317251
 50
80.140492
 51
99.859508
  0
ARC
  5
D6EF
  8
ALPHA
 10
-140.777264
 20
114.528457
 30
0.0
 40
0.6
 50
103.554708
 51
180.0
  0
ARC
  5
D6F0
  8
ALPHA
 10
-140.777264
 20
116.028457
 30
0.0
 40
0.6
 50
103.554708
 51
180.0
  0
LINE
  5
D6F1
  8
ALPHA
 10
-106.066754
 20
116.55184
 30
0.0
 11
-126.684347
 21
116.55184
 31
0.0
  0
LINE
  5
D6F9
  8
ALPHA
 10
-124.781237
 20
115.970697
 30
0.0
 11
-124.781237
 21
116.55184
 31
0.0
  0
LINE
  5
D719
  8
ALPHA
 10
-107.969863
 20
115.970697
 30
0.0
 11
-107.969863
 21
116.55184
 31
0.0
  0
ARC
  5
D751
  8
ALPHA
 10
-91.977264
 20
114.528457
 30
0.0
 40
0.6
 50
0.0
 51
76.445292
  0
ARC
  5
D752
  8
ALPHA
 10
-91.977264
 20
116.028457
 30
0.0
 40
0.6
 50
0.0
 51
76.445292
  0
LINE
  5
D79C
  8
ALPHA
 10
-135.877264
 20
71.228457
 30
0.0
 11
-135.877264
 21
67.728457
 31
0.0
  0
LINE
  5
D79D
  8
ALPHA
 10
-135.377264
 20
71.728457
 30
0.0
 11
-133.377264
 21
71.728457
 31
0.0
  0
LINE
  5
D79E
  8
ALPHA
 10
-132.877264
 20
71.228457
 30
0.0
 11
-132.877264
 21
67.728457
 31
0.0
  0
ARC
  5
D79F
  8
ALPHA
 10
-133.377264
 20
71.228457
 30
0.0
 40
0.5
 50
0.0
 51
90.0
  0
ARC
  5
D7A0
  8
ALPHA
 10
-135.377264
 20
71.228457
 30
0.0
 40
0.5
 50
90.0
 51
180.0
  0
LINE
  5
D7A1
  8
ALPHA
 10
-137.377264
 20
69.978457
 30
0.0
 11
-137.377264
 21
67.728457
 31
0.0
  0
ARC
  5
D7A4
  8
ALPHA
 10
-136.627264
 20
69.978457
 30
0.0
 40
0.75
 50
360.0
 51
180.0
  0
ARC
  5
D7A5
  8
ALPHA
 10
-96.127264
 20
69.978457
 30
0.0
 40
0.75
 50
0.0
 51
180.0
  0
LINE
  5
D7A6
  8
ALPHA
 10
-96.877264
 20
71.228457
 30
0.0
 11
-96.877264
 21
67.728457
 31
0.0
  0
LINE
  5
D7A7
  8
ALPHA
 10
-95.377264
 20
69.978457
 30
0.0
 11
-95.377264
 21
67.728457
 31
0.0
  0
ARC
  5
D7A8
  8
ALPHA
 10
-97.377264
 20
71.228457
 30
0.0
 40
0.5
 50
0.0
 51
90.0
  0
LINE
  5
D7A9
  8
ALPHA
 10
-97.377264
 20
71.728457
 30
0.0
 11
-99.377264
 21
71.728457
 31
0.0
  0
ARC
  5
D7AA
  8
ALPHA
 10
-99.377264
 20
71.228457
 30
0.0
 40
0.5
 50
90.0
 51
180.0
  0
LINE
  5
D7AB
  8
ALPHA
 10
-99.877264
 20
71.228457
 30
0.0
 11
-99.877264
 21
67.728457
 31
0.0
  0
DIMENSION
  5
D7D2
  8
COTATION1
  2
*D6
 10
-87.377264
 20
31.728457
 30
0.0
 11
-116.377264
 21
34.978457
 31
0.0
 13
-145.377264
 23
69.728457
 33
0.0
 14
-87.377264
 24
69.728457
 34
0.0
  0
DIMENSION
  5
D7D3
  8
COTATION1
  2
*D7
 10
-96.377264
 20
88.593522
 30
0.0
 11
-121.550078
 21
88.593522
 31
0.0
 70
   128
 13
-136.377264
 23
104.578457
 33
0.0
 14
-96.377264
 24
104.578457
 34
0.0
  0
DIMENSION
  5
D7D4
  8
COTATION1
  2
*D3
 10
-52.377264
 20
67.728457
 30
0.0
 11
-52.377264
 21
93.228457
 31
0.0
 13
-116.377264
 23
118.728457
 33
0.0
 14
-91.377264
 24
67.728457
 34
0.0
 50
90.0
  0
DIMENSION
  5
D7D5
  8
COTATION1
  2
*D8
 10
-62.377264
 20
71.128457
 30
0.0
 11
-62.377264
 21
89.928457
 31
0.0
 13
-91.727264
 23
108.728457
 33
0.0
 14
-91.877264
 24
71.128457
 34
0.0
 50
90.0
  0
DIMENSION
  5
D7D6
  8
COTATION1
  2
*D9
 10
-72.377264
 20
108.728457
 30
0.0
 11
-70.084862
 21
100.383275
 31
0.0
 70
   128
 13
-90.727264
 23
110.728457
 33
0.0
 14
-91.727264
 24
108.728457
 34
0.0
 50
90.0
1001
ACAD
1000
DSTYLE
1002
{
1070
   287
1070
     5
1070
   287
1070
     5
1070
   287
1070
     5
1070
   287
1070
     5
1070
   287
1070
     5
1070
   287
1070
     5
1070
   287
1070
     5
1070
   279
1070
     2
1070
   289
1070
     3
1002
}
  0
DIMENSION
  5
D7D7
  8
COTATION1
  2
*D10
 10
-62.377264
 20
108.728457
 30
0.0
 11
-62.377264
 21
113.728457
 31
0.0
 70
   128
 13
-116.377264
 23
118.728457
 33
0.0
 14
-91.727264
 24
108.728457
 34
0.0
 50
90.0
  0
DIMENSION
  5
D7DA
  8
COTATION1
  2
*D5
 10
-106.377264
 20
133.728457
 30
0.0
 11
-116.377264
 21
136.978457
 31
0.0
 13
-126.377264
 23
112.878457
 33
0.0
 14
-106.377264
 24
112.878457
 34
0.0
  0
DIMENSION
  5
D7DB
  8
COTATION1
  2
*D4
 10
-105.377264
 20
143.728457
 30
0.0
 11
-116.377264
 21
146.978457
 31
0.0
 13
-127.377264
 23
114.878457
 33
0.0
 14
-105.377264
 24
114.878457
 34
0.0
  0
DIMENSION
  5
D8D5
  8
COTATION1
  2
*D11
 10
-96.377264
 20
41.728457
 30
0.0
 11
-116.377264
 21
44.978457
 31
0.0
 13
-136.377264
 23
66.628457
 33
0.0
 14
-96.377264
 24
66.628457
 34
0.0
  0
DIMENSION
  5
D95B
  8
COTATION1
  2
*D12
 10
-95.377264
 20
79.996957
 30
0.0
 11
-121.277702
 21
79.996957
 31
0.0
 70
   128
 13
-137.377264
 23
106.578457
 33
0.0
 14
-95.377264
 24
106.578457
 34
0.0
  0
DIMENSION
  5
E7BB
  8
COTATION1
  2
*D13
 10
-135.79054
 20
109.277663
 30
0.0
 11
-161.140566
 21
121.538451
 31
0.0
 70
   131
  1
4x<>x6.3
 15
-138.963989
 25
112.179251
 35
0.0
 40
0.0
  0
DIMENSION
  5
E7D1
  8
COTATION1
  2
*D14
 10
-97.527465
 20
72.091286
 30
0.0
 11
-69.389229
 21
53.698953
 31
0.0
 70
   131
  1
2x<>
 15
-95.227064
 25
70.165628
 35
0.0
 40
0.0
  0
DIMENSION
  5
E7E7
  8
COTATION1
  2
*D15
 10
-138.157252
 20
109.934337
 30
0.0
 11
-106.775011
 21
94.061418
 31
0.0
 70
   131
  1
4x<>
 15
-134.597277
 25
107.522577
 35
0.0
 40
0.0
  0
VIEWPORT
  5
494D
 67
     1
  8
0
 10
4.995325
 20
6.556512
 30
0.0
 40
22.70986
 41
13.988421
 68
    -1
 69
     1
1001
ACAD
1000
MVIEW
1002
{
1070
    16
1010
0.0
1020
0.0
1030
0.0
1010
0.0
1020
0.0
1030
1.0
1040
0.0
1040
13.988421
1040
4.995325
1040
6.556512
1040
50.0
1040
0.0
1040
0.0
1070
     0
1070
   100
1070
     1
1070
     1
1070
     0
1070
     0
1070
     0
1070
     0
1040
0.0
1040
0.0
1040
0.0
1040
10.0
1040
10.0
1040
10.0
1040
10.0
1070
     0
1002
{
1002
}
1002
}
  0
ENDSEC
  0
EOF
