  0
SECTION
  2
HEADER
  9
$ACADVER
  1
AC1009
  9
$INSBASE
 10
402.590624
 20
-1.041018
 30
0.0
  9
$EXTMIN
 10
175.547086
 20
-84.98036
 30
0.0
  9
$EXTMAX
 10
285.652786
 20
12.51964
 30
0.0
  9
$LIMMIN
 10
-407.970438
 20
-367.832444
  9
$LIMMAX
 10
429.804077
 20
234.370848
  9
$ORTHOMODE
 70
     1
  9
$REGENMODE
 70
     1
  9
$FILLMODE
 70
     1
  9
$QTEXTMODE
 70
     0
  9
$MIRRTEXT
 70
     1
  9
$DRAGMODE
 70
     2
  9
$LTSCALE
 40
10.0
  9
$OSMODE
 70
   161
  9
$ATTMODE
 70
     1
  9
$TEXTSIZE
 40
6.0
  9
$TRACEWID
 40
1.0
  9
$TEXTSTYLE
  7
ROMANS
  9
$CLAYER
  8
ALPHA
  9
$CELTYPE
  6
BYLAYER
  9
$CECOLOR
 62
   256
  9
$DIMSCALE
 40
1.0
  9
$DIMASZ
 40
5.0
  9
$DIMEXO
 40
2.0
  9
$DIMDLI
 40
0.38
  9
$DIMRND
 40
0.0
  9
$DIMDLE
 40
0.0
  9
$DIMEXE
 40
2.5
  9
$DIMTP
 40
0.0
  9
$DIMTM
 40
0.0
  9
$DIMTXT
 40
2.5
  9
$DIMCEN
 40
0.0
  9
$DIMTSZ
 40
0.0
  9
$DIMTOL
 70
     0
  9
$DIMLIM
 70
     0
  9
$DIMTIH
 70
     1
  9
$DIMTOH
 70
     1
  9
$DIMSE1
 70
     0
  9
$DIMSE2
 70
     0
  9
$DIMTAD
 70
     1
  9
$DIMZIN
 70
    12
  9
$DIMBLK
  1
OPEN30
  9
$DIMASO
 70
     1
  9
$DIMSHO
 70
     1
  9
$DIMPOST
  1

  9
$DIMAPOST
  1

  9
$DIMALT
 70
     0
  9
$DIMALTD
 70
     2
  9
$DIMALTF
 40
25.4
  9
$DIMLFAC
 40
1.0
  9
$DIMTOFL
 70
     0
  9
$DIMTVP
 40
0.0
  9
$DIMTIX
 70
     0
  9
$DIMSOXD
 70
     0
  9
$DIMSAH
 70
     0
  9
$DIMBLK1
  1

  9
$DIMBLK2
  1

  9
$DIMSTYLE
  2
SC_DEFAUT
  9
$DIMCLRD
 70
     0
  9
$DIMCLRE
 70
     0
  9
$DIMCLRT
 70
     0
  9
$DIMTFAC
 40
1.0
  9
$DIMGAP
 40
2.0
  9
$LUNITS
 70
     2
  9
$LUPREC
 70
     1
  9
$SKETCHINC
 40
0.1
  9
$FILLETRAD
 40
0.0
  9
$AUNITS
 70
     0
  9
$AUPREC
 70
     0
  9
$MENU
  1
acad
  9
$ELEVATION
 40
0.0
  9
$PELEVATION
 40
0.0
  9
$THICKNESS
 40
0.0
  9
$LIMCHECK
 70
     0
  9
$BLIPMODE
 70
     0
  9
$CHAMFERA
 40
0.0
  9
$CHAMFERB
 40
0.0
  9
$SKPOLY
 70
     0
  9
$TDCREATE
 40
2450373.687919
  9
$TDUPDATE
 40
2453031.640283
  9
$TDINDWG
 40
1.049643
  9
$TDUSRTIMER
 40
1.049643
  9
$USRTIMER
 70
     1
  9
$ANGBASE
 50
0.0
  9
$ANGDIR
 70
     0
  9
$PDMODE
 70
    32
  9
$PDSIZE
 40
0.0
  9
$PLINEWID
 40
0.0
  9
$COORDS
 70
     1
  9
$SPLFRAME
 70
     0
  9
$SPLINETYPE
 70
     6
  9
$SPLINESEGS
 70
     8
  9
$ATTDIA
 70
     0
  9
$ATTREQ
 70
     1
  9
$HANDLING
 70
     1
  9
$HANDSEED
  5
A0FF
  9
$SURFTAB1
 70
     6
  9
$SURFTAB2
 70
     6
  9
$SURFTYPE
 70
     6
  9
$SURFU
 70
     6
  9
$SURFV
 70
     6
  9
$UCSNAME
  2

  9
$UCSORG
 10
0.0
 20
0.0
 30
0.0
  9
$UCSXDIR
 10
1.0
 20
0.0
 30
0.0
  9
$UCSYDIR
 10
0.0
 20
1.0
 30
0.0
  9
$PUCSNAME
  2

  9
$PUCSORG
 10
0.0
 20
0.0
 30
0.0
  9
$PUCSXDIR
 10
1.0
 20
0.0
 30
0.0
  9
$PUCSYDIR
 10
0.0
 20
1.0
 30
0.0
  9
$USERI1
 70
     0
  9
$USERI2
 70
     0
  9
$USERI3
 70
     0
  9
$USERI4
 70
     0
  9
$USERI5
 70
     0
  9
$USERR1
 40
0.0
  9
$USERR2
 40
0.0
  9
$USERR3
 40
0.0
  9
$USERR4
 40
0.0
  9
$USERR5
 40
0.0
  9
$WORLDVIEW
 70
     1
  9
$SHADEDGE
 70
     3
  9
$SHADEDIF
 70
    70
  9
$TILEMODE
 70
     1
  9
$MAXACTVP
 70
    16
  9
$PLIMCHECK
 70
     0
  9
$PEXTMIN
 10
-1.452248
 20
-0.437698
 30
0.0
  9
$PEXTMAX
 10
12.749749
 20
8.310198
 30
0.0
  9
$PLIMMIN
 10
0.0
 20
0.0
  9
$PLIMMAX
 10
12.0
 20
9.0
  9
$UNITMODE
 70
     0
  9
$VISRETAIN
 70
     0
  9
$PLINEGEN
 70
     0
  9
$PSLTSCALE
 70
     0
  0
ENDSEC
  0
SECTION
  2
TABLES
  0
TABLE
  2
VPORT
 70
     2
  0
VPORT
  2
*ACTIVE
 70
     0
 10
0.0
 20
0.0
 11
1.0
 21
1.0
 12
230.599974
 22
-36.246644
 13
0.0
 23
0.0
 14
1.0
 24
1.0
 15
10.0
 25
10.0
 16
0.0
 26
0.0
 36
1.0
 17
0.0
 27
0.0
 37
0.0
 40
98.242668
 41
1.466346
 42
50.0
 43
0.0
 44
0.0
 50
0.0
 51
0.0
 71
     0
 72
   100
 73
     1
 74
     0
 75
     0
 76
     0
 77
     0
 78
     0
  0
ENDTAB
  0
TABLE
  2
LTYPE
 70
     3
  0
LTYPE
  2
CONTINUOUS
 70
     0
  3
Solid line
 72
    65
 73
     0
 40
0.0
  0
LTYPE
  2
AXES2
 70
     0
  3
___ _ ___ _ ___ _ ___ _ ___ _ ___ _ ___ _ ___ _
 72
    65
 73
     4
 40
1.125
 49
0.75
 49
-0.125
 49
0.125
 49
-0.125
  0
LTYPE
  2
CACHE2
 70
     0
  3
Caché (x.5) _ _ _ _ _ _ _ _ _ _ _ _ _ _ _ _ _
 72
    65
 73
     2
 40
0.1875
 49
0.125
 49
-0.0625
  0
ENDTAB
  0
TABLE
  2
LAYER
 70
     6
  0
LAYER
  2
0
 70
     0
 62
   255
  6
CONTINUOUS
  0
LAYER
  2
COTATION1
 70
     0
 62
     2
  6
CONTINUOUS
  0
LAYER
  2
AXE
 70
     0
 62
    80
  6
AXES2
  0
LAYER
  2
DEFPOINTS
 70
     0
 62
     7
  6
CONTINUOUS
  0
LAYER
  2
ALPHA
 70
     0
 62
   254
  6
CONTINUOUS
  0
LAYER
  2
POINTILLE_COURT
 70
     0
 62
    41
  6
CACHE2
  0
ENDTAB
  0
TABLE
  2
STYLE
 70
     2
  0
STYLE
  2
ROMANS
 70
     0
 40
0.0
 41
1.0
 50
0.0
 71
     0
 42
6.0
  3
romans
  4

  0
STYLE
  2
STANDARD
 70
     0
 40
0.0
 41
1.0
 50
0.0
 71
     0
 42
0.2
  3
txt
  4

  0
ENDTAB
  0
TABLE
  2
VIEW
 70
     0
  0
ENDTAB
  0
TABLE
  2
UCS
 70
     0
  0
ENDTAB
  0
TABLE
  2
APPID
 70
     1
  0
APPID
  2
ACAD
 70
     0
  0
ENDTAB
  0
TABLE
  2
DIMSTYLE
 70
     1
  0
DIMSTYLE
  2
SC_DEFAUT
 70
     0
  3

  4

  5
OPEN30
  6

  7

 40
1.0
 41
5.0
 42
2.0
 43
0.38
 44
2.5
 45
0.0
 46
0.0
 47
0.0
 48
0.0
140
2.5
141
0.0
142
0.0
143
25.4
144
1.0
145
0.0
146
1.0
147
2.0
 71
     0
 72
     0
 73
     1
 74
     1
 75
     0
 76
     0
 77
     1
 78
    12
170
     0
171
     2
172
     0
173
     0
174
     0
175
     0
176
     0
177
     0
178
     0
  0
ENDTAB
  0
ENDSEC
  0
SECTION
  2
BLOCKS
  0
BLOCK
  8
0
  2
$MODEL_SPACE
 70
     0
 10
0.0
 20
0.0
 30
0.0
  3
$MODEL_SPACE
  1

  0
ENDBLK
  5
A0AC
  8
0
  0
BLOCK
 67
     1
  8
0
  2
$PAPER_SPACE
 70
     0
 10
0.0
 20
0.0
 30
0.0
  3
$PAPER_SPACE
  1

  0
ENDBLK
  5
A0AA
 67
     1
  8
0
  0
BLOCK
  8
0
  2
COTE
 70
     0
 10
0.0
 20
0.0
 30
0.0
  3
COTE
  1

  0
ENDBLK
  5
F
  8
0
  0
BLOCK
  8
0
  2
FOND
 70
     0
 10
0.0
 20
0.0
 30
0.0
  3
FOND
  1

  0
ENDBLK
  5
75
  8
0
  0
BLOCK
  8
0
  2
_OPEN30
 70
     0
 10
0.0
 20
0.0
 30
0.0
  3
_OPEN30
  1

  0
LINE
  5
4B05
  8
COTATION1
 62
     0
 10
-1.0
 20
0.267949
 30
0.0
 11
0.0
 21
0.0
 31
0.0
1001
ACAD
1000
RTLwPs
1070
   158
  0
LINE
  5
4B06
  8
COTATION1
 62
     0
 10
0.0
 20
0.0
 30
0.0
 11
-1.0
 21
-0.267949
 31
0.0
1001
ACAD
1000
RTLwPs
1070
   158
  0
LINE
  5
4B07
  8
COTATION1
 62
     0
 10
0.0
 20
0.0
 30
0.0
 11
-1.0
 21
0.0
 31
0.0
1001
ACAD
1000
RTLwPs
1070
   158
  0
ENDBLK
  5
4B09
  8
0
  0
BLOCK
  8
0
  2
*D3
 70
     1
 10
0.0
 20
0.0
 30
0.0
  3
*D3
  1

  0
LINE
  5
9BE0
  8
COTATION1
 62
     0
 10
223.152786
 20
-17.90536
 30
0.0
 11
223.152786
 21
0.51964
 31
0.0
1001
ACAD
1000
RTLwPs
1070
   158
  0
LINE
  5
9BE1
  8
COTATION1
 62
     0
 10
243.152786
 20
-17.90536
 30
0.0
 11
243.152786
 21
0.51964
 31
0.0
1001
ACAD
1000
RTLwPs
1070
   158
  0
LINE
  5
9BE2
  8
COTATION1
 62
     0
 10
228.152786
 20
-1.98036
 30
0.0
 11
238.152786
 21
-1.98036
 31
0.0
1001
ACAD
1000
RTLwPs
1070
   158
  0
INSERT
  5
9BE3
  8
COTATION1
 62
     0
  2
_OPEN30
 10
223.152786
 20
-1.98036
 30
0.0
 41
5.0
 42
5.0
 43
5.0
 50
180.0
1001
ACAD
1000
RTLwPs
1070
   158
  0
INSERT
  5
9BE4
  8
COTATION1
 62
     0
  2
_OPEN30
 10
243.152786
 20
-1.98036
 30
0.0
 41
5.0
 42
5.0
 43
5.0
1001
ACAD
1000
RTLwPs
1070
   158
  0
TEXT
  5
9BE5
  8
COTATION1
 62
     0
 10
230.771834
 20
0.01964
 30
0.0
 40
2.5
  1
20
1001
ACAD
1000
MTEXTBEGIN
1070
    73
1070
     1
1070
    44
1040
1.0
1070
    74
1070
     0
1000
MTEXTEND
  0
POINT
  5
9BE6
  8
DEFPOINTS
 62
     0
 10
223.152786
 20
-19.90536
 30
0.0
  0
POINT
  5
9BE7
  8
DEFPOINTS
 62
     0
 10
243.152786
 20
-19.90536
 30
0.0
  0
POINT
  5
9BE8
  8
DEFPOINTS
 62
     0
 10
243.152786
 20
-1.98036
 30
0.0
  0
ENDBLK
  5
99FD
  8
0
  0
BLOCK
  8
0
  2
*D4
 70
     1
 10
0.0
 20
0.0
 30
0.0
  3
*D4
  1

  0
LINE
  5
9BE9
  8
COTATION1
 62
     0
 10
218.152786
 20
-17.184478
 30
0.0
 11
218.152786
 21
10.51964
 31
0.0
1001
ACAD
1000
RTLwPs
1070
   158
  0
LINE
  5
9BEA
  8
COTATION1
 62
     0
 10
248.152786
 20
-17.184478
 30
0.0
 11
248.152786
 21
10.51964
 31
0.0
1001
ACAD
1000
RTLwPs
1070
   158
  0
LINE
  5
9BEB
  8
COTATION1
 62
     0
 10
223.152786
 20
8.01964
 30
0.0
 11
243.152786
 21
8.01964
 31
0.0
1001
ACAD
1000
RTLwPs
1070
   158
  0
INSERT
  5
9BEC
  8
COTATION1
 62
     0
  2
_OPEN30
 10
218.152786
 20
8.01964
 30
0.0
 41
5.0
 42
5.0
 43
5.0
 50
180.0
1001
ACAD
1000
RTLwPs
1070
   158
  0
INSERT
  5
9BED
  8
COTATION1
 62
     0
  2
_OPEN30
 10
248.152786
 20
8.01964
 30
0.0
 41
5.0
 42
5.0
 43
5.0
1001
ACAD
1000
RTLwPs
1070
   158
  0
TEXT
  5
9BEE
  8
COTATION1
 62
     0
 10
230.771834
 20
10.01964
 30
0.0
 40
2.5
  1
30
1001
ACAD
1000
MTEXTBEGIN
1070
    73
1070
     1
1070
    44
1040
1.0
1070
    74
1070
     0
1000
MTEXTEND
  0
POINT
  5
9BEF
  8
DEFPOINTS
 62
     0
 10
218.152786
 20
-19.184478
 30
0.0
  0
POINT
  5
9BF0
  8
DEFPOINTS
 62
     0
 10
248.152786
 20
-19.184478
 30
0.0
  0
POINT
  5
9BF1
  8
DEFPOINTS
 62
     0
 10
248.152786
 20
8.01964
 30
0.0
  0
ENDBLK
  5
9A09
  8
0
  0
BLOCK
  8
0
  2
*D5
 70
     1
 10
0.0
 20
0.0
 30
0.0
  3
*D5
  1

  0
LINE
  5
9BF2
  8
COTATION1
 62
     0
 10
252.227786
 20
-26.98036
 30
0.0
 11
275.652786
 21
-26.98036
 31
0.0
1001
ACAD
1000
RTLwPs
1070
   158
  0
LINE
  5
9BF3
  8
COTATION1
 62
     0
 10
245.152786
 20
-66.98036
 30
0.0
 11
275.652786
 21
-66.98036
 31
0.0
1001
ACAD
1000
RTLwPs
1070
   158
  0
LINE
  5
9BF4
  8
COTATION1
 62
     0
 10
273.152786
 20
-31.98036
 30
0.0
 11
273.152786
 21
-43.73036
 31
0.0
1001
ACAD
1000
RTLwPs
1070
   158
  0
LINE
  5
9BF5
  8
COTATION1
 62
     0
 10
273.152786
 20
-61.98036
 30
0.0
 11
273.152786
 21
-50.23036
 31
0.0
1001
ACAD
1000
RTLwPs
1070
   158
  0
INSERT
  5
9BF6
  8
COTATION1
 62
     0
  2
_OPEN30
 10
273.152786
 20
-26.98036
 30
0.0
 41
5.0
 42
5.0
 43
5.0
 50
90.0
1001
ACAD
1000
RTLwPs
1070
   158
  0
INSERT
  5
9BF7
  8
COTATION1
 62
     0
  2
_OPEN30
 10
273.152786
 20
-66.98036
 30
0.0
 41
5.0
 42
5.0
 43
5.0
 50
270.0
1001
ACAD
1000
RTLwPs
1070
   158
  0
TEXT
  5
9BF8
  8
COTATION1
 62
     0
 10
270.771834
 20
-48.23036
 30
0.0
 40
2.5
  1
40
1001
ACAD
1000
MTEXTBEGIN
1070
    73
1070
     1
1070
    44
1040
1.0
1070
    74
1070
     0
1000
MTEXTEND
  0
POINT
  5
9BF9
  8
DEFPOINTS
 62
     0
 10
250.227786
 20
-26.98036
 30
0.0
  0
POINT
  5
9BFA
  8
DEFPOINTS
 62
     0
 10
243.152786
 20
-66.98036
 30
0.0
  0
POINT
  5
9BFB
  8
DEFPOINTS
 62
     0
 10
273.152786
 20
-66.98036
 30
0.0
  0
ENDBLK
  5
9A75
  8
0
  0
BLOCK
  8
0
  2
*D6
 70
     1
 10
0.0
 20
0.0
 30
0.0
  3
*D6
  1

  0
LINE
  5
9BFC
  8
COTATION1
 62
     0
 10
243.152786
 20
-16.98036
 30
0.0
 11
285.652786
 21
-16.98036
 31
0.0
1001
ACAD
1000
RTLwPs
1070
   158
  0
LINE
  5
9BFD
  8
COTATION1
 62
     0
 10
245.152786
 20
-66.98036
 30
0.0
 11
285.652786
 21
-66.98036
 31
0.0
1001
ACAD
1000
RTLwPs
1070
   158
  0
LINE
  5
9BFE
  8
COTATION1
 62
     0
 10
283.152786
 20
-21.98036
 30
0.0
 11
283.152786
 21
-38.73036
 31
0.0
1001
ACAD
1000
RTLwPs
1070
   158
  0
LINE
  5
9BFF
  8
COTATION1
 62
     0
 10
283.152786
 20
-61.98036
 30
0.0
 11
283.152786
 21
-45.23036
 31
0.0
1001
ACAD
1000
RTLwPs
1070
   158
  0
INSERT
  5
9C00
  8
COTATION1
 62
     0
  2
_OPEN30
 10
283.152786
 20
-16.98036
 30
0.0
 41
5.0
 42
5.0
 43
5.0
 50
90.0
1001
ACAD
1000
RTLwPs
1070
   158
  0
INSERT
  5
9C01
  8
COTATION1
 62
     0
  2
_OPEN30
 10
283.152786
 20
-66.98036
 30
0.0
 41
5.0
 42
5.0
 43
5.0
 50
270.0
1001
ACAD
1000
RTLwPs
1070
   158
  0
TEXT
  5
9C02
  8
COTATION1
 62
     0
 10
280.771834
 20
-43.23036
 30
0.0
 40
2.5
  1
50
1001
ACAD
1000
MTEXTBEGIN
1070
    73
1070
     1
1070
    44
1040
1.0
1070
    74
1070
     0
1000
MTEXTEND
  0
POINT
  5
9C03
  8
DEFPOINTS
 62
     0
 10
241.152786
 20
-16.98036
 30
0.0
  0
POINT
  5
9C04
  8
DEFPOINTS
 62
     0
 10
243.152786
 20
-66.98036
 30
0.0
  0
POINT
  5
9C05
  8
DEFPOINTS
 62
     0
 10
283.152786
 20
-66.98036
 30
0.0
  0
ENDBLK
  5
9A82
  8
0
  0
BLOCK
  8
0
  2
*D7
 70
     1
 10
0.0
 20
0.0
 30
0.0
  3
*D7
  1

  0
LINE
  5
A024
  8
COTATION1
 62
     0
 10
278.788139
 20
-7.137609
 30
0.0
 11
264.883377
 21
-7.137609
 31
0.0
  0
LINE
  5
A025
  8
COTATION1
 62
     0
 10
264.883377
 20
-7.137609
 30
0.0
 11
248.414281
 21
-22.175956
 31
0.0
  0
TEXT
  5
A026
  8
COTATION1
 62
     0
 10
266.526234
 20
-5.137609
 30
0.0
 40
2.5
  1
2x%%c4.3
  0
INSERT
  5
A027
  8
COTATION1
 62
     0
  2
_OPEN30
 10
244.722004
 20
-25.547468
 30
0.0
 41
5.0
 42
5.0
 43
5.0
 50
222.399993
  0
POINT
  5
A028
  8
DEFPOINTS
 62
     0
 10
244.722004
 20
-25.547468
 30
0.0
  0
POINT
  5
A029
  8
DEFPOINTS
 62
     0
 10
241.583568
 20
-28.413253
 30
0.0
  0
ENDBLK
  5
9B4B
  8
0
  0
ENDSEC
  0
SECTION
  2
ENTITIES
  0
INSERT
  5
A
  8
0
  2
COTE
 10
0.0
 20
0.0
 30
0.0
  0
INSERT
  5
17
  8
0
  2
COTE
 10
284.010391
 20
6.373258
 30
0.0
  0
INSERT
  5
72
  8
0
  2
FOND
 10
0.0
 20
0.0
 30
0.0
  0
LINE
  5
9650
  8
ALPHA
 10
248.152786
 20
-19.184478
 30
0.0
 11
248.152786
 21
-61.980324
 31
0.0
  0
LINE
  5
9651
  8
ALPHA
 10
247.452786
 20
-27.786974
 30
0.0
 11
247.452786
 21
-62.915383
 31
0.0
  0
LINE
  5
9652
  8
ALPHA
 10
218.852786
 20
-66.460349
 30
0.0
 11
218.852786
 21
-27.786974
 31
0.0
  0
LINE
  5
9653
  8
ALPHA
 10
218.152786
 20
-65.78036
 30
0.0
 11
218.152786
 21
-19.184478
 31
0.0
  0
POLYLINE
  5
9662
  8
ALPHA
 66
     1
 10
0.0
 20
0.0
 30
0.0
 70
   128
210
0.0
220
0.0
230
-1.0
  0
VERTEX
  5
A0B2
  8
ALPHA
 10
-232.778794
 20
-65.093797
 30
0.0
  0
VERTEX
  5
A0B3
  8
ALPHA
 10
-233.152786
 20
-64.887978
 30
0.0
  0
VERTEX
  5
A0B4
  8
ALPHA
 10
-233.526777
 20
-65.093797
 30
0.0
  0
SEQEND
  5
A0B5
  8
ALPHA
  0
ARC
  5
9663
  8
ALPHA
 10
233.152786
 20
-65.38036
 30
0.0
 40
0.3
 50
41.810315
 51
138.189685
  0
LINE
  5
9664
  8
ALPHA
 10
236.352786
 20
-63.38036
 30
0.0
 11
229.802786
 21
-63.38036
 31
0.0
  0
LINE
  5
9665
  8
ALPHA
 10
219.352786
 20
-66.68036
 30
0.0
 11
243.152786
 21
-66.68036
 31
0.0
  0
LINE
  5
9666
  8
ALPHA
 10
219.352786
 20
-66.98036
 30
0.0
 11
243.152786
 21
-66.98036
 31
0.0
  0
LINE
  5
9667
  8
ALPHA
 10
218.852786
 20
-66.460349
 30
0.0
 11
218.64191
 21
-66.747136
 31
0.0
  0
POLYLINE
  5
9668
  8
ALPHA
 66
     1
 10
0.0
 20
0.0
 30
0.0
 70
   128
  0
VERTEX
  5
A0B6
  8
ALPHA
 10
218.152786
 20
-65.78036
 30
0.0
  0
VERTEX
  5
A0B7
  8
ALPHA
 10
218.45533
 20
-66.163683
 30
0.0
  0
VERTEX
  5
A0B8
  8
ALPHA
 10
218.852786
 20
-66.460349
 30
0.0
  0
SEQEND
  5
A0B9
  8
ALPHA
  0
ARC
  5
9669
  8
ALPHA
 10
219.352786
 20
-65.78036
 30
0.0
 40
1.2
 50
180.0
 51
270.0
  0
LINE
  5
966A
  8
ALPHA
 10
218.985474
 20
-66.58174
 30
0.0
 11
218.852786
 21
-66.871232
 31
0.0
  0
LINE
  5
966B
  8
ALPHA
 10
218.985474
 20
-66.58174
 30
0.0
 11
219.352786
 21
-66.68036
 31
0.0
  0
LINE
  5
966C
  8
ALPHA
 10
218.852786
 20
-66.460349
 30
0.0
 11
218.985474
 21
-66.58174
 31
0.0
  0
LINE
  5
966D
  8
ALPHA
 10
219.352786
 20
-66.68036
 30
0.0
 11
219.352786
 21
-66.98036
 31
0.0
  0
ARC
  5
966E
  8
ALPHA
 10
229.802786
 20
-64.28036
 30
0.0
 40
0.9
 50
90.0
 51
270.0
  0
LINE
  5
966F
  8
ALPHA
 10
229.802786
 20
-65.18036
 30
0.0
 11
232.929179
 21
-65.18036
 31
0.0
  0
ARC
  5
9670
  8
ALPHA
 10
229.952786
 20
-64.28036
 30
0.0
 40
0.9
 50
99.560254
 51
260.439746
  0
LINE
  5
9671
  8
ALPHA
 10
232.736367
 20
-65.18036
 30
0.0
 11
232.778794
 21
-65.093797
 31
0.0
  0
ARC
  5
9672
  8
ALPHA
 10
236.352786
 20
-64.28036
 30
0.0
 40
0.9
 50
270.0
 51
90.0
  0
LINE
  5
9673
  8
ALPHA
 10
233.376393
 20
-65.18036
 30
0.0
 11
236.352786
 21
-65.18036
 31
0.0
  0
LINE
  5
9674
  8
ALPHA
 10
233.526777
 20
-65.093797
 30
0.0
 11
233.569205
 21
-65.18036
 31
0.0
  0
POLYLINE
  5
9675
  8
ALPHA
 66
     1
 10
0.0
 20
0.0
 30
0.0
 70
   128
  0
VERTEX
  5
A0BA
  8
ALPHA
 10
243.152786
 20
-66.68036
 30
0.0
  0
VERTEX
  5
A0BB
  8
ALPHA
 10
244.344478
 20
-66.521637
 30
0.0
  0
VERTEX
  5
A0BC
  8
ALPHA
 10
245.450034
 20
-66.049977
 30
0.0
  0
VERTEX
  5
A0BD
  8
ALPHA
 10
246.381249
 20
-65.29049
 30
0.0
  0
VERTEX
  5
A0BE
  8
ALPHA
 10
247.052879
 20
-64.294539
 30
0.0
  0
SEQEND
  5
A0BF
  8
ALPHA
  0
ARC
  5
9676
  8
ALPHA
 10
243.152786
 20
-61.98036
 30
0.0
 40
5.0
 50
270.0
 51
0.000411
  0
LINE
  5
9677
  8
ALPHA
 10
243.152786
 20
-66.68036
 30
0.0
 11
243.152786
 21
-66.98036
 31
0.0
  0
LINE
  5
9678
  8
ALPHA
 10
247.452786
 20
-62.915383
 30
0.0
 11
248.038611
 21
-63.042769
 31
0.0
  0
LINE
  5
9679
  8
ALPHA
 10
247.452786
 20
-62.915383
 30
0.0
 11
248.152786
 21
-61.98036
 31
0.0
  0
LINE
  5
967A
  8
ALPHA
 10
247.052879
 20
-64.294539
 30
0.0
 11
247.452786
 21
-64.53183
 31
0.0
  0
LINE
  5
967B
  8
ALPHA
 10
247.052879
 20
-64.294539
 30
0.0
 11
247.452786
 21
-62.915383
 31
0.0
  0
POLYLINE
  5
968D
  8
ALPHA
 66
     1
 10
0.0
 20
0.0
 30
0.0
 70
   128
210
0.0
220
0.0
230
-1.0
  0
VERTEX
  5
A0C0
  8
ALPHA
 10
-237.123294
 20
-24.96193
 30
0.0
  0
VERTEX
  5
A0C1
  8
ALPHA
 10
-236.776839
 20
-26.623271
 30
0.0
  0
VERTEX
  5
A0C2
  8
ALPHA
 10
-236.438994
 20
-27.469839
 30
0.0
  0
VERTEX
  5
A0C3
  8
ALPHA
 10
-235.956625
 20
-28.298023
 30
0.0
  0
VERTEX
  5
A0C4
  8
ALPHA
 10
-235.357666
 20
-29.047926
 30
0.0
  0
VERTEX
  5
A0C5
  8
ALPHA
 10
-234.671264
 20
-29.658789
 30
0.0
  0
VERTEX
  5
A0C6
  8
ALPHA
 10
-233.926568
 20
-30.069853
 30
0.0
  0
VERTEX
  5
A0C7
  8
ALPHA
 10
-233.152726
 20
-30.22036
 30
0.0
  0
VERTEX
  5
A0C8
  8
ALPHA
 10
-232.378887
 20
-30.069809
 30
0.0
  0
VERTEX
  5
A0C9
  8
ALPHA
 10
-231.634198
 20
-29.658711
 30
0.0
  0
VERTEX
  5
A0CA
  8
ALPHA
 10
-230.947807
 20
-29.047823
 30
0.0
  0
VERTEX
  5
A0CB
  8
ALPHA
 10
-230.348864
 20
-28.297903
 30
0.0
  0
VERTEX
  5
A0CC
  8
ALPHA
 10
-229.866515
 20
-27.46971
 30
0.0
  0
VERTEX
  5
A0CD
  8
ALPHA
 10
-229.528693
 20
-26.623142
 30
0.0
  0
VERTEX
  5
A0CE
  8
ALPHA
 10
-229.182266
 20
-24.961799
 30
0.0
  0
SEQEND
  5
A0CF
  8
ALPHA
  0
LINE
  5
968E
  8
ALPHA
 10
233.152786
 20
-17.29036
 30
0.0
 11
230.982532
 21
-17.027516
 31
0.0
  0
LINE
  5
968F
  8
ALPHA
 10
233.552786
 20
-23.228147
 30
0.0
 11
232.752786
 21
-23.228147
 31
0.0
  0
LINE
  5
9690
  8
ALPHA
 10
233.152786
 20
-18.638421
 30
0.0
 11
223.777786
 21
-19.285019
 31
0.0
  0
ARC
  5
9691
  8
ALPHA
 10
233.152786
 20
-80.39036
 30
0.0
 40
63.1
 50
76.901583
 51
95.730045
  0
LINE
  5
9692
  8
ALPHA
 10
241.152786
 20
-16.98036
 30
0.0
 11
225.152786
 21
-16.98036
 31
0.0
  0
LINE
  5
9693
  8
ALPHA
 10
223.777786
 20
-19.48036
 30
0.0
 11
242.527786
 21
-19.48036
 31
0.0
  0
LINE
  5
9694
  8
ALPHA
 10
232.652786
 20
-20.68036
 30
0.0
 11
233.652786
 21
-20.68036
 31
0.0
  0
LINE
  5
9695
  8
ALPHA
 10
233.552786
 20
-22.473565
 30
0.0
 11
232.752784
 21
-22.473565
 31
0.0
  0
LINE
  5
9696
  8
ALPHA
 10
233.552786
 20
-22.523565
 30
0.0
 11
232.752784
 21
-22.523565
 31
0.0
  0
LINE
  5
9697
  8
ALPHA
 10
233.552786
 20
-22.882651
 30
0.0
 11
232.752786
 21
-22.882651
 31
0.0
  0
LINE
  5
9698
  8
ALPHA
 10
233.552786
 20
-23.144796
 30
0.0
 11
232.752786
 21
-23.144796
 31
0.0
  0
LINE
  5
9699
  8
ALPHA
 10
223.777786
 20
-21.925702
 30
0.0
 11
229.160797
 21
-22.455381
 31
0.0
  0
ARC
  5
969A
  8
ALPHA
 10
223.152786
 20
-26.98036
 30
0.0
 40
4.375
 50
190.624332
 51
47.807538
  0
ARC
  5
969B
  8
ALPHA
 10
223.152786
 20
-26.98036
 30
0.0
 40
4.975
 50
56.346868
 51
119.709398
  0
ARC
  5
969C
  8
ALPHA
 10
233.152786
 20
-80.39036
 30
0.0
 40
62.2
 50
96.144064
 51
101.953211
  0
ARC
  5
969D
  8
ALPHA
 10
223.152786
 20
-26.98036
 30
0.0
 40
4.075
 50
128.467
 51
47.807538
  0
ARC
  5
969E
  8
ALPHA
 10
233.152786
 20
-80.39036
 30
0.0
 40
63.4
 50
91.961682
 51
103.327962
  0
ARC
  5
969F
  8
ALPHA
 10
223.152786
 20
-26.98036
 30
0.0
 40
4.675
 50
56.346868
 51
119.709398
  0
ARC
  5
96A0
  8
ALPHA
 10
233.152786
 20
-80.39036
 30
0.0
 40
62.4
 50
96.144064
 51
101.953211
  0
CIRCLE
  5
96A1
  8
ALPHA
 10
223.152786
 20
-26.98036
 30
0.0
 40
2.125
  0
LINE
  5
96A2
  8
ALPHA
 10
223.902786
 20
-20.68036
 30
0.0
 11
232.652786
 21
-20.68036
 31
0.0
  0
LINE
  5
96A3
  8
ALPHA
 10
223.902786
 20
-21.48036
 30
0.0
 11
232.652786
 21
-21.48036
 31
0.0
  0
LINE
  5
96A4
  8
ALPHA
 10
223.777786
 20
-21.73036
 30
0.0
 11
229.103229
 21
-21.73036
 31
0.0
  0
ARC
  5
96A5
  8
ALPHA
 10
223.152786
 20
-26.98036
 30
0.0
 40
4.375
 50
128.467
 51
169.375668
  0
LINE
  5
96A6
  8
ALPHA
 10
218.852786
 20
-18.932082
 30
0.0
 11
218.852786
 21
-26.173747
 31
0.0
  0
LINE
  5
96A7
  8
ALPHA
 10
218.721536
 20
-26.98036
 30
0.0
 11
218.852786
 21
-26.173747
 31
0.0
  0
LINE
  5
96A8
  8
ALPHA
 10
218.852786
 20
-27.786974
 30
0.0
 11
218.721536
 21
-26.98036
 31
0.0
  0
LINE
  5
96A9
  8
ALPHA
 10
218.852786
 20
-27.786974
 30
0.0
 11
219.147643
 21
-27.731663
 31
0.0
  0
LINE
  5
96AA
  8
ALPHA
 10
218.852786
 20
-26.173747
 30
0.0
 11
219.147643
 21
-26.229058
 31
0.0
  0
LINE
  5
96AB
  8
ALPHA
 10
218.422102
 20
-18.989865
 30
0.0
 11
218.152786
 21
-19.184478
 31
0.0
  0
ARC
  5
96AC
  8
ALPHA
 10
218.652786
 20
-19.184478
 30
0.0
 40
0.5
 50
103.327962
 51
180.0
  0
LINE
  5
96AD
  8
ALPHA
 10
219.99056
 20
-19.182442
 30
0.0
 11
219.888877
 21
-18.605772
 31
0.0
  0
LINE
  5
96AE
  8
ALPHA
 10
219.709295
 20
-18.739062
 30
0.0
 11
219.793598
 21
-19.217172
 31
0.0
  0
ARC
  5
96AF
  8
ALPHA
 10
220.984531
 20
-23.180453
 30
0.0
 40
0.6
 50
119.709398
 51
188.0
  0
ARC
  5
96B0
  8
ALPHA
 10
220.187521
 20
-19.147712
 30
0.0
 40
0.4
 50
190.0
 51
281.953211
  0
ARC
  5
96B1
  8
ALPHA
 10
220.984531
 20
-23.180453
 30
0.0
 40
0.3
 50
119.709398
 51
188.0
  0
ARC
  5
96B2
  8
ALPHA
 10
220.431257
 20
-23.554881
 30
0.0
 40
0.3
 50
308.467
 51
8.0
  0
ARC
  5
96B3
  8
ALPHA
 10
220.187521
 20
-19.147712
 30
0.0
 40
0.2
 50
190.0
 51
281.953211
  0
LINE
  5
96B4
  8
ALPHA
 10
219.99056
 20
-19.182442
 30
0.0
 11
219.793598
 21
-19.217172
 31
0.0
  0
LINE
  5
96B5
  8
ALPHA
 10
220.39037
 20
-23.263957
 30
0.0
 11
220.687451
 21
-23.222205
 31
0.0
  0
LINE
  5
96B6
  8
ALPHA
 10
220.431257
 20
-23.554881
 30
0.0
 11
220.728337
 21
-23.51313
 31
0.0
  0
LINE
  5
96B7
  8
ALPHA
 10
220.617876
 20
-23.789771
 30
0.0
 11
220.431257
 21
-23.554881
 31
0.0
  0
LINE
  5
96B8
  8
ALPHA
 10
220.835851
 20
-22.919888
 30
0.0
 11
220.68717
 21
-22.659323
 31
0.0
  0
LINE
  5
96B9
  8
ALPHA
 10
220.270367
 20
-19.539039
 30
0.0
 11
220.228944
 21
-19.343376
 31
0.0
  0
LINE
  5
96BA
  8
ALPHA
 10
220.687451
 20
-23.222205
 30
0.0
 11
220.728337
 21
-23.51313
 31
0.0
  0
LINE
  5
96BB
  8
ALPHA
 10
220.39037
 20
-23.263957
 30
0.0
 11
220.431257
 21
-23.554881
 31
0.0
  0
LINE
  5
96BC
  8
ALPHA
 10
218.852786
 20
-18.932082
 30
0.0
 11
218.422102
 21
-18.989865
 31
0.0
  0
LINE
  5
96BD
  8
ALPHA
 10
219.649318
 20
-18.445091
 30
0.0
 11
218.784799
 21
-18.639887
 31
0.0
  0
LINE
  5
96BE
  8
ALPHA
 10
218.852786
 20
-18.932082
 30
0.0
 11
218.784799
 21
-18.639887
 31
0.0
  0
LINE
  5
96BF
  8
ALPHA
 10
218.422102
 20
-18.989865
 30
0.0
 11
218.537524
 21
-18.697945
 31
0.0
  0
LINE
  5
96C0
  8
ALPHA
 10
219.709295
 20
-18.739062
 30
0.0
 11
219.649318
 21
-18.445091
 31
0.0
  0
LINE
  5
96C1
  8
ALPHA
 10
219.906258
 20
-18.704333
 30
0.0
 11
219.889648
 21
-18.610143
 31
0.0
  0
LINE
  5
96C2
  8
ALPHA
 10
219.889648
 20
-18.610143
 30
0.0
 11
219.88909
 21
-18.607057
 31
0.0
  0
ARC
  5
96C3
  8
ALPHA
 10
233.152786
 20
-80.39036
 30
0.0
 40
63.1
 50
102.301184
 51
103.098417
  0
ARC
  5
96C4
  8
ALPHA
 10
219.691916
 20
-18.640502
 30
0.0
 40
0.2
 50
10.0
 51
102.297541
  0
LINE
  5
96C5
  8
ALPHA
 10
219.709295
 20
-18.739062
 30
0.0
 11
219.906256
 21
-18.704333
 31
0.0
  0
LINE
  5
96C6
  8
ALPHA
 10
223.777786
 20
-20.63036
 30
0.0
 11
223.902786
 21
-20.63036
 31
0.0
  0
LINE
  5
96C7
  8
ALPHA
 10
223.777786
 20
-20.98036
 30
0.0
 11
223.902786
 21
-20.98036
 31
0.0
  0
LINE
  5
96C8
  8
ALPHA
 10
223.902786
 20
-21.48036
 30
0.0
 11
223.902786
 21
-19.48036
 31
0.0
  0
LINE
  5
96C9
  8
ALPHA
 10
223.777786
 20
-21.925702
 30
0.0
 11
223.777786
 21
-19.285019
 31
0.0
  0
LINE
  5
96CA
  8
ALPHA
 10
229.182266
 20
-24.961799
 30
0.0
 11
229.160797
 21
-22.455381
 31
0.0
  0
LINE
  5
96CB
  8
ALPHA
 10
229.182262
 20
-24.961762
 30
0.0
 11
229.592719
 21
-23.277936
 31
0.0
  0
ARC
  5
96CC
  8
ALPHA
 10
225.577252
 20
-23.338576
 30
0.0
 40
0.6
 50
345.0
 51
56.346868
  0
ARC
  5
96CD
  8
ALPHA
 10
226.091137
 20
-23.738954
 30
0.0
 40
0.3
 50
165.0
 51
227.807538
  0
ARC
  5
96CE
  8
ALPHA
 10
225.577252
 20
-23.338576
 30
0.0
 40
0.3
 50
345.0
 51
56.346868
  0
LINE
  5
96CF
  8
ALPHA
 10
225.86703
 20
-23.416222
 30
0.0
 11
226.156808
 21
-23.493868
 31
0.0
  0
LINE
  5
96D0
  8
ALPHA
 10
226.091137
 20
-23.738954
 30
0.0
 11
225.801359
 21
-23.661308
 31
0.0
  0
LINE
  5
96D1
  8
ALPHA
 10
226.091137
 20
-23.738954
 30
0.0
 11
226.156808
 21
-23.493868
 31
0.0
  0
LINE
  5
96D2
  8
ALPHA
 10
225.801359
 20
-23.661308
 30
0.0
 11
225.86703
 21
-23.416222
 31
0.0
  0
LINE
  5
96D3
  8
ALPHA
 10
225.90975
 20
-22.839132
 30
0.0
 11
225.743501
 21
-23.088854
 31
0.0
  0
LINE
  5
96D4
  8
ALPHA
 10
225.88965
 20
-23.961221
 30
0.0
 11
226.091137
 21
-23.738954
 31
0.0
  0
LINE
  5
96D5
  8
ALPHA
 10
226.832849
 20
-17.306143
 30
0.0
 11
226.852786
 21
-17.605649
 31
0.0
  0
ARC
  5
96D6
  8
ALPHA
 10
226.452786
 20
-18.149939
 30
0.0
 40
0.4
 50
276.144064
 51
0.0
  0
ARC
  5
96D7
  8
ALPHA
 10
226.452786
 20
-18.149939
 30
0.0
 40
0.2
 50
276.144064
 51
0.0
  0
ARC
  5
96D8
  8
ALPHA
 10
226.852786
 20
-17.505147
 30
0.0
 40
0.2
 50
95.720948
 51
175.373269
  0
LINE
  5
96D9
  8
ALPHA
 10
226.852786
 20
-17.605649
 30
0.0
 11
226.652786
 21
-17.605649
 31
0.0
  0
LINE
  5
96DA
  8
ALPHA
 10
226.852786
 20
-18.149939
 30
0.0
 11
226.652786
 21
-18.149939
 31
0.0
  0
LINE
  5
96DB
  8
ALPHA
 10
226.474192
 20
-18.34879
 30
0.0
 11
226.495597
 21
-18.547642
 31
0.0
  0
LINE
  5
96DC
  8
ALPHA
 10
226.652786
 20
-17.505147
 30
0.0
 11
226.653438
 21
-17.489015
 31
0.0
  0
LINE
  5
96DD
  8
ALPHA
 10
226.852786
 20
-18.149939
 30
0.0
 11
226.852786
 21
-17.605649
 31
0.0
  0
LINE
  5
96DE
  8
ALPHA
 10
226.652786
 20
-18.149939
 30
0.0
 11
226.652786
 21
-17.505147
 31
0.0
  0
LINE
  5
96DF
  8
ALPHA
 10
225.152786
 20
-16.98036
 30
0.0
 11
225.152786
 21
-17.497117
 31
0.0
  0
POLYLINE
  5
96E0
  8
ALPHA
 66
     1
 10
0.0
 20
0.0
 30
0.0
 70
   128
  0
VERTEX
  5
A0D0
  8
ALPHA
 10
232.654643
 20
-22.857911
 30
0.0
  0
VERTEX
  5
A0D1
  8
ALPHA
 10
231.859711
 20
-23.062453
 30
0.0
  0
VERTEX
  5
A0D2
  8
ALPHA
 10
231.150688
 20
-23.474486
 30
0.0
  0
VERTEX
  5
A0D3
  8
ALPHA
 10
230.585868
 20
-24.070449
 30
0.0
  0
VERTEX
  5
A0D4
  8
ALPHA
 10
230.152786
 20
-24.769072
 30
0.0
  0
SEQEND
  5
A0D5
  8
ALPHA
  0
LINE
  5
96E1
  8
ALPHA
 10
229.22827
 20
-21.70036
 30
0.0
 11
232.752786
 21
-21.70036
 31
0.0
  0
LINE
  5
96E2
  8
ALPHA
 10
232.708741
 20
-21.778006
 30
0.0
 11
229.111947
 21
-21.778006
 31
0.0
  0
LINE
  5
96E3
  8
ALPHA
 10
229.22998
 20
-21.73036
 30
0.0
 11
229.22827
 21
-21.70036
 31
0.0
  0
POLYLINE
  5
96E4
  8
ALPHA
 66
     1
 10
0.0
 20
0.0
 30
0.0
 70
   128
210
0.0
220
0.0
230
-1.0
  0
VERTEX
  5
A0D6
  8
ALPHA
 10
-230.152786
 20
-24.769072
 30
0.0
  0
VERTEX
  5
A0D7
  8
ALPHA
 10
-230.072151
 20
-24.805207
 30
0.0
  0
VERTEX
  5
A0D8
  8
ALPHA
 10
-230.017035
 20
-24.714044
 30
0.0
  0
VERTEX
  5
A0D9
  8
ALPHA
 10
-229.942753
 20
-24.513404
 30
0.0
  0
VERTEX
  5
A0DA
  8
ALPHA
 10
-229.819548
 20
-24.103473
 30
0.0
  0
VERTEX
  5
A0DB
  8
ALPHA
 10
-229.592719
 20
-23.277936
 30
0.0
  0
SEQEND
  5
A0DC
  8
ALPHA
  0
LINE
  5
96E5
  8
ALPHA
 10
229.592719
 20
-23.277936
 30
0.0
 11
229.192354
 21
-22.078086
 31
0.0
  0
LINE
  5
96E6
  8
ALPHA
 10
229.175603
 20
-22.077554
 30
0.0
 11
229.177149
 21
-22.02134
 31
0.0
  0
LINE
  5
96E7
  8
ALPHA
 10
229.160797
 20
-22.455381
 30
0.0
 11
229.175603
 21
-22.077554
 31
0.0
  0
ARC
  5
96E8
  8
ALPHA
 10
229.401725
 20
-21.70036
 30
0.0
 40
0.3
 50
185.73917
 51
195.0
  0
LINE
  5
96E9
  8
ALPHA
 10
229.22998
 20
-21.73036
 30
0.0
 11
229.111947
 21
-21.73036
 31
0.0
  0
LINE
  5
96EA
  8
ALPHA
 10
229.192354
 20
-22.078086
 30
0.0
 11
229.111947
 21
-21.778006
 31
0.0
  0
LINE
  5
96EB
  8
ALPHA
 10
230.152786
 20
-21.48036
 30
0.0
 11
230.152786
 21
-24.769072
 31
0.0
  0
LINE
  5
96EC
  8
ALPHA
 10
229.22827
 20
-21.70036
 30
0.0
 11
229.22827
 21
-21.48036
 31
0.0
  0
LINE
  5
96ED
  8
ALPHA
 10
232.708741
 20
-21.778006
 30
0.0
 11
232.752786
 21
-21.70036
 31
0.0
  0
LINE
  5
96EE
  8
ALPHA
 10
232.653843
 20
-22.839904
 30
0.0
 11
232.652816
 21
-22.794875
 31
0.0
  0
LINE
  5
96EF
  8
ALPHA
 10
232.708693
 20
-23.142359
 30
0.0
 11
232.654648
 21
-22.858016
 31
0.0
  0
LINE
  5
96F0
  8
ALPHA
 10
232.654643
 20
-22.857911
 30
0.0
 11
232.653843
 21
-22.839904
 31
0.0
  0
LINE
  5
96F1
  8
ALPHA
 10
232.752786
 20
-23.228147
 30
0.0
 11
232.708693
 21
-23.142359
 31
0.0
  0
LINE
  5
96F2
  8
ALPHA
 10
232.652786
 20
-22.113061
 30
0.0
 11
232.708741
 21
-21.778006
 31
0.0
  0
LINE
  5
96F3
  8
ALPHA
 10
232.652786
 20
-22.473565
 30
0.0
 11
232.726904
 21
-22.499447
 31
0.0
  0
LINE
  5
96F4
  8
ALPHA
 10
232.752786
 20
-22.523565
 30
0.0
 11
232.726904
 21
-22.499447
 31
0.0
  0
LINE
  5
96F5
  8
ALPHA
 10
232.726904
 20
-22.499447
 30
0.0
 11
232.752786
 21
-22.473565
 31
0.0
  0
POLYLINE
  5
96F6
  8
ALPHA
 66
     1
 10
0.0
 20
0.0
 30
0.0
  0
VERTEX
  5
A0DD
  8
ALPHA
 10
232.708693
 20
-23.142359
 30
0.0
  0
VERTEX
  5
A0DE
  8
ALPHA
 10
232.722812
 20
-23.143702
 30
0.0
  0
VERTEX
  5
A0DF
  8
ALPHA
 10
232.737624
 20
-23.144521
 30
0.0
  0
VERTEX
  5
A0E0
  8
ALPHA
 10
232.752786
 20
-23.144796
 30
0.0
  0
SEQEND
  5
A0E1
  8
ALPHA
  0
POLYLINE
  5
96F7
  8
ALPHA
 66
     1
 10
0.0
 20
0.0
 30
0.0
  0
VERTEX
  5
A0E2
  8
ALPHA
 10
232.653843
 20
-22.839904
 30
0.0
  0
VERTEX
  5
A0E3
  8
ALPHA
 10
232.671435
 20
-22.861729
 30
0.0
  0
VERTEX
  5
A0E4
  8
ALPHA
 10
232.707045
 20
-22.877114
 30
0.0
  0
VERTEX
  5
A0E5
  8
ALPHA
 10
232.752786
 20
-22.882651
 30
0.0
  0
SEQEND
  5
A0E6
  8
ALPHA
  0
LINE
  5
96F8
  8
ALPHA
 10
232.752784
 20
-22.523565
 30
0.0
 11
232.752786
 21
-23.228147
 31
0.0
  0
LINE
  5
96F9
  8
ALPHA
 10
232.752786
 20
-21.70036
 30
0.0
 11
232.752784
 21
-22.473565
 31
0.0
  0
LINE
  5
96FA
  8
ALPHA
 10
232.652786
 20
-22.113061
 30
0.0
 11
232.652816
 21
-22.794875
 31
0.0
  0
LINE
  5
96FB
  8
ALPHA
 10
232.652786
 20
-20.68036
 30
0.0
 11
232.652786
 21
-21.48036
 31
0.0
  0
LINE
  5
96FC
  8
ALPHA
 10
242.527786
 20
-19.285019
 30
0.0
 11
233.152786
 21
-18.638421
 31
0.0
  0
LINE
  5
96FD
  8
ALPHA
 10
237.144775
 20
-22.455381
 30
0.0
 11
242.527786
 21
-21.925702
 31
0.0
  0
ARC
  5
96FE
  8
ALPHA
 10
243.152786
 20
-26.98036
 30
0.0
 40
4.375
 50
10.624332
 51
349.375668
  0
ARC
  5
96FF
  8
ALPHA
 10
233.152786
 20
-80.39036
 30
0.0
 40
63.4
 50
76.672038
 51
88.038318
  0
CIRCLE
  5
9700
  8
ALPHA
 10
243.152786
 20
-26.98036
 30
0.0
 40
4.075
  0
CIRCLE
  5
9701
  8
ALPHA
 10
243.152786
 20
-26.98036
 30
0.0
 40
2.125
  0
LINE
  5
9702
  8
ALPHA
 10
233.652786
 20
-20.68036
 30
0.0
 11
242.402786
 21
-20.68036
 31
0.0
  0
LINE
  5
9703
  8
ALPHA
 10
233.652786
 20
-21.48036
 30
0.0
 11
242.402786
 21
-21.48036
 31
0.0
  0
LINE
  5
9704
  8
ALPHA
 10
237.202343
 20
-21.73036
 30
0.0
 11
242.527786
 21
-21.73036
 31
0.0
  0
LINE
  5
9705
  8
ALPHA
 10
237.144775
 20
-22.455381
 30
0.0
 11
237.123294
 21
-24.96193
 31
0.0
  0
LINE
  5
9706
  8
ALPHA
 10
237.12331
 20
-24.961762
 30
0.0
 11
236.712853
 21
-23.277936
 31
0.0
  0
LINE
  5
9707
  8
ALPHA
 10
233.152786
 20
-19.48036
 30
0.0
 11
233.152786
 21
-18.638421
 31
0.0
  0
POLYLINE
  5
9708
  8
ALPHA
 66
     1
 10
0.0
 20
0.0
 30
0.0
 70
   128
  0
VERTEX
  5
A0E7
  8
ALPHA
 10
236.152786
 20
-24.769072
 30
0.0
  0
VERTEX
  5
A0E8
  8
ALPHA
 10
235.719703
 20
-24.070449
 30
0.0
  0
VERTEX
  5
A0E9
  8
ALPHA
 10
235.154883
 20
-23.474486
 30
0.0
  0
VERTEX
  5
A0EA
  8
ALPHA
 10
234.445861
 20
-23.062453
 30
0.0
  0
VERTEX
  5
A0EB
  8
ALPHA
 10
233.650929
 20
-22.857911
 30
0.0
  0
SEQEND
  5
A0EC
  8
ALPHA
  0
LINE
  5
9709
  8
ALPHA
 10
233.552786
 20
-21.70036
 30
0.0
 11
237.077301
 21
-21.70036
 31
0.0
  0
LINE
  5
970A
  8
ALPHA
 10
233.596831
 20
-21.778006
 30
0.0
 11
237.193625
 21
-21.778006
 31
0.0
  0
LINE
  5
970B
  8
ALPHA
 10
233.652786
 20
-22.473565
 30
0.0
 11
233.578668
 21
-22.499447
 31
0.0
  0
LINE
  5
970C
  8
ALPHA
 10
233.552786
 20
-21.70036
 30
0.0
 11
233.596831
 21
-21.778006
 31
0.0
  0
LINE
  5
970D
  8
ALPHA
 10
233.596831
 20
-21.778006
 30
0.0
 11
233.652786
 21
-22.113061
 31
0.0
  0
LINE
  5
970E
  8
ALPHA
 10
233.651728
 20
-22.839904
 30
0.0
 11
233.650929
 21
-22.857911
 31
0.0
  0
LINE
  5
970F
  8
ALPHA
 10
233.650924
 20
-22.858016
 30
0.0
 11
233.596878
 21
-23.142359
 31
0.0
  0
LINE
  5
9710
  8
ALPHA
 10
233.596879
 20
-23.142359
 30
0.0
 11
233.552786
 21
-23.228147
 31
0.0
  0
LINE
  5
9711
  8
ALPHA
 10
233.652756
 20
-22.794875
 30
0.0
 11
233.651728
 21
-22.839904
 31
0.0
  0
LINE
  5
9712
  8
ALPHA
 10
233.552786
 20
-22.473565
 30
0.0
 11
233.578668
 21
-22.499447
 31
0.0
  0
LINE
  5
9713
  8
ALPHA
 10
233.578668
 20
-22.499447
 30
0.0
 11
233.552786
 21
-22.523565
 31
0.0
  0
POLYLINE
  5
9714
  8
ALPHA
 66
     1
 10
0.0
 20
0.0
 30
0.0
  0
VERTEX
  5
A0ED
  8
ALPHA
 10
233.596879
 20
-23.142359
 30
0.0
  0
VERTEX
  5
A0EE
  8
ALPHA
 10
233.58276
 20
-23.143702
 30
0.0
  0
VERTEX
  5
A0EF
  8
ALPHA
 10
233.567948
 20
-23.144521
 30
0.0
  0
VERTEX
  5
A0F0
  8
ALPHA
 10
233.552786
 20
-23.144796
 30
0.0
  0
SEQEND
  5
A0F1
  8
ALPHA
  0
LINE
  5
9715
  8
ALPHA
 10
233.652786
 20
-22.113061
 30
0.0
 11
233.652756
 21
-22.794875
 31
0.0
  0
LINE
  5
9716
  8
ALPHA
 10
233.652786
 20
-20.68036
 30
0.0
 11
233.652786
 21
-21.48036
 31
0.0
  0
LINE
  5
9717
  8
ALPHA
 10
233.552786
 20
-22.473565
 30
0.0
 11
233.552786
 21
-21.70036
 31
0.0
  0
LINE
  5
9718
  8
ALPHA
 10
233.552786
 20
-23.228147
 30
0.0
 11
233.552786
 21
-22.523565
 31
0.0
  0
POLYLINE
  5
9719
  8
ALPHA
 66
     1
 10
0.0
 20
0.0
 30
0.0
  0
VERTEX
  5
A0F2
  8
ALPHA
 10
233.651728
 20
-22.839904
 30
0.0
  0
VERTEX
  5
A0F3
  8
ALPHA
 10
233.634137
 20
-22.861729
 30
0.0
  0
VERTEX
  5
A0F4
  8
ALPHA
 10
233.598527
 20
-22.877114
 30
0.0
  0
VERTEX
  5
A0F5
  8
ALPHA
 10
233.552786
 20
-22.882651
 30
0.0
  0
SEQEND
  5
A0F6
  8
ALPHA
  0
LINE
  5
971A
  8
ALPHA
 10
237.077301
 20
-21.70036
 30
0.0
 11
237.075592
 21
-21.73036
 31
0.0
  0
LINE
  5
971B
  8
ALPHA
 10
237.113218
 20
-22.078086
 30
0.0
 11
236.712853
 21
-23.277936
 31
0.0
  0
POLYLINE
  5
971C
  8
ALPHA
 66
     1
 10
0.0
 20
0.0
 30
0.0
 70
   128
210
0.0
220
0.0
230
-1.0
  0
VERTEX
  5
A0F7
  8
ALPHA
 10
-236.712853
 20
-23.277936
 30
0.0
  0
VERTEX
  5
A0F8
  8
ALPHA
 10
-236.486024
 20
-24.103471
 30
0.0
  0
VERTEX
  5
A0F9
  8
ALPHA
 10
-236.36282
 20
-24.513401
 30
0.0
  0
VERTEX
  5
A0FA
  8
ALPHA
 10
-236.288539
 20
-24.714043
 30
0.0
  0
VERTEX
  5
A0FB
  8
ALPHA
 10
-236.233405
 20
-24.805216
 30
0.0
  0
VERTEX
  5
A0FC
  8
ALPHA
 10
-236.152786
 20
-24.769072
 30
0.0
  0
SEQEND
  5
A0FD
  8
ALPHA
  0
LINE
  5
971D
  8
ALPHA
 10
237.129969
 20
-22.077554
 30
0.0
 11
237.144775
 21
-22.455381
 31
0.0
  0
LINE
  5
971E
  8
ALPHA
 10
237.128423
 20
-22.02134
 30
0.0
 11
237.129969
 21
-22.077554
 31
0.0
  0
ARC
  5
971F
  8
ALPHA
 10
236.903847
 20
-21.70036
 30
0.0
 40
0.3
 50
345.0
 51
354.26083
  0
LINE
  5
9720
  8
ALPHA
 10
237.075592
 20
-21.73036
 30
0.0
 11
237.193625
 21
-21.73036
 31
0.0
  0
LINE
  5
9721
  8
ALPHA
 10
237.077301
 20
-21.48036
 30
0.0
 11
237.077301
 21
-21.70036
 31
0.0
  0
LINE
  5
9722
  8
ALPHA
 10
236.152786
 20
-21.48036
 30
0.0
 11
236.152786
 21
-24.769072
 31
0.0
  0
LINE
  5
9723
  8
ALPHA
 10
237.193625
 20
-21.778006
 30
0.0
 11
237.113218
 21
-22.078086
 31
0.0
  0
LINE
  5
9724
  8
ALPHA
 10
233.152786
 20
-17.29036
 30
0.0
 11
235.323039
 21
-17.027516
 31
0.0
  0
LINE
  5
9725
  8
ALPHA
 10
241.152786
 20
-16.98036
 30
0.0
 11
241.152786
 21
-17.497117
 31
0.0
  0
LINE
  5
9726
  8
ALPHA
 10
247.452786
 20
-26.173747
 30
0.0
 11
247.452786
 21
-18.932082
 31
0.0
  0
LINE
  5
9727
  8
ALPHA
 10
247.584036
 20
-26.98036
 30
0.0
 11
247.452786
 21
-27.786974
 31
0.0
  0
LINE
  5
9728
  8
ALPHA
 10
247.452786
 20
-26.173747
 30
0.0
 11
247.584036
 21
-26.98036
 31
0.0
  0
LINE
  5
9729
  8
ALPHA
 10
247.452786
 20
-27.786974
 30
0.0
 11
247.157929
 21
-27.731663
 31
0.0
  0
LINE
  5
972A
  8
ALPHA
 10
247.452786
 20
-26.173747
 30
0.0
 11
247.157929
 21
-26.229058
 31
0.0
  0
LINE
  5
972B
  8
ALPHA
 10
242.402786
 20
-20.63036
 30
0.0
 11
242.527786
 21
-20.63036
 31
0.0
  0
LINE
  5
972C
  8
ALPHA
 10
242.402786
 20
-20.98036
 30
0.0
 11
242.527786
 21
-20.98036
 31
0.0
  0
LINE
  5
972D
  8
ALPHA
 10
242.527786
 20
-19.285019
 30
0.0
 11
242.527786
 21
-21.925702
 31
0.0
  0
LINE
  5
972E
  8
ALPHA
 10
242.402786
 20
-21.48036
 30
0.0
 11
242.402786
 21
-19.48036
 31
0.0
  0
LINE
  5
972F
  8
ALPHA
 10
248.152786
 20
-19.184478
 30
0.0
 11
247.88347
 21
-18.989865
 31
0.0
  0
ARC
  5
9730
  8
ALPHA
 10
247.652786
 20
-19.184478
 30
0.0
 40
0.5
 50
0.0
 51
76.672038
  0
LINE
  5
9731
  8
ALPHA
 10
247.452786
 20
-18.932082
 30
0.0
 11
247.88347
 21
-18.989865
 31
0.0
  0
LINE
  5
9732
  8
ALPHA
 10
247.452786
 20
-18.932082
 30
0.0
 11
247.520773
 21
-18.639887
 31
0.0
  0
LINE
  5
9733
  8
ALPHA
 10
247.88347
 20
-18.989865
 30
0.0
 11
247.768048
 21
-18.697945
 31
0.0
  0
LINE
  5
99C1
  8
AXE
 10
233.152786
 20
-11.98036
 30
0.0
 11
233.152786
 21
-84.98036
 31
0.0
  0
TEXT
  5
99C2
  8
AXE
 10
225.676595
 20
-84.98036
 30
0.0
 40
8.0
  1
Y
 72
     2
 11
232.152786
 21
-84.98036
 31
0.0
  0
DIMENSION
  5
99F0
  8
COTATION1
  2
*D4
 10
248.152786
 20
8.01964
 30
0.0
 11
233.152786
 21
11.26964
 31
0.0
 13
218.152786
 23
-19.184478
 33
0.0
 14
248.152786
 24
-19.184478
 34
0.0
  0
DIMENSION
  5
99F1
  8
COTATION1
  2
*D3
 10
243.152786
 20
-1.98036
 30
0.0
 11
233.152786
 21
1.26964
 31
0.0
 13
223.152786
 23
-19.90536
 33
0.0
 14
243.152786
 24
-19.90536
 34
0.0
  0
LINE
  5
9A2E
  8
AXE
 10
236.077786
 20
-26.98036
 30
0.0
 11
250.227786
 21
-26.98036
 31
0.0
  0
LINE
  5
9A2F
  8
AXE
 10
243.152786
 20
-34.05536
 30
0.0
 11
243.152786
 21
-19.90536
 31
0.0
  0
LINE
  5
9A31
  8
AXE
 10
216.077786
 20
-26.98036
 30
0.0
 11
230.227786
 21
-26.98036
 31
0.0
  0
LINE
  5
9A32
  8
AXE
 10
223.152786
 20
-34.05536
 30
0.0
 11
223.152786
 21
-19.90536
 31
0.0
  0
LINE
  5
9A57
  8
AXE
 10
213.152786
 20
-40.582401
 30
0.0
 11
263.152786
 21
-40.582401
 31
0.0
  0
TEXT
  5
9A58
  8
AXE
 10
256.676595
 20
-39.582401
 30
0.0
 40
8.0
  1
X
 72
     2
 11
263.152786
 21
-39.582401
 31
0.0
  0
DIMENSION
  5
9A59
  8
COTATION1
  2
*D6
 10
283.152786
 20
-66.98036
 30
0.0
 11
283.152786
 21
-41.98036
 31
0.0
 13
241.152786
 23
-16.98036
 33
0.0
 14
243.152786
 24
-66.98036
 34
0.0
 50
90.0
  0
DIMENSION
  5
9A5A
  8
COTATION1
  2
*D5
 10
273.152786
 20
-66.98036
 30
0.0
 11
273.152786
 21
-46.98036
 31
0.0
 13
250.227786
 23
-26.98036
 33
0.0
 14
243.152786
 24
-66.98036
 34
0.0
 50
90.0
  0
DIMENSION
  5
9B41
  8
COTATION1
  2
*D7
 10
241.583568
 20
-28.413253
 30
0.0
 11
264.883377
 21
-7.137609
 31
0.0
 70
   131
  1
2x<>
 15
244.722004
 25
-25.547468
 35
0.0
 40
0.0
1001
ACAD
1000
DSTYLE
1002
{
1070
   287
1070
     4
1070
   287
1070
     4
1070
   287
1070
     4
1070
   279
1070
     1
1070
   289
1070
     3
1002
}
  0
LINE
  5
9EF9
  8
COTATION1
 10
175.547086
 20
-23.071402
 30
0.0
 11
202.047086
 21
-23.071402
 31
0.0
  0
LINE
  5
9EFA
  8
COTATION1
 10
202.047086
 20
-28.071402
 30
0.0
 11
175.547086
 21
-28.071402
 31
0.0
  0
LINE
  5
9EFB
  8
COTATION1
 10
180.696734
 20
-55.530324
 30
0.0
 11
217.153663
 21
-55.530324
 31
0.0
  0
LINE
  5
9EFC
  8
COTATION1
 10
188.797086
 20
-53.030324
 30
0.0
 11
188.797086
 21
-28.071402
 31
0.0
  0
SOLID
  5
9EFD
  8
COTATION1
 10
190.240462
 20
-55.530324
 30
0.0
 11
187.353711
 21
-55.530324
 31
0.0
 12
188.797086
 22
-53.030324
 32
0.0
 13
188.797086
 23
-53.030324
 33
0.0
  0
TEXT
  5
9EFE
  8
COTATION1
 10
176.797086
 20
-26.821402
 30
0.0
 40
2.5
  1
PLANE_TO_LINE_UP
 41
0.626087
  7
STANDARD
 72
     5
 11
200.797086
 21
-26.821402
 31
0.0
  0
LINE
  5
9EFF
  8
COTATION1
 10
175.547086
 20
-28.071402
 30
0.0
 11
175.547086
 21
-23.071402
 31
0.0
  0
LINE
  5
9F80
  8
COTATION1
 10
202.047086
 20
-23.071402
 30
0.0
 11
202.047086
 21
-28.071402
 31
0.0
  0
LINE
  5
9FE2
  8
POINTILLE_COURT
 10
248.152786
 20
-55.530324
 30
0.0
 11
219.153663
 21
-55.530324
 31
0.0
  0
VIEWPORT
  5
494D
 67
     1
  8
0
 10
4.995325
 20
6.556512
 30
0.0
 40
22.70986
 41
13.988421
 68
    -1
 69
     1
1001
ACAD
1000
MVIEW
1002
{
1070
    16
1010
0.0
1020
0.0
1030
0.0
1010
0.0
1020
0.0
1030
1.0
1040
0.0
1040
13.988421
1040
4.995325
1040
6.556512
1040
50.0
1040
0.0
1040
0.0
1070
     0
1070
   100
1070
     1
1070
     1
1070
     0
1070
     0
1070
     0
1070
     0
1040
0.0
1040
0.0
1040
0.0
1040
10.0
1040
10.0
1040
10.0
1040
10.0
1070
     0
1002
{
1002
}
1002
}
  0
ENDSEC
  0
EOF
