  0
SECTION
  2
HEADER
  9
$ACADVER
  1
AC1009
  9
$INSBASE
 10
-146.27124
 20
-153.796096
 30
0.0
  9
$EXTMIN
 10
1153.672808
 20
-74.523066
 30
0.0
  9
$EXTMAX
 10
1466.512554
 20
258.81668
 30
0.0
  9
$LIMMIN
 10
-407.970438
 20
-367.832444
  9
$LIMMAX
 10
429.804077
 20
234.370848
  9
$ORTHOMODE
 70
     1
  9
$REGENMODE
 70
     1
  9
$FILLMODE
 70
     1
  9
$QTEXTMODE
 70
     0
  9
$MIRRTEXT
 70
     1
  9
$DRAGMODE
 70
     2
  9
$LTSCALE
 40
10.0
  9
$OSMODE
 70
    33
  9
$ATTMODE
 70
     1
  9
$TEXTSIZE
 40
6.0
  9
$TRACEWID
 40
1.0
  9
$TEXTSTYLE
  7
ROMANS
  9
$CLAYER
  8
COTATION1
  9
$CELTYPE
  6
BYLAYER
  9
$CECOLOR
 62
   256
  9
$DIMSCALE
 40
1.0
  9
$DIMASZ
 40
5.0
  9
$DIMEXO
 40
2.0
  9
$DIMDLI
 40
0.1
  9
$DIMRND
 40
0.0
  9
$DIMDLE
 40
0.0
  9
$DIMEXE
 40
0.5
  9
$DIMTP
 40
0.0
  9
$DIMTM
 40
0.0
  9
$DIMTXT
 40
5.0
  9
$DIMCEN
 40
0.0
  9
$DIMTSZ
 40
0.0
  9
$DIMTOL
 70
     0
  9
$DIMLIM
 70
     0
  9
$DIMTIH
 70
     0
  9
$DIMTOH
 70
     0
  9
$DIMSE1
 70
     0
  9
$DIMSE2
 70
     0
  9
$DIMTAD
 70
     1
  9
$DIMZIN
 70
    12
  9
$DIMBLK
  1
OPEN30
  9
$DIMASO
 70
     1
  9
$DIMSHO
 70
     1
  9
$DIMPOST
  1

  9
$DIMAPOST
  1

  9
$DIMALT
 70
     0
  9
$DIMALTD
 70
     2
  9
$DIMALTF
 40
25.4
  9
$DIMLFAC
 40
1.0
  9
$DIMTOFL
 70
     0
  9
$DIMTVP
 40
0.0
  9
$DIMTIX
 70
     0
  9
$DIMSOXD
 70
     0
  9
$DIMSAH
 70
     0
  9
$DIMBLK1
  1

  9
$DIMBLK2
  1

  9
$DIMSTYLE
  2
SC_DEFAUT
  9
$DIMCLRD
 70
     0
  9
$DIMCLRE
 70
     0
  9
$DIMCLRT
 70
     0
  9
$DIMTFAC
 40
1.0
  9
$DIMGAP
 40
2.0
  9
$LUNITS
 70
     2
  9
$LUPREC
 70
     1
  9
$SKETCHINC
 40
0.1
  9
$FILLETRAD
 40
0.0
  9
$AUNITS
 70
     0
  9
$AUPREC
 70
     0
  9
$MENU
  1
acad
  9
$ELEVATION
 40
0.0
  9
$PELEVATION
 40
0.0
  9
$THICKNESS
 40
0.0
  9
$LIMCHECK
 70
     0
  9
$BLIPMODE
 70
     0
  9
$CHAMFERA
 40
0.0
  9
$CHAMFERB
 40
0.0
  9
$SKPOLY
 70
     0
  9
$TDCREATE
 40
2450365.355314
  9
$TDUPDATE
 40
2452576.578331
  9
$TDINDWG
 40
0.841286
  9
$TDUSRTIMER
 40
0.841286
  9
$USRTIMER
 70
     1
  9
$ANGBASE
 50
0.0
  9
$ANGDIR
 70
     0
  9
$PDMODE
 70
    32
  9
$PDSIZE
 40
0.0
  9
$PLINEWID
 40
0.0
  9
$COORDS
 70
     2
  9
$SPLFRAME
 70
     0
  9
$SPLINETYPE
 70
     6
  9
$SPLINESEGS
 70
     8
  9
$ATTDIA
 70
     0
  9
$ATTREQ
 70
     1
  9
$HANDLING
 70
     1
  9
$HANDSEED
  5
6208
  9
$SURFTAB1
 70
     6
  9
$SURFTAB2
 70
     6
  9
$SURFTYPE
 70
     6
  9
$SURFU
 70
     6
  9
$SURFV
 70
     6
  9
$UCSNAME
  2

  9
$UCSORG
 10
0.0
 20
0.0
 30
0.0
  9
$UCSXDIR
 10
1.0
 20
0.0
 30
0.0
  9
$UCSYDIR
 10
0.0
 20
1.0
 30
0.0
  9
$PUCSNAME
  2

  9
$PUCSORG
 10
0.0
 20
0.0
 30
0.0
  9
$PUCSXDIR
 10
1.0
 20
0.0
 30
0.0
  9
$PUCSYDIR
 10
0.0
 20
1.0
 30
0.0
  9
$USERI1
 70
     0
  9
$USERI2
 70
     0
  9
$USERI3
 70
     0
  9
$USERI4
 70
     0
  9
$USERI5
 70
     0
  9
$USERR1
 40
0.0
  9
$USERR2
 40
0.0
  9
$USERR3
 40
0.0
  9
$USERR4
 40
0.0
  9
$USERR5
 40
0.0
  9
$WORLDVIEW
 70
     1
  9
$SHADEDGE
 70
     3
  9
$SHADEDIF
 70
    70
  9
$TILEMODE
 70
     1
  9
$MAXACTVP
 70
    16
  9
$PLIMCHECK
 70
     0
  9
$PEXTMIN
 10
1.000000E+020
 20
1.000000E+020
 30
1.000000E+020
  9
$PEXTMAX
 10
-1.000000E+020
 20
-1.000000E+020
 30
-1.000000E+020
  9
$PLIMMIN
 10
0.0
 20
0.0
  9
$PLIMMAX
 10
12.0
 20
9.0
  9
$UNITMODE
 70
     0
  9
$VISRETAIN
 70
     0
  9
$PLINEGEN
 70
     0
  9
$PSLTSCALE
 70
     0
  0
ENDSEC
  0
SECTION
  2
TABLES
  0
TABLE
  2
VPORT
 70
     2
  0
VPORT
  2
*ACTIVE
 70
     0
 10
0.0
 20
0.0
 11
1.0
 21
1.0
 12
1310.091975
 22
92.151371
 13
0.0
 23
0.0
 14
1.0
 24
1.0
 15
10.0
 25
10.0
 16
0.0
 26
0.0
 36
1.0
 17
0.0
 27
0.0
 37
0.0
 40
336.395421
 41
1.63142
 42
50.0
 43
0.0
 44
0.0
 50
0.0
 51
0.0
 71
     0
 72
   100
 73
     1
 74
     0
 75
     0
 76
     0
 77
     0
 78
     0
  0
ENDTAB
  0
TABLE
  2
LTYPE
 70
    24
  0
LTYPE
  2
CONTINUOUS
 70
     0
  3
Solid line
 72
    65
 73
     0
 40
0.0
  0
LTYPE
  2
AXES2
 70
     0
  3
___ _ ___ _ ___ _ ___ _ ___ _ ___ _ ___ _ ___ _
 72
    65
 73
     4
 40
1.125
 49
0.75
 49
-0.125
 49
0.125
 49
-0.125
  0
LTYPE
  2
AXES
 70
     0
  3
____ _ ____ _ ____ _ ____ _ ____ _ ____ _ ____ 
 72
    65
 73
     4
 40
2.0
 49
1.25
 49
-0.25
 49
0.25
 49
-0.25
  0
LTYPE
  2
AXESX2
 70
     0
  3
________  __  ________  __  ________  __  _____
 72
    65
 73
     4
 40
4.0
 49
2.5
 49
-0.5
 49
0.5
 49
-0.5
  0
LTYPE
  2
TIRETPT
 70
     0
  3
__ . __ . __ . __ . __ . __ . __ . __ . __ . __
 72
    65
 73
     4
 40
1.0
 49
0.5
 49
-0.25
 49
0.0
 49
-0.25
  0
LTYPE
  2
TIRETPT2
 70
     0
  3
_._._._._._._._._._._._._._._._._._._._._._._._
 72
    65
 73
     4
 40
0.5
 49
0.25
 49
-0.125
 49
0.0
 49
-0.125
  0
LTYPE
  2
TIRETPTX2
 70
     0
  3
____  .  ____  .  ____  .  ____  .  ____  .  __
 72
    65
 73
     4
 40
2.0
 49
1.0
 49
-0.5
 49
0.0
 49
-0.5
  0
LTYPE
  2
DISCONTINU
 70
     0
  3
__ __ __ __ __ __ __ __ __ __ __ __ __ __ __ __
 72
    65
 73
     2
 40
0.75
 49
0.5
 49
-0.25
  0
LTYPE
  2
DISCONTINU2
 70
     0
  3
_ _ _ _ _ _ _ _ _ _ _ _ _ _ _ _ _ _ _ _ _ _ _ _
 72
    65
 73
     2
 40
0.375
 49
0.25
 49
-0.125
  0
LTYPE
  2
DISCONTINUX2
 70
     0
  3
____  ____  ____  ____  ____  ____  ____  ____ 
 72
    65
 73
     2
 40
1.5
 49
1.0
 49
-0.5
  0
LTYPE
  2
DIVISE
 70
     0
  3
____ . . ____ . . ____ . . ____ . . ____ . . __
 72
    65
 73
     6
 40
1.25
 49
0.5
 49
-0.25
 49
0.0
 49
-0.25
 49
0.0
 49
-0.25
  0
LTYPE
  2
DIVISE2
 70
     0
  3
__..__..__..__..__..__..__..__..__..__..__..__.
 72
    65
 73
     6
 40
0.625
 49
0.25
 49
-0.125
 49
0.0
 49
-0.125
 49
0.0
 49
-0.125
  0
LTYPE
  2
DIVISEX2
 70
     0
  3
________  .  .  ________  .  .  ________  .  . 
 72
    65
 73
     6
 40
2.5
 49
1.0
 49
-0.5
 49
0.0
 49
-0.5
 49
0.0
 49
-0.5
  0
LTYPE
  2
POINTILLE
 70
     0
  3
. . . . . . . . . . . . . . . . . . . . . . . .
 72
    65
 73
     2
 40
0.25
 49
0.0
 49
-0.25
  0
LTYPE
  2
POINTILLE2
 70
     0
  3
...............................................
 72
    65
 73
     2
 40
0.125
 49
0.0
 49
-0.125
  0
LTYPE
  2
POINTILLEX2
 70
     0
  3
.  .  .  .  .  .  .  .  .  .  .  .  .  .  .  . 
 72
    65
 73
     2
 40
0.5
 49
0.0
 49
-0.5
  0
LTYPE
  2
CACHE
 70
     0
  3
__ __ __ __ __ __ __ __ __ __ __ __ __ __ __ __
 72
    65
 73
     2
 40
0.375
 49
0.25
 49
-0.125
  0
LTYPE
  2
CACHE2
 70
     0
  3
_ _ _ _ _ _ _ _ _ _ _ _ _ _ _ _ _ _ _ _ _ _ _ _
 72
    65
 73
     2
 40
0.1875
 49
0.125
 49
-0.0625
  0
LTYPE
  2
CACHEX2
 70
     0
  3
____ ____ ____ ____ ____ ____ ____ ____ ____ __
 72
    65
 73
     2
 40
0.75
 49
0.5
 49
-0.25
  0
LTYPE
  2
FANTOME
 70
     0
  3
______  __  __  ______  __  __  ______  __  __ 
 72
    65
 73
     6
 40
2.5
 49
1.25
 49
-0.25
 49
0.25
 49
-0.25
 49
0.25
 49
-0.25
  0
LTYPE
  2
FANTOME2
 70
     0
  3
___ _ _ ___ _ _ ___ _ _ ___ _ _ ___ _ _ ___ _ _
 72
    65
 73
     6
 40
1.25
 49
0.625
 49
-0.125
 49
0.125
 49
-0.125
 49
0.125
 49
-0.125
  0
LTYPE
  2
FANTOMEX2
 70
     0
  3
____________    ____    ____    ____________   
 72
    65
 73
     6
 40
5.0
 49
2.5
 49
-0.5
 49
0.5
 49
-0.5
 49
0.5
 49
-0.5
  0
LTYPE
  2
0
 70
     0
  3
MEDUSA PEN 0
 72
    65
 73
     0
 40
0.0
  0
LTYPE
  2
ACAD_ISO04W100
 70
     0
  3
ISO Lang gestrichelt punktiert ____ . ____ . __
 72
    65
 73
     4
 40
30.5
 49
24.0
 49
-3.0
 49
0.5
 49
-3.0
  0
ENDTAB
  0
TABLE
  2
LAYER
 70
    17
  0
LAYER
  2
0
 70
     0
 62
     7
  6
CONTINUOUS
  0
LAYER
  2
TEXTE_MOYEN
 70
     0
 62
   131
  6
CONTINUOUS
  0
LAYER
  2
ALPHA
 70
     0
 62
   254
  6
CONTINUOUS
  0
LAYER
  2
COTATION1
 70
     0
 62
    50
  6
CONTINUOUS
  0
LAYER
  2
AXE
 70
     0
 62
    80
  6
AXES2
  0
LAYER
  2
DEFPOINTS
 70
     0
 62
     7
  6
CONTINUOUS
  0
LAYER
  2
HACHURES1
 70
     0
 62
   130
  6
CONTINUOUS
  0
LAYER
  2
FMULT
 70
     0
 62
   210
  6
CONTINUOUS
  0
LAYER
  2
FDP_CARTOUCHE
 70
     0
 62
   136
  6
CONTINUOUS
  0
LAYER
  2
FDP_TEXTES
 70
     0
 62
   171
  6
CONTINUOUS
  0
LAYER
  2
FDP_LOGO_MG
 70
     0
 62
    30
  6
CONTINUOUS
  0
LAYER
  2
FDP_LOGO_SCH
 70
     0
 62
    90
  6
CONTINUOUS
  0
LAYER
  2
FDP_FDP
 70
     0
 62
   170
  6
CONTINUOUS
  0
LAYER
  2
POINTILLE_COURT2
 70
     0
 62
    41
  6
CACHE2
  0
LAYER
  2
POINTILLE_MOYEN2
 70
     0
 62
   141
  6
CACHE
  0
LAYER
  2
POINTILLE_LONG2
 70
     0
 62
   241
  6
CACHEX2
  0
LAYER
  2
ALPHA_FIN
 70
     0
 62
   255
  6
CONTINUOUS
  0
ENDTAB
  0
TABLE
  2
STYLE
 70
     4
  0
STYLE
  2
ROMANS
 70
     0
 40
0.0
 41
1.0
 50
0.0
 71
     0
 42
6.0
  3
romans
  4

  0
STYLE
  2
STANDARD
 70
     0
 40
0.2
 41
1.0
 50
0.0
 71
     0
 42
0.2
  3
txt
  4

  0
STYLE
  2
CARTOUCHE
 70
     0
 40
0.0
 41
1.0
 50
0.0
 71
     0
 42
0.2
  3
ROMANS.SHX
  4

  0
STYLE
  2
STD
 70
     0
 40
0.0
 41
1.0
 50
0.0
 71
     0
 42
0.0
  3
txt
  4

  0
ENDTAB
  0
TABLE
  2
VIEW
 70
     0
  0
ENDTAB
  0
TABLE
  2
UCS
 70
     0
  0
ENDTAB
  0
TABLE
  2
APPID
 70
     3
  0
APPID
  2
ACAD
 70
     0
  0
APPID
  2
AVE_RENDER
 70
     0
  0
APPID
  2
AVE_MATERIAL
 70
     0
  0
ENDTAB
  0
TABLE
  2
DIMSTYLE
 70
     2
  0
DIMSTYLE
  2
SC_DEFAUT
 70
     0
  3

  4

  5
OPEN30
  6

  7

 40
1.0
 41
5.0
 42
2.0
 43
0.1
 44
0.5
 45
0.0
 46
0.0
 47
0.0
 48
0.0
140
5.0
141
0.0
142
0.0
143
25.4
144
1.0
145
0.0
146
1.0
147
2.0
 71
     0
 72
     0
 73
     0
 74
     0
 75
     0
 76
     0
 77
     1
 78
    12
170
     0
171
     2
172
     0
173
     0
174
     0
175
     0
176
     0
177
     0
178
     0
  0
DIMSTYLE
  2
STANDARD
 70
     0
  3

  4

  5

  6

  7

 40
1.0
 41
0.18
 42
0.0625
 43
0.38
 44
0.18
 45
0.0
 46
0.0
 47
0.0
 48
0.0
140
0.18
141
0.09
142
0.0
143
25.4
144
1.0
145
0.0
146
1.0
147
0.09
 71
     0
 72
     0
 73
     1
 74
     1
 75
     0
 76
     0
 77
     0
 78
     0
170
     0
171
     2
172
     0
173
     0
174
     0
175
     0
176
     0
177
     0
178
     0
  0
ENDTAB
  0
ENDSEC
  0
SECTION
  2
BLOCKS
  0
BLOCK
  8
0
  2
$MODEL_SPACE
 70
     0
 10
0.0
 20
0.0
 30
0.0
  3
$MODEL_SPACE
  1

  0
ENDBLK
  5
61FD
  8
0
  0
BLOCK
 67
     1
  8
0
  2
$PAPER_SPACE
 70
     0
 10
0.0
 20
0.0
 30
0.0
  3
$PAPER_SPACE
  1

  0
ENDBLK
  5
61FB
 67
     1
  8
0
  0
BLOCK
  8
0
  2
COTE
 70
     0
 10
0.0
 20
0.0
 30
0.0
  3
COTE
  1

  0
ENDBLK
  5
35
  8
0
  0
BLOCK
  8
0
  2
FOND
 70
     0
 10
0.0
 20
0.0
 30
0.0
  3
FOND
  1

  0
ENDBLK
  5
39
  8
0
  0
BLOCK
  8
0
  2
SCH_ISO
 70
     0
 10
0.0
 20
0.0
 30
0.0
  3
SCH_ISO
  1

  0
ENDBLK
  5
24AD
  8
0
  0
BLOCK
  8
0
  2
_OPEN30
 70
     0
 10
0.0
 20
0.0
 30
0.0
  3
_OPEN30
  1

  0
LINE
  5
27E1
  8
COTATION1
 62
     0
 10
-1.0
 20
0.267949
 30
0.0
 11
0.0
 21
0.0
 31
0.0
1001
ACAD
1000
RTLwPs
1070
   158
  0
LINE
  5
27E2
  8
COTATION1
 62
     0
 10
0.0
 20
0.0
 30
0.0
 11
-1.0
 21
-0.267949
 31
0.0
1001
ACAD
1000
RTLwPs
1070
   158
  0
LINE
  5
27E3
  8
COTATION1
 62
     0
 10
0.0
 20
0.0
 30
0.0
 11
-1.0
 21
0.0
 31
0.0
1001
ACAD
1000
RTLwPs
1070
   158
  0
ENDBLK
  5
27E5
  8
0
  0
BLOCK
  8
0
  2
*D4
 70
     1
 10
0.0
 20
0.0
 30
0.0
  3
*D4
  1

  0
LINE
  5
5CD0
  8
COTATION1
 62
     0
 10
1175.547808
 20
-5.18332
 30
0.0
 11
1160.172808
 21
-5.18332
 31
0.0
1001
ACAD
1000
RTLwPs
1070
   158
  0
LINE
  5
5CD1
  8
COTATION1
 62
     0
 10
1175.547808
 20
-17.18332
 30
0.0
 11
1160.172808
 21
-17.18332
 31
0.0
1001
ACAD
1000
RTLwPs
1070
   158
  0
LINE
  5
5CD2
  8
COTATION1
 62
     0
 10
1160.672808
 20
-0.18332
 30
0.0
 11
1160.672808
 21
4.81668
 31
0.0
1001
ACAD
1000
RTLwPs
1070
   158
  0
LINE
  5
5CD3
  8
COTATION1
 62
     0
 10
1160.672808
 20
-22.18332
 30
0.0
 11
1160.672808
 21
-44.754749
 31
0.0
1001
ACAD
1000
RTLwPs
1070
   158
  0
INSERT
  5
5CD4
  8
COTATION1
 62
     0
  2
_OPEN30
 10
1160.672808
 20
-5.18332
 30
0.0
 41
5.0
 42
5.0
 43
5.0
 50
270.0
1001
ACAD
1000
RTLwPs
1070
   158
  0
INSERT
  5
5CD5
  8
COTATION1
 62
     0
  2
_OPEN30
 10
1160.672808
 20
-17.18332
 30
0.0
 41
5.0
 42
5.0
 43
5.0
 50
90.0
1001
ACAD
1000
RTLwPs
1070
   158
  0
TEXT
  5
5CD6
  8
COTATION1
 62
     0
 10
1158.672808
 20
-43.70713
 30
0.0
 40
5.0
  1
M12
 50
90.0
1001
ACAD
1000
MTEXTBEGIN
1070
    73
1070
     1
1070
    44
1040
1.0
1070
    74
1070
     0
1000
MTEXTEND
1000
MTEXTBEGIN
1070
    73
1070
     1
1070
    44
1040
1.0
1070
    74
1070
     0
1000
MTEXTEND
1000
MTEXTBEGIN
1070
    73
1070
     1
1070
    44
1040
1.0
1070
    74
1070
     0
1000
MTEXTEND
  0
POINT
  5
5CD7
  8
DEFPOINTS
 62
     0
 10
1177.547808
 20
-5.18332
 30
0.0
  0
POINT
  5
5CD8
  8
DEFPOINTS
 62
     0
 10
1177.547808
 20
-17.18332
 30
0.0
  0
POINT
  5
5CD9
  8
DEFPOINTS
 62
     0
 10
1160.672808
 20
-17.18332
 30
0.0
  0
ENDBLK
  5
5351
  8
0
  0
BLOCK
  8
0
  2
*D5
 70
     1
 10
0.0
 20
0.0
 30
0.0
  3
*D5
  1

  0
LINE
  5
603E
  8
COTATION1
 62
     0
 10
1352.672808
 20
-29.43332
 30
0.0
 11
1450.672808
 21
-29.43332
 31
0.0
1001
ACAD
1000
RTLwPs
1070
   158
  0
LINE
  5
603F
  8
COTATION1
 62
     0
 10
1352.672808
 20
193.06668
 30
0.0
 11
1450.672808
 21
193.06668
 31
0.0
1001
ACAD
1000
RTLwPs
1070
   158
  0
LINE
  5
6040
  8
COTATION1
 62
     0
 10
1450.172808
 20
-24.43332
 30
0.0
 11
1450.172808
 21
188.06668
 31
0.0
1001
ACAD
1000
RTLwPs
1070
   158
  0
INSERT
  5
6041
  8
COTATION1
 62
     0
  2
_OPEN30
 10
1450.172808
 20
-29.43332
 30
0.0
 41
5.0
 42
5.0
 43
5.0
 50
270.0
1001
ACAD
1000
RTLwPs
1070
   158
  0
INSERT
  5
6042
  8
COTATION1
 62
     0
  2
_OPEN30
 10
1450.172808
 20
193.06668
 30
0.0
 41
5.0
 42
5.0
 43
5.0
 50
90.0
1001
ACAD
1000
RTLwPs
1070
   158
  0
TEXT
  5
6043
  8
COTATION1
 62
     0
 10
1448.172808
 20
71.102394
 30
0.0
 40
5.0
  1
222.5
 50
90.0
1001
ACAD
1000
MTEXTBEGIN
1070
    73
1070
     1
1070
    44
1040
1.0
1070
    74
1070
     0
1000
MTEXTEND
1000
MTEXTBEGIN
1070
    73
1070
     1
1070
    44
1040
1.0
1070
    74
1070
     0
1000
MTEXTEND
1000
MTEXTBEGIN
1070
    73
1070
     1
1070
    44
1040
1.0
1070
    74
1070
     0
1000
MTEXTEND
  0
POINT
  5
6044
  8
DEFPOINTS
 62
     0
 10
1350.672808
 20
-29.43332
 30
0.0
  0
POINT
  5
6045
  8
DEFPOINTS
 62
     0
 10
1350.672808
 20
193.06668
 30
0.0
  0
POINT
  5
6046
  8
DEFPOINTS
 62
     0
 10
1450.172808
 20
193.06668
 30
0.0
  0
ENDBLK
  5
53A3
  8
0
  0
BLOCK
  8
0
  2
*D6
 70
     1
 10
0.0
 20
0.0
 30
0.0
  3
*D6
  1

  0
LINE
  5
602C
  8
COTATION1
 62
     0
 10
1397.172808
 20
196.81668
 30
0.0
 11
1465.672808
 21
196.81668
 31
0.0
1001
ACAD
1000
RTLwPs
1070
   158
  0
LINE
  5
602D
  8
COTATION1
 62
     0
 10
1397.172808
 20
-33.18332
 30
0.0
 11
1465.672808
 21
-33.18332
 31
0.0
1001
ACAD
1000
RTLwPs
1070
   158
  0
LINE
  5
602E
  8
COTATION1
 62
     0
 10
1465.172808
 20
191.81668
 30
0.0
 11
1465.172808
 21
-28.18332
 31
0.0
1001
ACAD
1000
RTLwPs
1070
   158
  0
INSERT
  5
602F
  8
COTATION1
 62
     0
  2
_OPEN30
 10
1465.172808
 20
196.81668
 30
0.0
 41
5.0
 42
5.0
 43
5.0
 50
90.0
1001
ACAD
1000
RTLwPs
1070
   158
  0
INSERT
  5
6030
  8
COTATION1
 62
     0
  2
_OPEN30
 10
1465.172808
 20
-33.18332
 30
0.0
 41
5.0
 42
5.0
 43
5.0
 50
270.0
1001
ACAD
1000
RTLwPs
1070
   158
  0
TEXT
  5
6031
  8
COTATION1
 62
     0
 10
1463.172808
 20
74.673822
 30
0.0
 40
5.0
  1
230
 50
90.0
1001
ACAD
1000
MTEXTBEGIN
1070
    73
1070
     1
1070
    44
1040
1.0
1070
    74
1070
     0
1000
MTEXTEND
1000
MTEXTBEGIN
1070
    73
1070
     1
1070
    44
1040
1.0
1070
    74
1070
     0
1000
MTEXTEND
1000
MTEXTBEGIN
1070
    73
1070
     1
1070
    44
1040
1.0
1070
    74
1070
     0
1000
MTEXTEND
  0
POINT
  5
6032
  8
DEFPOINTS
 62
     0
 10
1395.172808
 20
196.81668
 30
0.0
  0
POINT
  5
6033
  8
DEFPOINTS
 62
     0
 10
1395.172808
 20
-33.18332
 30
0.0
  0
POINT
  5
6034
  8
DEFPOINTS
 62
     0
 10
1465.172808
 20
-33.18332
 30
0.0
  0
ENDBLK
  5
53E6
  8
0
  0
BLOCK
  8
0
  2
*D7
 70
     1
 10
0.0
 20
0.0
 30
0.0
  3
*D7
  1

  0
LINE
  5
5E02
  8
COTATION1
 62
     0
 10
1190.172808
 20
198.81668
 30
0.0
 11
1190.172808
 21
222.31668
 31
0.0
1001
ACAD
1000
RTLwPs
1070
   158
  0
LINE
  5
5E03
  8
COTATION1
 62
     0
 10
1250.172808
 20
183.81668
 30
0.0
 11
1250.172808
 21
222.31668
 31
0.0
1001
ACAD
1000
RTLwPs
1070
   158
  0
LINE
  5
5E04
  8
COTATION1
 62
     0
 10
1195.172808
 20
221.81668
 30
0.0
 11
1245.172808
 21
221.81668
 31
0.0
1001
ACAD
1000
RTLwPs
1070
   158
  0
INSERT
  5
5E05
  8
COTATION1
 62
     0
  2
_OPEN30
 10
1190.172808
 20
221.81668
 30
0.0
 41
5.0
 42
5.0
 43
5.0
 50
180.0
1001
ACAD
1000
RTLwPs
1070
   158
  0
INSERT
  5
5E06
  8
COTATION1
 62
     0
  2
_OPEN30
 10
1250.172808
 20
221.81668
 30
0.0
 41
5.0
 42
5.0
 43
5.0
1001
ACAD
1000
RTLwPs
1070
   158
  0
TEXT
  5
5E07
  8
COTATION1
 62
     0
 10
1215.291856
 20
223.81668
 30
0.0
 40
5.0
  1
60
1001
ACAD
1000
MTEXTBEGIN
1070
    73
1070
     1
1070
    44
1040
1.0
1070
    74
1070
     0
1000
MTEXTEND
1000
MTEXTBEGIN
1070
    73
1070
     1
1070
    44
1040
1.0
1070
    74
1070
     0
1000
MTEXTEND
1000
MTEXTBEGIN
1070
    73
1070
     1
1070
    44
1040
1.0
1070
    74
1070
     0
1000
MTEXTEND
  0
POINT
  5
5E08
  8
DEFPOINTS
 62
     0
 10
1190.172808
 20
196.81668
 30
0.0
  0
POINT
  5
5E09
  8
DEFPOINTS
 62
     0
 10
1250.172808
 20
181.81668
 30
0.0
  0
POINT
  5
5E0A
  8
DEFPOINTS
 62
     0
 10
1250.172808
 20
221.81668
 30
0.0
  0
ENDBLK
  5
53FD
  8
0
  0
BLOCK
  8
0
  2
*D8
 70
     1
 10
0.0
 20
0.0
 30
0.0
  3
*D8
  1

  0
LINE
  5
5E33
  8
COTATION1
 62
     0
 10
1370.172808
 20
183.81668
 30
0.0
 11
1370.172808
 21
222.31668
 31
0.0
1001
ACAD
1000
RTLwPs
1070
   158
  0
LINE
  5
5E34
  8
COTATION1
 62
     0
 10
1395.172808
 20
198.81668
 30
0.0
 11
1395.172808
 21
222.31668
 31
0.0
1001
ACAD
1000
RTLwPs
1070
   158
  0
LINE
  5
5E35
  8
COTATION1
 62
     0
 10
1375.172808
 20
221.81668
 30
0.0
 11
1390.172808
 21
221.81668
 31
0.0
1001
ACAD
1000
RTLwPs
1070
   158
  0
INSERT
  5
5E36
  8
COTATION1
 62
     0
  2
_OPEN30
 10
1370.172808
 20
221.81668
 30
0.0
 41
5.0
 42
5.0
 43
5.0
 50
180.0
1001
ACAD
1000
RTLwPs
1070
   158
  0
INSERT
  5
5E37
  8
COTATION1
 62
     0
  2
_OPEN30
 10
1395.172808
 20
221.81668
 30
0.0
 41
5.0
 42
5.0
 43
5.0
1001
ACAD
1000
RTLwPs
1070
   158
  0
TEXT
  5
5E38
  8
COTATION1
 62
     0
 10
1377.910903
 20
223.81668
 30
0.0
 40
5.0
  1
25
1001
ACAD
1000
MTEXTBEGIN
1070
    73
1070
     1
1070
    44
1040
1.0
1070
    74
1070
     0
1000
MTEXTEND
1000
MTEXTBEGIN
1070
    73
1070
     1
1070
    44
1040
1.0
1070
    74
1070
     0
1000
MTEXTEND
1000
MTEXTBEGIN
1070
    73
1070
     1
1070
    44
1040
1.0
1070
    74
1070
     0
1000
MTEXTEND
  0
POINT
  5
5E39
  8
DEFPOINTS
 62
     0
 10
1370.172808
 20
181.81668
 30
0.0
  0
POINT
  5
5E3A
  8
DEFPOINTS
 62
     0
 10
1395.172808
 20
196.81668
 30
0.0
  0
POINT
  5
5E3B
  8
DEFPOINTS
 62
     0
 10
1395.172808
 20
221.81668
 30
0.0
  0
ENDBLK
  5
540A
  8
0
  0
BLOCK
  8
0
  2
*D9
 70
     1
 10
0.0
 20
0.0
 30
0.0
  3
*D9
  1

  0
LINE
  5
5DDE
  8
COTATION1
 62
     0
 10
1395.172808
 20
198.81668
 30
0.0
 11
1395.172808
 21
252.31668
 31
0.0
1001
ACAD
1000
RTLwPs
1070
   158
  0
LINE
  5
5DDF
  8
COTATION1
 62
     0
 10
1190.172808
 20
198.81668
 30
0.0
 11
1190.172808
 21
252.31668
 31
0.0
1001
ACAD
1000
RTLwPs
1070
   158
  0
LINE
  5
5DE0
  8
COTATION1
 62
     0
 10
1390.172808
 20
251.81668
 30
0.0
 11
1195.172808
 21
251.81668
 31
0.0
1001
ACAD
1000
RTLwPs
1070
   158
  0
INSERT
  5
5DE1
  8
COTATION1
 62
     0
  2
_OPEN30
 10
1395.172808
 20
251.81668
 30
0.0
 41
5.0
 42
5.0
 43
5.0
1001
ACAD
1000
RTLwPs
1070
   158
  0
INSERT
  5
5DE2
  8
COTATION1
 62
     0
  2
_OPEN30
 10
1190.172808
 20
251.81668
 30
0.0
 41
5.0
 42
5.0
 43
5.0
 50
180.0
1001
ACAD
1000
RTLwPs
1070
   158
  0
TEXT
  5
5DE3
  8
COTATION1
 62
     0
 10
1285.529951
 20
253.81668
 30
0.0
 40
5.0
  1
205
1001
ACAD
1000
MTEXTBEGIN
1070
    73
1070
     1
1070
    44
1040
1.0
1070
    74
1070
     0
1000
MTEXTEND
1000
MTEXTBEGIN
1070
    73
1070
     1
1070
    44
1040
1.0
1070
    74
1070
     0
1000
MTEXTEND
1000
MTEXTBEGIN
1070
    73
1070
     1
1070
    44
1040
1.0
1070
    74
1070
     0
1000
MTEXTEND
  0
POINT
  5
5DE4
  8
DEFPOINTS
 62
     0
 10
1395.172808
 20
196.81668
 30
0.0
  0
POINT
  5
5DE5
  8
DEFPOINTS
 62
     0
 10
1190.172808
 20
196.81668
 30
0.0
  0
POINT
  5
5DE6
  8
DEFPOINTS
 62
     0
 10
1190.172808
 20
251.81668
 30
0.0
  0
ENDBLK
  5
5429
  8
0
  0
BLOCK
  8
0
  2
*D10
 70
     1
 10
0.0
 20
0.0
 30
0.0
  3
*D10
  1

  0
LINE
  5
5E18
  8
COTATION1
 62
     0
 10
1190.172808
 20
198.81668
 30
0.0
 11
1190.172808
 21
237.31668
 31
0.0
1001
ACAD
1000
RTLwPs
1070
   158
  0
LINE
  5
5E19
  8
COTATION1
 62
     0
 10
1275.172808
 20
200.56668
 30
0.0
 11
1275.172808
 21
237.31668
 31
0.0
1001
ACAD
1000
RTLwPs
1070
   158
  0
LINE
  5
5E1A
  8
COTATION1
 62
     0
 10
1195.172808
 20
236.81668
 30
0.0
 11
1270.172808
 21
236.81668
 31
0.0
1001
ACAD
1000
RTLwPs
1070
   158
  0
INSERT
  5
5E1B
  8
COTATION1
 62
     0
  2
_OPEN30
 10
1190.172808
 20
236.81668
 30
0.0
 41
5.0
 42
5.0
 43
5.0
 50
180.0
1001
ACAD
1000
RTLwPs
1070
   158
  0
INSERT
  5
5E1C
  8
COTATION1
 62
     0
  2
_OPEN30
 10
1275.172808
 20
236.81668
 30
0.0
 41
5.0
 42
5.0
 43
5.0
1001
ACAD
1000
RTLwPs
1070
   158
  0
TEXT
  5
5E1D
  8
COTATION1
 62
     0
 10
1227.910903
 20
238.81668
 30
0.0
 40
5.0
  1
85
1001
ACAD
1000
MTEXTBEGIN
1070
    73
1070
     1
1070
    44
1040
1.0
1070
    74
1070
     0
1000
MTEXTEND
1000
MTEXTBEGIN
1070
    73
1070
     1
1070
    44
1040
1.0
1070
    74
1070
     0
1000
MTEXTEND
1000
MTEXTBEGIN
1070
    73
1070
     1
1070
    44
1040
1.0
1070
    74
1070
     0
1000
MTEXTEND
  0
POINT
  5
5E1E
  8
DEFPOINTS
 62
     0
 10
1190.172808
 20
196.81668
 30
0.0
  0
POINT
  5
5E1F
  8
DEFPOINTS
 62
     0
 10
1275.172808
 20
198.56668
 30
0.0
  0
POINT
  5
5E20
  8
DEFPOINTS
 62
     0
 10
1275.172808
 20
236.81668
 30
0.0
  0
ENDBLK
  5
5E17
  8
0
  0
BLOCK
  8
0
  2
*D11
 70
     1
 10
0.0
 20
0.0
 30
0.0
  3
*D11
  1

  0
LINE
  5
5E3E
  8
COTATION1
 62
     0
 10
1345.172808
 20
200.56668
 30
0.0
 11
1345.172808
 21
237.31668
 31
0.0
1001
ACAD
1000
RTLwPs
1070
   158
  0
LINE
  5
5E3F
  8
COTATION1
 62
     0
 10
1395.172808
 20
198.81668
 30
0.0
 11
1395.172808
 21
237.31668
 31
0.0
1001
ACAD
1000
RTLwPs
1070
   158
  0
LINE
  5
5E40
  8
COTATION1
 62
     0
 10
1350.172808
 20
236.81668
 30
0.0
 11
1390.172808
 21
236.81668
 31
0.0
1001
ACAD
1000
RTLwPs
1070
   158
  0
INSERT
  5
5E41
  8
COTATION1
 62
     0
  2
_OPEN30
 10
1345.172808
 20
236.81668
 30
0.0
 41
5.0
 42
5.0
 43
5.0
 50
180.0
1001
ACAD
1000
RTLwPs
1070
   158
  0
INSERT
  5
5E42
  8
COTATION1
 62
     0
  2
_OPEN30
 10
1395.172808
 20
236.81668
 30
0.0
 41
5.0
 42
5.0
 43
5.0
1001
ACAD
1000
RTLwPs
1070
   158
  0
TEXT
  5
5E43
  8
COTATION1
 62
     0
 10
1365.410903
 20
238.81668
 30
0.0
 40
5.0
  1
50
1001
ACAD
1000
MTEXTBEGIN
1070
    73
1070
     1
1070
    44
1040
1.0
1070
    74
1070
     0
1000
MTEXTEND
1000
MTEXTBEGIN
1070
    73
1070
     1
1070
    44
1040
1.0
1070
    74
1070
     0
1000
MTEXTEND
1000
MTEXTBEGIN
1070
    73
1070
     1
1070
    44
1040
1.0
1070
    74
1070
     0
1000
MTEXTEND
  0
POINT
  5
5E44
  8
DEFPOINTS
 62
     0
 10
1345.172808
 20
198.56668
 30
0.0
  0
POINT
  5
5E45
  8
DEFPOINTS
 62
     0
 10
1395.172808
 20
196.81668
 30
0.0
  0
POINT
  5
5E46
  8
DEFPOINTS
 62
     0
 10
1395.172808
 20
236.81668
 30
0.0
  0
ENDBLK
  5
5E48
  8
0
  0
BLOCK
  8
0
  2
*D14
 70
     1
 10
0.0
 20
0.0
 30
0.0
  3
*D14
  1

  0
LINE
  5
6054
  8
COTATION1
 62
     0
 10
1380.172808
 20
181.81668
 30
0.0
 11
1435.672808
 21
181.81668
 31
0.0
1001
ACAD
1000
RTLwPs
1070
   158
  0
LINE
  5
6055
  8
COTATION1
 62
     0
 10
1380.172808
 20
-18.18332
 30
0.0
 11
1435.672808
 21
-18.18332
 31
0.0
1001
ACAD
1000
RTLwPs
1070
   158
  0
LINE
  5
6056
  8
COTATION1
 62
     0
 10
1435.172808
 20
176.81668
 30
0.0
 11
1435.172808
 21
-13.18332
 31
0.0
1001
ACAD
1000
RTLwPs
1070
   158
  0
INSERT
  5
6057
  8
COTATION1
 62
     0
  2
_OPEN30
 10
1435.172808
 20
181.81668
 30
0.0
 41
5.0
 42
5.0
 43
5.0
 50
90.0
1001
ACAD
1000
RTLwPs
1070
   158
  0
INSERT
  5
6058
  8
COTATION1
 62
     0
  2
_OPEN30
 10
1435.172808
 20
-18.18332
 30
0.0
 41
5.0
 42
5.0
 43
5.0
 50
270.0
1001
ACAD
1000
RTLwPs
1070
   158
  0
TEXT
  5
6059
  8
COTATION1
 62
     0
 10
1433.172808
 20
74.673822
 30
0.0
 40
5.0
  1
200
 50
90.0
1001
ACAD
1000
MTEXTBEGIN
1070
    73
1070
     1
1070
    44
1040
1.0
1070
    74
1070
     0
1000
MTEXTEND
1000
MTEXTBEGIN
1070
    73
1070
     1
1070
    44
1040
1.0
1070
    74
1070
     0
1000
MTEXTEND
1000
MTEXTBEGIN
1070
    73
1070
     1
1070
    44
1040
1.0
1070
    74
1070
     0
1000
MTEXTEND
  0
POINT
  5
605A
  8
DEFPOINTS
 62
     0
 10
1378.172808
 20
181.81668
 30
0.0
  0
POINT
  5
605B
  8
DEFPOINTS
 62
     0
 10
1378.172808
 20
-18.18332
 30
0.0
  0
POINT
  5
605C
  8
DEFPOINTS
 62
     0
 10
1435.172808
 20
-18.18332
 30
0.0
  0
ENDBLK
  5
6053
  8
0
  0
BLOCK
  8
0
  2
*D15
 70
     1
 10
0.0
 20
0.0
 30
0.0
  3
*D15
  1

  0
LINE
  5
606A
  8
COTATION1
 62
     0
 10
1250.172808
 20
-20.18332
 30
0.0
 11
1250.172808
 21
-73.68332
 31
0.0
1001
ACAD
1000
RTLwPs
1070
   158
  0
LINE
  5
606B
  8
COTATION1
 62
     0
 10
1370.172808
 20
-20.18332
 30
0.0
 11
1370.172808
 21
-73.68332
 31
0.0
1001
ACAD
1000
RTLwPs
1070
   158
  0
LINE
  5
606C
  8
COTATION1
 62
     0
 10
1255.172808
 20
-73.18332
 30
0.0
 11
1365.172808
 21
-73.18332
 31
0.0
1001
ACAD
1000
RTLwPs
1070
   158
  0
INSERT
  5
606D
  8
COTATION1
 62
     0
  2
_OPEN30
 10
1250.172808
 20
-73.18332
 30
0.0
 41
5.0
 42
5.0
 43
5.0
 50
180.0
1001
ACAD
1000
RTLwPs
1070
   158
  0
INSERT
  5
606E
  8
COTATION1
 62
     0
  2
_OPEN30
 10
1370.172808
 20
-73.18332
 30
0.0
 41
5.0
 42
5.0
 43
5.0
1001
ACAD
1000
RTLwPs
1070
   158
  0
TEXT
  5
606F
  8
COTATION1
 62
     0
 10
1302.672808
 20
-71.18332
 30
0.0
 40
5.0
  1
120
1001
ACAD
1000
MTEXTBEGIN
1070
    73
1070
     1
1070
    44
1040
1.0
1070
    74
1070
     0
1000
MTEXTEND
1000
MTEXTBEGIN
1070
    73
1070
     1
1070
    44
1040
1.0
1070
    74
1070
     0
1000
MTEXTEND
1000
MTEXTBEGIN
1070
    73
1070
     1
1070
    44
1040
1.0
1070
    74
1070
     0
1000
MTEXTEND
  0
POINT
  5
6070
  8
DEFPOINTS
 62
     0
 10
1250.172808
 20
-18.18332
 30
0.0
  0
POINT
  5
6071
  8
DEFPOINTS
 62
     0
 10
1370.172808
 20
-18.18332
 30
0.0
  0
POINT
  5
6072
  8
DEFPOINTS
 62
     0
 10
1370.172808
 20
-73.18332
 30
0.0
  0
ENDBLK
  5
6069
  8
0
  0
ENDSEC
  0
SECTION
  2
ENTITIES
  0
INSERT
  5
32
  8
0
  2
COTE
 10
0.0
 20
0.0
 30
0.0
  0
INSERT
  5
36
  8
0
  2
FOND
 10
0.0
 20
0.0
 30
0.0
  0
INSERT
  5
24AE
  8
ALPHA
  2
SCH_ISO
 10
-66.27012
 20
-238.940658
 30
0.0
  0
LINE
  5
523E
  8
ALPHA
 10
1190.172808
 20
196.81668
 30
0.0
 11
1190.172808
 21
-33.18332
 31
0.0
  0
LINE
  5
523F
  8
AXE
 10
1292.672808
 20
206.81668
 30
0.0
 11
1292.672808
 21
-58.18332
 31
0.0
  0
LINE
  5
5241
  8
ALPHA
 10
1395.172808
 20
-33.18332
 30
0.0
 11
1190.172808
 21
-33.18332
 31
0.0
  0
LINE
  5
528D
  8
AXE
 10
1195.172808
 20
-11.18332
 30
0.0
 11
1170.672808
 21
-11.18332
 31
0.0
  0
LINE
  5
52F4
  8
ALPHA_FIN
 10
1190.172808
 20
-16.032834
 30
0.0
 11
1176.397322
 21
-16.032834
 31
0.0
  0
LINE
  5
52F5
  8
ALPHA_FIN
 10
1190.172808
 20
-6.333806
 30
0.0
 11
1176.397322
 21
-6.333806
 31
0.0
  0
LINE
  5
52F6
  8
ALPHA
 10
1177.547808
 20
-17.18332
 30
0.0
 11
1175.672808
 21
-15.30832
 31
0.0
  0
LINE
  5
52F7
  8
ALPHA
 10
1190.172808
 20
-17.18332
 30
0.0
 11
1177.547808
 21
-17.18332
 31
0.0
  0
LINE
  5
52F8
  8
ALPHA
 10
1190.172808
 20
-5.18332
 30
0.0
 11
1177.547808
 21
-5.18332
 31
0.0
  0
LINE
  5
52F9
  8
ALPHA
 10
1177.547808
 20
-5.18332
 30
0.0
 11
1190.172808
 21
-5.18332
 31
0.0
  0
LINE
  5
52FA
  8
ALPHA
 10
1175.672808
 20
-7.05832
 30
0.0
 11
1177.547808
 21
-5.18332
 31
0.0
  0
LINE
  5
52FB
  8
ALPHA
 10
1177.547808
 20
-5.18332
 30
0.0
 11
1177.547808
 21
-17.18332
 31
0.0
  0
LINE
  5
52FC
  8
ALPHA
 10
1175.672808
 20
-15.30832
 30
0.0
 11
1175.672808
 21
-7.05832
 31
0.0
  0
DIMENSION
  5
5344
  8
COTATION1
  2
*D4
 10
1160.672808
 20
-17.18332
 30
0.0
 11
1156.172808
 21
-35.969035
 31
0.0
  1
M<>
 13
1177.547808
 23
-5.18332
 33
0.0
 14
1177.547808
 24
-17.18332
 34
0.0
 50
90.0
  0
DIMENSION
  5
5397
  8
COTATION1
  2
*D5
 10
1450.172808
 20
193.06668
 30
0.0
 11
1445.672808
 21
81.81668
 31
0.0
 13
1350.672808
 23
-29.43332
 33
0.0
 14
1350.672808
 24
193.06668
 34
0.0
 50
90.0
  0
TEXT
  5
53BF
  8
AXE
 10
1410.194305
 20
82.81668
 30
0.0
 40
12.0
  1
Z
 72
     2
 11
1419.908591
 21
82.81668
 31
0.0
  0
LINE
  5
53C0
  8
AXE
 10
1420.172808
 20
81.81668
 30
0.0
 11
1180.172808
 21
81.81668
 31
0.0
  0
DIMENSION
  5
53DA
  8
COTATION1
  2
*D6
 10
1465.172808
 20
-33.18332
 30
0.0
 11
1460.672808
 21
81.81668
 31
0.0
 13
1395.172808
 23
196.81668
 33
0.0
 14
1395.172808
 24
-33.18332
 34
0.0
 50
90.0
  0
TEXT
  5
53F0
  8
AXE
 10
1281.396153
 20
-58.176086
 30
0.0
 40
12.0
  1
Y
 72
     2
 11
1291.110439
 21
-58.176086
 31
0.0
  0
DIMENSION
  5
53F1
  8
COTATION1
  2
*D7
 10
1250.172808
 20
221.81668
 30
0.0
 11
1220.172808
 21
226.31668
 31
0.0
 13
1190.172808
 23
196.81668
 33
0.0
 14
1250.172808
 24
181.81668
 34
0.0
  0
DIMENSION
  5
53FE
  8
COTATION1
  2
*D8
 10
1395.172808
 20
221.81668
 30
0.0
 11
1382.672808
 21
226.31668
 31
0.0
 13
1370.172808
 23
181.81668
 33
0.0
 14
1395.172808
 24
196.81668
 34
0.0
  0
DIMENSION
  5
541D
  8
COTATION1
  2
*D9
 10
1190.172808
 20
251.81668
 30
0.0
 11
1292.672808
 21
256.31668
 31
0.0
 13
1395.172808
 23
196.81668
 33
0.0
 14
1190.172808
 24
196.81668
 34
0.0
  0
TEXT
  5
55C7
  8
COTATION1
 10
1301.527104
 20
218.121452
 30
0.0
 40
5.0
  1
2x
1001
ACAD
1000
MTEXTBEGIN
1070
    73
1070
     1
1070
    44
1040
1.0
1070
    74
1070
     0
1000
MTEXTEND
1000
MTEXTBEGIN
1070
    73
1070
     1
1070
    44
1040
1.0
1070
    74
1070
     0
1000
MTEXTEND
1000
MTEXTBEGIN
1070
    73
1070
     1
1070
    44
1040
1.0
1070
    74
1070
     0
1000
MTEXTEND
1000
MTEXTBEGIN
1070
    73
1070
     1
1070
    44
1040
1.0
1070
    74
1070
     0
1000
MTEXTEND
1000
MTEXTBEGIN
1070
    73
1070
     1
1070
    44
1040
1.0
1070
    74
1070
     0
1000
MTEXTEND
1000
MTEXTBEGIN
1070
    73
1070
     1
1070
    44
1040
1.0
1070
    74
1070
     0
1000
MTEXTEND
1000
MTEXTBEGIN
1070
    73
1070
     1
1070
    44
1040
1.0
1070
    74
1070
     0
1000
MTEXTEND
1000
MTEXTBEGIN
1070
    73
1070
     1
1070
    44
1040
1.0
1070
    74
1070
     0
1000
MTEXTEND
1000
MTEXTBEGIN
1070
    73
1070
     1
1070
    44
1040
1.0
1070
    74
1070
     0
1000
MTEXTEND
1000
MTEXTBEGIN
1070
    73
1070
     1
1070
    44
1040
1.0
1070
    74
1070
     0
1000
MTEXTEND
1000
MTEXTBEGIN
1070
    73
1070
     1
1070
    44
1040
1.0
1070
    74
1070
     0
1000
MTEXTEND
1000
MTEXTBEGIN
1070
    73
1070
     1
1070
    44
1040
1.0
1070
    74
1070
     0
1000
MTEXTEND
1000
MTEXTBEGIN
1070
    73
1070
     1
1070
    44
1040
1.0
1070
    74
1070
     0
1000
MTEXTEND
1000
MTEXTBEGIN
1070
    73
1070
     1
1070
    44
1040
1.0
1070
    74
1070
     0
1000
MTEXTEND
1000
MTEXTBEGIN
1070
    73
1070
     1
1070
    44
1040
1.0
1070
    74
1070
     0
1000
MTEXTEND
1000
MTEXTBEGIN
1070
    73
1070
     1
1070
    44
1040
1.0
1070
    74
1070
     0
1000
MTEXTEND
1000
MTEXTBEGIN
1070
    73
1070
     1
1070
    44
1040
1.0
1070
    74
1070
     0
1000
MTEXTEND
1000
MTEXTBEGIN
1070
    73
1070
     1
1070
    44
1040
1.0
1070
    74
1070
     0
1000
MTEXTEND
1000
MTEXTBEGIN
1070
    73
1070
     1
1070
    44
1040
1.0
1070
    74
1070
     0
1000
MTEXTEND
1000
MTEXTBEGIN
1070
    73
1070
     1
1070
    44
1040
1.0
1070
    74
1070
     0
1000
MTEXTEND
  0
TEXT
  5
6199
  8
COTATION1
 10
1310.336628
 20
218.121452
 30
0.0
 40
5.0
  1
%%c
1001
ACAD
1000
R13OBJECT
1002
{
1005
55C7
1002
}
  0
TEXT
  5
619A
  8
COTATION1
 10
1314.860438
 20
218.121452
 30
0.0
 40
5.0
  1
5
1001
ACAD
1000
R13OBJECT
1002
{
1005
55C7
1002
}
  0
SOLID
  5
55C8
  8
COTATION1
  6
CONTINUOUS
 10
-1280.84389
 20
198.044959
 30
0.0
 11
-1276.857983
 21
194.913348
 31
0.0
 12
-1279.612778
 22
199.16841
 32
0.0
 13
-1279.612778
 23
199.16841
 33
0.0
210
0.0
220
0.0
230
-1.0
1001
ACAD
1000
DSTYLE
1002
{
1070
     5
1000
OPEN30
1070
   342
1005
74300F03000027E0
1002
}
  0
POLYLINE
  5
619B
  8
COTATION1
 66
     1
 10
0.0
 20
0.0
 30
0.0
 70
   128
1001
ACAD
1000
R13OBJECT
1002
{
1005
55C8
1002
}
  0
VERTEX
  5
6203
  8
COTATION1
 10
1280.228334
 20
198.606684
 30
0.0
  0
VERTEX
  5
6204
  8
COTATION1
 10
1296.465932
 20
216.400355
 30
0.0
  0
VERTEX
  5
6205
  8
COTATION1
 10
1320.132598
 20
216.400355
 30
0.0
  0
SEQEND
  5
6206
  8
COTATION1
  0
LINE
  5
5CCF
  8
ALPHA
 10
1395.172808
 20
196.81668
 30
0.0
 11
1190.172808
 21
196.81668
 31
0.0
  0
LINE
  5
5D5A
  8
ALPHA
 10
1250.172808
 20
181.81668
 30
0.0
 11
1250.172808
 21
-18.18332
 31
0.0
  0
LINE
  5
5D5C
  8
ALPHA
 10
1242.172808
 20
181.81668
 30
0.0
 11
1378.172808
 21
181.81668
 31
0.0
  0
LINE
  5
5D5D
  8
ALPHA
 10
1242.172808
 20
-18.18332
 30
0.0
 11
1378.172808
 21
-18.18332
 31
0.0
  0
LINE
  5
5D5E
  8
ALPHA
 10
1242.172808
 20
181.81668
 30
0.0
 11
1242.172808
 21
-18.18332
 31
0.0
  0
LINE
  5
5D7B
  8
ALPHA
 10
1370.172808
 20
181.81668
 30
0.0
 11
1370.172808
 21
-18.18332
 31
0.0
  0
LINE
  5
5D7C
  8
ALPHA
 10
1395.172808
 20
196.81668
 30
0.0
 11
1395.172808
 21
-33.18332
 31
0.0
  0
LINE
  5
5DB2
  8
AXE
 10
1275.172808
 20
198.56668
 30
0.0
 11
1275.172808
 21
187.56668
 31
0.0
  0
LINE
  5
5DB3
  8
AXE
 10
1280.672808
 20
193.06668
 30
0.0
 11
1269.672808
 21
193.06668
 31
0.0
  0
CIRCLE
  5
5DB4
  8
ALPHA
 10
1275.172808
 20
193.06668
 30
0.0
 40
2.5
  0
CIRCLE
  5
5DB6
  8
ALPHA
 10
1345.172808
 20
193.06668
 30
0.0
 40
2.5
  0
LINE
  5
5DB9
  8
AXE
 10
1345.172808
 20
198.56668
 30
0.0
 11
1345.172808
 21
187.56668
 31
0.0
  0
LINE
  5
5DBA
  8
AXE
 10
1350.672808
 20
193.06668
 30
0.0
 11
1339.672808
 21
193.06668
 31
0.0
  0
LINE
  5
5DBB
  8
AXE
 10
1275.172808
 20
-34.93332
 30
0.0
 11
1275.172808
 21
-23.93332
 31
0.0
  0
LINE
  5
5DBC
  8
AXE
 10
1280.672808
 20
-29.43332
 30
0.0
 11
1269.672808
 21
-29.43332
 31
0.0
  0
CIRCLE
  5
5DBD
  8
ALPHA
 10
1275.172808
 20
-29.43332
 30
0.0
 40
2.5
  0
LINE
  5
5DBE
  8
AXE
 10
1350.672808
 20
-29.43332
 30
0.0
 11
1339.672808
 21
-29.43332
 31
0.0
  0
LINE
  5
5DBF
  8
AXE
 10
1345.172808
 20
-34.93332
 30
0.0
 11
1345.172808
 21
-23.93332
 31
0.0
  0
CIRCLE
  5
5DC0
  8
ALPHA
 10
1345.172808
 20
-29.43332
 30
0.0
 40
2.5
  0
LINE
  5
5DC1
  8
ALPHA
 10
1378.172808
 20
181.81668
 30
0.0
 11
1378.172808
 21
-18.18332
 31
0.0
  0
DIMENSION
  5
5E0B
  8
COTATION1
  2
*D10
 10
1275.172808
 20
236.81668
 30
0.0
 11
1232.672808
 21
241.31668
 31
0.0
 13
1190.172808
 23
196.81668
 33
0.0
 14
1275.172808
 24
198.56668
 34
0.0
  0
DIMENSION
  5
5E3C
  8
COTATION1
  2
*D11
 10
1395.172808
 20
236.81668
 30
0.0
 11
1370.172808
 21
241.31668
 31
0.0
 13
1345.172808
 23
198.56668
 33
0.0
 14
1395.172808
 24
196.81668
 34
0.0
  0
DIMENSION
  5
6047
  8
COTATION1
  2
*D14
 10
1435.172808
 20
-18.18332
 30
0.0
 11
1430.672808
 21
81.81668
 31
0.0
 13
1378.172808
 23
181.81668
 33
0.0
 14
1378.172808
 24
-18.18332
 34
0.0
 50
90.0
  0
DIMENSION
  5
605D
  8
COTATION1
  2
*D15
 10
1370.172808
 20
-73.18332
 30
0.0
 11
1310.172808
 21
-68.68332
 31
0.0
 13
1250.172808
 23
-18.18332
 33
0.0
 14
1370.172808
 24
-18.18332
 34
0.0
  0
ENDSEC
  0
EOF
