  0
SECTION
  2
HEADER
  9
$ACADVER
  1
AC1009
  9
$INSBASE
 10
402.590624
 20
-1.041018
 30
0.0
  9
$EXTMIN
 10
-337.05101
 20
29.228457
 30
0.0
  9
$EXTMAX
 10
-249.586724
 20
216.228457
 30
0.0
  9
$LIMMIN
 10
-407.970438
 20
-367.832444
  9
$LIMMAX
 10
429.804077
 20
234.370848
  9
$ORTHOMODE
 70
     1
  9
$REGENMODE
 70
     1
  9
$FILLMODE
 70
     1
  9
$QTEXTMODE
 70
     0
  9
$MIRRTEXT
 70
     1
  9
$DRAGMODE
 70
     2
  9
$LTSCALE
 40
10.0
  9
$OSMODE
 70
    33
  9
$ATTMODE
 70
     1
  9
$TEXTSIZE
 40
6.0
  9
$TRACEWID
 40
1.0
  9
$TEXTSTYLE
  7
ROMANS
  9
$CLAYER
  8
ALPHA
  9
$CELTYPE
  6
BYLAYER
  9
$CECOLOR
 62
   256
  9
$DIMSCALE
 40
1.0
  9
$DIMASZ
 40
5.0
  9
$DIMEXO
 40
2.0
  9
$DIMDLI
 40
0.38
  9
$DIMRND
 40
0.0
  9
$DIMDLE
 40
0.0
  9
$DIMEXE
 40
2.5
  9
$DIMTP
 40
0.0
  9
$DIMTM
 40
0.0
  9
$DIMTXT
 40
2.5
  9
$DIMCEN
 40
0.0
  9
$DIMTSZ
 40
0.0
  9
$DIMTOL
 70
     0
  9
$DIMLIM
 70
     0
  9
$DIMTIH
 70
     1
  9
$DIMTOH
 70
     1
  9
$DIMSE1
 70
     0
  9
$DIMSE2
 70
     0
  9
$DIMTAD
 70
     1
  9
$DIMZIN
 70
    12
  9
$DIMBLK
  1
OPEN30
  9
$DIMASO
 70
     1
  9
$DIMSHO
 70
     1
  9
$DIMPOST
  1

  9
$DIMAPOST
  1

  9
$DIMALT
 70
     0
  9
$DIMALTD
 70
     2
  9
$DIMALTF
 40
25.4
  9
$DIMLFAC
 40
1.0
  9
$DIMTOFL
 70
     0
  9
$DIMTVP
 40
0.0
  9
$DIMTIX
 70
     0
  9
$DIMSOXD
 70
     0
  9
$DIMSAH
 70
     0
  9
$DIMBLK1
  1

  9
$DIMBLK2
  1

  9
$DIMSTYLE
  2
SC_DEFAUT
  9
$DIMCLRD
 70
     0
  9
$DIMCLRE
 70
     0
  9
$DIMCLRT
 70
     0
  9
$DIMTFAC
 40
1.0
  9
$DIMGAP
 40
2.0
  9
$LUNITS
 70
     2
  9
$LUPREC
 70
     1
  9
$SKETCHINC
 40
0.1
  9
$FILLETRAD
 40
0.5
  9
$AUNITS
 70
     0
  9
$AUPREC
 70
     0
  9
$MENU
  1
acad
  9
$ELEVATION
 40
0.0
  9
$PELEVATION
 40
0.0
  9
$THICKNESS
 40
0.0
  9
$LIMCHECK
 70
     0
  9
$BLIPMODE
 70
     0
  9
$CHAMFERA
 40
0.0
  9
$CHAMFERB
 40
0.0
  9
$SKPOLY
 70
     0
  9
$TDCREATE
 40
2450373.687919
  9
$TDUPDATE
 40
2452824.460455
  9
$TDINDWG
 40
1.387468
  9
$TDUSRTIMER
 40
1.387468
  9
$USRTIMER
 70
     1
  9
$ANGBASE
 50
0.0
  9
$ANGDIR
 70
     0
  9
$PDMODE
 70
    32
  9
$PDSIZE
 40
0.0
  9
$PLINEWID
 40
0.0
  9
$COORDS
 70
     1
  9
$SPLFRAME
 70
     0
  9
$SPLINETYPE
 70
     6
  9
$SPLINESEGS
 70
     8
  9
$ATTDIA
 70
     0
  9
$ATTREQ
 70
     1
  9
$HANDLING
 70
     1
  9
$HANDSEED
  5
EE76
  9
$SURFTAB1
 70
     6
  9
$SURFTAB2
 70
     6
  9
$SURFTYPE
 70
     6
  9
$SURFU
 70
     6
  9
$SURFV
 70
     6
  9
$UCSNAME
  2

  9
$UCSORG
 10
0.0
 20
0.0
 30
0.0
  9
$UCSXDIR
 10
1.0
 20
0.0
 30
0.0
  9
$UCSYDIR
 10
0.0
 20
1.0
 30
0.0
  9
$PUCSNAME
  2

  9
$PUCSORG
 10
0.0
 20
0.0
 30
0.0
  9
$PUCSXDIR
 10
1.0
 20
0.0
 30
0.0
  9
$PUCSYDIR
 10
0.0
 20
1.0
 30
0.0
  9
$USERI1
 70
     0
  9
$USERI2
 70
     0
  9
$USERI3
 70
     0
  9
$USERI4
 70
     0
  9
$USERI5
 70
     0
  9
$USERR1
 40
0.0
  9
$USERR2
 40
0.0
  9
$USERR3
 40
0.0
  9
$USERR4
 40
0.0
  9
$USERR5
 40
0.0
  9
$WORLDVIEW
 70
     1
  9
$SHADEDGE
 70
     3
  9
$SHADEDIF
 70
    70
  9
$TILEMODE
 70
     1
  9
$MAXACTVP
 70
    16
  9
$PLIMCHECK
 70
     0
  9
$PEXTMIN
 10
-1.452248
 20
-0.437698
 30
0.0
  9
$PEXTMAX
 10
12.749749
 20
8.310198
 30
0.0
  9
$PLIMMIN
 10
0.0
 20
0.0
  9
$PLIMMAX
 10
12.0
 20
9.0
  9
$UNITMODE
 70
     0
  9
$VISRETAIN
 70
     0
  9
$PLINEGEN
 70
     0
  9
$PSLTSCALE
 70
     0
  0
ENDSEC
  0
SECTION
  2
TABLES
  0
TABLE
  2
VPORT
 70
     2
  0
VPORT
  2
*ACTIVE
 70
     0
 10
0.0
 20
0.0
 11
1.0
 21
1.0
 12
-293.328685
 22
122.721205
 13
0.0
 23
0.0
 14
1.0
 24
1.0
 15
10.0
 25
10.0
 16
0.0
 26
0.0
 36
1.0
 17
0.0
 27
0.0
 37
0.0
 40
188.640829
 41
1.56
 42
50.0
 43
0.0
 44
0.0
 50
0.0
 51
0.0
 71
     0
 72
   100
 73
     1
 74
     0
 75
     0
 76
     0
 77
     0
 78
     0
  0
ENDTAB
  0
TABLE
  2
LTYPE
 70
     3
  0
LTYPE
  2
CONTINUOUS
 70
     0
  3
Solid line
 72
    65
 73
     0
 40
0.0
  0
LTYPE
  2
AXES2
 70
     0
  3
___ _ ___ _ ___ _ ___ _ ___ _ ___ _ ___ _ ___ _
 72
    65
 73
     4
 40
1.125
 49
0.75
 49
-0.125
 49
0.125
 49
-0.125
  0
LTYPE
  2
CACHE2
 70
     0
  3
Caché (x.5) _ _ _ _ _ _ _ _ _ _ _ _ _ _ _ _ _
 72
    65
 73
     2
 40
0.1875
 49
0.125
 49
-0.0625
  0
ENDTAB
  0
TABLE
  2
LAYER
 70
     7
  0
LAYER
  2
0
 70
     0
 62
   255
  6
CONTINUOUS
  0
LAYER
  2
COTATION1
 70
     0
 62
     2
  6
CONTINUOUS
  0
LAYER
  2
AXE
 70
     0
 62
    80
  6
AXES2
  0
LAYER
  2
DEFPOINTS
 70
     0
 62
     7
  6
CONTINUOUS
  0
LAYER
  2
ALPHA
 70
     0
 62
   254
  6
CONTINUOUS
  0
LAYER
  2
POINTILLE_COURT
 70
     0
 62
    41
  6
CACHE2
  0
LAYER
  2
POINTILLE_COURT
 70
     0
 62
    41
  6
CACHE2
  0
ENDTAB
  0
TABLE
  2
STYLE
 70
     2
  0
STYLE
  2
ROMANS
 70
     0
 40
0.0
 41
1.0
 50
0.0
 71
     0
 42
6.0
  3
romans
  4

  0
STYLE
  2
STANDARD
 70
     0
 40
0.2
 41
1.0
 50
0.0
 71
     0
 42
0.2
  3
txt
  4

  0
ENDTAB
  0
TABLE
  2
VIEW
 70
     0
  0
ENDTAB
  0
TABLE
  2
UCS
 70
     0
  0
ENDTAB
  0
TABLE
  2
APPID
 70
     1
  0
APPID
  2
ACAD
 70
     0
  0
ENDTAB
  0
TABLE
  2
DIMSTYLE
 70
     1
  0
DIMSTYLE
  2
SC_DEFAUT
 70
     0
  3

  4

  5
OPEN30
  6

  7

 40
1.0
 41
5.0
 42
2.0
 43
0.38
 44
2.5
 45
0.0
 46
0.0
 47
0.0
 48
0.0
140
2.5
141
0.0
142
0.0
143
25.4
144
1.0
145
0.0
146
1.0
147
2.0
 71
     0
 72
     0
 73
     1
 74
     1
 75
     0
 76
     0
 77
     1
 78
    12
170
     0
171
     2
172
     0
173
     0
174
     0
175
     0
176
     0
177
     0
178
     0
  0
ENDTAB
  0
ENDSEC
  0
SECTION
  2
BLOCKS
  0
BLOCK
  8
0
  2
$MODEL_SPACE
 70
     0
 10
0.0
 20
0.0
 30
0.0
  3
$MODEL_SPACE
  1

  0
ENDBLK
  5
EDE2
  8
0
  0
BLOCK
 67
     1
  8
0
  2
$PAPER_SPACE
 70
     0
 10
0.0
 20
0.0
 30
0.0
  3
$PAPER_SPACE
  1

  0
ENDBLK
  5
EDE0
 67
     1
  8
0
  0
BLOCK
  8
0
  2
COTE
 70
     0
 10
0.0
 20
0.0
 30
0.0
  3
COTE
  1

  0
ENDBLK
  5
F
  8
0
  0
BLOCK
  8
0
  2
FOND
 70
     0
 10
0.0
 20
0.0
 30
0.0
  3
FOND
  1

  0
ENDBLK
  5
75
  8
0
  0
BLOCK
  8
0
  2
_OPEN30
 70
     0
 10
0.0
 20
0.0
 30
0.0
  3
_OPEN30
  1

  0
LINE
  5
4B05
  8
COTATION1
 62
     0
 10
-1.0
 20
0.267949
 30
0.0
 11
0.0
 21
0.0
 31
0.0
1001
ACAD
1000
RTLwPs
1070
   158
  0
LINE
  5
4B06
  8
COTATION1
 62
     0
 10
0.0
 20
0.0
 30
0.0
 11
-1.0
 21
-0.267949
 31
0.0
1001
ACAD
1000
RTLwPs
1070
   158
  0
LINE
  5
4B07
  8
COTATION1
 62
     0
 10
0.0
 20
0.0
 30
0.0
 11
-1.0
 21
0.0
 31
0.0
1001
ACAD
1000
RTLwPs
1070
   158
  0
ENDBLK
  5
4B09
  8
0
  0
BLOCK
  8
0
  2
*D3
 70
     1
 10
0.0
 20
0.0
 30
0.0
  3
*D3
  1

  0
LINE
  5
E2C1
  8
COTATION1
 62
     0
 10
-305.062915
 20
66.728457
 30
0.0
 11
-305.062915
 21
39.228457
 31
0.0
1001
ACAD
1000
RTLwPs
1070
   158
  0
LINE
  5
E2C2
  8
COTATION1
 62
     0
 10
-275.062915
 20
65.728457
 30
0.0
 11
-275.062915
 21
39.228457
 31
0.0
1001
ACAD
1000
RTLwPs
1070
   158
  0
LINE
  5
E2C3
  8
COTATION1
 62
     0
 10
-300.062915
 20
41.728457
 30
0.0
 11
-280.062915
 21
41.728457
 31
0.0
1001
ACAD
1000
RTLwPs
1070
   158
  0
INSERT
  5
E2C4
  8
COTATION1
 62
     0
  2
_OPEN30
 10
-305.062915
 20
41.728457
 30
0.0
 41
5.0
 42
5.0
 43
5.0
 50
180.0
1001
ACAD
1000
RTLwPs
1070
   158
  0
INSERT
  5
E2C5
  8
COTATION1
 62
     0
  2
_OPEN30
 10
-275.062915
 20
41.728457
 30
0.0
 41
5.0
 42
5.0
 43
5.0
1001
ACAD
1000
RTLwPs
1070
   158
  0
TEXT
  5
E2C6
  8
COTATION1
 62
     0
 10
-292.443867
 20
43.728457
 30
0.0
 40
2.5
  1
30
1001
ACAD
1000
MTEXTBEGIN
1070
    73
1070
     1
1070
    44
1040
1.0
1070
    74
1070
     0
1000
MTEXTEND
1000
MTEXTBEGIN
1070
    73
1070
     1
1070
    44
1040
1.0
1070
    74
1070
     0
1000
MTEXTEND
1000
MTEXTBEGIN
1070
    73
1070
     1
1070
    44
1040
1.0
1070
    74
1070
     0
1000
MTEXTEND
1000
MTEXTBEGIN
1070
    73
1070
     1
1070
    44
1040
1.0
1070
    74
1070
     0
1000
MTEXTEND
1000
MTEXTBEGIN
1070
    73
1070
     1
1070
    44
1040
1.0
1070
    74
1070
     0
1000
MTEXTEND
  0
POINT
  5
E2C7
  8
DEFPOINTS
 62
     0
 10
-305.062915
 20
68.728457
 30
0.0
  0
POINT
  5
E2C8
  8
DEFPOINTS
 62
     0
 10
-275.062915
 20
67.728457
 30
0.0
  0
POINT
  5
E2C9
  8
DEFPOINTS
 62
     0
 10
-275.062915
 20
41.728457
 30
0.0
  0
ENDBLK
  5
C7B0
  8
0
  0
BLOCK
  8
0
  2
*D4
 70
     1
 10
0.0
 20
0.0
 30
0.0
  3
*D4
  1

  0
LINE
  5
EBC7
  8
COTATION1
 62
     0
 10
-294.312915
 20
176.728457
 30
0.0
 11
-250.062915
 21
176.728457
 31
0.0
1001
ACAD
1000
RTLwPs
1070
   158
  0
LINE
  5
EBC8
  8
COTATION1
 62
     0
 10
-273.062915
 20
67.728457
 30
0.0
 11
-250.062915
 21
67.728457
 31
0.0
1001
ACAD
1000
RTLwPs
1070
   158
  0
LINE
  5
EBC9
  8
COTATION1
 62
     0
 10
-252.562915
 20
171.728457
 30
0.0
 11
-252.562915
 21
125.478457
 31
0.0
1001
ACAD
1000
RTLwPs
1070
   158
  0
LINE
  5
EBCA
  8
COTATION1
 62
     0
 10
-252.562915
 20
72.728457
 30
0.0
 11
-252.562915
 21
118.978457
 31
0.0
1001
ACAD
1000
RTLwPs
1070
   158
  0
INSERT
  5
EBCB
  8
COTATION1
 62
     0
  2
_OPEN30
 10
-252.562915
 20
176.728457
 30
0.0
 41
5.0
 42
5.0
 43
5.0
 50
90.0
1001
ACAD
1000
RTLwPs
1070
   158
  0
INSERT
  5
EBCC
  8
COTATION1
 62
     0
  2
_OPEN30
 10
-252.562915
 20
67.728457
 30
0.0
 41
5.0
 42
5.0
 43
5.0
 50
270.0
1001
ACAD
1000
RTLwPs
1070
   158
  0
TEXT
  5
EBCD
  8
COTATION1
 62
     0
 10
-256.253391
 20
120.978457
 30
0.0
 40
2.5
  1
109
1001
ACAD
1000
MTEXTBEGIN
1070
    73
1070
     1
1070
    44
1040
1.0
1070
    74
1070
     0
1000
MTEXTEND
1000
MTEXTBEGIN
1070
    73
1070
     1
1070
    44
1040
1.0
1070
    74
1070
     0
1000
MTEXTEND
  0
POINT
  5
EBCE
  8
DEFPOINTS
 62
     0
 10
-296.312915
 20
176.728457
 30
0.0
  0
POINT
  5
EBCF
  8
DEFPOINTS
 62
     0
 10
-275.062915
 20
67.728457
 30
0.0
  0
POINT
  5
EBD0
  8
DEFPOINTS
 62
     0
 10
-252.562915
 20
67.728457
 30
0.0
  0
ENDBLK
  5
C7BD
  8
0
  0
BLOCK
  8
0
  2
*D5
 70
     1
 10
0.0
 20
0.0
 30
0.0
  3
*D5
  1

  0
LINE
  5
E2DE
  8
COTATION1
 62
     0
 10
-314.562915
 20
118.930987
 30
0.0
 11
-314.562915
 21
29.228457
 31
0.0
1001
ACAD
1000
RTLwPs
1070
   158
  0
LINE
  5
E2DF
  8
COTATION1
 62
     0
 10
-275.062915
 20
65.728457
 30
0.0
 11
-275.062915
 21
29.228457
 31
0.0
1001
ACAD
1000
RTLwPs
1070
   158
  0
LINE
  5
E2E0
  8
COTATION1
 62
     0
 10
-309.562915
 20
31.728457
 30
0.0
 11
-280.062915
 21
31.728457
 31
0.0
1001
ACAD
1000
RTLwPs
1070
   158
  0
INSERT
  5
E2E1
  8
COTATION1
 62
     0
  2
_OPEN30
 10
-314.562915
 20
31.728457
 30
0.0
 41
5.0
 42
5.0
 43
5.0
 50
180.0
1001
ACAD
1000
RTLwPs
1070
   158
  0
INSERT
  5
E2E2
  8
COTATION1
 62
     0
  2
_OPEN30
 10
-275.062915
 20
31.728457
 30
0.0
 41
5.0
 42
5.0
 43
5.0
1001
ACAD
1000
RTLwPs
1070
   158
  0
TEXT
  5
E2E3
  8
COTATION1
 62
     0
 10
-298.979581
 20
33.728457
 30
0.0
 40
2.5
  1
39.5
1001
ACAD
1000
MTEXTBEGIN
1070
    73
1070
     1
1070
    44
1040
1.0
1070
    74
1070
     0
1000
MTEXTEND
1000
MTEXTBEGIN
1070
    73
1070
     1
1070
    44
1040
1.0
1070
    74
1070
     0
1000
MTEXTEND
1000
MTEXTBEGIN
1070
    73
1070
     1
1070
    44
1040
1.0
1070
    74
1070
     0
1000
MTEXTEND
1000
MTEXTBEGIN
1070
    73
1070
     1
1070
    44
1040
1.0
1070
    74
1070
     0
1000
MTEXTEND
1000
MTEXTBEGIN
1070
    73
1070
     1
1070
    44
1040
1.0
1070
    74
1070
     0
1000
MTEXTEND
  0
POINT
  5
E2E4
  8
DEFPOINTS
 62
     0
 10
-314.562915
 20
120.930987
 30
0.0
  0
POINT
  5
E2E5
  8
DEFPOINTS
 62
     0
 10
-275.062915
 20
67.728457
 30
0.0
  0
POINT
  5
E2E6
  8
DEFPOINTS
 62
     0
 10
-275.062915
 20
31.728457
 30
0.0
  0
ENDBLK
  5
C8DB
  8
0
  0
BLOCK
  8
0
  2
*D6
 70
     1
 10
0.0
 20
0.0
 30
0.0
  3
*D6
  1

  0
LINE
  5
EBBD
  8
COTATION1
 62
     0
 10
-287.562915
 20
160.890128
 30
0.0
 11
-287.562915
 21
194.228457
 31
0.0
1001
ACAD
1000
RTLwPs
1070
   158
  0
LINE
  5
EBBE
  8
COTATION1
 62
     0
 10
-275.062915
 20
135.67456
 30
0.0
 11
-275.062915
 21
194.228457
 31
0.0
1001
ACAD
1000
RTLwPs
1070
   158
  0
LINE
  5
EBBF
  8
COTATION1
 62
     0
 10
-292.562915
 20
191.728457
 30
0.0
 11
-297.562915
 21
191.728457
 31
0.0
1001
ACAD
1000
RTLwPs
1070
   158
  0
LINE
  5
EBC0
  8
COTATION1
 62
     0
 10
-270.062915
 20
191.728457
 30
0.0
 11
-253.80101
 21
191.728457
 31
0.0
1001
ACAD
1000
RTLwPs
1070
   158
  0
INSERT
  5
EBC1
  8
COTATION1
 62
     0
  2
_OPEN30
 10
-287.562915
 20
191.728457
 30
0.0
 41
5.0
 42
5.0
 43
5.0
1001
ACAD
1000
RTLwPs
1070
   158
  0
INSERT
  5
EBC2
  8
COTATION1
 62
     0
  2
_OPEN30
 10
-275.062915
 20
191.728457
 30
0.0
 41
5.0
 42
5.0
 43
5.0
 50
180.0
1001
ACAD
1000
RTLwPs
1070
   158
  0
TEXT
  5
EBC3
  8
COTATION1
 62
     0
 10
-263.7772
 20
193.728457
 30
0.0
 40
2.5
  1
12.5
1001
ACAD
1000
MTEXTBEGIN
1070
    73
1070
     1
1070
    44
1040
1.0
1070
    74
1070
     0
1000
MTEXTEND
1000
MTEXTBEGIN
1070
    73
1070
     1
1070
    44
1040
1.0
1070
    74
1070
     0
1000
MTEXTEND
  0
POINT
  5
EBC4
  8
DEFPOINTS
 62
     0
 10
-287.562915
 20
158.890128
 30
0.0
  0
POINT
  5
EBC5
  8
DEFPOINTS
 62
     0
 10
-275.062915
 20
133.67456
 30
0.0
  0
POINT
  5
EBC6
  8
DEFPOINTS
 62
     0
 10
-275.062915
 20
191.728457
 30
0.0
  0
ENDBLK
  5
E92B
  8
0
  0
BLOCK
  8
0
  2
*D7
 70
     1
 10
0.0
 20
0.0
 30
0.0
  3
*D7
  1

  0
LINE
  5
EB62
  8
COTATION1
 62
     0
 10
-299.062915
 20
181.728457
 30
0.0
 11
-299.062915
 21
204.228457
 31
0.0
1001
ACAD
1000
RTLwPs
1070
   158
  0
LINE
  5
EB63
  8
COTATION1
 62
     0
 10
-275.062915
 20
135.67456
 30
0.0
 11
-275.062915
 21
204.228457
 31
0.0
1001
ACAD
1000
RTLwPs
1070
   158
  0
LINE
  5
EB64
  8
COTATION1
 62
     0
 10
-294.062915
 20
201.728457
 30
0.0
 11
-280.062915
 21
201.728457
 31
0.0
1001
ACAD
1000
RTLwPs
1070
   158
  0
INSERT
  5
EB65
  8
COTATION1
 62
     0
  2
_OPEN30
 10
-299.062915
 20
201.728457
 30
0.0
 41
5.0
 42
5.0
 43
5.0
 50
180.0
1001
ACAD
1000
RTLwPs
1070
   158
  0
INSERT
  5
EB66
  8
COTATION1
 62
     0
  2
_OPEN30
 10
-275.062915
 20
201.728457
 30
0.0
 41
5.0
 42
5.0
 43
5.0
1001
ACAD
1000
RTLwPs
1070
   158
  0
TEXT
  5
EB67
  8
COTATION1
 62
     0
 10
-289.503391
 20
203.728457
 30
0.0
 40
2.5
  1
24
1001
ACAD
1000
MTEXTBEGIN
1070
    73
1070
     1
1070
    44
1040
1.0
1070
    74
1070
     0
1000
MTEXTEND
1000
MTEXTBEGIN
1070
    73
1070
     1
1070
    44
1040
1.0
1070
    74
1070
     0
1000
MTEXTEND
  0
POINT
  5
EB68
  8
DEFPOINTS
 62
     0
 10
-299.062915
 20
179.728457
 30
0.0
  0
POINT
  5
EB69
  8
DEFPOINTS
 62
     0
 10
-275.062915
 20
133.67456
 30
0.0
  0
POINT
  5
EB6A
  8
DEFPOINTS
 62
     0
 10
-275.062915
 20
201.728457
 30
0.0
  0
ENDBLK
  5
E937
  8
0
  0
BLOCK
  8
0
  2
*D8
 70
     1
 10
0.0
 20
0.0
 30
0.0
  3
*D8
  1

  0
LINE
  5
EB3C
  8
COTATION1
 62
     0
 10
-317.812915
 20
178.728457
 30
0.0
 11
-317.812915
 21
204.228457
 31
0.0
1001
ACAD
1000
RTLwPs
1070
   158
  0
LINE
  5
EB3D
  8
COTATION1
 62
     0
 10
-312.312915
 20
178.728457
 30
0.0
 11
-312.312915
 21
204.228457
 31
0.0
1001
ACAD
1000
RTLwPs
1070
   158
  0
LINE
  5
EB3E
  8
COTATION1
 62
     0
 10
-307.312915
 20
201.728457
 30
0.0
 11
-302.312915
 21
201.728457
 31
0.0
1001
ACAD
1000
RTLwPs
1070
   158
  0
LINE
  5
EB3F
  8
COTATION1
 62
     0
 10
-322.812915
 20
201.728457
 30
0.0
 11
-337.05101
 21
201.728457
 31
0.0
1001
ACAD
1000
RTLwPs
1070
   158
  0
INSERT
  5
EB40
  8
COTATION1
 62
     0
  2
_OPEN30
 10
-312.312915
 20
201.728457
 30
0.0
 41
5.0
 42
5.0
 43
5.0
 50
180.0
1001
ACAD
1000
RTLwPs
1070
   158
  0
INSERT
  5
EB41
  8
COTATION1
 62
     0
  2
_OPEN30
 10
-317.812915
 20
201.728457
 30
0.0
 41
5.0
 42
5.0
 43
5.0
1001
ACAD
1000
RTLwPs
1070
   158
  0
TEXT
  5
EB42
  8
COTATION1
 62
     0
 10
-335.408153
 20
203.728457
 30
0.0
 40
2.5
  1
5.5
1001
ACAD
1000
MTEXTBEGIN
1070
    73
1070
     1
1070
    44
1040
1.0
1070
    74
1070
     0
1000
MTEXTEND
1000
MTEXTBEGIN
1070
    73
1070
     1
1070
    44
1040
1.0
1070
    74
1070
     0
1000
MTEXTEND
  0
POINT
  5
EB43
  8
DEFPOINTS
 62
     0
 10
-317.812915
 20
176.728457
 30
0.0
  0
POINT
  5
EB44
  8
DEFPOINTS
 62
     0
 10
-312.312915
 20
176.728457
 30
0.0
  0
POINT
  5
EB45
  8
DEFPOINTS
 62
     0
 10
-312.312915
 20
201.728457
 30
0.0
  0
ENDBLK
  5
E944
  8
0
  0
BLOCK
  8
0
  2
*D9
 70
     1
 10
0.0
 20
0.0
 30
0.0
  3
*D9
  1

  0
LINE
  5
EB59
  8
COTATION1
 62
     0
 10
-315.062915
 20
181.728457
 30
0.0
 11
-315.062915
 21
214.228457
 31
0.0
1001
ACAD
1000
RTLwPs
1070
   158
  0
LINE
  5
EB5A
  8
COTATION1
 62
     0
 10
-275.062915
 20
135.67456
 30
0.0
 11
-275.062915
 21
214.228457
 31
0.0
1001
ACAD
1000
RTLwPs
1070
   158
  0
LINE
  5
EB5B
  8
COTATION1
 62
     0
 10
-310.062915
 20
211.728457
 30
0.0
 11
-280.062915
 21
211.728457
 31
0.0
1001
ACAD
1000
RTLwPs
1070
   158
  0
INSERT
  5
EB5C
  8
COTATION1
 62
     0
  2
_OPEN30
 10
-315.062915
 20
211.728457
 30
0.0
 41
5.0
 42
5.0
 43
5.0
 50
180.0
1001
ACAD
1000
RTLwPs
1070
   158
  0
INSERT
  5
EB5D
  8
COTATION1
 62
     0
  2
_OPEN30
 10
-275.062915
 20
211.728457
 30
0.0
 41
5.0
 42
5.0
 43
5.0
1001
ACAD
1000
RTLwPs
1070
   158
  0
TEXT
  5
EB5E
  8
COTATION1
 62
     0
 10
-297.443867
 20
213.728457
 30
0.0
 40
2.5
  1
40
1001
ACAD
1000
MTEXTBEGIN
1070
    73
1070
     1
1070
    44
1040
1.0
1070
    74
1070
     0
1000
MTEXTEND
1000
MTEXTBEGIN
1070
    73
1070
     1
1070
    44
1040
1.0
1070
    74
1070
     0
1000
MTEXTEND
  0
POINT
  5
EB5F
  8
DEFPOINTS
 62
     0
 10
-315.062915
 20
179.728457
 30
0.0
  0
POINT
  5
EB60
  8
DEFPOINTS
 62
     0
 10
-275.062915
 20
133.67456
 30
0.0
  0
POINT
  5
EB61
  8
DEFPOINTS
 62
     0
 10
-275.062915
 20
211.728457
 30
0.0
  0
ENDBLK
  5
E950
  8
0
  0
BLOCK
  8
0
  2
*D10
 70
     1
 10
0.0
 20
0.0
 30
0.0
  3
*D10
  1

  0
LINE
  5
ECD6
  8
COTATION1
 62
     0
 10
-279.062915
 20
69.728457
 30
0.0
 11
-279.062915
 21
49.228457
 31
0.0
1001
ACAD
1000
RTLwPs
1070
   158
  0
LINE
  5
ECD7
  8
COTATION1
 62
     0
 10
-275.062915
 20
65.728457
 30
0.0
 11
-275.062915
 21
49.228457
 31
0.0
1001
ACAD
1000
RTLwPs
1070
   158
  0
LINE
  5
ECD8
  8
COTATION1
 62
     0
 10
-284.062915
 20
51.728457
 30
0.0
 11
-289.062915
 21
51.728457
 31
0.0
1001
ACAD
1000
RTLwPs
1070
   158
  0
LINE
  5
ECD9
  8
COTATION1
 62
     0
 10
-270.062915
 20
51.728457
 30
0.0
 11
-259.2772
 21
51.728457
 31
0.0
1001
ACAD
1000
RTLwPs
1070
   158
  0
INSERT
  5
ECDA
  8
COTATION1
 62
     0
  2
_OPEN30
 10
-279.062915
 20
51.728457
 30
0.0
 41
5.0
 42
5.0
 43
5.0
1001
ACAD
1000
RTLwPs
1070
   158
  0
INSERT
  5
ECDB
  8
COTATION1
 62
     0
  2
_OPEN30
 10
-275.062915
 20
51.728457
 30
0.0
 41
5.0
 42
5.0
 43
5.0
 50
180.0
1001
ACAD
1000
RTLwPs
1070
   158
  0
TEXT
  5
ECDC
  8
COTATION1
 62
     0
 10
-263.420058
 20
53.728457
 30
0.0
 40
2.5
  1
4
1001
ACAD
1000
MTEXTBEGIN
1070
    73
1070
     1
1070
    44
1040
1.0
1070
    74
1070
     0
1000
MTEXTEND
  0
POINT
  5
ECDD
  8
DEFPOINTS
 62
     0
 10
-279.062915
 20
71.728457
 30
0.0
  0
POINT
  5
ECDE
  8
DEFPOINTS
 62
     0
 10
-275.062915
 20
67.728457
 30
0.0
  0
POINT
  5
ECDF
  8
DEFPOINTS
 62
     0
 10
-275.062915
 20
51.728457
 30
0.0
  0
ENDBLK
  5
ECCB
  8
0
  0
ENDSEC
  0
SECTION
  2
ENTITIES
  0
INSERT
  5
A
  8
0
  2
COTE
 10
0.0
 20
0.0
 30
0.0
  0
INSERT
  5
17
  8
0
  2
COTE
 10
284.010391
 20
6.373258
 30
0.0
  0
INSERT
  5
72
  8
0
  2
FOND
 10
0.0
 20
0.0
 30
0.0
  0
DIMENSION
  5
C775
  8
COTATION1
  2
*D4
 10
-252.562915
 20
67.728457
 30
0.0
 11
-252.562915
 21
122.228457
 31
0.0
 13
-296.312915
 23
176.728457
 33
0.0
 14
-275.062915
 24
67.728457
 34
0.0
 50
90.0
  0
DIMENSION
  5
C778
  8
COTATION1
  2
*D3
 10
-275.062915
 20
41.728457
 30
0.0
 11
-290.062915
 21
44.978457
 31
0.0
 13
-305.062915
 23
68.728457
 33
0.0
 14
-275.062915
 24
67.728457
 34
0.0
  0
DIMENSION
  5
C8CF
  8
COTATION1
  2
*D5
 10
-275.062915
 20
31.728457
 30
0.0
 11
-294.812915
 21
34.978457
 31
0.0
 13
-314.562915
 23
120.930987
 33
0.0
 14
-275.062915
 24
67.728457
 34
0.0
  0
LINE
  5
CFC3
  8
ALPHA
 10
-291.052597
 20
67.728457
 30
0.0
 11
-296.063992
 21
72.739154
 31
0.0
  0
POLYLINE
  5
CFC5
  8
ALPHA
 66
     1
 10
0.0
 20
0.0
 30
0.0
 70
   128
  0
VERTEX
  5
EDE8
  8
ALPHA
 10
-296.063992
 20
67.728457
 30
0.0
  0
VERTEX
  5
EDE9
  8
ALPHA
 10
-294.881145
 20
68.218626
 30
0.0
  0
VERTEX
  5
EDEA
  8
ALPHA
 10
-294.391147
 20
69.400617
 30
0.0
  0
VERTEX
  5
EDEB
  8
ALPHA
 10
-294.881145
 20
70.583807
 30
0.0
  0
VERTEX
  5
EDEC
  8
ALPHA
 10
-296.063992
 20
71.074147
 30
0.0
  0
SEQEND
  5
EDED
  8
ALPHA
  0
LINE
  5
CFC7
  8
ALPHA
 10
-296.063992
 20
72.739154
 30
0.0
 11
-299.062915
 21
72.739154
 31
0.0
  0
POLYLINE
  5
CFC8
  8
ALPHA
 66
     1
 10
0.0
 20
0.0
 30
0.0
 70
   128
  0
VERTEX
  5
EDEE
  8
ALPHA
 10
-296.063992
 20
71.074147
 30
0.0
  0
VERTEX
  5
EDEF
  8
ALPHA
 10
-296.063992
 20
71.334305
 30
0.0
  0
VERTEX
  5
EDF0
  8
ALPHA
 10
-296.063992
 20
71.906651
 30
0.0
  0
VERTEX
  5
EDF1
  8
ALPHA
 10
-296.063992
 20
72.478997
 30
0.0
  0
VERTEX
  5
EDF2
  8
ALPHA
 10
-296.063992
 20
72.739154
 30
0.0
  0
SEQEND
  5
EDF3
  8
ALPHA
  0
LINE
  5
D2E2
  8
ALPHA
 10
-300.062915
 20
125.986992
 30
0.0
 11
-275.062915
 21
125.986992
 31
0.0
  0
LINE
  5
D2E3
  8
ALPHA
 10
-275.062915
 20
131.541916
 30
0.0
 11
-300.062915
 21
131.541916
 31
0.0
  0
LINE
  5
D2E4
  8
ALPHA
 10
-275.062915
 20
133.67456
 30
0.0
 11
-300.062915
 21
133.67456
 31
0.0
  0
LINE
  5
D2EA
  8
ALPHA
 10
-300.062915
 20
118.728457
 30
0.0
 11
-275.062915
 21
118.728457
 31
0.0
  0
LINE
  5
D2EB
  8
ALPHA
 10
-300.062915
 20
116.028457
 30
0.0
 11
-275.062915
 21
116.028457
 31
0.0
  0
TEXT
  5
D2ED
  8
AXE
 10
-295.039105
 20
51.728457
 30
0.0
 40
8.0
  1
Y
 72
     2
 11
-288.562915
 21
51.728457
 31
0.0
  0
LINE
  5
D2EF
  8
AXE
 10
-310.062915
 20
85.48308
 30
0.0
 11
-260.062915
 21
85.48308
 31
0.0
  0
ARC
  5
D2F0
  8
ALPHA
 10
-271.393328
 20
106.515651
 30
0.0
 40
33.671021
 50
166.958519
 51
180.528913
  0
LINE
  5
D2F1
  8
ALPHA
 10
-300.062915
 20
133.67456
 30
0.0
 11
-300.062915
 21
101.240446
 31
0.0
  0
LINE
  5
D2F2
  8
ALPHA
 10
-305.062915
 20
102.228457
 30
0.0
 11
-305.062915
 21
68.728457
 31
0.0
  0
LINE
  5
D2F8
  8
ALPHA
 10
-300.062915
 20
101.240446
 30
0.0
 11
-299.062915
 21
101.240446
 31
0.0
  0
LINE
  5
D2F9
  8
ALPHA
 10
-305.062915
 20
102.228457
 30
0.0
 11
-305.062915
 21
106.204829
 31
0.0
  0
LINE
  5
D2FB
  8
ALPHA
 10
-314.562915
 20
121.428421
 30
0.0
 11
-300.062915
 21
121.428421
 31
0.0
  0
LINE
  5
D2FC
  8
ALPHA
 10
-314.562915
 20
120.930987
 30
0.0
 11
-300.062915
 21
120.930987
 31
0.0
  0
LINE
  5
D2FD
  8
ALPHA
 10
-314.562915
 20
121.428421
 30
0.0
 11
-314.562915
 21
120.930987
 31
0.0
  0
ARC
  5
D2FE
  8
ALPHA
 10
-304.612915
 20
121.428421
 30
0.0
 40
4.0
 50
90.0
 51
180.0
  0
LINE
  5
D2FF
  8
ALPHA
 10
-304.612915
 20
125.428421
 30
0.0
 11
-300.062915
 21
125.428421
 31
0.0
  0
ARC
  5
D300
  8
ALPHA
 10
-302.726087
 20
113.814173
 30
0.0
 40
1.5
 50
90.0
 51
168.480193
  0
LINE
  5
D301
  8
ALPHA
 10
-302.726087
 20
115.314173
 30
0.0
 11
-300.062915
 21
115.314173
 31
0.0
  0
LINE
  5
D304
  8
AXE
 10
-287.562915
 20
158.759041
 30
0.0
 11
-287.562915
 21
51.728457
 31
0.0
  0
LINE
  5
D305
  8
ALPHA
 10
-275.062915
 20
133.67456
 30
0.0
 11
-275.062915
 21
67.728457
 31
0.0
  0
TEXT
  5
D314
  8
AXE
 10
-266.539105
 20
86.48308
 30
0.0
 40
8.0
  1
Z
 72
     2
 11
-260.062915
 21
86.48308
 31
0.0
  0
LINE
  5
D322
  8
ALPHA
 10
-304.062915
 20
67.728457
 30
0.0
 11
-275.062915
 21
67.728457
 31
0.0
  0
ARC
  5
D326
  8
ALPHA
 10
-304.062915
 20
68.728457
 30
0.0
 40
1.0
 50
180.0
 51
270.0
  0
POLYLINE
  5
D328
  8
ALPHA
 66
     1
 10
0.0
 20
0.0
 30
0.0
 70
   128
210
0.0
220
0.0
230
-1.0
  0
VERTEX
  5
EDF4
  8
ALPHA
 10
294.622387
 20
96.899683
 30
0.0
  0
VERTEX
  5
EDF5
  8
ALPHA
 10
290.504008
 20
98.741715
 30
0.0
  0
VERTEX
  5
EDF6
  8
ALPHA
 10
285.662969
 20
100.01785
 30
0.0
  0
VERTEX
  5
EDF7
  8
ALPHA
 10
280.41177
 20
100.820093
 30
0.0
  0
VERTEX
  5
EDF8
  8
ALPHA
 10
275.062915
 20
101.240446
 30
0.0
  0
SEQEND
  5
EDF9
  8
ALPHA
  0
POLYLINE
  5
D329
  8
ALPHA
 66
     1
 10
0.0
 20
0.0
 30
0.0
 70
   128
210
0.0
220
0.0
230
-1.0
  0
VERTEX
  5
EDFA
  8
ALPHA
 10
294.622387
 20
74.067849
 30
0.0
  0
VERTEX
  5
EDFB
  8
ALPHA
 10
297.472747
 20
76.04221
 30
0.0
  0
VERTEX
  5
EDFC
  8
ALPHA
 10
299.687695
 20
78.699012
 30
0.0
  0
VERTEX
  5
EDFD
  8
ALPHA
 10
301.122673
 20
81.894212
 30
0.0
  0
VERTEX
  5
EDFE
  8
ALPHA
 10
301.633123
 20
85.483766
 30
0.0
  0
VERTEX
  5
EDFF
  8
ALPHA
 10
301.122673
 20
89.074091
 30
0.0
  0
VERTEX
  5
EE00
  8
ALPHA
 10
299.687695
 20
92.269548
 30
0.0
  0
VERTEX
  5
EE01
  8
ALPHA
 10
297.472747
 20
94.926094
 30
0.0
  0
VERTEX
  5
EE02
  8
ALPHA
 10
294.622387
 20
96.899683
 30
0.0
  0
SEQEND
  5
EE03
  8
ALPHA
  0
CIRCLE
  5
D32A
  8
ALPHA
 10
-288.839729
 20
85.48308
 30
0.0
 40
9.25
  0
LINE
  5
D32B
  8
ALPHA
 10
-284.346829
 20
91.306171
 30
0.0
 11
-288.839729
 21
86.813271
 31
0.0
  0
LINE
  5
D32C
  8
ALPHA
 10
-287.510911
 20
85.483768
 30
0.0
 11
-283.01801
 21
89.976668
 31
0.0
  0
LINE
  5
D32D
  8
ALPHA
 10
-288.839729
 20
86.813271
 30
0.0
 11
-293.33263
 21
91.306171
 31
0.0
  0
LINE
  5
D32E
  8
ALPHA
 10
-294.661448
 20
89.976668
 30
0.0
 11
-290.169232
 21
85.483768
 31
0.0
  0
LINE
  5
D32F
  8
ALPHA
 10
-288.839729
 20
84.155634
 30
0.0
 11
-284.346829
 21
79.662729
 31
0.0
  0
LINE
  5
D330
  8
ALPHA
 10
-294.661448
 20
80.992236
 30
0.0
 11
-293.33263
 21
79.662729
 31
0.0
  0
LINE
  5
D331
  8
ALPHA
 10
-290.169232
 20
85.483768
 30
0.0
 11
-294.661448
 21
80.992236
 31
0.0
  0
LINE
  5
D332
  8
ALPHA
 10
-293.33263
 20
79.662729
 30
0.0
 11
-288.839729
 21
84.155634
 31
0.0
  0
LINE
  5
D333
  8
ALPHA
 10
-283.01801
 20
80.992236
 30
0.0
 11
-287.510911
 21
85.483768
 31
0.0
  0
LINE
  5
D334
  8
ALPHA
 10
-284.346829
 20
79.662729
 30
0.0
 11
-283.01801
 21
80.992236
 31
0.0
  0
LINE
  5
D335
  8
ALPHA
 10
-293.33263
 20
91.306171
 30
0.0
 11
-294.661448
 21
89.976668
 31
0.0
  0
LINE
  5
D336
  8
ALPHA
 10
-283.01801
 20
89.976668
 30
0.0
 11
-284.346829
 21
91.306171
 31
0.0
  0
POLYLINE
  5
D337
  8
ALPHA
 66
     1
 10
0.0
 20
0.0
 30
0.0
 70
   128
210
0.0
220
0.0
230
-1.0
  0
VERTEX
  5
EE04
  8
ALPHA
 10
275.062915
 20
69.728457
 30
0.0
  0
VERTEX
  5
EE05
  8
ALPHA
 10
280.41177
 20
70.148789
 30
0.0
  0
VERTEX
  5
EE06
  8
ALPHA
 10
285.662969
 20
70.950881
 30
0.0
  0
VERTEX
  5
EE07
  8
ALPHA
 10
290.504008
 20
72.22661
 30
0.0
  0
VERTEX
  5
EE08
  8
ALPHA
 10
294.622387
 20
74.067849
 30
0.0
  0
SEQEND
  5
EE09
  8
ALPHA
  0
LINE
  5
D338
  8
ALPHA
 10
-299.062915
 20
77.7914
 30
0.0
 11
-299.062915
 21
72.739154
 31
0.0
  0
LINE
  5
D33B
  8
ALPHA
 10
-299.062915
 20
101.240446
 30
0.0
 11
-299.062915
 21
93.177135
 31
0.0
  0
LINE
  5
D541
  8
ALPHA
 10
-305.062915
 20
102.040446
 30
0.0
 11
-300.062915
 21
102.040446
 31
0.0
  0
LINE
  5
E722
  8
ALPHA
 10
-308.612915
 20
121.428421
 30
0.0
 11
-308.612915
 21
120.930987
 31
0.0
  0
POLYLINE
  5
E870
  8
ALPHA
 66
     1
 10
0.0
 20
0.0
 30
0.0
 70
   128
210
0.0
220
0.0
230
-1.0
  0
VERTEX
  5
EE0A
  8
ALPHA
 10
310.874668
 20
144.209459
 30
0.0
  0
VERTEX
  5
EE0B
  8
ALPHA
 10
310.669673
 20
145.691553
 30
0.0
  0
VERTEX
  5
EE0C
  8
ALPHA
 10
310.33408
 20
146.755287
 30
0.0
  0
VERTEX
  5
EE0D
  8
ALPHA
 10
310.020679
 20
147.396545
 30
0.0
  0
VERTEX
  5
EE0E
  8
ALPHA
 10
309.882258
 20
147.611213
 30
0.0
  0
SEQEND
  5
EE0F
  8
ALPHA
  0
LINE
  5
E871
  8
ALPHA
 10
-309.96394
 20
144.209459
 30
0.0
 11
-310.874668
 21
144.209459
 31
0.0
  0
POLYLINE
  5
E872
  8
ALPHA
 66
     1
 10
0.0
 20
0.0
 30
0.0
 70
   128
  0
VERTEX
  5
EE10
  8
ALPHA
 10
-307.569599
 20
135.102511
 30
0.0
  0
VERTEX
  5
EE11
  8
ALPHA
 10
-307.569599
 20
135.572548
 30
0.0
  0
VERTEX
  5
EE12
  8
ALPHA
 10
-307.569599
 20
136.861104
 30
0.0
  0
VERTEX
  5
EE13
  8
ALPHA
 10
-307.569599
 20
138.785852
 30
0.0
  0
VERTEX
  5
EE14
  8
ALPHA
 10
-307.569599
 20
141.164461
 30
0.0
  0
VERTEX
  5
EE15
  8
ALPHA
 10
-307.569599
 20
146.553947
 30
0.0
  0
VERTEX
  5
EE16
  8
ALPHA
 10
-307.569599
 20
149.200165
 30
0.0
  0
VERTEX
  5
EE17
  8
ALPHA
 10
-307.569599
 20
151.570928
 30
0.0
  0
SEQEND
  5
EE18
  8
ALPHA
  0
POLYLINE
  5
E873
  8
ALPHA
 66
     1
 10
0.0
 20
0.0
 30
0.0
 70
   128
  0
VERTEX
  5
EE19
  8
ALPHA
 10
-305.560298
 20
135.102498
 30
0.0
  0
VERTEX
  5
EE1A
  8
ALPHA
 10
-305.874251
 20
135.1025
 30
0.0
  0
VERTEX
  5
EE1B
  8
ALPHA
 10
-306.564949
 20
135.102505
 30
0.0
  0
VERTEX
  5
EE1C
  8
ALPHA
 10
-307.255646
 20
135.102509
 30
0.0
  0
VERTEX
  5
EE1D
  8
ALPHA
 10
-307.569599
 20
135.102511
 30
0.0
  0
SEQEND
  5
EE1E
  8
ALPHA
  0
POLYLINE
  5
E874
  8
ALPHA
 66
     1
 10
0.0
 20
0.0
 30
0.0
 70
   128
  0
VERTEX
  5
EE1F
  8
ALPHA
 10
-308.073028
 20
147.728457
 30
0.0
  0
VERTEX
  5
EE20
  8
ALPHA
 10
-308.073028
 20
147.382828
 30
0.0
  0
VERTEX
  5
EE21
  8
ALPHA
 10
-308.073028
 20
146.471622
 30
0.0
  0
VERTEX
  5
EE22
  8
ALPHA
 10
-308.073028
 20
143.706586
 30
0.0
  0
VERTEX
  5
EE23
  8
ALPHA
 10
-308.073028
 20
140.94155
 30
0.0
  0
VERTEX
  5
EE24
  8
ALPHA
 10
-308.073028
 20
140.030344
 30
0.0
  0
VERTEX
  5
EE25
  8
ALPHA
 10
-308.073028
 20
139.684715
 30
0.0
  0
SEQEND
  5
EE26
  8
ALPHA
  0
POLYLINE
  5
E875
  8
ALPHA
 66
     1
 10
0.0
 20
0.0
 30
0.0
 70
   128
  0
VERTEX
  5
EE27
  8
ALPHA
 10
-308.073028
 20
139.684715
 30
0.0
  0
VERTEX
  5
EE28
  8
ALPHA
 10
-308.35572
 20
139.702861
 30
0.0
  0
VERTEX
  5
EE29
  8
ALPHA
 10
-308.977643
 20
139.742781
 30
0.0
  0
VERTEX
  5
EE2A
  8
ALPHA
 10
-309.599566
 20
139.782702
 30
0.0
  0
VERTEX
  5
EE2B
  8
ALPHA
 10
-309.882258
 20
139.800848
 30
0.0
  0
SEQEND
  5
EE2C
  8
ALPHA
  0
LINE
  5
E876
  8
ALPHA
 10
-309.96394
 20
143.203713
 30
0.0
 11
-309.96394
 21
144.209459
 31
0.0
  0
LINE
  5
E877
  8
ALPHA
 10
-310.874668
 20
143.203713
 30
0.0
 11
-309.96394
 21
143.203713
 31
0.0
  0
POLYLINE
  5
E878
  8
ALPHA
 66
     1
 10
0.0
 20
0.0
 30
0.0
 70
   128
210
0.0
220
0.0
230
-1.0
  0
VERTEX
  5
EE2D
  8
ALPHA
 10
309.882258
 20
139.800848
 30
0.0
  0
VERTEX
  5
EE2E
  8
ALPHA
 10
310.020679
 20
140.015689
 30
0.0
  0
VERTEX
  5
EE2F
  8
ALPHA
 10
310.33408
 20
140.657329
 30
0.0
  0
VERTEX
  5
EE30
  8
ALPHA
 10
310.669673
 20
141.721445
 30
0.0
  0
VERTEX
  5
EE31
  8
ALPHA
 10
310.874668
 20
143.203713
 30
0.0
  0
SEQEND
  5
EE32
  8
ALPHA
  0
POLYLINE
  5
E879
  8
ALPHA
 66
     1
 10
0.0
 20
0.0
 30
0.0
 70
   128
  0
VERTEX
  5
EE33
  8
ALPHA
 10
-309.882258
 20
147.611213
 30
0.0
  0
VERTEX
  5
EE34
  8
ALPHA
 10
-309.599566
 20
147.629532
 30
0.0
  0
VERTEX
  5
EE35
  8
ALPHA
 10
-308.977643
 20
147.669835
 30
0.0
  0
VERTEX
  5
EE36
  8
ALPHA
 10
-308.35572
 20
147.710138
 30
0.0
  0
VERTEX
  5
EE37
  8
ALPHA
 10
-308.073028
 20
147.728457
 30
0.0
  0
SEQEND
  5
EE38
  8
ALPHA
  0
POLYLINE
  5
E87A
  8
ALPHA
 66
     1
 10
0.0
 20
0.0
 30
0.0
 70
   128
  0
VERTEX
  5
EE39
  8
ALPHA
 10
-305.56033
 20
134.597416
 30
0.0
  0
VERTEX
  5
EE3A
  8
ALPHA
 10
-305.560318
 20
134.791621
 30
0.0
  0
VERTEX
  5
EE3B
  8
ALPHA
 10
-305.560283
 20
135.340462
 30
0.0
  0
VERTEX
  5
EE3C
  8
ALPHA
 10
-305.560157
 20
137.299402
 30
0.0
  0
VERTEX
  5
EE3D
  8
ALPHA
 10
-305.559979
 20
140.068938
 30
0.0
  0
VERTEX
  5
EE3E
  8
ALPHA
 10
-305.559775
 20
143.243772
 30
0.0
  0
VERTEX
  5
EE3F
  8
ALPHA
 10
-305.559571
 20
146.418606
 30
0.0
  0
VERTEX
  5
EE40
  8
ALPHA
 10
-305.559393
 20
149.188142
 30
0.0
  0
VERTEX
  5
EE41
  8
ALPHA
 10
-305.559267
 20
151.147082
 30
0.0
  0
VERTEX
  5
EE42
  8
ALPHA
 10
-305.559232
 20
151.695923
 30
0.0
  0
VERTEX
  5
EE43
  8
ALPHA
 10
-305.559219
 20
151.890128
 30
0.0
  0
SEQEND
  5
EE44
  8
ALPHA
  0
POLYLINE
  5
E87B
  8
ALPHA
 66
     1
 10
0.0
 20
0.0
 30
0.0
 70
   128
  0
VERTEX
  5
EE45
  8
ALPHA
 10
-279.520391
 20
149.878081
 30
0.0
  0
VERTEX
  5
EE46
  8
ALPHA
 10
-279.520391
 20
149.696108
 30
0.0
  0
VERTEX
  5
EE47
  8
ALPHA
 10
-279.520391
 20
149.181836
 30
0.0
  0
VERTEX
  5
EE48
  8
ALPHA
 10
-279.520391
 20
147.346281
 30
0.0
  0
VERTEX
  5
EE49
  8
ALPHA
 10
-279.520391
 20
144.751186
 30
0.0
  0
VERTEX
  5
EE4A
  8
ALPHA
 10
-279.520391
 20
141.776321
 30
0.0
  0
VERTEX
  5
EE4B
  8
ALPHA
 10
-279.520391
 20
138.801456
 30
0.0
  0
VERTEX
  5
EE4C
  8
ALPHA
 10
-279.520391
 20
136.206361
 30
0.0
  0
VERTEX
  5
EE4D
  8
ALPHA
 10
-279.520391
 20
134.370806
 30
0.0
  0
VERTEX
  5
EE4E
  8
ALPHA
 10
-279.520391
 20
133.856534
 30
0.0
  0
VERTEX
  5
EE4F
  8
ALPHA
 10
-279.520391
 20
133.67456
 30
0.0
  0
SEQEND
  5
EE50
  8
ALPHA
  0
POLYLINE
  5
E87D
  8
ALPHA
 66
     1
 10
0.0
 20
0.0
 30
0.0
 70
   128
  0
VERTEX
  5
EE51
  8
ALPHA
 10
-295.606208
 20
134.597416
 30
0.0
  0
VERTEX
  5
EE52
  8
ALPHA
 10
-296.033924
 20
134.597416
 30
0.0
  0
VERTEX
  5
EE53
  8
ALPHA
 10
-297.16154
 20
134.597416
 30
0.0
  0
VERTEX
  5
EE54
  8
ALPHA
 10
-300.583269
 20
134.597416
 30
0.0
  0
VERTEX
  5
EE55
  8
ALPHA
 10
-304.004999
 20
134.597416
 30
0.0
  0
VERTEX
  5
EE56
  8
ALPHA
 10
-305.132614
 20
134.597416
 30
0.0
  0
VERTEX
  5
EE57
  8
ALPHA
 10
-305.56033
 20
134.597416
 30
0.0
  0
SEQEND
  5
EE58
  8
ALPHA
  0
POLYLINE
  5
E87E
  8
ALPHA
 66
     1
 10
0.0
 20
0.0
 30
0.0
 70
   128
  0
VERTEX
  5
EE59
  8
ALPHA
 10
-287.563577
 20
140.233481
 30
0.0
  0
VERTEX
  5
EE5A
  8
ALPHA
 10
-288.910631
 20
139.991306
 30
0.0
  0
VERTEX
  5
EE5B
  8
ALPHA
 10
-290.177839
 20
139.352846
 30
0.0
  0
VERTEX
  5
EE5C
  8
ALPHA
 10
-292.437137
 20
137.415448
 30
0.0
  0
VERTEX
  5
EE5D
  8
ALPHA
 10
-294.270313
 20
135.478051
 30
0.0
  0
VERTEX
  5
EE5E
  8
ALPHA
 10
-295.004869
 20
134.83959
 30
0.0
  0
VERTEX
  5
EE5F
  8
ALPHA
 10
-295.606208
 20
134.597416
 30
0.0
  0
SEQEND
  5
EE60
  8
ALPHA
  0
LINE
  5
E87F
  8
ALPHA
 10
-295.606208
 20
133.67456
 30
0.0
 11
-295.606208
 21
134.597416
 31
0.0
  0
POLYLINE
  5
E880
  8
ALPHA
 66
     1
 10
0.0
 20
0.0
 30
0.0
 70
   128
  0
VERTEX
  5
EE61
  8
ALPHA
 10
-305.559219
 20
151.890128
 30
0.0
  0
VERTEX
  5
EE62
  8
ALPHA
 10
-305.289375
 20
151.890128
 30
0.0
  0
VERTEX
  5
EE63
  8
ALPHA
 10
-304.526771
 20
151.890128
 30
0.0
  0
VERTEX
  5
EE64
  8
ALPHA
 10
-303.341801
 20
151.890128
 30
0.0
  0
VERTEX
  5
EE65
  8
ALPHA
 10
-301.804861
 20
151.890128
 30
0.0
  0
VERTEX
  5
EE66
  8
ALPHA
 10
-297.956644
 20
151.890128
 30
0.0
  0
VERTEX
  5
EE67
  8
ALPHA
 10
-293.545273
 20
151.890128
 30
0.0
  0
VERTEX
  5
EE68
  8
ALPHA
 10
-289.133902
 20
151.890128
 30
0.0
  0
VERTEX
  5
EE69
  8
ALPHA
 10
-285.285685
 20
151.890128
 30
0.0
  0
VERTEX
  5
EE6A
  8
ALPHA
 10
-283.748744
 20
151.890128
 30
0.0
  0
VERTEX
  5
EE6B
  8
ALPHA
 10
-282.563775
 20
151.890128
 30
0.0
  0
VERTEX
  5
EE6C
  8
ALPHA
 10
-281.801171
 20
151.890128
 30
0.0
  0
VERTEX
  5
EE6D
  8
ALPHA
 10
-281.531326
 20
151.890128
 30
0.0
  0
SEQEND
  5
EE6E
  8
ALPHA
  0
POLYLINE
  5
E881
  8
ALPHA
 66
     1
 10
0.0
 20
0.0
 30
0.0
 70
   128
210
0.0
220
0.0
230
-1.0
  0
VERTEX
  5
EE6F
  8
ALPHA
 10
281.531326
 20
151.890128
 30
0.0
  0
VERTEX
  5
EE70
  8
ALPHA
 10
280.748045
 20
151.732103
 30
0.0
  0
VERTEX
  5
EE71
  8
ALPHA
 10
280.108905
 20
151.301058
 30
0.0
  0
VERTEX
  5
EE72
  8
ALPHA
 10
279.678242
 20
150.661537
 30
0.0
  0
VERTEX
  5
EE73
  8
ALPHA
 10
279.520391
 20
149.878081
 30
0.0
  0
SEQEND
  5
EE74
  8
ALPHA
  0
DIMENSION
  5
E894
  8
COTATION1
  2
*D9
 10
-275.062915
 20
211.728457
 30
0.0
 11
-295.062915
 21
214.978457
 31
0.0
 13
-315.062915
 23
179.728457
 33
0.0
 14
-275.062915
 24
133.67456
 34
0.0
  0
DIMENSION
  5
E895
  8
COTATION1
  2
*D8
 10
-312.312915
 20
201.728457
 30
0.0
 11
-332.431962
 21
201.728457
 31
0.0
 70
   128
 13
-317.812915
 23
176.728457
 33
0.0
 14
-312.312915
 24
176.728457
 34
0.0
  0
DIMENSION
  5
E896
  8
COTATION1
  2
*D7
 10
-275.062915
 20
201.728457
 30
0.0
 11
-287.062915
 21
204.978457
 31
0.0
 13
-299.062915
 23
179.728457
 33
0.0
 14
-275.062915
 24
133.67456
 34
0.0
  0
DIMENSION
  5
E897
  8
COTATION1
  2
*D6
 10
-275.062915
 20
191.728457
 30
0.0
 11
-259.431962
 21
194.978457
 31
0.0
 13
-287.562915
 23
158.890128
 33
0.0
 14
-275.062915
 24
133.67456
 34
0.0
  0
LINE
  5
E899
  8
ALPHA
 10
-317.812915
 20
176.728457
 30
0.0
 11
-312.312915
 21
176.728457
 31
0.0
  0
LINE
  5
E89A
  8
ALPHA
 10
-317.812915
 20
157.728457
 30
0.0
 11
-312.312915
 21
157.728457
 31
0.0
  0
LINE
  5
E89B
  8
ALPHA
 10
-317.812915
 20
176.728457
 30
0.0
 11
-317.812915
 21
157.728457
 31
0.0
  0
LINE
  5
E89C
  8
AXE
 10
-315.062915
 20
179.728457
 30
0.0
 11
-315.062915
 21
154.728457
 31
0.0
  0
LINE
  5
E8AF
  8
POINTILLE_COURT
 10
-301.812915
 20
176.728457
 30
0.0
 11
-301.812915
 21
157.142671
 31
0.0
  0
LINE
  5
E8B0
  8
POINTILLE_COURT
 10
-303.812915
 20
175.228457
 30
0.0
 11
-303.812915
 21
157.971098
 31
0.0
  0
LINE
  5
E8B1
  8
ALPHA
 10
-310.312915
 20
175.228457
 30
0.0
 11
-310.312915
 21
157.971098
 31
0.0
  0
LINE
  5
E8B2
  8
ALPHA
 10
-312.312915
 20
176.728457
 30
0.0
 11
-312.312915
 21
157.142671
 31
0.0
  0
LINE
  5
E8B3
  8
POINTILLE_COURT
 10
-296.312915
 20
176.728457
 30
0.0
 11
-296.312915
 21
157.728457
 31
0.0
  0
LINE
  5
E8B4
  8
AXE
 10
-299.062915
 20
179.728457
 30
0.0
 11
-299.062915
 21
154.728457
 31
0.0
  0
LINE
  5
E8B5
  8
ALPHA
 10
-287.563578
 20
140.233481
 30
0.0
 11
-305.430307
 21
140.233481
 31
0.0
  0
LINE
  5
E8B6
  8
POINTILLE_COURT
 10
-301.812915
 20
157.728457
 30
0.0
 11
-296.312915
 21
157.728457
 31
0.0
  0
ARC
  5
E8B7
  8
POINTILLE_COURT
 10
-302.812915
 20
157.142671
 30
0.0
 40
1.0
 50
315.0
 51
360.0
  0
LINE
  5
E8B8
  8
POINTILLE_COURT
 10
-304.312822
 20
154.22855
 30
0.0
 11
-302.105808
 21
156.435564
 31
0.0
  0
ARC
  5
E8B9
  8
POINTILLE_COURT
 10
-304.812915
 20
157.971098
 30
0.0
 40
1.0
 50
315.0
 51
360.0
  0
LINE
  5
E8BA
  8
POINTILLE_COURT
 10
-305.727035
 20
155.642764
 30
0.0
 11
-304.105808
 21
157.263991
 31
0.0
  0
ARC
  5
E8BB
  8
ALPHA
 10
-308.628518
 20
151.531559
 30
0.0
 40
3.069531
 50
0.73486
 51
44.741953
  0
ARC
  5
E8BC
  8
ALPHA
 10
-309.312915
 20
157.971098
 30
0.0
 40
1.0
 50
180.0
 51
225.0
  0
LINE
  5
E8BD
  8
ALPHA
 10
-306.448279
 20
153.692248
 30
0.0
 11
-310.020022
 21
157.263991
 31
0.0
  0
ARC
  5
E8BE
  8
ALPHA
 10
-308.569599
 20
151.570928
 30
0.0
 40
1.0
 50
360.0
 51
45.0
  0
ARC
  5
E8BF
  8
ALPHA
 10
-311.312915
 20
157.142671
 30
0.0
 40
1.0
 50
180.0
 51
225.0
  0
LINE
  5
E8C0
  8
ALPHA
 10
-307.862492
 20
152.278035
 30
0.0
 11
-312.020022
 21
156.435564
 31
0.0
  0
LINE
  5
E8C1
  8
ALPHA
 10
-305.55922
 20
148.733092
 30
0.0
 11
-307.569598
 21
148.733092
 31
0.0
  0
LINE
  5
E8C2
  8
ALPHA
 10
-307.569598
 20
146.967202
 30
0.0
 11
-305.55922
 21
146.967202
 31
0.0
  0
LINE
  5
E8C3
  8
ALPHA
 10
-307.569598
 20
147.631773
 30
0.0
 11
-305.55922
 21
147.631773
 31
0.0
  0
LINE
  5
E8C4
  8
ALPHA
 10
-307.569598
 20
148.274673
 30
0.0
 11
-305.55922
 21
148.274673
 31
0.0
  0
LINE
  5
E8C5
  8
ALPHA
 10
-307.569598
 20
150.241154
 30
0.0
 11
-308.073027
 21
150.241154
 31
0.0
  0
LINE
  5
E8C6
  8
ALPHA
 10
-307.569598
 20
138.67897
 30
0.0
 11
-305.55922
 21
138.67897
 31
0.0
  0
LINE
  5
E8C7
  8
ALPHA
 10
-307.569598
 20
144.263357
 30
0.0
 11
-305.55922
 21
144.263357
 31
0.0
  0
LINE
  5
E8C8
  8
ALPHA
 10
-307.569598
 20
145.164641
 30
0.0
 11
-305.55922
 21
145.164641
 31
0.0
  0
LINE
  5
E8C9
  8
ALPHA
 10
-307.569598
 20
146.065921
 30
0.0
 11
-305.55922
 21
146.065921
 31
0.0
  0
LINE
  5
E8CA
  8
ALPHA
 10
-307.569598
 20
143.149815
 30
0.0
 11
-305.55922
 21
143.149815
 31
0.0
  0
LINE
  5
E8CB
  8
ALPHA
 10
-307.569598
 20
142.248534
 30
0.0
 11
-305.55922
 21
142.248534
 31
0.0
  0
LINE
  5
E8CC
  8
ALPHA
 10
-307.569598
 20
141.346141
 30
0.0
 11
-305.55922
 21
141.346141
 31
0.0
  0
LINE
  5
E8CD
  8
ALPHA
 10
-307.569598
 20
140.44486
 30
0.0
 11
-305.55922
 21
140.44486
 31
0.0
  0
LINE
  5
E8CE
  8
ALPHA
 10
-307.569598
 20
139.780289
 30
0.0
 11
-305.55922
 21
139.780289
 31
0.0
  0
LINE
  5
E8CF
  8
ALPHA
 10
-307.569598
 20
139.137389
 30
0.0
 11
-305.55922
 21
139.137389
 31
0.0
  0
LINE
  5
E8D0
  8
ALPHA
 10
-308.073027
 20
137.170905
 30
0.0
 11
-307.569598
 21
137.170905
 31
0.0
  0
LINE
  5
E8D1
  8
ALPHA
 10
-308.073027
 20
150.241154
 30
0.0
 11
-308.073027
 21
137.170905
 31
0.0
  0
LINE
  5
E8D2
  8
ALPHA
 10
-307.569598
 20
137.170905
 30
0.0
 11
-307.569598
 21
150.241154
 31
0.0
  0
LINE
  5
E8D3
  8
ALPHA
 10
-307.569598
 20
148.733092
 30
0.0
 11
-307.569598
 21
138.67897
 31
0.0
  0
LINE
  5
E8D4
  8
ALPHA
 10
-305.55922
 20
138.67897
 30
0.0
 11
-305.55922
 21
148.733092
 31
0.0
  0
LINE
  5
E8D5
  8
POINTILLE_COURT
 10
-301.812915
 20
176.728457
 30
0.0
 11
-296.312915
 21
176.728457
 31
0.0
  0
LINE
  5
E8D6
  8
POINTILLE_COURT
 10
-301.812915
 20
175.228457
 30
0.0
 11
-303.812915
 21
175.228457
 31
0.0
  0
LINE
  5
E8D7
  8
ALPHA
 10
-312.312915
 20
175.228457
 30
0.0
 11
-310.312915
 21
175.228457
 31
0.0
  0
LINE
  5
ECBA
  8
POINTILLE_COURT
 10
-275.062915
 20
69.628457
 30
0.0
 11
-277.562915
 21
69.628457
 31
0.0
  0
LINE
  5
ECBB
  8
POINTILLE_COURT
 10
-275.062915
 20
72.628457
 30
0.0
 11
-277.562915
 21
72.628457
 31
0.0
  0
ARC
  5
ECBC
  8
POINTILLE_COURT
 10
-277.562915
 20
71.128457
 30
0.0
 40
1.5
 50
90.0
 51
270.0
  0
DIMENSION
  5
ECBD
  8
COTATION1
  2
*D10
 10
-275.062915
 20
51.728457
 30
0.0
 11
-262.170058
 21
51.728457
 31
0.0
 70
   128
 13
-279.062915
 23
71.728457
 33
0.0
 14
-275.062915
 24
67.728457
 34
0.0
  0
VIEWPORT
  5
494D
 67
     1
  8
0
 10
4.995325
 20
6.556512
 30
0.0
 40
22.70986
 41
13.988421
 68
    -1
 69
     1
1001
ACAD
1000
MVIEW
1002
{
1070
    16
1010
0.0
1020
0.0
1030
0.0
1010
0.0
1020
0.0
1030
1.0
1040
0.0
1040
13.988421
1040
4.995325
1040
6.556512
1040
50.0
1040
0.0
1040
0.0
1070
     0
1070
   100
1070
     1
1070
     1
1070
     0
1070
     0
1070
     0
1070
     0
1040
0.0
1040
0.0
1040
0.0
1040
10.0
1040
10.0
1040
10.0
1040
10.0
1070
     0
1002
{
1002
}
1002
}
  0
ENDSEC
  0
EOF
