  0
SECTION
  2
HEADER
  9
$ACADVER
  1
AC1009
  9
$INSBASE
 10
402.590624
 20
-1.041018
 30
0.0
  9
$EXTMIN
 10
22.540426
 20
29.228457
 30
0.0
  9
$EXTMAX
 10
117.781088
 20
148.88849
 30
0.0
  9
$LIMMIN
 10
-407.970438
 20
-367.832444
  9
$LIMMAX
 10
429.804077
 20
234.370848
  9
$ORTHOMODE
 70
     0
  9
$REGENMODE
 70
     1
  9
$FILLMODE
 70
     1
  9
$QTEXTMODE
 70
     0
  9
$MIRRTEXT
 70
     1
  9
$DRAGMODE
 70
     2
  9
$LTSCALE
 40
10.0
  9
$OSMODE
 70
   161
  9
$ATTMODE
 70
     1
  9
$TEXTSIZE
 40
6.0
  9
$TRACEWID
 40
1.0
  9
$TEXTSTYLE
  7
ROMANS
  9
$CLAYER
  8
ALPHA
  9
$CELTYPE
  6
BYLAYER
  9
$CECOLOR
 62
   256
  9
$DIMSCALE
 40
1.0
  9
$DIMASZ
 40
5.0
  9
$DIMEXO
 40
2.0
  9
$DIMDLI
 40
0.38
  9
$DIMRND
 40
0.0
  9
$DIMDLE
 40
0.0
  9
$DIMEXE
 40
2.5
  9
$DIMTP
 40
0.0
  9
$DIMTM
 40
0.0
  9
$DIMTXT
 40
2.5
  9
$DIMCEN
 40
0.0
  9
$DIMTSZ
 40
0.0
  9
$DIMTOL
 70
     0
  9
$DIMLIM
 70
     0
  9
$DIMTIH
 70
     1
  9
$DIMTOH
 70
     1
  9
$DIMSE1
 70
     0
  9
$DIMSE2
 70
     0
  9
$DIMTAD
 70
     1
  9
$DIMZIN
 70
    12
  9
$DIMBLK
  1
OPEN30
  9
$DIMASO
 70
     1
  9
$DIMSHO
 70
     1
  9
$DIMPOST
  1

  9
$DIMAPOST
  1

  9
$DIMALT
 70
     0
  9
$DIMALTD
 70
     2
  9
$DIMALTF
 40
25.4
  9
$DIMLFAC
 40
1.0
  9
$DIMTOFL
 70
     0
  9
$DIMTVP
 40
0.0
  9
$DIMTIX
 70
     0
  9
$DIMSOXD
 70
     0
  9
$DIMSAH
 70
     0
  9
$DIMBLK1
  1

  9
$DIMBLK2
  1

  9
$DIMSTYLE
  2
SC_DEFAUT
  9
$DIMCLRD
 70
     0
  9
$DIMCLRE
 70
     0
  9
$DIMCLRT
 70
     0
  9
$DIMTFAC
 40
1.0
  9
$DIMGAP
 40
2.0
  9
$LUNITS
 70
     2
  9
$LUPREC
 70
     1
  9
$SKETCHINC
 40
0.1
  9
$FILLETRAD
 40
5.0
  9
$AUNITS
 70
     0
  9
$AUPREC
 70
     0
  9
$MENU
  1
acad
  9
$ELEVATION
 40
0.0
  9
$PELEVATION
 40
0.0
  9
$THICKNESS
 40
0.0
  9
$LIMCHECK
 70
     0
  9
$BLIPMODE
 70
     0
  9
$CHAMFERA
 40
0.0
  9
$CHAMFERB
 40
0.0
  9
$SKPOLY
 70
     0
  9
$TDCREATE
 40
2450373.687919
  9
$TDUPDATE
 40
2452836.410493
  9
$TDINDWG
 40
1.548957
  9
$TDUSRTIMER
 40
1.548957
  9
$USRTIMER
 70
     1
  9
$ANGBASE
 50
0.0
  9
$ANGDIR
 70
     0
  9
$PDMODE
 70
    32
  9
$PDSIZE
 40
0.0
  9
$PLINEWID
 40
0.0
  9
$COORDS
 70
     1
  9
$SPLFRAME
 70
     0
  9
$SPLINETYPE
 70
     6
  9
$SPLINESEGS
 70
     8
  9
$ATTDIA
 70
     0
  9
$ATTREQ
 70
     1
  9
$HANDLING
 70
     1
  9
$HANDSEED
  5
F928
  9
$SURFTAB1
 70
     6
  9
$SURFTAB2
 70
     6
  9
$SURFTYPE
 70
     6
  9
$SURFU
 70
     6
  9
$SURFV
 70
     6
  9
$UCSNAME
  2

  9
$UCSORG
 10
0.0
 20
0.0
 30
0.0
  9
$UCSXDIR
 10
1.0
 20
0.0
 30
0.0
  9
$UCSYDIR
 10
0.0
 20
1.0
 30
0.0
  9
$PUCSNAME
  2

  9
$PUCSORG
 10
0.0
 20
0.0
 30
0.0
  9
$PUCSXDIR
 10
1.0
 20
0.0
 30
0.0
  9
$PUCSYDIR
 10
0.0
 20
1.0
 30
0.0
  9
$USERI1
 70
     0
  9
$USERI2
 70
     0
  9
$USERI3
 70
     0
  9
$USERI4
 70
     0
  9
$USERI5
 70
     0
  9
$USERR1
 40
0.0
  9
$USERR2
 40
0.0
  9
$USERR3
 40
0.0
  9
$USERR4
 40
0.0
  9
$USERR5
 40
0.0
  9
$WORLDVIEW
 70
     1
  9
$SHADEDGE
 70
     3
  9
$SHADEDIF
 70
    70
  9
$TILEMODE
 70
     1
  9
$MAXACTVP
 70
    16
  9
$PLIMCHECK
 70
     0
  9
$PEXTMIN
 10
-1.452248
 20
-0.437698
 30
0.0
  9
$PEXTMAX
 10
12.749749
 20
8.310198
 30
0.0
  9
$PLIMMIN
 10
0.0
 20
0.0
  9
$PLIMMAX
 10
12.0
 20
9.0
  9
$UNITMODE
 70
     0
  9
$VISRETAIN
 70
     0
  9
$PLINEGEN
 70
     0
  9
$PSLTSCALE
 70
     0
  0
ENDSEC
  0
SECTION
  2
TABLES
  0
TABLE
  2
VPORT
 70
     2
  0
VPORT
  2
*ACTIVE
 70
     0
 10
0.0
 20
0.0
 11
1.0
 21
1.0
 12
70.136036
 22
89.066884
 13
0.0
 23
0.0
 14
1.0
 24
1.0
 15
10.0
 25
10.0
 16
0.0
 26
0.0
 36
1.0
 17
0.0
 27
0.0
 37
0.0
 40
120.756079
 41
1.56
 42
50.0
 43
0.0
 44
0.0
 50
0.0
 51
0.0
 71
     0
 72
   100
 73
     1
 74
     0
 75
     0
 76
     0
 77
     0
 78
     0
  0
ENDTAB
  0
TABLE
  2
LTYPE
 70
     3
  0
LTYPE
  2
CONTINUOUS
 70
     0
  3
Solid line
 72
    65
 73
     0
 40
0.0
  0
LTYPE
  2
AXES2
 70
     0
  3
___ _ ___ _ ___ _ ___ _ ___ _ ___ _ ___ _ ___ _
 72
    65
 73
     4
 40
1.125
 49
0.75
 49
-0.125
 49
0.125
 49
-0.125
  0
LTYPE
  2
CACHE2
 70
     0
  3
Caché (x.5) _ _ _ _ _ _ _ _ _ _ _ _ _ _ _ _ _
 72
    65
 73
     2
 40
0.1875
 49
0.125
 49
-0.0625
  0
ENDTAB
  0
TABLE
  2
LAYER
 70
     6
  0
LAYER
  2
0
 70
     0
 62
   255
  6
CONTINUOUS
  0
LAYER
  2
COTATION1
 70
     0
 62
     2
  6
CONTINUOUS
  0
LAYER
  2
AXE
 70
     0
 62
    80
  6
AXES2
  0
LAYER
  2
DEFPOINTS
 70
     0
 62
     7
  6
CONTINUOUS
  0
LAYER
  2
ALPHA
 70
     0
 62
   254
  6
CONTINUOUS
  0
LAYER
  2
POINTILLE_COURT
 70
     0
 62
    41
  6
CACHE2
  0
ENDTAB
  0
TABLE
  2
STYLE
 70
     2
  0
STYLE
  2
ROMANS
 70
     0
 40
0.0
 41
1.0
 50
0.0
 71
     0
 42
6.0
  3
romans
  4

  0
STYLE
  2
STANDARD
 70
     0
 40
0.2
 41
1.0
 50
0.0
 71
     0
 42
0.2
  3
txt
  4

  0
ENDTAB
  0
TABLE
  2
VIEW
 70
     0
  0
ENDTAB
  0
TABLE
  2
UCS
 70
     0
  0
ENDTAB
  0
TABLE
  2
APPID
 70
     1
  0
APPID
  2
ACAD
 70
     0
  0
ENDTAB
  0
TABLE
  2
DIMSTYLE
 70
     1
  0
DIMSTYLE
  2
SC_DEFAUT
 70
     0
  3

  4

  5
OPEN30
  6

  7

 40
1.0
 41
5.0
 42
2.0
 43
0.38
 44
2.5
 45
0.0
 46
0.0
 47
0.0
 48
0.0
140
2.5
141
0.0
142
0.0
143
25.4
144
1.0
145
0.0
146
1.0
147
2.0
 71
     0
 72
     0
 73
     1
 74
     1
 75
     0
 76
     0
 77
     1
 78
    12
170
     0
171
     2
172
     0
173
     0
174
     0
175
     0
176
     0
177
     0
178
     0
  0
ENDTAB
  0
ENDSEC
  0
SECTION
  2
BLOCKS
  0
BLOCK
  8
0
  2
$MODEL_SPACE
 70
     0
 10
0.0
 20
0.0
 30
0.0
  3
$MODEL_SPACE
  1

  0
ENDBLK
  5
F921
  8
0
  0
BLOCK
 67
     1
  8
0
  2
$PAPER_SPACE
 70
     0
 10
0.0
 20
0.0
 30
0.0
  3
$PAPER_SPACE
  1

  0
ENDBLK
  5
F91F
 67
     1
  8
0
  0
BLOCK
  8
0
  2
COTE
 70
     0
 10
0.0
 20
0.0
 30
0.0
  3
COTE
  1

  0
ENDBLK
  5
F
  8
0
  0
BLOCK
  8
0
  2
FOND
 70
     0
 10
0.0
 20
0.0
 30
0.0
  3
FOND
  1

  0
ENDBLK
  5
75
  8
0
  0
BLOCK
  8
0
  2
_OPEN30
 70
     0
 10
0.0
 20
0.0
 30
0.0
  3
_OPEN30
  1

  0
LINE
  5
4B05
  8
COTATION1
 62
     0
 10
-1.0
 20
0.267949
 30
0.0
 11
0.0
 21
0.0
 31
0.0
1001
ACAD
1000
RTLwPs
1070
   158
  0
LINE
  5
4B06
  8
COTATION1
 62
     0
 10
0.0
 20
0.0
 30
0.0
 11
-1.0
 21
-0.267949
 31
0.0
1001
ACAD
1000
RTLwPs
1070
   158
  0
LINE
  5
4B07
  8
COTATION1
 62
     0
 10
0.0
 20
0.0
 30
0.0
 11
-1.0
 21
0.0
 31
0.0
1001
ACAD
1000
RTLwPs
1070
   158
  0
ENDBLK
  5
4B09
  8
0
  0
BLOCK
  8
0
  2
*D3
 70
     1
 10
0.0
 20
0.0
 30
0.0
  3
*D3
  1

  0
LINE
  5
F48B
  8
COTATION1
 62
     0
 10
45.281088
 20
65.728457
 30
0.0
 11
45.281088
 21
29.228457
 31
0.0
1001
ACAD
1000
RTLwPs
1070
   158
  0
LINE
  5
F48C
  8
COTATION1
 62
     0
 10
75.281088
 20
70.728457
 30
0.0
 11
75.281088
 21
29.228457
 31
0.0
1001
ACAD
1000
RTLwPs
1070
   158
  0
LINE
  5
F48D
  8
COTATION1
 62
     0
 10
50.281088
 20
31.728457
 30
0.0
 11
70.281088
 21
31.728457
 31
0.0
1001
ACAD
1000
RTLwPs
1070
   158
  0
INSERT
  5
F48E
  8
COTATION1
 62
     0
  2
_OPEN30
 10
45.281088
 20
31.728457
 30
0.0
 41
5.0
 42
5.0
 43
5.0
 50
180.0
1001
ACAD
1000
RTLwPs
1070
   158
  0
INSERT
  5
F48F
  8
COTATION1
 62
     0
  2
_OPEN30
 10
75.281088
 20
31.728457
 30
0.0
 41
5.0
 42
5.0
 43
5.0
1001
ACAD
1000
RTLwPs
1070
   158
  0
TEXT
  5
F490
  8
COTATION1
 62
     0
 10
57.900136
 20
33.728457
 30
0.0
 40
2.5
  1
30
1001
ACAD
1000
MTEXTBEGIN
1070
    73
1070
     1
1070
    44
1040
1.0
1070
    74
1070
     0
1000
MTEXTEND
1000
MTEXTBEGIN
1070
    73
1070
     1
1070
    44
1040
1.0
1070
    74
1070
     0
1000
MTEXTEND
1000
MTEXTBEGIN
1070
    73
1070
     1
1070
    44
1040
1.0
1070
    74
1070
     0
1000
MTEXTEND
1000
MTEXTBEGIN
1070
    73
1070
     1
1070
    44
1040
1.0
1070
    74
1070
     0
1000
MTEXTEND
  0
POINT
  5
F491
  8
DEFPOINTS
 62
     0
 10
45.281088
 20
67.728457
 30
0.0
  0
POINT
  5
F492
  8
DEFPOINTS
 62
     0
 10
75.281088
 20
72.728457
 30
0.0
  0
POINT
  5
F493
  8
DEFPOINTS
 62
     0
 10
75.281088
 20
31.728457
 30
0.0
  0
ENDBLK
  5
F451
  8
0
  0
BLOCK
  8
0
  2
*D4
 70
     1
 10
0.0
 20
0.0
 30
0.0
  3
*D4
  1

  0
LINE
  5
F479
  8
COTATION1
 62
     0
 10
50.160757
 20
101.228457
 30
0.0
 11
50.160757
 21
39.228457
 31
0.0
1001
ACAD
1000
RTLwPs
1070
   158
  0
LINE
  5
F47A
  8
COTATION1
 62
     0
 10
70.160757
 20
101.228457
 30
0.0
 11
70.160757
 21
39.228457
 31
0.0
1001
ACAD
1000
RTLwPs
1070
   158
  0
LINE
  5
F47B
  8
COTATION1
 62
     0
 10
55.160757
 20
41.728457
 30
0.0
 11
65.160757
 21
41.728457
 31
0.0
1001
ACAD
1000
RTLwPs
1070
   158
  0
INSERT
  5
F47C
  8
COTATION1
 62
     0
  2
_OPEN30
 10
50.160757
 20
41.728457
 30
0.0
 41
5.0
 42
5.0
 43
5.0
 50
180.0
1001
ACAD
1000
RTLwPs
1070
   158
  0
INSERT
  5
F47D
  8
COTATION1
 62
     0
  2
_OPEN30
 10
70.160757
 20
41.728457
 30
0.0
 41
5.0
 42
5.0
 43
5.0
1001
ACAD
1000
RTLwPs
1070
   158
  0
TEXT
  5
F47E
  8
COTATION1
 62
     0
 10
57.779805
 20
43.728457
 30
0.0
 40
2.5
  1
20
1001
ACAD
1000
MTEXTBEGIN
1070
    73
1070
     1
1070
    44
1040
1.0
1070
    74
1070
     0
1000
MTEXTEND
1000
MTEXTBEGIN
1070
    73
1070
     1
1070
    44
1040
1.0
1070
    74
1070
     0
1000
MTEXTEND
1000
MTEXTBEGIN
1070
    73
1070
     1
1070
    44
1040
1.0
1070
    74
1070
     0
1000
MTEXTEND
1000
MTEXTBEGIN
1070
    73
1070
     1
1070
    44
1040
1.0
1070
    74
1070
     0
1000
MTEXTEND
  0
POINT
  5
F47F
  8
DEFPOINTS
 62
     0
 10
50.160757
 20
103.228457
 30
0.0
  0
POINT
  5
F480
  8
DEFPOINTS
 62
     0
 10
70.160757
 20
103.228457
 30
0.0
  0
POINT
  5
F481
  8
DEFPOINTS
 62
     0
 10
70.160757
 20
41.728457
 30
0.0
  0
ENDBLK
  5
F45D
  8
0
  0
BLOCK
  8
0
  2
*D5
 70
     1
 10
0.0
 20
0.0
 30
0.0
  3
*D5
  1

  0
LINE
  5
F681
  8
COTATION1
 62
     0
 10
62.160757
 20
117.728457
 30
0.0
 11
107.781088
 21
117.728457
 31
0.0
1001
ACAD
1000
RTLwPs
1070
   158
  0
LINE
  5
F682
  8
COTATION1
 62
     0
 10
72.281088
 20
67.728457
 30
0.0
 11
107.781088
 21
67.728457
 31
0.0
1001
ACAD
1000
RTLwPs
1070
   158
  0
LINE
  5
F683
  8
COTATION1
 62
     0
 10
105.281088
 20
112.728457
 30
0.0
 11
105.281088
 21
95.978457
 31
0.0
1001
ACAD
1000
RTLwPs
1070
   158
  0
LINE
  5
F684
  8
COTATION1
 62
     0
 10
105.281088
 20
72.728457
 30
0.0
 11
105.281088
 21
89.478457
 31
0.0
1001
ACAD
1000
RTLwPs
1070
   158
  0
INSERT
  5
F685
  8
COTATION1
 62
     0
  2
_OPEN30
 10
105.281088
 20
117.728457
 30
0.0
 41
5.0
 42
5.0
 43
5.0
 50
90.0
1001
ACAD
1000
RTLwPs
1070
   158
  0
INSERT
  5
F686
  8
COTATION1
 62
     0
  2
_OPEN30
 10
105.281088
 20
67.728457
 30
0.0
 41
5.0
 42
5.0
 43
5.0
 50
270.0
1001
ACAD
1000
RTLwPs
1070
   158
  0
TEXT
  5
F687
  8
COTATION1
 62
     0
 10
102.900136
 20
91.478457
 30
0.0
 40
2.5
  1
50
1001
ACAD
1000
MTEXTBEGIN
1070
    73
1070
     1
1070
    44
1040
1.0
1070
    74
1070
     0
1000
MTEXTEND
1000
MTEXTBEGIN
1070
    73
1070
     1
1070
    44
1040
1.0
1070
    74
1070
     0
1000
MTEXTEND
1000
MTEXTBEGIN
1070
    73
1070
     1
1070
    44
1040
1.0
1070
    74
1070
     0
1000
MTEXTEND
1000
MTEXTBEGIN
1070
    73
1070
     1
1070
    44
1040
1.0
1070
    74
1070
     0
1000
MTEXTEND
  0
POINT
  5
F688
  8
DEFPOINTS
 62
     0
 10
60.160757
 20
117.728457
 30
0.0
  0
POINT
  5
F689
  8
DEFPOINTS
 62
     0
 10
70.281088
 20
67.728457
 30
0.0
  0
POINT
  5
F68A
  8
DEFPOINTS
 62
     0
 10
105.281088
 20
67.728457
 30
0.0
  0
ENDBLK
  5
F4A4
  8
0
  0
BLOCK
  8
0
  2
*D6
 70
     1
 10
0.0
 20
0.0
 30
0.0
  3
*D6
  1

  0
LINE
  5
F65F
  8
COTATION1
 62
     0
 10
76.660757
 20
107.728457
 30
0.0
 11
97.781088
 21
107.728457
 31
0.0
1001
ACAD
1000
RTLwPs
1070
   158
  0
LINE
  5
F660
  8
COTATION1
 62
     0
 10
72.281088
 20
67.728457
 30
0.0
 11
97.781088
 21
67.728457
 31
0.0
1001
ACAD
1000
RTLwPs
1070
   158
  0
LINE
  5
F661
  8
COTATION1
 62
     0
 10
95.281088
 20
102.728457
 30
0.0
 11
95.281088
 21
90.978457
 31
0.0
1001
ACAD
1000
RTLwPs
1070
   158
  0
LINE
  5
F662
  8
COTATION1
 62
     0
 10
95.281088
 20
72.728457
 30
0.0
 11
95.281088
 21
84.478457
 31
0.0
1001
ACAD
1000
RTLwPs
1070
   158
  0
INSERT
  5
F663
  8
COTATION1
 62
     0
  2
_OPEN30
 10
95.281088
 20
107.728457
 30
0.0
 41
5.0
 42
5.0
 43
5.0
 50
90.0
1001
ACAD
1000
RTLwPs
1070
   158
  0
INSERT
  5
F664
  8
COTATION1
 62
     0
  2
_OPEN30
 10
95.281088
 20
67.728457
 30
0.0
 41
5.0
 42
5.0
 43
5.0
 50
270.0
1001
ACAD
1000
RTLwPs
1070
   158
  0
TEXT
  5
F665
  8
COTATION1
 62
     0
 10
92.900136
 20
86.478457
 30
0.0
 40
2.5
  1
40
1001
ACAD
1000
MTEXTBEGIN
1070
    73
1070
     1
1070
    44
1040
1.0
1070
    74
1070
     0
1000
MTEXTEND
1000
MTEXTBEGIN
1070
    73
1070
     1
1070
    44
1040
1.0
1070
    74
1070
     0
1000
MTEXTEND
1000
MTEXTBEGIN
1070
    73
1070
     1
1070
    44
1040
1.0
1070
    74
1070
     0
1000
MTEXTEND
1000
MTEXTBEGIN
1070
    73
1070
     1
1070
    44
1040
1.0
1070
    74
1070
     0
1000
MTEXTEND
  0
POINT
  5
F666
  8
DEFPOINTS
 62
     0
 10
74.660757
 20
107.728457
 30
0.0
  0
POINT
  5
F667
  8
DEFPOINTS
 62
     0
 10
70.281088
 20
67.728457
 30
0.0
  0
POINT
  5
F668
  8
DEFPOINTS
 62
     0
 10
95.281088
 20
67.728457
 30
0.0
  0
ENDBLK
  5
F4B1
  8
0
  0
BLOCK
  8
0
  2
*D7
 70
     1
 10
0.0
 20
0.0
 30
0.0
  3
*D7
  1

  0
LINE
  5
F559
  8
COTATION1
 62
     0
 10
32.267009
 20
115.461517
 30
0.0
 11
38.314628
 21
115.461517
 31
0.0
1001
ACAD
1000
RTLwPs
1070
   158
  0
LINE
  5
F55A
  8
COTATION1
 62
     0
 10
38.314628
 20
115.461517
 30
0.0
 11
44.299141
 21
111.554873
 31
0.0
1001
ACAD
1000
RTLwPs
1070
   158
  0
TEXT
  5
F55B
  8
COTATION1
 62
     0
 10
32.028913
 20
117.461517
 30
0.0
 40
2.5
  1
%%c4
1001
ACAD
1000
MTEXTBEGIN
1070
    73
1070
     1
1070
    44
1040
1.0
1070
    74
1070
     0
1000
MTEXTEND
1000
MTEXTBEGIN
1070
    73
1070
     1
1070
    44
1040
1.0
1070
    74
1070
     0
1000
MTEXTEND
1000
MTEXTBEGIN
1070
    73
1070
     1
1070
    44
1040
1.0
1070
    74
1070
     0
1000
MTEXTEND
1000
MTEXTBEGIN
1070
    73
1070
     1
1070
    44
1040
1.0
1070
    74
1070
     0
1000
MTEXTEND
  0
INSERT
  5
F55C
  8
COTATION1
 62
     0
  2
_OPEN30
 10
48.48601
 20
108.821719
 30
0.0
 41
5.0
 42
5.0
 43
5.0
 50
326.863815
1001
ACAD
1000
RTLwPs
1070
   158
  0
POINT
  5
F55D
  8
DEFPOINTS
 62
     0
 10
48.48601
 20
108.821719
 30
0.0
  0
POINT
  5
F55E
  8
DEFPOINTS
 62
     0
 10
51.835504
 20
106.635195
 30
0.0
  0
ENDBLK
  5
F558
  8
0
  0
BLOCK
  8
0
  2
*D8
 70
     1
 10
0.0
 20
0.0
 30
0.0
  3
*D8
  1

  0
LINE
  5
F59E
  8
COTATION1
 62
     0
 10
56.660757
 20
129.228457
 30
0.0
 11
56.660757
 21
146.88849
 31
0.0
1001
ACAD
1000
RTLwPs
1070
   158
  0
LINE
  5
F59F
  8
COTATION1
 62
     0
 10
63.660757
 20
129.228457
 30
0.0
 11
63.660757
 21
146.88849
 31
0.0
1001
ACAD
1000
RTLwPs
1070
   158
  0
LINE
  5
F5A0
  8
COTATION1
 62
     0
 10
51.660757
 20
144.38849
 30
0.0
 11
46.660757
 21
144.38849
 31
0.0
1001
ACAD
1000
RTLwPs
1070
   158
  0
LINE
  5
F5A1
  8
COTATION1
 62
     0
 10
68.660757
 20
144.38849
 30
0.0
 11
73.660757
 21
144.38849
 31
0.0
1001
ACAD
1000
RTLwPs
1070
   158
  0
INSERT
  5
F5A2
  8
COTATION1
 62
     0
  2
_OPEN30
 10
56.660757
 20
144.38849
 30
0.0
 41
5.0
 42
5.0
 43
5.0
1001
ACAD
1000
RTLwPs
1070
   158
  0
INSERT
  5
F5A3
  8
COTATION1
 62
     0
  2
_OPEN30
 10
63.660757
 20
144.38849
 30
0.0
 41
5.0
 42
5.0
 43
5.0
 50
180.0
1001
ACAD
1000
RTLwPs
1070
   158
  0
TEXT
  5
F5A4
  8
COTATION1
 62
     0
 10
57.958376
 20
146.38849
 30
0.0
 40
2.5
  1
%%c
1001
ACAD
1000
MTEXTBEGIN
1070
    73
1070
     1
1070
    44
1040
1.0
1070
    74
1070
     0
1000
MTEXTEND
1000
MTEXTBEGIN
1070
    73
1070
     1
1070
    44
1040
1.0
1070
    74
1070
     0
1000
MTEXTEND
1000
MTEXTBEGIN
1070
    73
1070
     1
1070
    44
1040
1.0
1070
    74
1070
     0
1000
MTEXTEND
1000
MTEXTBEGIN
1070
    73
1070
     1
1070
    44
1040
1.0
1070
    74
1070
     0
1000
MTEXTEND
  0
TEXT
  5
F8EB
  8
COTATION1
 62
     0
 10
60.220281
 20
146.38849
 30
0.0
 40
2.5
  1
7
1001
ACAD
1000
R13OBJECT
1002
{
1005
F5A4
1002
}
  0
POINT
  5
F5A5
  8
DEFPOINTS
 62
     0
 10
56.660757
 20
127.228457
 30
0.0
  0
POINT
  5
F5A6
  8
DEFPOINTS
 62
     0
 10
63.660757
 20
127.228457
 30
0.0
  0
POINT
  5
F5A7
  8
DEFPOINTS
 62
     0
 10
63.660757
 20
144.38849
 30
0.0
  0
ENDBLK
  5
F56B
  8
0
  0
BLOCK
  8
0
  2
*D9
 70
     1
 10
0.0
 20
0.0
 30
0.0
  3
*D9
  1

  0
LINE
  5
F641
  8
COTATION1
 62
     0
 10
58.160757
 20
127.728457
 30
0.0
 11
22.540426
 21
127.728457
 31
0.0
1001
ACAD
1000
RTLwPs
1070
   158
  0
LINE
  5
F642
  8
COTATION1
 62
     0
 10
43.660757
 20
107.728457
 30
0.0
 11
22.540426
 21
107.728457
 31
0.0
1001
ACAD
1000
RTLwPs
1070
   158
  0
LINE
  5
F643
  8
COTATION1
 62
     0
 10
25.040426
 20
122.728457
 30
0.0
 11
25.040426
 21
120.978457
 31
0.0
1001
ACAD
1000
RTLwPs
1070
   158
  0
LINE
  5
F644
  8
COTATION1
 62
     0
 10
25.040426
 20
112.728457
 30
0.0
 11
25.040426
 21
114.478457
 31
0.0
1001
ACAD
1000
RTLwPs
1070
   158
  0
INSERT
  5
F645
  8
COTATION1
 62
     0
  2
_OPEN30
 10
25.040426
 20
127.728457
 30
0.0
 41
5.0
 42
5.0
 43
5.0
 50
90.0
1001
ACAD
1000
RTLwPs
1070
   158
  0
INSERT
  5
F646
  8
COTATION1
 62
     0
  2
_OPEN30
 10
25.040426
 20
107.728457
 30
0.0
 41
5.0
 42
5.0
 43
5.0
 50
270.0
1001
ACAD
1000
RTLwPs
1070
   158
  0
TEXT
  5
F647
  8
COTATION1
 62
     0
 10
22.659474
 20
116.478457
 30
0.0
 40
2.5
  1
20
1001
ACAD
1000
MTEXTBEGIN
1070
    73
1070
     1
1070
    44
1040
1.0
1070
    74
1070
     0
1000
MTEXTEND
1000
MTEXTBEGIN
1070
    73
1070
     1
1070
    44
1040
1.0
1070
    74
1070
     0
1000
MTEXTEND
1000
MTEXTBEGIN
1070
    73
1070
     1
1070
    44
1040
1.0
1070
    74
1070
     0
1000
MTEXTEND
1000
MTEXTBEGIN
1070
    73
1070
     1
1070
    44
1040
1.0
1070
    74
1070
     0
1000
MTEXTEND
  0
POINT
  5
F648
  8
DEFPOINTS
 62
     0
 10
60.160757
 20
127.728457
 30
0.0
  0
POINT
  5
F649
  8
DEFPOINTS
 62
     0
 10
45.660757
 20
107.728457
 30
0.0
  0
POINT
  5
F64A
  8
DEFPOINTS
 62
     0
 10
25.040426
 20
107.728457
 30
0.0
  0
ENDBLK
  5
F635
  8
0
  0
BLOCK
  8
0
  2
*D10
 70
     1
 10
0.0
 20
0.0
 30
0.0
  3
*D10
  1

  0
LINE
  5
F695
  8
COTATION1
 62
     0
 10
62.160757
 20
127.728457
 30
0.0
 11
117.781088
 21
127.728457
 31
0.0
1001
ACAD
1000
RTLwPs
1070
   158
  0
LINE
  5
F696
  8
COTATION1
 62
     0
 10
72.281088
 20
67.728457
 30
0.0
 11
117.781088
 21
67.728457
 31
0.0
1001
ACAD
1000
RTLwPs
1070
   158
  0
LINE
  5
F697
  8
COTATION1
 62
     0
 10
115.281088
 20
122.728457
 30
0.0
 11
115.281088
 21
100.978457
 31
0.0
1001
ACAD
1000
RTLwPs
1070
   158
  0
LINE
  5
F698
  8
COTATION1
 62
     0
 10
115.281088
 20
72.728457
 30
0.0
 11
115.281088
 21
94.478457
 31
0.0
1001
ACAD
1000
RTLwPs
1070
   158
  0
INSERT
  5
F699
  8
COTATION1
 62
     0
  2
_OPEN30
 10
115.281088
 20
127.728457
 30
0.0
 41
5.0
 42
5.0
 43
5.0
 50
90.0
1001
ACAD
1000
RTLwPs
1070
   158
  0
INSERT
  5
F69A
  8
COTATION1
 62
     0
  2
_OPEN30
 10
115.281088
 20
67.728457
 30
0.0
 41
5.0
 42
5.0
 43
5.0
 50
270.0
1001
ACAD
1000
RTLwPs
1070
   158
  0
TEXT
  5
F69B
  8
COTATION1
 62
     0
 10
112.840612
 20
96.478457
 30
0.0
 40
2.5
  1
60
1001
ACAD
1000
MTEXTBEGIN
1070
    73
1070
     1
1070
    44
1040
1.0
1070
    74
1070
     0
1000
MTEXTEND
1000
MTEXTBEGIN
1070
    73
1070
     1
1070
    44
1040
1.0
1070
    74
1070
     0
1000
MTEXTEND
1000
MTEXTBEGIN
1070
    73
1070
     1
1070
    44
1040
1.0
1070
    74
1070
     0
1000
MTEXTEND
1000
MTEXTBEGIN
1070
    73
1070
     1
1070
    44
1040
1.0
1070
    74
1070
     0
1000
MTEXTEND
  0
POINT
  5
F69C
  8
DEFPOINTS
 62
     0
 10
60.160757
 20
127.728457
 30
0.0
  0
POINT
  5
F69D
  8
DEFPOINTS
 62
     0
 10
70.281088
 20
67.728457
 30
0.0
  0
POINT
  5
F69E
  8
DEFPOINTS
 62
     0
 10
115.281088
 20
67.728457
 30
0.0
  0
ENDBLK
  5
F676
  8
0
  0
ENDSEC
  0
SECTION
  2
ENTITIES
  0
INSERT
  5
A
  8
0
  2
COTE
 10
0.0
 20
0.0
 30
0.0
  0
INSERT
  5
17
  8
0
  2
COTE
 10
284.010391
 20
6.373258
 30
0.0
  0
INSERT
  5
72
  8
0
  2
FOND
 10
0.0
 20
0.0
 30
0.0
  0
LINE
  5
F22C
  8
ALPHA
 10
45.281088
 20
67.728457
 30
0.0
 11
70.281088
 21
67.728457
 31
0.0
  0
LINE
  5
F264
  8
ALPHA
 10
45.281088
 20
67.728457
 30
0.0
 11
45.281088
 21
115.728457
 31
0.0
  0
LINE
  5
F265
  8
ALPHA
 10
75.281088
 20
72.728457
 30
0.0
 11
75.281088
 21
115.728457
 31
0.0
  0
LINE
  5
F266
  8
ALPHA
 10
45.281088
 20
100.728457
 30
0.0
 11
75.281088
 21
100.728457
 31
0.0
  0
ARC
  5
F2D2
  8
ALPHA
 10
60.281088
 20
60.482077
 30
0.0
 40
57.246507
 50
74.809764
 51
105.190236
  0
LINE
  5
F2D5
  8
ALPHA
 10
48.848969
 20
114.13195
 30
0.0
 11
48.718742
 21
113.400431
 31
0.0
  0
LINE
  5
F2D6
  8
ALPHA
 10
47.662588
 20
113.394199
 30
0.0
 11
47.54233
 21
114.123851
 31
0.0
  0
LINE
  5
F2D7
  8
ALPHA
 10
47.54233
 20
114.123851
 30
0.0
 11
48.193468
 21
113.783013
 31
0.0
  0
CIRCLE
  5
F2D8
  8
ALPHA
 10
48.160757
 20
113.228457
 30
0.0
 40
1.549961
  0
LINE
  5
F2D9
  8
ALPHA
 10
48.193468
 20
113.783013
 30
0.0
 11
48.848969
 21
114.13195
 31
0.0
  0
LINE
  5
F2DA
  8
ALPHA
 10
49.245882
 20
112.886375
 30
0.0
 11
48.513742
 21
112.773594
 31
0.0
  0
LINE
  5
F2DB
  8
ALPHA
 10
48.182877
 20
112.108124
 30
0.0
 11
47.858863
 21
112.769854
 31
0.0
  0
LINE
  5
F2DC
  8
ALPHA
 10
47.858863
 20
112.769854
 30
0.0
 11
47.129215
 21
112.872043
 31
0.0
  0
LINE
  5
F2DD
  8
ALPHA
 10
47.129215
 20
112.872043
 30
0.0
 11
47.662588
 21
113.394199
 31
0.0
  0
LINE
  5
F2DE
  8
ALPHA
 10
48.513742
 20
112.773594
 30
0.0
 11
48.182877
 21
112.108124
 31
0.0
  0
LINE
  5
F2DF
  8
ALPHA
 10
48.718742
 20
113.400431
 30
0.0
 11
49.245882
 21
112.886375
 31
0.0
  0
CIRCLE
  5
F2E1
  8
POINTILLE_COURT
 10
50.160757
 20
107.728457
 30
0.0
 40
2.0
  0
LINE
  5
F2E2
  8
AXE
 10
50.160757
 20
103.228457
 30
0.0
 11
50.160757
 21
112.228457
 31
0.0
  0
LINE
  5
F2E3
  8
AXE
 10
45.660757
 20
107.728457
 30
0.0
 11
54.660757
 21
107.728457
 31
0.0
  0
ARC
  5
F2E6
  8
ALPHA
 10
60.160757
 20
115.228457
 30
0.0
 40
12.5
 50
73.739795
 51
106.260205
  0
LINE
  5
F2E7
  8
ALPHA
 10
60.160757
 20
127.228457
 30
0.0
 11
56.660757
 21
127.228457
 31
0.0
  0
LINE
  5
F2E8
  8
ALPHA
 10
55.160757
 20
121.228457
 30
0.0
 11
60.160757
 21
121.228457
 31
0.0
  0
LINE
  5
F2E9
  8
ALPHA
 10
52.410757
 20
118.728457
 30
0.0
 11
60.160757
 21
118.728457
 31
0.0
  0
LINE
  5
F2EA
  8
ALPHA
 10
52.910757
 20
119.228457
 30
0.0
 11
60.160757
 21
119.228457
 31
0.0
  0
LINE
  5
F2EB
  8
ALPHA
 10
56.660757
 20
127.228457
 30
0.0
 11
56.660757
 21
121.228457
 31
0.0
  0
LINE
  5
F2EC
  8
ALPHA
 10
52.410757
 20
118.728457
 30
0.0
 11
52.910757
 21
119.228457
 31
0.0
  0
LINE
  5
F2ED
  8
ALPHA
 10
52.410757
 20
118.728457
 30
0.0
 11
52.410757
 21
117.17456
 31
0.0
  0
LINE
  5
F2EE
  8
ALPHA
 10
55.160757
 20
121.228457
 30
0.0
 11
54.228142
 21
119.228457
 31
0.0
  0
LINE
  5
F2EF
  8
ALPHA
 10
63.660757
 20
127.228457
 30
0.0
 11
63.660757
 21
121.228457
 31
0.0
  0
LINE
  5
F2F0
  8
ALPHA
 10
67.910757
 20
118.728457
 30
0.0
 11
67.410757
 21
119.228457
 31
0.0
  0
LINE
  5
F2F1
  8
ALPHA
 10
67.910757
 20
118.728457
 30
0.0
 11
60.160757
 21
118.728457
 31
0.0
  0
LINE
  5
F2F2
  8
ALPHA
 10
65.160757
 20
121.228457
 30
0.0
 11
60.160757
 21
121.228457
 31
0.0
  0
LINE
  5
F2F3
  8
ALPHA
 10
67.410757
 20
119.228457
 30
0.0
 11
60.160757
 21
119.228457
 31
0.0
  0
LINE
  5
F2F4
  8
ALPHA
 10
65.160757
 20
121.228457
 30
0.0
 11
66.093372
 21
119.228457
 31
0.0
  0
LINE
  5
F2F5
  8
ALPHA
 10
67.910757
 20
118.728457
 30
0.0
 11
67.910757
 21
117.17456
 31
0.0
  0
LINE
  5
F2F6
  8
ALPHA
 10
60.160757
 20
127.228457
 30
0.0
 11
63.660757
 21
127.228457
 31
0.0
  0
LINE
  5
F2F7
  8
ALPHA
 10
56.660757
 20
70.028457
 30
0.0
 11
60.160757
 21
70.028457
 31
0.0
  0
LINE
  5
F2F8
  8
ALPHA
 10
56.660757
 20
72.028457
 30
0.0
 11
60.160757
 21
72.028457
 31
0.0
  0
ARC
  5
F2FA
  8
ALPHA
 10
56.660757
 20
71.028457
 30
0.0
 40
1.0
 50
90.0
 51
270.0
  0
LINE
  5
F2FB
  8
ALPHA
 10
63.660757
 20
70.028457
 30
0.0
 11
60.160757
 21
70.028457
 31
0.0
  0
LINE
  5
F2FC
  8
ALPHA
 10
63.660757
 20
72.028457
 30
0.0
 11
60.160757
 21
72.028457
 31
0.0
  0
ARC
  5
F2FD
  8
ALPHA
 10
63.660757
 20
71.028457
 30
0.0
 40
1.0
 50
270.0
 51
90.0
  0
CIRCLE
  5
F362
  8
POINTILLE_COURT
 10
70.160757
 20
107.728457
 30
0.0
 40
2.0
  0
LINE
  5
F363
  8
AXE
 10
70.160757
 20
103.228457
 30
0.0
 11
70.160757
 21
112.228457
 31
0.0
  0
LINE
  5
F364
  8
AXE
 10
74.660757
 20
107.728457
 30
0.0
 11
65.660757
 21
107.728457
 31
0.0
  0
LINE
  5
F365
  8
ALPHA
 10
71.602772
 20
113.400431
 30
0.0
 11
71.075632
 21
112.886375
 31
0.0
  0
LINE
  5
F366
  8
ALPHA
 10
71.807772
 20
112.773594
 30
0.0
 11
72.138637
 21
112.108124
 31
0.0
  0
LINE
  5
F367
  8
ALPHA
 10
73.192299
 20
112.872043
 30
0.0
 11
72.658926
 21
113.394199
 31
0.0
  0
LINE
  5
F368
  8
ALPHA
 10
72.462651
 20
112.769854
 30
0.0
 11
73.192299
 21
112.872043
 31
0.0
  0
LINE
  5
F369
  8
ALPHA
 10
72.138637
 20
112.108124
 30
0.0
 11
72.462651
 21
112.769854
 31
0.0
  0
LINE
  5
F36A
  8
ALPHA
 10
71.075632
 20
112.886375
 30
0.0
 11
71.807772
 21
112.773594
 31
0.0
  0
LINE
  5
F36B
  8
ALPHA
 10
72.128046
 20
113.783013
 30
0.0
 11
71.472545
 21
114.13195
 31
0.0
  0
CIRCLE
  5
F36C
  8
ALPHA
 10
72.160757
 20
113.228457
 30
0.0
 40
1.549961
  0
LINE
  5
F36D
  8
ALPHA
 10
72.779184
 20
114.123851
 30
0.0
 11
72.128046
 21
113.783013
 31
0.0
  0
LINE
  5
F36E
  8
ALPHA
 10
72.658926
 20
113.394199
 30
0.0
 11
72.779184
 21
114.123851
 31
0.0
  0
LINE
  5
F36F
  8
ALPHA
 10
71.472545
 20
114.13195
 30
0.0
 11
71.602772
 21
113.400431
 31
0.0
  0
ARC
  5
F3D4
  8
ALPHA
 10
70.281088
 20
72.728457
 30
0.0
 40
5.0
 50
270.0
 51
0.0
  0
LINE
  5
F3D6
  8
AXE
 10
83.034136
 20
62.803836
 30
0.0
 11
75.963069
 21
55.732768
 31
0.0
  0
ARC
  5
F3D7
  8
ALPHA
 10
51.943649
 20
48.960437
 30
0.0
 40
26.27482
 50
17.344588
 51
45.586396
  0
ARC
  5
F3D8
  8
ALPHA
 10
56.893396
 20
53.910184
 30
0.0
 40
26.27482
 50
17.344588
 51
45.588038
  0
LINE
  5
F43E
  8
AXE
 10
60.160757
 20
134.40769
 30
0.0
 11
60.160757
 21
51.728457
 31
0.0
  0
TEXT
  5
F43F
  8
AXE
 10
52.684567
 20
51.728457
 30
0.0
 40
8.0
  1
Y
 72
     2
 11
59.160757
 21
51.728457
 31
0.0
  0
LINE
  5
F441
  8
AXE
 10
40.281088
 20
92.728457
 30
0.0
 11
87.781088
 21
92.728457
 31
0.0
  0
TEXT
  5
F442
  8
AXE
 10
81.304898
 20
93.728457
 30
0.0
 40
8.0
  1
X
 72
     2
 11
87.781088
 21
93.728457
 31
0.0
  0
DIMENSION
  5
F444
  8
COTATION1
  2
*D4
 10
70.160757
 20
41.728457
 30
0.0
 11
60.160757
 21
44.978457
 31
0.0
 13
50.160757
 23
103.228457
 33
0.0
 14
70.160757
 24
103.228457
 34
0.0
  0
DIMENSION
  5
F445
  8
COTATION1
  2
*D3
 10
75.281088
 20
31.728457
 30
0.0
 11
60.281088
 21
34.978457
 31
0.0
 13
45.281088
 23
67.728457
 33
0.0
 14
75.281088
 24
72.728457
 34
0.0
  0
DIMENSION
  5
F494
  8
COTATION1
  2
*D6
 10
95.281088
 20
67.728457
 30
0.0
 11
95.281088
 21
87.728457
 31
0.0
 13
74.660757
 23
107.728457
 33
0.0
 14
70.281088
 24
67.728457
 34
0.0
 50
90.0
  0
DIMENSION
  5
F495
  8
COTATION1
  2
*D5
 10
105.281088
 20
67.728457
 30
0.0
 11
105.281088
 21
92.728457
 31
0.0
 13
60.160757
 23
117.728457
 33
0.0
 14
70.281088
 24
67.728457
 34
0.0
 50
90.0
  0
DIMENSION
  5
F54F
  8
COTATION1
  2
*D7
 10
51.835504
 20
106.635195
 30
0.0
 11
34.290818
 21
115.461517
 31
0.0
 70
   131
 15
48.48601
 25
108.821719
 35
0.0
 40
0.0
  0
DIMENSION
  5
F55F
  8
COTATION1
  2
*D8
 10
63.660757
 20
144.38849
 30
0.0
 11
60.160757
 21
144.38849
 31
0.0
 70
   128
  1
%%c<>
 13
56.660757
 23
127.228457
 33
0.0
 14
63.660757
 24
127.228457
 34
0.0
  0
DIMENSION
  5
F628
  8
COTATION1
  2
*D9
 10
25.040426
 20
107.728457
 30
0.0
 11
25.040426
 21
117.728457
 31
0.0
 70
   128
 13
60.160757
 23
127.728457
 33
0.0
 14
45.660757
 24
107.728457
 34
0.0
 50
90.0
  0
DIMENSION
  5
F669
  8
COTATION1
  2
*D10
 10
115.281088
 20
67.728457
 30
0.0
 11
115.281088
 21
97.728457
 31
0.0
 13
60.160757
 23
127.728457
 33
0.0
 14
70.281088
 24
67.728457
 34
0.0
 50
90.0
  0
VIEWPORT
  5
494D
 67
     1
  8
0
 10
4.995325
 20
6.556512
 30
0.0
 40
22.70986
 41
13.988421
 68
    -1
 69
     1
1001
ACAD
1000
MVIEW
1002
{
1070
    16
1010
0.0
1020
0.0
1030
0.0
1010
0.0
1020
0.0
1030
1.0
1040
0.0
1040
13.988421
1040
4.995325
1040
6.556512
1040
50.0
1040
0.0
1040
0.0
1070
     0
1070
   100
1070
     1
1070
     1
1070
     0
1070
     0
1070
     0
1070
     0
1040
0.0
1040
0.0
1040
0.0
1040
10.0
1040
10.0
1040
10.0
1040
10.0
1070
     0
1002
{
1002
}
1002
}
  0
ENDSEC
  0
EOF
