  0
SECTION
  2
HEADER
  9
$ACADVER
  1
AC1009
  9
$INSBASE
 10
402.590624
 20
-1.041018
 30
0.0
  9
$EXTMIN
 10
120.904083
 20
1.228457
 30
0.0
  9
$EXTMAX
 10
190.404083
 20
150.228457
 30
0.0
  9
$LIMMIN
 10
-407.970438
 20
-367.832444
  9
$LIMMAX
 10
429.804077
 20
234.370848
  9
$ORTHOMODE
 70
     1
  9
$REGENMODE
 70
     1
  9
$FILLMODE
 70
     1
  9
$QTEXTMODE
 70
     0
  9
$MIRRTEXT
 70
     1
  9
$DRAGMODE
 70
     2
  9
$LTSCALE
 40
10.0
  9
$OSMODE
 70
    33
  9
$ATTMODE
 70
     1
  9
$TEXTSIZE
 40
6.0
  9
$TRACEWID
 40
1.0
  9
$TEXTSTYLE
  7
ROMANS
  9
$CLAYER
  8
ALPHA
  9
$CELTYPE
  6
BYLAYER
  9
$CECOLOR
 62
   256
  9
$DIMSCALE
 40
1.0
  9
$DIMASZ
 40
5.0
  9
$DIMEXO
 40
2.0
  9
$DIMDLI
 40
0.38
  9
$DIMRND
 40
0.0
  9
$DIMDLE
 40
0.0
  9
$DIMEXE
 40
2.5
  9
$DIMTP
 40
0.0
  9
$DIMTM
 40
0.0
  9
$DIMTXT
 40
2.5
  9
$DIMCEN
 40
0.0
  9
$DIMTSZ
 40
0.0
  9
$DIMTOL
 70
     0
  9
$DIMLIM
 70
     0
  9
$DIMTIH
 70
     1
  9
$DIMTOH
 70
     1
  9
$DIMSE1
 70
     0
  9
$DIMSE2
 70
     0
  9
$DIMTAD
 70
     1
  9
$DIMZIN
 70
    12
  9
$DIMBLK
  1
OPEN30
  9
$DIMASO
 70
     1
  9
$DIMSHO
 70
     1
  9
$DIMPOST
  1

  9
$DIMAPOST
  1

  9
$DIMALT
 70
     0
  9
$DIMALTD
 70
     2
  9
$DIMALTF
 40
25.4
  9
$DIMLFAC
 40
1.0
  9
$DIMTOFL
 70
     0
  9
$DIMTVP
 40
0.0
  9
$DIMTIX
 70
     0
  9
$DIMSOXD
 70
     0
  9
$DIMSAH
 70
     0
  9
$DIMBLK1
  1

  9
$DIMBLK2
  1

  9
$DIMSTYLE
  2
SC_DEFAUT
  9
$DIMCLRD
 70
     0
  9
$DIMCLRE
 70
     0
  9
$DIMCLRT
 70
     0
  9
$DIMTFAC
 40
1.0
  9
$DIMGAP
 40
2.0
  9
$LUNITS
 70
     2
  9
$LUPREC
 70
     1
  9
$SKETCHINC
 40
0.1
  9
$FILLETRAD
 40
0.0
  9
$AUNITS
 70
     0
  9
$AUPREC
 70
     0
  9
$MENU
  1
acad
  9
$ELEVATION
 40
0.0
  9
$PELEVATION
 40
0.0
  9
$THICKNESS
 40
0.0
  9
$LIMCHECK
 70
     0
  9
$BLIPMODE
 70
     0
  9
$CHAMFERA
 40
0.0
  9
$CHAMFERB
 40
0.0
  9
$SKPOLY
 70
     0
  9
$TDCREATE
 40
2450373.687919
  9
$TDUPDATE
 40
2452824.584232
  9
$TDINDWG
 40
1.346461
  9
$TDUSRTIMER
 40
1.346461
  9
$USRTIMER
 70
     1
  9
$ANGBASE
 50
0.0
  9
$ANGDIR
 70
     0
  9
$PDMODE
 70
    32
  9
$PDSIZE
 40
0.0
  9
$PLINEWID
 40
0.0
  9
$COORDS
 70
     1
  9
$SPLFRAME
 70
     0
  9
$SPLINETYPE
 70
     6
  9
$SPLINESEGS
 70
     8
  9
$ATTDIA
 70
     0
  9
$ATTREQ
 70
     1
  9
$HANDLING
 70
     1
  9
$HANDSEED
  5
E46C
  9
$SURFTAB1
 70
     6
  9
$SURFTAB2
 70
     6
  9
$SURFTYPE
 70
     6
  9
$SURFU
 70
     6
  9
$SURFV
 70
     6
  9
$UCSNAME
  2

  9
$UCSORG
 10
0.0
 20
0.0
 30
0.0
  9
$UCSXDIR
 10
1.0
 20
0.0
 30
0.0
  9
$UCSYDIR
 10
0.0
 20
1.0
 30
0.0
  9
$PUCSNAME
  2

  9
$PUCSORG
 10
0.0
 20
0.0
 30
0.0
  9
$PUCSXDIR
 10
1.0
 20
0.0
 30
0.0
  9
$PUCSYDIR
 10
0.0
 20
1.0
 30
0.0
  9
$USERI1
 70
     0
  9
$USERI2
 70
     0
  9
$USERI3
 70
     0
  9
$USERI4
 70
     0
  9
$USERI5
 70
     0
  9
$USERR1
 40
0.0
  9
$USERR2
 40
0.0
  9
$USERR3
 40
0.0
  9
$USERR4
 40
0.0
  9
$USERR5
 40
0.0
  9
$WORLDVIEW
 70
     1
  9
$SHADEDGE
 70
     3
  9
$SHADEDIF
 70
    70
  9
$TILEMODE
 70
     1
  9
$MAXACTVP
 70
    16
  9
$PLIMCHECK
 70
     0
  9
$PEXTMIN
 10
-1.452248
 20
-0.437698
 30
0.0
  9
$PEXTMAX
 10
12.749749
 20
8.310198
 30
0.0
  9
$PLIMMIN
 10
0.0
 20
0.0
  9
$PLIMMAX
 10
12.0
 20
9.0
  9
$UNITMODE
 70
     0
  9
$VISRETAIN
 70
     0
  9
$PLINEGEN
 70
     0
  9
$PSLTSCALE
 70
     0
  0
ENDSEC
  0
SECTION
  2
TABLES
  0
TABLE
  2
VPORT
 70
     2
  0
VPORT
  2
*ACTIVE
 70
     0
 10
0.0
 20
0.0
 11
1.0
 21
1.0
 12
155.657147
 22
75.74299
 13
0.0
 23
0.0
 14
1.0
 24
1.0
 15
10.0
 25
10.0
 16
0.0
 26
0.0
 36
1.0
 17
0.0
 27
0.0
 37
0.0
 40
150.31954
 41
1.56
 42
50.0
 43
0.0
 44
0.0
 50
0.0
 51
0.0
 71
     0
 72
   100
 73
     1
 74
     0
 75
     0
 76
     0
 77
     0
 78
     0
  0
ENDTAB
  0
TABLE
  2
LTYPE
 70
     3
  0
LTYPE
  2
CONTINUOUS
 70
     0
  3
Solid line
 72
    65
 73
     0
 40
0.0
  0
LTYPE
  2
AXES2
 70
     0
  3
___ _ ___ _ ___ _ ___ _ ___ _ ___ _ ___ _ ___ _
 72
    65
 73
     4
 40
1.125
 49
0.75
 49
-0.125
 49
0.125
 49
-0.125
  0
LTYPE
  2
CACHE2
 70
     0
  3
Caché (x.5) _ _ _ _ _ _ _ _ _ _ _ _ _ _ _ _ _
 72
    65
 73
     2
 40
0.1875
 49
0.125
 49
-0.0625
  0
ENDTAB
  0
TABLE
  2
LAYER
 70
     6
  0
LAYER
  2
0
 70
     0
 62
   255
  6
CONTINUOUS
  0
LAYER
  2
COTATION1
 70
     0
 62
     2
  6
CONTINUOUS
  0
LAYER
  2
AXE
 70
     0
 62
    80
  6
AXES2
  0
LAYER
  2
DEFPOINTS
 70
     0
 62
     7
  6
CONTINUOUS
  0
LAYER
  2
ALPHA
 70
     0
 62
   254
  6
CONTINUOUS
  0
LAYER
  2
POINTILLE_COURT
 70
     0
 62
    41
  6
CACHE2
  0
ENDTAB
  0
TABLE
  2
STYLE
 70
     2
  0
STYLE
  2
ROMANS
 70
     0
 40
0.0
 41
1.0
 50
0.0
 71
     0
 42
6.0
  3
romans
  4

  0
STYLE
  2
STANDARD
 70
     0
 40
0.2
 41
1.0
 50
0.0
 71
     0
 42
0.2
  3
txt
  4

  0
ENDTAB
  0
TABLE
  2
VIEW
 70
     0
  0
ENDTAB
  0
TABLE
  2
UCS
 70
     0
  0
ENDTAB
  0
TABLE
  2
APPID
 70
     1
  0
APPID
  2
ACAD
 70
     0
  0
ENDTAB
  0
TABLE
  2
DIMSTYLE
 70
     1
  0
DIMSTYLE
  2
SC_DEFAUT
 70
     0
  3

  4

  5
OPEN30
  6

  7

 40
1.0
 41
5.0
 42
2.0
 43
0.38
 44
2.5
 45
0.0
 46
0.0
 47
0.0
 48
0.0
140
2.5
141
0.0
142
0.0
143
25.4
144
1.0
145
0.0
146
1.0
147
2.0
 71
     0
 72
     0
 73
     1
 74
     1
 75
     0
 76
     0
 77
     1
 78
    12
170
     0
171
     2
172
     0
173
     0
174
     0
175
     0
176
     0
177
     0
178
     0
  0
ENDTAB
  0
ENDSEC
  0
SECTION
  2
BLOCKS
  0
BLOCK
  8
0
  2
$MODEL_SPACE
 70
     0
 10
0.0
 20
0.0
 30
0.0
  3
$MODEL_SPACE
  1

  0
ENDBLK
  5
E43B
  8
0
  0
BLOCK
 67
     1
  8
0
  2
$PAPER_SPACE
 70
     0
 10
0.0
 20
0.0
 30
0.0
  3
$PAPER_SPACE
  1

  0
ENDBLK
  5
E439
 67
     1
  8
0
  0
BLOCK
  8
0
  2
COTE
 70
     0
 10
0.0
 20
0.0
 30
0.0
  3
COTE
  1

  0
ENDBLK
  5
F
  8
0
  0
BLOCK
  8
0
  2
FOND
 70
     0
 10
0.0
 20
0.0
 30
0.0
  3
FOND
  1

  0
ENDBLK
  5
75
  8
0
  0
BLOCK
  8
0
  2
_OPEN30
 70
     0
 10
0.0
 20
0.0
 30
0.0
  3
_OPEN30
  1

  0
LINE
  5
4B05
  8
COTATION1
 62
     0
 10
-1.0
 20
0.267949
 30
0.0
 11
0.0
 21
0.0
 31
0.0
1001
ACAD
1000
RTLwPs
1070
   158
  0
LINE
  5
4B06
  8
COTATION1
 62
     0
 10
0.0
 20
0.0
 30
0.0
 11
-1.0
 21
-0.267949
 31
0.0
1001
ACAD
1000
RTLwPs
1070
   158
  0
LINE
  5
4B07
  8
COTATION1
 62
     0
 10
0.0
 20
0.0
 30
0.0
 11
-1.0
 21
0.0
 31
0.0
1001
ACAD
1000
RTLwPs
1070
   158
  0
ENDBLK
  5
4B09
  8
0
  0
BLOCK
  8
0
  2
*D3
 70
     1
 10
0.0
 20
0.0
 30
0.0
  3
*D3
  1

  0
LINE
  5
E1E5
  8
COTATION1
 62
     0
 10
149.904083
 20
128.728457
 30
0.0
 11
190.404083
 21
128.728457
 31
0.0
1001
ACAD
1000
RTLwPs
1070
   158
  0
LINE
  5
E1E6
  8
COTATION1
 62
     0
 10
162.404083
 20
39.728457
 30
0.0
 11
190.404083
 21
39.728457
 31
0.0
1001
ACAD
1000
RTLwPs
1070
   158
  0
LINE
  5
E1E7
  8
COTATION1
 62
     0
 10
187.904083
 20
123.728457
 30
0.0
 11
187.904083
 21
87.478457
 31
0.0
1001
ACAD
1000
RTLwPs
1070
   158
  0
LINE
  5
E1E8
  8
COTATION1
 62
     0
 10
187.904083
 20
44.728457
 30
0.0
 11
187.904083
 21
80.978457
 31
0.0
1001
ACAD
1000
RTLwPs
1070
   158
  0
INSERT
  5
E1E9
  8
COTATION1
 62
     0
  2
_OPEN30
 10
187.904083
 20
128.728457
 30
0.0
 41
5.0
 42
5.0
 43
5.0
 50
90.0
1001
ACAD
1000
RTLwPs
1070
   158
  0
INSERT
  5
E1EA
  8
COTATION1
 62
     0
  2
_OPEN30
 10
187.904083
 20
39.728457
 30
0.0
 41
5.0
 42
5.0
 43
5.0
 50
270.0
1001
ACAD
1000
RTLwPs
1070
   158
  0
TEXT
  5
E1EB
  8
COTATION1
 62
     0
 10
185.582654
 20
82.978457
 30
0.0
 40
2.5
  1
89
1001
ACAD
1000
MTEXTBEGIN
1070
    73
1070
     1
1070
    44
1040
1.0
1070
    74
1070
     0
1000
MTEXTEND
1000
MTEXTBEGIN
1070
    73
1070
     1
1070
    44
1040
1.0
1070
    74
1070
     0
1000
MTEXTEND
1000
MTEXTBEGIN
1070
    73
1070
     1
1070
    44
1040
1.0
1070
    74
1070
     0
1000
MTEXTEND
  0
POINT
  5
E1EC
  8
DEFPOINTS
 62
     0
 10
147.904083
 20
128.728457
 30
0.0
  0
POINT
  5
E1ED
  8
DEFPOINTS
 62
     0
 10
160.404083
 20
39.728457
 30
0.0
  0
POINT
  5
E1EE
  8
DEFPOINTS
 62
     0
 10
187.904083
 20
39.728457
 30
0.0
  0
ENDBLK
  5
DC3E
  8
0
  0
BLOCK
  8
0
  2
*D4
 70
     1
 10
0.0
 20
0.0
 30
0.0
  3
*D4
  1

  0
LINE
  5
E39B
  8
COTATION1
 62
     0
 10
130.404083
 20
56.780776
 30
0.0
 11
130.404083
 21
11.228457
 31
0.0
1001
ACAD
1000
RTLwPs
1070
   158
  0
LINE
  5
E39C
  8
COTATION1
 62
     0
 10
160.404083
 20
37.728457
 30
0.0
 11
160.404083
 21
11.228457
 31
0.0
1001
ACAD
1000
RTLwPs
1070
   158
  0
LINE
  5
E39D
  8
COTATION1
 62
     0
 10
135.404083
 20
13.728457
 30
0.0
 11
155.404083
 21
13.728457
 31
0.0
1001
ACAD
1000
RTLwPs
1070
   158
  0
INSERT
  5
E39E
  8
COTATION1
 62
     0
  2
_OPEN30
 10
130.404083
 20
13.728457
 30
0.0
 41
5.0
 42
5.0
 43
5.0
 50
180.0
1001
ACAD
1000
RTLwPs
1070
   158
  0
INSERT
  5
E39F
  8
COTATION1
 62
     0
  2
_OPEN30
 10
160.404083
 20
13.728457
 30
0.0
 41
5.0
 42
5.0
 43
5.0
1001
ACAD
1000
RTLwPs
1070
   158
  0
TEXT
  5
E3A0
  8
COTATION1
 62
     0
 10
143.023131
 20
15.728457
 30
0.0
 40
2.5
  1
30
1001
ACAD
1000
MTEXTBEGIN
1070
    73
1070
     1
1070
    44
1040
1.0
1070
    74
1070
     0
1000
MTEXTEND
  0
POINT
  5
E3A1
  8
DEFPOINTS
 62
     0
 10
130.404083
 20
58.780776
 30
0.0
  0
POINT
  5
E3A2
  8
DEFPOINTS
 62
     0
 10
160.404083
 20
39.728457
 30
0.0
  0
POINT
  5
E3A3
  8
DEFPOINTS
 62
     0
 10
160.404083
 20
13.728457
 30
0.0
  0
ENDBLK
  5
DC4A
  8
0
  0
BLOCK
  8
0
  2
*D5
 70
     1
 10
0.0
 20
0.0
 30
0.0
  3
*D5
  1

  0
LINE
  5
E392
  8
COTATION1
 62
     0
 10
125.904083
 20
93.728457
 30
0.0
 11
125.904083
 21
1.228457
 31
0.0
1001
ACAD
1000
RTLwPs
1070
   158
  0
LINE
  5
E393
  8
COTATION1
 62
     0
 10
160.404083
 20
37.728457
 30
0.0
 11
160.404083
 21
1.228457
 31
0.0
1001
ACAD
1000
RTLwPs
1070
   158
  0
LINE
  5
E394
  8
COTATION1
 62
     0
 10
130.904083
 20
3.728457
 30
0.0
 11
155.404083
 21
3.728457
 31
0.0
1001
ACAD
1000
RTLwPs
1070
   158
  0
INSERT
  5
E395
  8
COTATION1
 62
     0
  2
_OPEN30
 10
125.904083
 20
3.728457
 30
0.0
 41
5.0
 42
5.0
 43
5.0
 50
180.0
1001
ACAD
1000
RTLwPs
1070
   158
  0
INSERT
  5
E396
  8
COTATION1
 62
     0
  2
_OPEN30
 10
160.404083
 20
3.728457
 30
0.0
 41
5.0
 42
5.0
 43
5.0
1001
ACAD
1000
RTLwPs
1070
   158
  0
TEXT
  5
E397
  8
COTATION1
 62
     0
 10
138.987416
 20
5.728457
 30
0.0
 40
2.5
  1
34.5
1001
ACAD
1000
MTEXTBEGIN
1070
    73
1070
     1
1070
    44
1040
1.0
1070
    74
1070
     0
1000
MTEXTEND
  0
POINT
  5
E398
  8
DEFPOINTS
 62
     0
 10
125.904083
 20
95.728457
 30
0.0
  0
POINT
  5
E399
  8
DEFPOINTS
 62
     0
 10
160.404083
 20
39.728457
 30
0.0
  0
POINT
  5
E39A
  8
DEFPOINTS
 62
     0
 10
160.404083
 20
3.728457
 30
0.0
  0
ENDBLK
  5
DC56
  8
0
  0
BLOCK
  8
0
  2
*D6
 70
     1
 10
0.0
 20
0.0
 30
0.0
  3
*D6
  1

  0
LINE
  5
E1F8
  8
COTATION1
 62
     0
 10
147.904083
 20
137.728457
 30
0.0
 11
147.904083
 21
148.228457
 31
0.0
1001
ACAD
1000
RTLwPs
1070
   158
  0
LINE
  5
E1F9
  8
COTATION1
 62
     0
 10
160.404083
 20
120.728457
 30
0.0
 11
160.404083
 21
148.228457
 31
0.0
1001
ACAD
1000
RTLwPs
1070
   158
  0
LINE
  5
E1FA
  8
COTATION1
 62
     0
 10
142.904083
 20
145.728457
 30
0.0
 11
137.904083
 21
145.728457
 31
0.0
1001
ACAD
1000
RTLwPs
1070
   158
  0
LINE
  5
E1FB
  8
COTATION1
 62
     0
 10
165.404083
 20
145.728457
 30
0.0
 11
170.404083
 21
145.728457
 31
0.0
1001
ACAD
1000
RTLwPs
1070
   158
  0
INSERT
  5
E1FC
  8
COTATION1
 62
     0
  2
_OPEN30
 10
147.904083
 20
145.728457
 30
0.0
 41
5.0
 42
5.0
 43
5.0
1001
ACAD
1000
RTLwPs
1070
   158
  0
INSERT
  5
E1FD
  8
COTATION1
 62
     0
  2
_OPEN30
 10
160.404083
 20
145.728457
 30
0.0
 41
5.0
 42
5.0
 43
5.0
 50
180.0
1001
ACAD
1000
RTLwPs
1070
   158
  0
TEXT
  5
E1FE
  8
COTATION1
 62
     0
 10
149.808845
 20
147.728457
 30
0.0
 40
2.5
  1
12.5
1001
ACAD
1000
MTEXTBEGIN
1070
    73
1070
     1
1070
    44
1040
1.0
1070
    74
1070
     0
1000
MTEXTEND
1000
MTEXTBEGIN
1070
    73
1070
     1
1070
    44
1040
1.0
1070
    74
1070
     0
1000
MTEXTEND
1000
MTEXTBEGIN
1070
    73
1070
     1
1070
    44
1040
1.0
1070
    74
1070
     0
1000
MTEXTEND
  0
POINT
  5
E1FF
  8
DEFPOINTS
 62
     0
 10
147.904083
 20
135.728457
 30
0.0
  0
POINT
  5
E200
  8
DEFPOINTS
 62
     0
 10
160.404083
 20
118.728457
 30
0.0
  0
POINT
  5
E201
  8
DEFPOINTS
 62
     0
 10
160.404083
 20
145.728457
 30
0.0
  0
ENDBLK
  5
DDE8
  8
0
  0
BLOCK
  8
0
  2
*D7
 70
     1
 10
0.0
 20
0.0
 30
0.0
  3
*D7
  1

  0
LINE
  5
E388
  8
COTATION1
 62
     0
 10
156.404083
 20
55.728457
 30
0.0
 11
156.404083
 21
21.228457
 31
0.0
1001
ACAD
1000
RTLwPs
1070
   158
  0
LINE
  5
E389
  8
COTATION1
 62
     0
 10
160.404083
 20
37.728457
 30
0.0
 11
160.404083
 21
21.228457
 31
0.0
1001
ACAD
1000
RTLwPs
1070
   158
  0
LINE
  5
E38A
  8
COTATION1
 62
     0
 10
151.404083
 20
23.728457
 30
0.0
 11
146.404083
 21
23.728457
 31
0.0
1001
ACAD
1000
RTLwPs
1070
   158
  0
LINE
  5
E38B
  8
COTATION1
 62
     0
 10
165.404083
 20
23.728457
 30
0.0
 11
170.404083
 21
23.728457
 31
0.0
1001
ACAD
1000
RTLwPs
1070
   158
  0
TEXT
  5
E38C
  8
COTATION1
 62
     0
 10
169.154083
 20
25.728457
 30
0.0
 40
2.5
  1
4
1001
ACAD
1000
MTEXTBEGIN
1070
    73
1070
     1
1070
    44
1040
1.0
1070
    74
1070
     0
1000
MTEXTEND
  0
INSERT
  5
E38D
  8
COTATION1
 62
     0
  2
_OPEN30
 10
156.404083
 20
23.728457
 30
0.0
 41
5.0
 42
5.0
 43
5.0
1001
ACAD
1000
RTLwPs
1070
   158
  0
INSERT
  5
E38E
  8
COTATION1
 62
     0
  2
_OPEN30
 10
160.404083
 20
23.728457
 30
0.0
 41
5.0
 42
5.0
 43
5.0
 50
180.0
1001
ACAD
1000
RTLwPs
1070
   158
  0
POINT
  5
E38F
  8
DEFPOINTS
 62
     0
 10
156.404083
 20
57.728457
 30
0.0
  0
POINT
  5
E390
  8
DEFPOINTS
 62
     0
 10
160.404083
 20
39.728457
 30
0.0
  0
POINT
  5
E391
  8
DEFPOINTS
 62
     0
 10
160.404083
 20
23.728457
 30
0.0
  0
ENDBLK
  5
E340
  8
0
  0
ENDSEC
  0
SECTION
  2
ENTITIES
  0
INSERT
  5
A
  8
0
  2
COTE
 10
0.0
 20
0.0
 30
0.0
  0
INSERT
  5
17
  8
0
  2
COTE
 10
284.010391
 20
6.373258
 30
0.0
  0
INSERT
  5
72
  8
0
  2
FOND
 10
0.0
 20
0.0
 30
0.0
  0
POLYLINE
  5
DBC9
  8
ALPHA
 66
     1
 10
0.0
 20
0.0
 30
0.0
 70
   128
  0
VERTEX
  5
E441
  8
ALPHA
 10
148.450826
 20
58.413808
 30
0.0
  0
VERTEX
  5
E442
  8
ALPHA
 10
148.728266
 20
58.413808
 30
0.0
  0
VERTEX
  5
E443
  8
ALPHA
 10
149.190668
 20
58.413808
 30
0.0
  0
VERTEX
  5
E444
  8
ALPHA
 10
149.640621
 20
58.282761
 30
0.0
  0
VERTEX
  5
E445
  8
ALPHA
 10
149.804437
 20
58.087451
 30
0.0
  0
VERTEX
  5
E446
  8
ALPHA
 10
150.033116
 20
57.699099
 30
0.0
  0
VERTEX
  5
E447
  8
ALPHA
 10
150.428752
 20
56.893738
 30
0.0
  0
VERTEX
  5
E448
  8
ALPHA
 10
150.643776
 20
56.440208
 30
0.0
  0
SEQEND
  5
E449
  8
ALPHA
  0
POLYLINE
  5
DBCA
  8
ALPHA
 66
     1
 10
0.0
 20
0.0
 30
0.0
 70
   128
210
0.0
220
0.0
230
-1.0
  0
VERTEX
  5
E44A
  8
ALPHA
 10
-143.226985
 20
54.728457
 30
0.0
  0
VERTEX
  5
E44B
  8
ALPHA
 10
-141.539925
 20
54.883982
 30
0.0
  0
VERTEX
  5
E44C
  8
ALPHA
 10
-139.626299
 20
55.250769
 30
0.0
  0
VERTEX
  5
E44D
  8
ALPHA
 10
-135.643606
 20
56.356367
 30
0.0
  0
VERTEX
  5
E44E
  8
ALPHA
 10
-133.836666
 20
56.964297
 30
0.0
  0
VERTEX
  5
E44F
  8
ALPHA
 10
-132.327415
 20
57.521728
 30
0.0
  0
VERTEX
  5
E450
  8
ALPHA
 10
-131.246917
 20
57.963219
 30
0.0
  0
VERTEX
  5
E451
  8
ALPHA
 10
-130.726236
 20
58.22333
 30
0.0
  0
SEQEND
  5
E452
  8
ALPHA
  0
POLYLINE
  5
DBCB
  8
ALPHA
 66
     1
 10
0.0
 20
0.0
 30
0.0
 70
   128
210
0.0
220
0.0
230
-1.0
  0
VERTEX
  5
E453
  8
ALPHA
 10
-130.726236
 20
58.22333
 30
0.0
  0
VERTEX
  5
E454
  8
ALPHA
 10
-130.565159
 20
58.365784
 30
0.0
  0
VERTEX
  5
E455
  8
ALPHA
 10
-130.404083
 20
58.780776
 30
0.0
  0
SEQEND
  5
E456
  8
ALPHA
  0
POLYLINE
  5
DBCC
  8
ALPHA
 66
     1
 10
0.0
 20
0.0
 30
0.0
 70
   128
  0
VERTEX
  5
E457
  8
ALPHA
 10
144.888234
 20
56.728457
 30
0.0
  0
VERTEX
  5
E458
  8
ALPHA
 10
144.630496
 20
62.613618
 30
0.0
  0
VERTEX
  5
E459
  8
ALPHA
 10
144.165463
 20
68.388836
 30
0.0
  0
VERTEX
  5
E45A
  8
ALPHA
 10
143.517813
 20
74.031276
 30
0.0
  0
VERTEX
  5
E45B
  8
ALPHA
 10
142.712225
 20
79.518103
 30
0.0
  0
VERTEX
  5
E45C
  8
ALPHA
 10
141.773378
 20
84.826482
 30
0.0
  0
VERTEX
  5
E45D
  8
ALPHA
 10
140.725953
 20
89.933578
 30
0.0
  0
VERTEX
  5
E45E
  8
ALPHA
 10
139.594628
 20
94.816557
 30
0.0
  0
VERTEX
  5
E45F
  8
ALPHA
 10
138.404083
 20
99.452583
 30
0.0
  0
SEQEND
  5
E460
  8
ALPHA
  0
POLYLINE
  5
DBCD
  8
ALPHA
 66
     1
 10
0.0
 20
0.0
 30
0.0
 70
   128
210
0.0
220
0.0
230
-1.0
  0
VERTEX
  5
E461
  8
ALPHA
 10
-147.793325
 20
57.976207
 30
0.0
  0
VERTEX
  5
E462
  8
ALPHA
 10
-148.055899
 20
58.342615
 30
0.0
  0
VERTEX
  5
E463
  8
ALPHA
 10
-148.450826
 20
58.413808
 30
0.0
  0
SEQEND
  5
E464
  8
ALPHA
  0
POLYLINE
  5
DBCE
  8
ALPHA
 66
     1
 10
0.0
 20
0.0
 30
0.0
 70
   128
210
0.0
220
0.0
230
-1.0
  0
VERTEX
  5
E465
  8
ALPHA
 10
-150.643776
 20
56.440208
 30
0.0
  0
VERTEX
  5
E466
  8
ALPHA
 10
-150.724412
 20
56.312131
 30
0.0
  0
VERTEX
  5
E467
  8
ALPHA
 10
-150.873454
 20
55.94747
 30
0.0
  0
VERTEX
  5
E468
  8
ALPHA
 10
-150.951517
 20
55.37562
 30
0.0
  0
VERTEX
  5
E469
  8
ALPHA
 10
-150.634329
 20
54.728457
 30
0.0
  0
SEQEND
  5
E46A
  8
ALPHA
  0
DIMENSION
  5
DBD3
  8
COTATION1
  2
*D5
 10
160.404083
 20
3.728457
 30
0.0
 11
143.154083
 21
6.978457
 31
0.0
 13
125.904083
 23
95.728457
 33
0.0
 14
160.404083
 24
39.728457
 34
0.0
  0
LINE
  5
DBD7
  8
ALPHA
 10
141.904083
 20
47.728457
 30
0.0
 11
136.404083
 21
47.728457
 31
0.0
  0
LINE
  5
DBD8
  8
ALPHA
 10
148.404083
 20
49.228457
 30
0.0
 11
136.704083
 21
49.228457
 31
0.0
  0
LINE
  5
DBD9
  8
ALPHA
 10
148.404083
 20
39.728457
 30
0.0
 11
136.404083
 21
39.728457
 31
0.0
  0
LINE
  5
DBDB
  8
ALPHA
 10
125.904083
 20
116.028457
 30
0.0
 11
160.404083
 21
116.028457
 31
0.0
  0
LINE
  5
DBDC
  8
ALPHA
 10
136.404083
 20
53.728457
 30
0.0
 11
160.404083
 21
53.728457
 31
0.0
  0
ARC
  5
DBDD
  8
ALPHA
 10
-13.938149
 20
55.387689
 30
0.0
 40
156.451664
 50
0.857269
 51
13.161146
  0
LINE
  5
DBDE
  8
AXE
 10
120.904083
 20
86.228457
 30
0.0
 11
175.404083
 21
86.228457
 31
0.0
  0
DIMENSION
  5
DBDF
  8
COTATION1
  2
*D4
 10
160.404083
 20
13.728457
 30
0.0
 11
145.404083
 21
16.978457
 31
0.0
 13
130.404083
 23
58.780776
 33
0.0
 14
160.404083
 24
39.728457
 34
0.0
  0
DIMENSION
  5
DBE0
  8
COTATION1
  2
*D3
 10
187.904083
 20
39.728457
 30
0.0
 11
187.904083
 21
84.228457
 31
0.0
 13
147.904083
 23
128.728457
 33
0.0
 14
160.404083
 24
39.728457
 34
0.0
 50
90.0
  0
LINE
  5
DBE2
  8
ALPHA
 10
130.404083
 20
92.3893
 30
0.0
 11
130.404083
 21
58.780776
 31
0.0
  0
LINE
  5
DBE3
  8
ALPHA
 10
136.404083
 20
47.728457
 30
0.0
 11
136.404083
 21
39.728457
 31
0.0
  0
LINE
  5
DBE4
  8
ALPHA
 10
136.704083
 20
49.228457
 30
0.0
 11
136.404083
 21
47.728457
 31
0.0
  0
ARC
  5
DBE5
  8
ALPHA
 10
132.264701
 20
51.192498
 30
0.0
 40
4.854438
 50
336.134766
 51
31.493383
  0
LINE
  5
DBE6
  8
ALPHA
 10
135.753607
 20
56.331078
 30
0.0
 11
136.404083
 21
53.728457
 31
0.0
  0
LINE
  5
DC20
  8
AXE
 10
147.904083
 20
135.728457
 30
0.0
 11
147.904083
 21
23.728457
 31
0.0
  0
LINE
  5
DC21
  8
ALPHA
 10
160.404083
 20
118.728457
 30
0.0
 11
160.404083
 21
53.728457
 31
0.0
  0
TEXT
  5
DC22
  8
AXE
 10
140.427892
 20
23.728457
 30
0.0
 40
8.0
  1
Y
 72
     2
 11
146.904083
 21
23.728457
 31
0.0
  0
LINE
  5
DC23
  8
ALPHA
 10
148.377838
 20
59.728457
 30
0.0
 11
147.377103
 21
56.728457
 31
0.0
  0
LINE
  5
DC24
  8
ALPHA
 10
160.404083
 20
47.728457
 30
0.0
 11
160.404083
 21
39.728457
 31
0.0
  0
LINE
  5
DC25
  8
ALPHA
 10
141.904083
 20
47.728457
 30
0.0
 11
141.904083
 21
39.728457
 31
0.0
  0
LINE
  5
DC26
  8
ALPHA
 10
154.904083
 20
47.728457
 30
0.0
 11
154.904083
 21
39.728457
 31
0.0
  0
LINE
  5
DC27
  8
ALPHA
 10
148.404083
 20
39.728457
 30
0.0
 11
160.404083
 21
39.728457
 31
0.0
  0
LINE
  5
DC28
  8
ALPHA
 10
148.404083
 20
49.228457
 30
0.0
 11
160.104083
 21
49.228457
 31
0.0
  0
LINE
  5
DC29
  8
ALPHA
 10
154.904083
 20
47.728457
 30
0.0
 11
160.404083
 21
47.728457
 31
0.0
  0
LINE
  5
DC2A
  8
ALPHA
 10
143.226985
 20
54.728457
 30
0.0
 11
160.404083
 21
54.728457
 31
0.0
  0
ARC
  5
DC2B
  8
ALPHA
 10
148.404083
 20
34.395124
 30
0.0
 40
14.833333
 50
64.010766
 51
115.989234
  0
LINE
  5
DC2C
  8
ALPHA
 10
144.888234
 20
56.728457
 30
0.0
 11
147.377103
 21
56.728457
 31
0.0
  0
LINE
  5
DC2D
  8
ALPHA
 10
142.496004
 20
57.728457
 30
0.0
 11
144.860331
 21
57.728457
 31
0.0
  0
ARC
  5
DC2E
  8
ALPHA
 10
164.543464
 20
51.192498
 30
0.0
 40
4.854438
 50
148.506617
 51
203.865234
  0
LINE
  5
DC2F
  8
ALPHA
 10
160.104083
 20
49.228457
 30
0.0
 11
160.404083
 21
47.728457
 31
0.0
  0
LINE
  5
DC30
  8
ALPHA
 10
148.377838
 20
59.728457
 30
0.0
 11
160.404083
 21
59.728457
 31
0.0
  0
TEXT
  5
DC31
  8
AXE
 10
168.927892
 20
87.228457
 30
0.0
 40
8.0
  1
Z
 72
     2
 11
175.404083
 21
87.228457
 31
0.0
  0
LINE
  5
DDB9
  8
ALPHA
 10
138.404083
 20
118.728457
 30
0.0
 11
138.404083
 21
91.010263
 31
0.0
  0
ARC
  5
DDBA
  8
ALPHA
 10
136.825071
 20
105.744296
 30
0.0
 40
14.818401
 50
222.524506
 51
276.116907
  0
LINE
  5
DDBC
  8
ALPHA
 10
125.904083
 20
95.728457
 30
0.0
 11
125.904083
 21
118.728457
 31
0.0
  0
LINE
  5
DDC6
  8
ALPHA
 10
147.904083
 20
128.228457
 30
0.0
 11
151.404083
 21
128.228457
 31
0.0
  0
ARC
  5
DDC7
  8
ALPHA
 10
147.904083
 20
116.228457
 30
0.0
 40
12.5
 50
73.739795
 51
106.260205
  0
LINE
  5
DDC8
  8
ALPHA
 10
152.904083
 20
122.228457
 30
0.0
 11
147.904083
 21
122.228457
 31
0.0
  0
LINE
  5
DDC9
  8
ALPHA
 10
155.654083
 20
119.728457
 30
0.0
 11
147.904083
 21
119.728457
 31
0.0
  0
LINE
  5
DDCA
  8
ALPHA
 10
155.154083
 20
120.228457
 30
0.0
 11
147.904083
 21
120.228457
 31
0.0
  0
LINE
  5
DDCB
  8
ALPHA
 10
155.654083
 20
118.17456
 30
0.0
 11
140.154083
 21
118.17456
 31
0.0
  0
LINE
  5
DDCC
  8
ALPHA
 10
144.404083
 20
128.228457
 30
0.0
 11
144.404083
 21
122.228457
 31
0.0
  0
LINE
  5
DDCD
  8
ALPHA
 10
142.904083
 20
122.228457
 30
0.0
 11
147.904083
 21
122.228457
 31
0.0
  0
LINE
  5
DDCE
  8
ALPHA
 10
140.154083
 20
119.728457
 30
0.0
 11
147.904083
 21
119.728457
 31
0.0
  0
LINE
  5
DDCF
  8
ALPHA
 10
140.654083
 20
120.228457
 30
0.0
 11
147.904083
 21
120.228457
 31
0.0
  0
LINE
  5
DDD0
  8
ALPHA
 10
140.154083
 20
119.728457
 30
0.0
 11
140.154083
 21
118.17456
 31
0.0
  0
LINE
  5
DDD1
  8
ALPHA
 10
140.154083
 20
119.728457
 30
0.0
 11
140.654083
 21
120.228457
 31
0.0
  0
LINE
  5
DDD2
  8
ALPHA
 10
142.904083
 20
122.228457
 30
0.0
 11
141.971468
 21
120.228457
 31
0.0
  0
LINE
  5
DDD3
  8
ALPHA
 10
147.904083
 20
128.228457
 30
0.0
 11
144.404083
 21
128.228457
 31
0.0
  0
LINE
  5
DDD4
  8
ALPHA
 10
151.404083
 20
128.228457
 30
0.0
 11
151.404083
 21
122.228457
 31
0.0
  0
LINE
  5
DDD5
  8
ALPHA
 10
155.654083
 20
119.728457
 30
0.0
 11
155.154083
 21
120.228457
 31
0.0
  0
LINE
  5
DDD6
  8
ALPHA
 10
155.654083
 20
119.728457
 30
0.0
 11
155.654083
 21
118.17456
 31
0.0
  0
LINE
  5
DDD7
  8
ALPHA
 10
155.654083
 20
118.728457
 30
0.0
 11
160.404083
 21
118.728457
 31
0.0
  0
LINE
  5
DDD8
  8
ALPHA
 10
152.904083
 20
122.228457
 30
0.0
 11
153.836698
 21
120.228457
 31
0.0
  0
LINE
  5
DDD9
  8
ALPHA
 10
125.904083
 20
118.728457
 30
0.0
 11
140.154083
 21
118.728457
 31
0.0
  0
DIMENSION
  5
DDDA
  8
COTATION1
  2
*D6
 10
160.404083
 20
145.728457
 30
0.0
 11
154.154083
 21
148.978457
 31
0.0
 13
147.904083
 23
135.728457
 33
0.0
 14
160.404083
 24
118.728457
 34
0.0
  0
LINE
  5
E32F
  8
POINTILLE_COURT
 10
157.904083
 20
56.228457
 30
0.0
 11
160.404083
 21
56.228457
 31
0.0
  0
LINE
  5
E330
  8
POINTILLE_COURT
 10
157.904083
 20
59.228457
 30
0.0
 11
160.404083
 21
59.228457
 31
0.0
  0
ARC
  5
E331
  8
POINTILLE_COURT
 10
157.904083
 20
57.728457
 30
0.0
 40
1.5
 50
90.0
 51
270.0
  0
DIMENSION
  5
E333
  8
COTATION1
  2
*D7
 10
160.404083
 20
23.728457
 30
0.0
 11
170.404083
 21
23.728457
 31
0.0
 70
   128
 13
156.404083
 23
57.728457
 33
0.0
 14
160.404083
 24
39.728457
 34
0.0
  0
VIEWPORT
  5
494D
 67
     1
  8
0
 10
4.995325
 20
6.556512
 30
0.0
 40
22.70986
 41
13.988421
 68
    -1
 69
     1
1001
ACAD
1000
MVIEW
1002
{
1070
    16
1010
0.0
1020
0.0
1030
0.0
1010
0.0
1020
0.0
1030
1.0
1040
0.0
1040
13.988421
1040
4.995325
1040
6.556512
1040
50.0
1040
0.0
1040
0.0
1070
     0
1070
   100
1070
     1
1070
     1
1070
     0
1070
     0
1070
     0
1070
     0
1040
0.0
1040
0.0
1040
0.0
1040
10.0
1040
10.0
1040
10.0
1040
10.0
1070
     0
1002
{
1002
}
1002
}
  0
ENDSEC
  0
EOF
