  0
SECTION
  2
HEADER
  9
$ACADVER
  1
AC1009
  9
$INSBASE
 10
402.590624
 20
-1.041018
 30
0.0
  9
$EXTMIN
 10
102.678844
 20
1.228457
 30
0.0
  9
$EXTMAX
 10
219.309005
 20
206.228457
 30
0.0
  9
$LIMMIN
 10
-407.970438
 20
-367.832444
  9
$LIMMAX
 10
429.804077
 20
234.370848
  9
$ORTHOMODE
 70
     1
  9
$REGENMODE
 70
     1
  9
$FILLMODE
 70
     1
  9
$QTEXTMODE
 70
     0
  9
$MIRRTEXT
 70
     1
  9
$DRAGMODE
 70
     2
  9
$LTSCALE
 40
10.0
  9
$OSMODE
 70
    33
  9
$ATTMODE
 70
     1
  9
$TEXTSIZE
 40
6.0
  9
$TRACEWID
 40
1.0
  9
$TEXTSTYLE
  7
ROMANS
  9
$CLAYER
  8
ALPHA
  9
$CELTYPE
  6
BYLAYER
  9
$CECOLOR
 62
   256
  9
$DIMSCALE
 40
1.0
  9
$DIMASZ
 40
5.0
  9
$DIMEXO
 40
2.0
  9
$DIMDLI
 40
0.38
  9
$DIMRND
 40
0.0
  9
$DIMDLE
 40
0.0
  9
$DIMEXE
 40
2.5
  9
$DIMTP
 40
0.0
  9
$DIMTM
 40
0.0
  9
$DIMTXT
 40
2.5
  9
$DIMCEN
 40
0.0
  9
$DIMTSZ
 40
0.0
  9
$DIMTOL
 70
     0
  9
$DIMLIM
 70
     0
  9
$DIMTIH
 70
     1
  9
$DIMTOH
 70
     1
  9
$DIMSE1
 70
     0
  9
$DIMSE2
 70
     0
  9
$DIMTAD
 70
     1
  9
$DIMZIN
 70
    12
  9
$DIMBLK
  1
OPEN30
  9
$DIMASO
 70
     1
  9
$DIMSHO
 70
     1
  9
$DIMPOST
  1

  9
$DIMAPOST
  1

  9
$DIMALT
 70
     0
  9
$DIMALTD
 70
     2
  9
$DIMALTF
 40
25.4
  9
$DIMLFAC
 40
1.0
  9
$DIMTOFL
 70
     0
  9
$DIMTVP
 40
0.0
  9
$DIMTIX
 70
     0
  9
$DIMSOXD
 70
     0
  9
$DIMSAH
 70
     0
  9
$DIMBLK1
  1

  9
$DIMBLK2
  1

  9
$DIMSTYLE
  2
SC_DEFAUT
  9
$DIMCLRD
 70
     0
  9
$DIMCLRE
 70
     0
  9
$DIMCLRT
 70
     0
  9
$DIMTFAC
 40
1.0
  9
$DIMGAP
 40
2.0
  9
$LUNITS
 70
     2
  9
$LUPREC
 70
     1
  9
$SKETCHINC
 40
0.1
  9
$FILLETRAD
 40
0.0
  9
$AUNITS
 70
     0
  9
$AUPREC
 70
     0
  9
$MENU
  1
acad
  9
$ELEVATION
 40
0.0
  9
$PELEVATION
 40
0.0
  9
$THICKNESS
 40
0.0
  9
$LIMCHECK
 70
     0
  9
$BLIPMODE
 70
     0
  9
$CHAMFERA
 40
0.0
  9
$CHAMFERB
 40
0.0
  9
$SKPOLY
 70
     0
  9
$TDCREATE
 40
2450373.687919
  9
$TDUPDATE
 40
2452824.592721
  9
$TDINDWG
 40
1.304833
  9
$TDUSRTIMER
 40
1.304833
  9
$USRTIMER
 70
     1
  9
$ANGBASE
 50
0.0
  9
$ANGDIR
 70
     0
  9
$PDMODE
 70
    32
  9
$PDSIZE
 40
0.0
  9
$PLINEWID
 40
0.0
  9
$COORDS
 70
     1
  9
$SPLFRAME
 70
     0
  9
$SPLINETYPE
 70
     6
  9
$SPLINESEGS
 70
     8
  9
$ATTDIA
 70
     0
  9
$ATTREQ
 70
     1
  9
$HANDLING
 70
     1
  9
$HANDSEED
  5
DF3C
  9
$SURFTAB1
 70
     6
  9
$SURFTAB2
 70
     6
  9
$SURFTYPE
 70
     6
  9
$SURFU
 70
     6
  9
$SURFV
 70
     6
  9
$UCSNAME
  2

  9
$UCSORG
 10
0.0
 20
0.0
 30
0.0
  9
$UCSXDIR
 10
1.0
 20
0.0
 30
0.0
  9
$UCSYDIR
 10
0.0
 20
1.0
 30
0.0
  9
$PUCSNAME
  2

  9
$PUCSORG
 10
0.0
 20
0.0
 30
0.0
  9
$PUCSXDIR
 10
1.0
 20
0.0
 30
0.0
  9
$PUCSYDIR
 10
0.0
 20
1.0
 30
0.0
  9
$USERI1
 70
     0
  9
$USERI2
 70
     0
  9
$USERI3
 70
     0
  9
$USERI4
 70
     0
  9
$USERI5
 70
     0
  9
$USERR1
 40
0.0
  9
$USERR2
 40
0.0
  9
$USERR3
 40
0.0
  9
$USERR4
 40
0.0
  9
$USERR5
 40
0.0
  9
$WORLDVIEW
 70
     1
  9
$SHADEDGE
 70
     3
  9
$SHADEDIF
 70
    70
  9
$TILEMODE
 70
     1
  9
$MAXACTVP
 70
    16
  9
$PLIMCHECK
 70
     0
  9
$PEXTMIN
 10
-1.452248
 20
-0.437698
 30
0.0
  9
$PEXTMAX
 10
12.749749
 20
8.310198
 30
0.0
  9
$PLIMMIN
 10
0.0
 20
0.0
  9
$PLIMMAX
 10
12.0
 20
9.0
  9
$UNITMODE
 70
     0
  9
$VISRETAIN
 70
     0
  9
$PLINEGEN
 70
     0
  9
$PSLTSCALE
 70
     0
  0
ENDSEC
  0
SECTION
  2
TABLES
  0
TABLE
  2
VPORT
 70
     2
  0
VPORT
  2
*ACTIVE
 70
     0
 10
0.0
 20
0.0
 11
1.0
 21
1.0
 12
160.994227
 22
103.746141
 13
0.0
 23
0.0
 14
1.0
 24
1.0
 15
10.0
 25
10.0
 16
0.0
 26
0.0
 36
1.0
 17
0.0
 27
0.0
 37
0.0
 40
206.805212
 41
1.56
 42
50.0
 43
0.0
 44
0.0
 50
0.0
 51
0.0
 71
     0
 72
   100
 73
     1
 74
     0
 75
     0
 76
     0
 77
     0
 78
     0
  0
ENDTAB
  0
TABLE
  2
LTYPE
 70
     3
  0
LTYPE
  2
CONTINUOUS
 70
     0
  3
Solid line
 72
    65
 73
     0
 40
0.0
  0
LTYPE
  2
AXES2
 70
     0
  3
___ _ ___ _ ___ _ ___ _ ___ _ ___ _ ___ _ ___ _
 72
    65
 73
     4
 40
1.125
 49
0.75
 49
-0.125
 49
0.125
 49
-0.125
  0
LTYPE
  2
CACHE2
 70
     0
  3
Caché (x.5) _ _ _ _ _ _ _ _ _ _ _ _ _ _ _ _ _
 72
    65
 73
     2
 40
0.1875
 49
0.125
 49
-0.0625
  0
ENDTAB
  0
TABLE
  2
LAYER
 70
     6
  0
LAYER
  2
0
 70
     0
 62
   255
  6
CONTINUOUS
  0
LAYER
  2
COTATION1
 70
     0
 62
     2
  6
CONTINUOUS
  0
LAYER
  2
AXE
 70
     0
 62
    80
  6
AXES2
  0
LAYER
  2
DEFPOINTS
 70
     0
 62
     7
  6
CONTINUOUS
  0
LAYER
  2
ALPHA
 70
     0
 62
   254
  6
CONTINUOUS
  0
LAYER
  2
POINTILLE_COURT
 70
     0
 62
    41
  6
CACHE2
  0
ENDTAB
  0
TABLE
  2
STYLE
 70
     2
  0
STYLE
  2
ROMANS
 70
     0
 40
0.0
 41
1.0
 50
0.0
 71
     0
 42
6.0
  3
romans
  4

  0
STYLE
  2
STANDARD
 70
     0
 40
0.2
 41
1.0
 50
0.0
 71
     0
 42
0.2
  3
txt
  4

  0
ENDTAB
  0
TABLE
  2
VIEW
 70
     0
  0
ENDTAB
  0
TABLE
  2
UCS
 70
     0
  0
ENDTAB
  0
TABLE
  2
APPID
 70
     1
  0
APPID
  2
ACAD
 70
     0
  0
ENDTAB
  0
TABLE
  2
DIMSTYLE
 70
     1
  0
DIMSTYLE
  2
SC_DEFAUT
 70
     0
  3

  4

  5
OPEN30
  6

  7

 40
1.0
 41
5.0
 42
2.0
 43
0.38
 44
2.5
 45
0.0
 46
0.0
 47
0.0
 48
0.0
140
2.5
141
0.0
142
0.0
143
25.4
144
1.0
145
0.0
146
1.0
147
2.0
 71
     0
 72
     0
 73
     1
 74
     1
 75
     0
 76
     0
 77
     1
 78
    12
170
     0
171
     2
172
     0
173
     0
174
     0
175
     0
176
     0
177
     0
178
     0
  0
ENDTAB
  0
ENDSEC
  0
SECTION
  2
BLOCKS
  0
BLOCK
  8
0
  2
$MODEL_SPACE
 70
     0
 10
0.0
 20
0.0
 30
0.0
  3
$MODEL_SPACE
  1

  0
ENDBLK
  5
DE18
  8
0
  0
BLOCK
 67
     1
  8
0
  2
$PAPER_SPACE
 70
     0
 10
0.0
 20
0.0
 30
0.0
  3
$PAPER_SPACE
  1

  0
ENDBLK
  5
DE16
 67
     1
  8
0
  0
BLOCK
  8
0
  2
COTE
 70
     0
 10
0.0
 20
0.0
 30
0.0
  3
COTE
  1

  0
ENDBLK
  5
F
  8
0
  0
BLOCK
  8
0
  2
FOND
 70
     0
 10
0.0
 20
0.0
 30
0.0
  3
FOND
  1

  0
ENDBLK
  5
75
  8
0
  0
BLOCK
  8
0
  2
_OPEN30
 70
     0
 10
0.0
 20
0.0
 30
0.0
  3
_OPEN30
  1

  0
LINE
  5
4B05
  8
COTATION1
 62
     0
 10
-1.0
 20
0.267949
 30
0.0
 11
0.0
 21
0.0
 31
0.0
1001
ACAD
1000
RTLwPs
1070
   158
  0
LINE
  5
4B06
  8
COTATION1
 62
     0
 10
0.0
 20
0.0
 30
0.0
 11
-1.0
 21
-0.267949
 31
0.0
1001
ACAD
1000
RTLwPs
1070
   158
  0
LINE
  5
4B07
  8
COTATION1
 62
     0
 10
0.0
 20
0.0
 30
0.0
 11
-1.0
 21
0.0
 31
0.0
1001
ACAD
1000
RTLwPs
1070
   158
  0
ENDBLK
  5
4B09
  8
0
  0
BLOCK
  8
0
  2
*D3
 70
     1
 10
0.0
 20
0.0
 30
0.0
  3
*D3
  1

  0
LINE
  5
DBF8
  8
COTATION1
 62
     0
 10
157.773291
 20
176.728457
 30
0.0
 11
218.773291
 21
176.728457
 31
0.0
1001
ACAD
1000
RTLwPs
1070
   158
  0
LINE
  5
DBF9
  8
COTATION1
 62
     0
 10
169.773291
 20
39.728457
 30
0.0
 11
218.773291
 21
39.728457
 31
0.0
1001
ACAD
1000
RTLwPs
1070
   158
  0
LINE
  5
DBFA
  8
COTATION1
 62
     0
 10
216.273291
 20
171.728457
 30
0.0
 11
216.273291
 21
111.478457
 31
0.0
1001
ACAD
1000
RTLwPs
1070
   158
  0
LINE
  5
DBFB
  8
COTATION1
 62
     0
 10
216.273291
 20
44.728457
 30
0.0
 11
216.273291
 21
104.978457
 31
0.0
1001
ACAD
1000
RTLwPs
1070
   158
  0
INSERT
  5
DBFC
  8
COTATION1
 62
     0
  2
_OPEN30
 10
216.273291
 20
176.728457
 30
0.0
 41
5.0
 42
5.0
 43
5.0
 50
90.0
1001
ACAD
1000
RTLwPs
1070
   158
  0
INSERT
  5
DBFD
  8
COTATION1
 62
     0
  2
_OPEN30
 10
216.273291
 20
39.728457
 30
0.0
 41
5.0
 42
5.0
 43
5.0
 50
270.0
1001
ACAD
1000
RTLwPs
1070
   158
  0
TEXT
  5
DBFE
  8
COTATION1
 62
     0
 10
212.523291
 20
106.978457
 30
0.0
 40
2.5
  1
137
1001
ACAD
1000
MTEXTBEGIN
1070
    73
1070
     1
1070
    44
1040
1.0
1070
    74
1070
     0
1000
MTEXTEND
1000
MTEXTBEGIN
1070
    73
1070
     1
1070
    44
1040
1.0
1070
    74
1070
     0
1000
MTEXTEND
  0
POINT
  5
DBFF
  8
DEFPOINTS
 62
     0
 10
155.773291
 20
176.728457
 30
0.0
  0
POINT
  5
DC00
  8
DEFPOINTS
 62
     0
 10
167.773291
 20
39.728457
 30
0.0
  0
POINT
  5
DC01
  8
DEFPOINTS
 62
     0
 10
216.273291
 20
39.728457
 30
0.0
  0
ENDBLK
  5
C22B
  8
0
  0
BLOCK
  8
0
  2
*D4
 70
     1
 10
0.0
 20
0.0
 30
0.0
  3
*D4
  1

  0
LINE
  5
D627
  8
COTATION1
 62
     0
 10
144.773291
 20
116.878457
 30
0.0
 11
144.773291
 21
204.228457
 31
0.0
1001
ACAD
1000
RTLwPs
1070
   158
  0
LINE
  5
D628
  8
COTATION1
 62
     0
 10
166.773291
 20
116.878457
 30
0.0
 11
166.773291
 21
204.228457
 31
0.0
1001
ACAD
1000
RTLwPs
1070
   158
  0
LINE
  5
D629
  8
COTATION1
 62
     0
 10
149.773291
 20
201.728457
 30
0.0
 11
161.773291
 21
201.728457
 31
0.0
1001
ACAD
1000
RTLwPs
1070
   158
  0
INSERT
  5
D62A
  8
COTATION1
 62
     0
  2
_OPEN30
 10
144.773291
 20
201.728457
 30
0.0
 41
5.0
 42
5.0
 43
5.0
 50
180.0
1001
ACAD
1000
RTLwPs
1070
   158
  0
INSERT
  5
D62B
  8
COTATION1
 62
     0
  2
_OPEN30
 10
166.773291
 20
201.728457
 30
0.0
 41
5.0
 42
5.0
 43
5.0
1001
ACAD
1000
RTLwPs
1070
   158
  0
TEXT
  5
D62C
  8
COTATION1
 62
     0
 10
153.392339
 20
203.728457
 30
0.0
 40
2.5
  1
22
1001
ACAD
1000
MTEXTBEGIN
1070
    73
1070
     1
1070
    44
1040
1.0
1070
    74
1070
     0
1000
MTEXTEND
1000
MTEXTBEGIN
1070
    73
1070
     1
1070
    44
1040
1.0
1070
    74
1070
     0
1000
MTEXTEND
1000
MTEXTBEGIN
1070
    73
1070
     1
1070
    44
1040
1.0
1070
    74
1070
     0
1000
MTEXTEND
1000
MTEXTBEGIN
1070
    73
1070
     1
1070
    44
1040
1.0
1070
    74
1070
     0
1000
MTEXTEND
  0
POINT
  5
D62D
  8
DEFPOINTS
 62
     0
 10
144.773291
 20
114.878457
 30
0.0
  0
POINT
  5
D62E
  8
DEFPOINTS
 62
     0
 10
166.773291
 20
114.878457
 30
0.0
  0
POINT
  5
D62F
  8
DEFPOINTS
 62
     0
 10
166.773291
 20
201.728457
 30
0.0
  0
ENDBLK
  5
C237
  8
0
  0
BLOCK
  8
0
  2
*D5
 70
     1
 10
0.0
 20
0.0
 30
0.0
  3
*D5
  1

  0
LINE
  5
D630
  8
COTATION1
 62
     0
 10
145.773291
 20
114.878457
 30
0.0
 11
145.773291
 21
194.228457
 31
0.0
1001
ACAD
1000
RTLwPs
1070
   158
  0
LINE
  5
D631
  8
COTATION1
 62
     0
 10
165.773291
 20
114.878457
 30
0.0
 11
165.773291
 21
194.228457
 31
0.0
1001
ACAD
1000
RTLwPs
1070
   158
  0
LINE
  5
D632
  8
COTATION1
 62
     0
 10
150.773291
 20
191.728457
 30
0.0
 11
160.773291
 21
191.728457
 31
0.0
1001
ACAD
1000
RTLwPs
1070
   158
  0
INSERT
  5
D633
  8
COTATION1
 62
     0
  2
_OPEN30
 10
145.773291
 20
191.728457
 30
0.0
 41
5.0
 42
5.0
 43
5.0
 50
180.0
1001
ACAD
1000
RTLwPs
1070
   158
  0
INSERT
  5
D634
  8
COTATION1
 62
     0
  2
_OPEN30
 10
165.773291
 20
191.728457
 30
0.0
 41
5.0
 42
5.0
 43
5.0
1001
ACAD
1000
RTLwPs
1070
   158
  0
TEXT
  5
D635
  8
COTATION1
 62
     0
 10
153.392339
 20
193.728457
 30
0.0
 40
2.5
  1
20
1001
ACAD
1000
MTEXTBEGIN
1070
    73
1070
     1
1070
    44
1040
1.0
1070
    74
1070
     0
1000
MTEXTEND
1000
MTEXTBEGIN
1070
    73
1070
     1
1070
    44
1040
1.0
1070
    74
1070
     0
1000
MTEXTEND
1000
MTEXTBEGIN
1070
    73
1070
     1
1070
    44
1040
1.0
1070
    74
1070
     0
1000
MTEXTEND
1000
MTEXTBEGIN
1070
    73
1070
     1
1070
    44
1040
1.0
1070
    74
1070
     0
1000
MTEXTEND
  0
POINT
  5
D636
  8
DEFPOINTS
 62
     0
 10
145.773291
 20
112.878457
 30
0.0
  0
POINT
  5
D637
  8
DEFPOINTS
 62
     0
 10
165.773291
 20
112.878457
 30
0.0
  0
POINT
  5
D638
  8
DEFPOINTS
 62
     0
 10
165.773291
 20
191.728457
 30
0.0
  0
ENDBLK
  5
C243
  8
0
  0
BLOCK
  8
0
  2
*D6
 70
     1
 10
0.0
 20
0.0
 30
0.0
  3
*D6
  1

  0
LINE
  5
D5D2
  8
COTATION1
 62
     0
 10
153.773291
 20
176.728457
 30
0.0
 11
107.773291
 21
176.728457
 31
0.0
1001
ACAD
1000
RTLwPs
1070
   158
  0
LINE
  5
D5D3
  8
COTATION1
 62
     0
 10
139.623291
 20
108.728457
 30
0.0
 11
107.773291
 21
108.728457
 31
0.0
1001
ACAD
1000
RTLwPs
1070
   158
  0
LINE
  5
D5D4
  8
COTATION1
 62
     0
 10
110.273291
 20
171.728457
 30
0.0
 11
110.273291
 21
145.978457
 31
0.0
1001
ACAD
1000
RTLwPs
1070
   158
  0
LINE
  5
D5D5
  8
COTATION1
 62
     0
 10
110.273291
 20
113.728457
 30
0.0
 11
110.273291
 21
139.478457
 31
0.0
1001
ACAD
1000
RTLwPs
1070
   158
  0
INSERT
  5
D5D6
  8
COTATION1
 62
     0
  2
_OPEN30
 10
110.273291
 20
176.728457
 30
0.0
 41
5.0
 42
5.0
 43
5.0
 50
90.0
1001
ACAD
1000
RTLwPs
1070
   158
  0
INSERT
  5
D5D7
  8
COTATION1
 62
     0
  2
_OPEN30
 10
110.273291
 20
108.728457
 30
0.0
 41
5.0
 42
5.0
 43
5.0
 50
270.0
1001
ACAD
1000
RTLwPs
1070
   158
  0
TEXT
  5
D5D8
  8
COTATION1
 62
     0
 10
107.832815
 20
141.478457
 30
0.0
 40
2.5
  1
68
1001
ACAD
1000
MTEXTBEGIN
1070
    73
1070
     1
1070
    44
1040
1.0
1070
    74
1070
     0
1000
MTEXTEND
1000
MTEXTBEGIN
1070
    73
1070
     1
1070
    44
1040
1.0
1070
    74
1070
     0
1000
MTEXTEND
1000
MTEXTBEGIN
1070
    73
1070
     1
1070
    44
1040
1.0
1070
    74
1070
     0
1000
MTEXTEND
1000
MTEXTBEGIN
1070
    73
1070
     1
1070
    44
1040
1.0
1070
    74
1070
     0
1000
MTEXTEND
  0
POINT
  5
D5D9
  8
DEFPOINTS
 62
     0
 10
155.773291
 20
176.728457
 30
0.0
  0
POINT
  5
D5DA
  8
DEFPOINTS
 62
     0
 10
141.623291
 20
108.728457
 30
0.0
  0
POINT
  5
D5DB
  8
DEFPOINTS
 62
     0
 10
110.273291
 20
108.728457
 30
0.0
  0
ENDBLK
  5
C701
  8
0
  0
BLOCK
  8
0
  2
*D7
 70
     1
 10
0.0
 20
0.0
 30
0.0
  3
*D7
  1

  0
LINE
  5
D61D
  8
COTATION1
 62
     0
 10
153.773291
 20
176.728457
 30
0.0
 11
117.773291
 21
176.728457
 31
0.0
1001
ACAD
1000
RTLwPs
1070
   158
  0
LINE
  5
D61E
  8
COTATION1
 62
     0
 10
142.773291
 20
143.728457
 30
0.0
 11
117.773291
 21
143.728457
 31
0.0
1001
ACAD
1000
RTLwPs
1070
   158
  0
LINE
  5
D61F
  8
COTATION1
 62
     0
 10
120.273291
 20
171.728457
 30
0.0
 11
120.273291
 21
163.478457
 31
0.0
1001
ACAD
1000
RTLwPs
1070
   158
  0
LINE
  5
D620
  8
COTATION1
 62
     0
 10
120.273291
 20
148.728457
 30
0.0
 11
120.273291
 21
156.978457
 31
0.0
1001
ACAD
1000
RTLwPs
1070
   158
  0
TEXT
  5
D621
  8
COTATION1
 62
     0
 10
117.892339
 20
158.978457
 30
0.0
 40
2.5
  1
33
1001
ACAD
1000
MTEXTBEGIN
1070
    73
1070
     1
1070
    44
1040
1.0
1070
    74
1070
     0
1000
MTEXTEND
1000
MTEXTBEGIN
1070
    73
1070
     1
1070
    44
1040
1.0
1070
    74
1070
     0
1000
MTEXTEND
1000
MTEXTBEGIN
1070
    73
1070
     1
1070
    44
1040
1.0
1070
    74
1070
     0
1000
MTEXTEND
1000
MTEXTBEGIN
1070
    73
1070
     1
1070
    44
1040
1.0
1070
    74
1070
     0
1000
MTEXTEND
  0
INSERT
  5
D622
  8
COTATION1
 62
     0
  2
_OPEN30
 10
120.273291
 20
176.728457
 30
0.0
 41
5.0
 42
5.0
 43
5.0
 50
90.0
1001
ACAD
1000
RTLwPs
1070
   158
  0
INSERT
  5
D623
  8
COTATION1
 62
     0
  2
_OPEN30
 10
120.273291
 20
143.728457
 30
0.0
 41
5.0
 42
5.0
 43
5.0
 50
270.0
1001
ACAD
1000
RTLwPs
1070
   158
  0
POINT
  5
D624
  8
DEFPOINTS
 62
     0
 10
155.773291
 20
176.728457
 30
0.0
  0
POINT
  5
D625
  8
DEFPOINTS
 62
     0
 10
144.773291
 20
143.728457
 30
0.0
  0
POINT
  5
D626
  8
DEFPOINTS
 62
     0
 10
120.273291
 20
143.728457
 30
0.0
  0
ENDBLK
  5
CE0F
  8
0
  0
BLOCK
  8
0
  2
*D8
 70
     1
 10
0.0
 20
0.0
 30
0.0
  3
*D8
  1

  0
LINE
  5
D5F8
  8
COTATION1
 62
     0
 10
131.615812
 20
183.264633
 30
0.0
 11
139.806288
 21
183.264633
 31
0.0
1001
ACAD
1000
RTLwPs
1070
   158
  0
LINE
  5
D5F9
  8
COTATION1
 62
     0
 10
139.806288
 20
183.264633
 30
0.0
 11
145.542428
 21
177.503643
 31
0.0
1001
ACAD
1000
RTLwPs
1070
   158
  0
TEXT
  5
D5FA
  8
COTATION1
 62
     0
 10
131.377716
 20
185.264633
 30
0.0
 40
2.5
  1
%%c19
1001
ACAD
1000
MTEXTBEGIN
1070
    73
1070
     1
1070
    44
1040
1.0
1070
    74
1070
     0
1000
MTEXTEND
1000
MTEXTBEGIN
1070
    73
1070
     1
1070
    44
1040
1.0
1070
    74
1070
     0
1000
MTEXTEND
1000
MTEXTBEGIN
1070
    73
1070
     1
1070
    44
1040
1.0
1070
    74
1070
     0
1000
MTEXTEND
1000
MTEXTBEGIN
1070
    73
1070
     1
1070
    44
1040
1.0
1070
    74
1070
     0
1000
MTEXTEND
  0
INSERT
  5
D5FB
  8
COTATION1
 62
     0
  2
_OPEN30
 10
149.070312
 20
173.960475
 30
0.0
 41
5.0
 42
5.0
 43
5.0
 50
314.876159
1001
ACAD
1000
RTLwPs
1070
   158
  0
POINT
  5
D5FC
  8
DEFPOINTS
 62
     0
 10
149.070312
 20
173.960475
 30
0.0
  0
POINT
  5
D5FD
  8
DEFPOINTS
 62
     0
 10
162.47627
 20
160.496439
 30
0.0
  0
ENDBLK
  5
D52B
  8
0
  0
BLOCK
  8
0
  2
*D9
 70
     1
 10
0.0
 20
0.0
 30
0.0
  3
*D9
  1

  0
LINE
  5
DBA2
  8
COTATION1
 62
     0
 10
146.273291
 20
51.228457
 30
0.0
 11
146.273291
 21
11.228457
 31
0.0
1001
ACAD
1000
RTLwPs
1070
   158
  0
LINE
  5
DBA3
  8
COTATION1
 62
     0
 10
165.273291
 20
51.228457
 30
0.0
 11
165.273291
 21
11.228457
 31
0.0
1001
ACAD
1000
RTLwPs
1070
   158
  0
LINE
  5
DBA4
  8
COTATION1
 62
     0
 10
151.273291
 20
13.728457
 30
0.0
 11
160.273291
 21
13.728457
 31
0.0
1001
ACAD
1000
RTLwPs
1070
   158
  0
INSERT
  5
DBA5
  8
COTATION1
 62
     0
  2
_OPEN30
 10
146.273291
 20
13.728457
 30
0.0
 41
5.0
 42
5.0
 43
5.0
 50
180.0
1001
ACAD
1000
RTLwPs
1070
   158
  0
INSERT
  5
DBA6
  8
COTATION1
 62
     0
  2
_OPEN30
 10
165.273291
 20
13.728457
 30
0.0
 41
5.0
 42
5.0
 43
5.0
1001
ACAD
1000
RTLwPs
1070
   158
  0
TEXT
  5
DBA7
  8
COTATION1
 62
     0
 10
153.273291
 20
15.728457
 30
0.0
 40
2.5
  1
19
1001
ACAD
1000
MTEXTBEGIN
1070
    73
1070
     1
1070
    44
1040
1.0
1070
    74
1070
     0
1000
MTEXTEND
1000
MTEXTBEGIN
1070
    73
1070
     1
1070
    44
1040
1.0
1070
    74
1070
     0
1000
MTEXTEND
  0
POINT
  5
DBA8
  8
DEFPOINTS
 62
     0
 10
146.273291
 20
53.228457
 30
0.0
  0
POINT
  5
DBA9
  8
DEFPOINTS
 62
     0
 10
165.273291
 20
53.228457
 30
0.0
  0
POINT
  5
DBAA
  8
DEFPOINTS
 62
     0
 10
165.273291
 20
13.728457
 30
0.0
  0
ENDBLK
  5
DA8D
  8
0
  0
BLOCK
  8
0
  2
*D10
 70
     1
 10
0.0
 20
0.0
 30
0.0
  3
*D10
  1

  0
LINE
  5
DBAB
  8
COTATION1
 62
     0
 10
140.273291
 20
51.728457
 30
0.0
 11
140.273291
 21
1.228457
 31
0.0
1001
ACAD
1000
RTLwPs
1070
   158
  0
LINE
  5
DBAC
  8
COTATION1
 62
     0
 10
171.273291
 20
51.728457
 30
0.0
 11
171.273291
 21
1.228457
 31
0.0
1001
ACAD
1000
RTLwPs
1070
   158
  0
LINE
  5
DBAD
  8
COTATION1
 62
     0
 10
145.273291
 20
3.728457
 30
0.0
 11
166.273291
 21
3.728457
 31
0.0
1001
ACAD
1000
RTLwPs
1070
   158
  0
INSERT
  5
DBAE
  8
COTATION1
 62
     0
  2
_OPEN30
 10
140.273291
 20
3.728457
 30
0.0
 41
5.0
 42
5.0
 43
5.0
 50
180.0
1001
ACAD
1000
RTLwPs
1070
   158
  0
INSERT
  5
DBAF
  8
COTATION1
 62
     0
  2
_OPEN30
 10
171.273291
 20
3.728457
 30
0.0
 41
5.0
 42
5.0
 43
5.0
1001
ACAD
1000
RTLwPs
1070
   158
  0
TEXT
  5
DBB0
  8
COTATION1
 62
     0
 10
153.749482
 20
5.728457
 30
0.0
 40
2.5
  1
31
1001
ACAD
1000
MTEXTBEGIN
1070
    73
1070
     1
1070
    44
1040
1.0
1070
    74
1070
     0
1000
MTEXTEND
1000
MTEXTBEGIN
1070
    73
1070
     1
1070
    44
1040
1.0
1070
    74
1070
     0
1000
MTEXTEND
  0
POINT
  5
DBB1
  8
DEFPOINTS
 62
     0
 10
140.273291
 20
53.728457
 30
0.0
  0
POINT
  5
DBB2
  8
DEFPOINTS
 62
     0
 10
171.273291
 20
53.728457
 30
0.0
  0
POINT
  5
DBB3
  8
DEFPOINTS
 62
     0
 10
171.273291
 20
3.728457
 30
0.0
  0
ENDBLK
  5
DA99
  8
0
  0
BLOCK
  8
0
  2
*D11
 70
     1
 10
0.0
 20
0.0
 30
0.0
  3
*D11
  1

  0
LINE
  5
DC60
  8
COTATION1
 62
     0
 10
117.704711
 20
74.952719
 30
0.0
 11
128.038044
 21
74.952719
 31
0.0
1001
ACAD
1000
RTLwPs
1070
   158
  0
LINE
  5
DC61
  8
COTATION1
 62
     0
 10
128.038044
 20
74.952719
 30
0.0
 11
141.547975
 21
62.191796
 31
0.0
1001
ACAD
1000
RTLwPs
1070
   158
  0
TEXT
  5
DC62
  8
COTATION1
 62
     0
 10
117.347568
 20
76.952719
 30
0.0
 40
2.5
  1
2x%%c3
1001
ACAD
1000
MTEXTBEGIN
1070
    73
1070
     1
1070
    44
1040
1.0
1070
    74
1070
     0
1000
MTEXTEND
  0
INSERT
  5
DC63
  8
COTATION1
 62
     0
  2
_OPEN30
 10
145.182834
 20
58.758458
 30
0.0
 41
5.0
 42
5.0
 43
5.0
 50
316.633116
1001
ACAD
1000
RTLwPs
1070
   158
  0
POINT
  5
DC64
  8
DEFPOINTS
 62
     0
 10
145.182834
 20
58.758458
 30
0.0
  0
POINT
  5
DC65
  8
DEFPOINTS
 62
     0
 10
147.363749
 20
56.698456
 30
0.0
  0
ENDBLK
  5
DAA2
  8
0
  0
BLOCK
  8
0
  2
*D12
 70
     1
 10
0.0
 20
0.0
 30
0.0
  3
*D12
  1

  0
LINE
  5
DBBA
  8
COTATION1
 62
     0
 10
102.678844
 20
93.24713
 30
0.0
 11
116.583606
 21
93.24713
 31
0.0
1001
ACAD
1000
RTLwPs
1070
   158
  0
LINE
  5
DBBB
  8
COTATION1
 62
     0
 10
116.583606
 20
93.24713
 30
0.0
 11
139.456712
 21
105.378334
 31
0.0
1001
ACAD
1000
RTLwPs
1070
   158
  0
TEXT
  5
DBBC
  8
COTATION1
 62
     0
 10
102.321701
 20
95.24713
 30
0.0
 40
2.5
  1
2x%%c4.3
1001
ACAD
1000
MTEXTBEGIN
1070
    73
1070
     1
1070
    44
1040
1.0
1070
    74
1070
     0
1000
MTEXTEND
1000
MTEXTBEGIN
1070
    73
1070
     1
1070
    44
1040
1.0
1070
    74
1070
     0
1000
MTEXTEND
  0
INSERT
  5
DBBD
  8
COTATION1
 62
     0
  2
_OPEN30
 10
143.8739
 20
107.721078
 30
0.0
 41
5.0
 42
5.0
 43
5.0
 50
27.940128
1001
ACAD
1000
RTLwPs
1070
   158
  0
POINT
  5
DBBE
  8
DEFPOINTS
 62
     0
 10
143.8739
 20
107.721078
 30
0.0
  0
POINT
  5
DBBF
  8
DEFPOINTS
 62
     0
 10
147.672682
 20
109.735837
 30
0.0
  0
ENDBLK
  5
DAAB
  8
0
  0
BLOCK
  8
0
  2
*D13
 70
     1
 10
0.0
 20
0.0
 30
0.0
  3
*D13
  1

  0
LINE
  5
DBE4
  8
COTATION1
 62
     0
 10
171.923291
 20
108.728457
 30
0.0
 11
208.773291
 21
108.728457
 31
0.0
1001
ACAD
1000
RTLwPs
1070
   158
  0
LINE
  5
DBE5
  8
COTATION1
 62
     0
 10
171.773291
 20
57.728457
 30
0.0
 11
208.773291
 21
57.728457
 31
0.0
1001
ACAD
1000
RTLwPs
1070
   158
  0
LINE
  5
DBE6
  8
COTATION1
 62
     0
 10
206.273291
 20
103.728457
 30
0.0
 11
206.273291
 21
86.478457
 31
0.0
1001
ACAD
1000
RTLwPs
1070
   158
  0
LINE
  5
DBE7
  8
COTATION1
 62
     0
 10
206.273291
 20
62.728457
 30
0.0
 11
206.273291
 21
79.978457
 31
0.0
1001
ACAD
1000
RTLwPs
1070
   158
  0
INSERT
  5
DBE8
  8
COTATION1
 62
     0
  2
_OPEN30
 10
206.273291
 20
108.728457
 30
0.0
 41
5.0
 42
5.0
 43
5.0
 50
90.0
1001
ACAD
1000
RTLwPs
1070
   158
  0
INSERT
  5
DBE9
  8
COTATION1
 62
     0
  2
_OPEN30
 10
206.273291
 20
57.728457
 30
0.0
 41
5.0
 42
5.0
 43
5.0
 50
270.0
1001
ACAD
1000
RTLwPs
1070
   158
  0
TEXT
  5
DBEA
  8
COTATION1
 62
     0
 10
204.249482
 20
81.978457
 30
0.0
 40
2.5
  1
51
1001
ACAD
1000
MTEXTBEGIN
1070
    73
1070
     1
1070
    44
1040
1.0
1070
    74
1070
     0
1000
MTEXTEND
1000
MTEXTBEGIN
1070
    73
1070
     1
1070
    44
1040
1.0
1070
    74
1070
     0
1000
MTEXTEND
  0
POINT
  5
DBEB
  8
DEFPOINTS
 62
     0
 10
169.923291
 20
108.728457
 30
0.0
  0
POINT
  5
DBEC
  8
DEFPOINTS
 62
     0
 10
169.773291
 20
57.728457
 30
0.0
  0
POINT
  5
DBED
  8
DEFPOINTS
 62
     0
 10
206.273291
 20
57.728457
 30
0.0
  0
ENDBLK
  5
DAB8
  8
0
  0
BLOCK
  8
0
  2
*D14
 70
     1
 10
0.0
 20
0.0
 30
0.0
  3
*D14
  1

  0
LINE
  5
DC9E
  8
COTATION1
 62
     0
 10
173.273291
 20
53.728457
 30
0.0
 11
198.773291
 21
53.728457
 31
0.0
  0
LINE
  5
DC9F
  8
COTATION1
 62
     0
 10
169.773291
 20
39.728457
 30
0.0
 11
198.773291
 21
39.728457
 31
0.0
  0
LINE
  5
DCA0
  8
COTATION1
 62
     0
 10
196.273291
 20
58.728457
 30
0.0
 11
196.273291
 21
63.728457
 31
0.0
  0
LINE
  5
DCA1
  8
COTATION1
 62
     0
 10
196.273291
 20
34.728457
 30
0.0
 11
196.273291
 21
29.728457
 31
0.0
  0
TEXT
  5
DCA2
  8
COTATION1
 62
     0
 10
193.654243
 20
45.478457
 30
0.0
 40
2.5
  1
14
  0
INSERT
  5
DCA3
  8
COTATION1
 62
     0
  2
_OPEN30
 10
196.273291
 20
53.728457
 30
0.0
 41
5.0
 42
5.0
 43
5.0
 50
270.0
  0
INSERT
  5
DCA4
  8
COTATION1
 62
     0
  2
_OPEN30
 10
196.273291
 20
39.728457
 30
0.0
 41
5.0
 42
5.0
 43
5.0
 50
90.0
  0
POINT
  5
DCA5
  8
DEFPOINTS
 62
     0
 10
171.273291
 20
53.728457
 30
0.0
  0
POINT
  5
DCA6
  8
DEFPOINTS
 62
     0
 10
167.773291
 20
39.728457
 30
0.0
  0
POINT
  5
DCA7
  8
DEFPOINTS
 62
     0
 10
196.273291
 20
39.728457
 30
0.0
  0
ENDBLK
  5
DAD2
  8
0
  0
BLOCK
  8
0
  2
*D15
 70
     1
 10
0.0
 20
0.0
 30
0.0
  3
*D15
  1

  0
LINE
  5
DBCA
  8
COTATION1
 62
     0
 10
201.97631
 20
130.55409
 30
0.0
 11
180.095357
 21
130.55409
 31
0.0
1001
ACAD
1000
RTLwPs
1070
   158
  0
LINE
  5
DBCB
  8
COTATION1
 62
     0
 10
180.095357
 20
130.55409
 30
0.0
 11
170.761126
 21
116.663074
 31
0.0
1001
ACAD
1000
RTLwPs
1070
   158
  0
TEXT
  5
DBCC
  8
COTATION1
 62
     0
 10
181.738214
 20
132.55409
 30
0.0
 40
2.5
  1
2x%%c4.3x6.3
1001
ACAD
1000
MTEXTBEGIN
1070
    73
1070
     1
1070
    44
1040
1.0
1070
    74
1070
     0
1000
MTEXTEND
1000
MTEXTBEGIN
1070
    73
1070
     1
1070
    44
1040
1.0
1070
    74
1070
     0
1000
MTEXTEND
  0
INSERT
  5
DBCD
  8
COTATION1
 62
     0
  2
_OPEN30
 10
167.97243
 20
112.512992
 30
0.0
 41
5.0
 42
5.0
 43
5.0
 50
236.10041
1001
ACAD
1000
RTLwPs
1070
   158
  0
POINT
  5
DBCE
  8
DEFPOINTS
 62
     0
 10
167.97243
 20
112.512992
 30
0.0
  0
POINT
  5
DBCF
  8
DEFPOINTS
 62
     0
 10
165.574152
 20
108.943922
 30
0.0
  0
ENDBLK
  5
DADB
  8
0
  0
BLOCK
  8
0
  2
*D16
 70
     1
 10
0.0
 20
0.0
 30
0.0
  3
*D16
  1

  0
LINE
  5
DCA8
  8
COTATION1
 62
     0
 10
172.923291
 20
110.728457
 30
0.0
 11
198.773291
 21
110.728457
 31
0.0
  0
LINE
  5
DCA9
  8
COTATION1
 62
     0
 10
171.923291
 20
108.728457
 30
0.0
 11
198.773291
 21
108.728457
 31
0.0
  0
LINE
  5
DCAA
  8
COTATION1
 62
     0
 10
196.273291
 20
115.728457
 30
0.0
 11
196.273291
 21
120.728457
 31
0.0
  0
LINE
  5
DCAB
  8
COTATION1
 62
     0
 10
196.273291
 20
103.728457
 30
0.0
 11
196.273291
 21
98.728457
 31
0.0
  0
TEXT
  5
DCAC
  8
COTATION1
 62
     0
 10
192.249482
 20
99.080197
 30
0.0
 40
2.5
  1
2
  0
INSERT
  5
DCAD
  8
COTATION1
 62
     0
  2
_OPEN30
 10
196.273291
 20
110.728457
 30
0.0
 41
5.0
 42
5.0
 43
5.0
 50
270.0
  0
INSERT
  5
DCAE
  8
COTATION1
 62
     0
  2
_OPEN30
 10
196.273291
 20
108.728457
 30
0.0
 41
5.0
 42
5.0
 43
5.0
 50
90.0
  0
POINT
  5
DCAF
  8
DEFPOINTS
 62
     0
 10
170.923291
 20
110.728457
 30
0.0
  0
POINT
  5
DCB0
  8
DEFPOINTS
 62
     0
 10
169.923291
 20
108.728457
 30
0.0
  0
POINT
  5
DCB1
  8
DEFPOINTS
 62
     0
 10
196.273291
 20
108.728457
 30
0.0
  0
ENDBLK
  5
DAE8
  8
0
  0
BLOCK
  8
0
  2
*D17
 70
     1
 10
0.0
 20
0.0
 30
0.0
  3
*D17
  1

  0
LINE
  5
DCB2
  8
COTATION1
 62
     0
 10
157.773291
 20
118.728457
 30
0.0
 11
208.773291
 21
118.728457
 31
0.0
  0
LINE
  5
DCB3
  8
COTATION1
 62
     0
 10
171.923291
 20
108.728457
 30
0.0
 11
208.773291
 21
108.728457
 31
0.0
  0
LINE
  5
DCB4
  8
COTATION1
 62
     0
 10
206.273291
 20
123.728457
 30
0.0
 11
206.273291
 21
128.728457
 31
0.0
  0
LINE
  5
DCB5
  8
COTATION1
 62
     0
 10
206.273291
 20
103.728457
 30
0.0
 11
206.273291
 21
98.728457
 31
0.0
  0
TEXT
  5
DCB6
  8
COTATION1
 62
     0
 10
203.713767
 20
112.478457
 30
0.0
 40
2.5
  1
10
  0
INSERT
  5
DCB7
  8
COTATION1
 62
     0
  2
_OPEN30
 10
206.273291
 20
118.728457
 30
0.0
 41
5.0
 42
5.0
 43
5.0
 50
270.0
  0
INSERT
  5
DCB8
  8
COTATION1
 62
     0
  2
_OPEN30
 10
206.273291
 20
108.728457
 30
0.0
 41
5.0
 42
5.0
 43
5.0
 50
90.0
  0
POINT
  5
DCB9
  8
DEFPOINTS
 62
     0
 10
155.773291
 20
118.728457
 30
0.0
  0
POINT
  5
DCBA
  8
DEFPOINTS
 62
     0
 10
169.923291
 20
108.728457
 30
0.0
  0
POINT
  5
DCBB
  8
DEFPOINTS
 62
     0
 10
206.273291
 20
108.728457
 30
0.0
  0
ENDBLK
  5
DAF5
  8
0
  0
ENDSEC
  0
SECTION
  2
ENTITIES
  0
INSERT
  5
A
  8
0
  2
COTE
 10
0.0
 20
0.0
 30
0.0
  0
INSERT
  5
17
  8
0
  2
COTE
 10
284.010391
 20
6.373258
 30
0.0
  0
INSERT
  5
72
  8
0
  2
FOND
 10
0.0
 20
0.0
 30
0.0
  0
DIMENSION
  5
C1BF
  8
COTATION1
  2
*D3
 10
216.273291
 20
39.728457
 30
0.0
 11
216.273291
 21
108.228457
 31
0.0
 13
155.773291
 23
176.728457
 33
0.0
 14
167.773291
 24
39.728457
 34
0.0
 50
90.0
  0
LINE
  5
C1C1
  8
AXE
 10
155.773291
 20
181.728457
 30
0.0
 11
155.773291
 21
23.728457
 31
0.0
  0
DIMENSION
  5
C1F5
  8
COTATION1
  2
*D5
 10
165.773291
 20
191.728457
 30
0.0
 11
155.773291
 21
194.978457
 31
0.0
 13
145.773291
 23
112.878457
 33
0.0
 14
165.773291
 24
112.878457
 34
0.0
  0
DIMENSION
  5
C1F6
  8
COTATION1
  2
*D4
 10
166.773291
 20
201.728457
 30
0.0
 11
155.773291
 21
204.978457
 31
0.0
 13
144.773291
 23
114.878457
 33
0.0
 14
166.773291
 24
114.878457
 34
0.0
  0
POLYLINE
  5
C432
  8
ALPHA
 66
     1
 10
0.0
 20
0.0
 30
0.0
 70
   128
  0
VERTEX
  5
DE1E
  8
ALPHA
 10
144.210153
 20
123.874013
 30
0.0
  0
VERTEX
  5
DE1F
  8
ALPHA
 10
144.210153
 20
123.363731
 30
0.0
  0
VERTEX
  5
DE20
  8
ALPHA
 10
144.210153
 20
123.682657
 30
0.0
  0
VERTEX
  5
DE21
  8
ALPHA
 10
144.123357
 20
124.633875
 30
0.0
  0
VERTEX
  5
DE22
  8
ALPHA
 10
143.345146
 20
125.77011
 30
0.0
  0
VERTEX
  5
DE23
  8
ALPHA
 10
143.003334
 20
125.99128
 30
0.0
  0
VERTEX
  5
DE24
  8
ALPHA
 10
142.455659
 20
126.435566
 30
0.0
  0
VERTEX
  5
DE25
  8
ALPHA
 10
141.774863
 20
127.396882
 30
0.0
  0
VERTEX
  5
DE26
  8
ALPHA
 10
141.47501
 20
129.554855
 30
0.0
  0
VERTEX
  5
DE27
  8
ALPHA
 10
141.47501
 20
130.226569
 30
0.0
  0
VERTEX
  5
DE28
  8
ALPHA
 10
141.47501
 20
130.501435
 30
0.0
  0
VERTEX
  5
DE29
  8
ALPHA
 10
141.47501
 20
130.541878
 30
0.0
  0
VERTEX
  5
DE2A
  8
ALPHA
 10
141.47501
 20
130.546922
 30
0.0
  0
VERTEX
  5
DE2B
  8
ALPHA
 10
141.496908
 20
130.878317
 30
0.0
  0
VERTEX
  5
DE2C
  8
ALPHA
 10
142.183153
 20
132.226853
 30
0.0
  0
VERTEX
  5
DE2D
  8
ALPHA
 10
143.585717
 20
133.095667
 30
0.0
  0
VERTEX
  5
DE2E
  8
ALPHA
 10
145.370584
 20
133.530165
 30
0.0
  0
VERTEX
  5
DE2F
  8
ALPHA
 10
149.731931
 20
133.753693
 30
0.0
  0
VERTEX
  5
DE30
  8
ALPHA
 10
153.258469
 20
133.843831
 30
0.0
  0
VERTEX
  5
DE31
  8
ALPHA
 10
154.59993
 20
133.857827
 30
0.0
  0
VERTEX
  5
DE32
  8
ALPHA
 10
155.602182
 20
133.861212
 30
0.0
  0
VERTEX
  5
DE33
  8
ALPHA
 10
156.661998
 20
133.857082
 30
0.0
  0
VERTEX
  5
DE34
  8
ALPHA
 10
158.247608
 20
133.832941
 30
0.0
  0
VERTEX
  5
DE35
  8
ALPHA
 10
161.950464
 20
133.733912
 30
0.0
  0
VERTEX
  5
DE36
  8
ALPHA
 10
163.711229
 20
133.6665
 30
0.0
  0
VERTEX
  5
DE37
  8
ALPHA
 10
165.173898
 20
133.592142
 30
0.0
  0
VERTEX
  5
DE38
  8
ALPHA
 10
166.1607
 20
133.515533
 30
0.0
  0
VERTEX
  5
DE39
  8
ALPHA
 10
166.593955
 20
133.46841
 30
0.0
  0
VERTEX
  5
DE3A
  8
ALPHA
 10
166.414256
 20
133.467801
 30
0.0
  0
VERTEX
  5
DE3B
  8
ALPHA
 10
166.015306
 20
133.515914
 30
0.0
  0
VERTEX
  5
DE3C
  8
ALPHA
 10
166.593377
 20
133.482713
 30
0.0
  0
VERTEX
  5
DE3D
  8
ALPHA
 10
167.143657
 20
133.043199
 30
0.0
  0
VERTEX
  5
DE3E
  8
ALPHA
 10
167.377976
 20
132.376277
 30
0.0
  0
VERTEX
  5
DE3F
  8
ALPHA
 10
167.419517
 20
131.634937
 30
0.0
  0
VERTEX
  5
DE40
  8
ALPHA
 10
167.419517
 20
131.010295
 30
0.0
  0
VERTEX
  5
DE41
  8
ALPHA
 10
167.419517
 20
130.08539
 30
0.0
  0
VERTEX
  5
DE42
  8
ALPHA
 10
167.419517
 20
127.605133
 30
0.0
  0
VERTEX
  5
DE43
  8
ALPHA
 10
167.419517
 20
122.015231
 30
0.0
  0
VERTEX
  5
DE44
  8
ALPHA
 10
167.419517
 20
119.986956
 30
0.0
  0
VERTEX
  5
DE45
  8
ALPHA
 10
167.419517
 20
119.401037
 30
0.0
  0
VERTEX
  5
DE46
  8
ALPHA
 10
167.419517
 20
119.190712
 30
0.0
  0
SEQEND
  5
DE47
  8
ALPHA
  0
POLYLINE
  5
C433
  8
ALPHA
 66
     1
 10
0.0
 20
0.0
 30
0.0
 70
   128
  0
VERTEX
  5
DE48
  8
ALPHA
 10
144.210153
 20
117.487557
 30
0.0
  0
VERTEX
  5
DE49
  8
ALPHA
 10
144.210153
 20
117.761975
 30
0.0
  0
VERTEX
  5
DE4A
  8
ALPHA
 10
144.210153
 20
118.48544
 30
0.0
  0
VERTEX
  5
DE4B
  8
ALPHA
 10
144.210153
 20
120.680785
 30
0.0
  0
VERTEX
  5
DE4C
  8
ALPHA
 10
144.210153
 20
122.876129
 30
0.0
  0
VERTEX
  5
DE4D
  8
ALPHA
 10
144.210153
 20
123.599595
 30
0.0
  0
VERTEX
  5
DE4E
  8
ALPHA
 10
144.210153
 20
123.874013
 30
0.0
  0
SEQEND
  5
DE4F
  8
ALPHA
  0
POLYLINE
  5
C434
  8
ALPHA
 66
     1
 10
0.0
 20
0.0
 30
0.0
 70
   128
  0
VERTEX
  5
DE50
  8
ALPHA
 10
162.942614
 20
125.572711
 30
0.0
  0
VERTEX
  5
DE51
  8
ALPHA
 10
162.942614
 20
125.243835
 30
0.0
  0
VERTEX
  5
DE52
  8
ALPHA
 10
162.942614
 20
124.445133
 30
0.0
  0
VERTEX
  5
DE53
  8
ALPHA
 10
162.942614
 20
122.565836
 30
0.0
  0
VERTEX
  5
DE54
  8
ALPHA
 10
162.942614
 20
122.04903
 30
0.0
  0
VERTEX
  5
DE55
  8
ALPHA
 10
162.916375
 20
121.817369
 30
0.0
  0
VERTEX
  5
DE56
  8
ALPHA
 10
162.569632
 20
121.500994
 30
0.0
  0
VERTEX
  5
DE57
  8
ALPHA
 10
161.943813
 20
121.429555
 30
0.0
  0
VERTEX
  5
DE58
  8
ALPHA
 10
161.531896
 20
121.428421
 30
0.0
  0
VERTEX
  5
DE59
  8
ALPHA
 10
160.597704
 20
121.428421
 30
0.0
  0
VERTEX
  5
DE5A
  8
ALPHA
 10
157.926949
 20
121.428421
 30
0.0
  0
VERTEX
  5
DE5B
  8
ALPHA
 10
156.865464
 20
121.428421
 30
0.0
  0
VERTEX
  5
DE5C
  8
ALPHA
 10
156.436627
 20
121.428421
 30
0.0
  0
SEQEND
  5
DE5D
  8
ALPHA
  0
POLYLINE
  5
C435
  8
ALPHA
 66
     1
 10
0.0
 20
0.0
 30
0.0
 70
   128
  0
VERTEX
  5
DE5E
  8
ALPHA
 10
155.856041
 20
120.930987
 30
0.0
  0
VERTEX
  5
DE5F
  8
ALPHA
 10
156.452678
 20
120.930987
 30
0.0
  0
VERTEX
  5
DE60
  8
ALPHA
 10
157.901655
 20
120.930987
 30
0.0
  0
VERTEX
  5
DE61
  8
ALPHA
 10
161.311013
 20
120.930987
 30
0.0
  0
VERTEX
  5
DE62
  8
ALPHA
 10
162.248587
 20
120.930987
 30
0.0
  0
VERTEX
  5
DE63
  8
ALPHA
 10
162.636604
 20
120.950247
 30
0.0
  0
VERTEX
  5
DE64
  8
ALPHA
 10
163.285157
 20
121.231489
 30
0.0
  0
VERTEX
  5
DE65
  8
ALPHA
 10
163.548767
 20
121.827827
 30
0.0
  0
VERTEX
  5
DE66
  8
ALPHA
 10
163.564778
 20
122.950466
 30
0.0
  0
VERTEX
  5
DE67
  8
ALPHA
 10
163.564778
 20
124.667987
 30
0.0
  0
VERTEX
  5
DE68
  8
ALPHA
 10
163.564778
 20
125.315385
 30
0.0
  0
VERTEX
  5
DE69
  8
ALPHA
 10
163.564778
 20
125.572711
 30
0.0
  0
SEQEND
  5
DE6A
  8
ALPHA
  0
LINE
  5
C449
  8
ALPHA
 10
167.419517
 20
119.190712
 30
0.0
 11
167.377571
 21
117.383281
 31
0.0
  0
POLYLINE
  5
C44A
  8
ALPHA
 66
     1
 10
0.0
 20
0.0
 30
0.0
 70
   128
  0
VERTEX
  5
DE6B
  8
ALPHA
 10
165.181066
 20
130.588625
 30
0.0
  0
VERTEX
  5
DE6C
  8
ALPHA
 10
164.971625
 20
130.588625
 30
0.0
  0
VERTEX
  5
DE6D
  8
ALPHA
 10
164.379728
 20
130.588625
 30
0.0
  0
VERTEX
  5
DE6E
  8
ALPHA
 10
162.267112
 20
130.588625
 30
0.0
  0
VERTEX
  5
DE6F
  8
ALPHA
 10
159.280308
 20
130.588625
 30
0.0
  0
VERTEX
  5
DE70
  8
ALPHA
 10
155.856412
 20
130.588625
 30
0.0
  0
VERTEX
  5
DE71
  8
ALPHA
 10
152.432515
 20
130.588625
 30
0.0
  0
VERTEX
  5
DE72
  8
ALPHA
 10
149.445712
 20
130.588625
 30
0.0
  0
VERTEX
  5
DE73
  8
ALPHA
 10
147.333095
 20
130.588625
 30
0.0
  0
VERTEX
  5
DE74
  8
ALPHA
 10
146.741198
 20
130.588625
 30
0.0
  0
VERTEX
  5
DE75
  8
ALPHA
 10
146.531758
 20
130.588625
 30
0.0
  0
SEQEND
  5
DE76
  8
ALPHA
  0
POLYLINE
  5
C44B
  8
ALPHA
 66
     1
 10
0.0
 20
0.0
 30
0.0
 70
   128
  0
VERTEX
  5
DE77
  8
ALPHA
 10
146.033582
 20
130.049615
 30
0.0
  0
VERTEX
  5
DE78
  8
ALPHA
 10
146.033582
 20
129.510984
 30
0.0
  0
VERTEX
  5
DE79
  8
ALPHA
 10
146.033582
 20
128.462073
 30
0.0
  0
VERTEX
  5
DE7A
  8
ALPHA
 10
146.033582
 20
127.753349
 30
0.0
  0
VERTEX
  5
DE7B
  8
ALPHA
 10
146.080332
 20
127.424793
 30
0.0
  0
VERTEX
  5
DE7C
  8
ALPHA
 10
146.302703
 20
127.259019
 30
0.0
  0
VERTEX
  5
DE7D
  8
ALPHA
 10
146.763303
 20
127.358337
 30
0.0
  0
VERTEX
  5
DE7E
  8
ALPHA
 10
146.922718
 20
127.428251
 30
0.0
  0
VERTEX
  5
DE7F
  8
ALPHA
 10
147.359751
 20
127.64089
 30
0.0
  0
VERTEX
  5
DE80
  8
ALPHA
 10
149.191249
 20
128.384015
 30
0.0
  0
VERTEX
  5
DE81
  8
ALPHA
 10
151.317917
 20
128.96334
 30
0.0
  0
VERTEX
  5
DE82
  8
ALPHA
 10
153.752991
 20
129.302907
 30
0.0
  0
VERTEX
  5
DE83
  8
ALPHA
 10
156.509711
 20
129.326757
 30
0.0
  0
VERTEX
  5
DE84
  8
ALPHA
 10
159.601313
 20
128.95893
 30
0.0
  0
VERTEX
  5
DE85
  8
ALPHA
 10
163.041034
 20
128.123467
 30
0.0
  0
VERTEX
  5
DE86
  8
ALPHA
 10
163.793176
 20
127.883955
 30
0.0
  0
VERTEX
  5
DE87
  8
ALPHA
 10
163.897199
 20
127.838612
 30
0.0
  0
VERTEX
  5
DE88
  8
ALPHA
 10
164.093803
 20
127.76186
 30
0.0
  0
VERTEX
  5
DE89
  8
ALPHA
 10
164.723075
 20
127.649393
 30
0.0
  0
VERTEX
  5
DE8A
  8
ALPHA
 10
165.088888
 20
127.871022
 30
0.0
  0
VERTEX
  5
DE8B
  8
ALPHA
 10
165.181066
 20
128.457776
 30
0.0
  0
VERTEX
  5
DE8C
  8
ALPHA
 10
165.181066
 20
129.358091
 30
0.0
  0
VERTEX
  5
DE8D
  8
ALPHA
 10
165.181066
 20
130.210119
 30
0.0
  0
VERTEX
  5
DE8E
  8
ALPHA
 10
165.181066
 20
130.588625
 30
0.0
  0
SEQEND
  5
DE8F
  8
ALPHA
  0
POLYLINE
  5
C44C
  8
ALPHA
 66
     1
 10
0.0
 20
0.0
 30
0.0
 70
   128
  0
VERTEX
  5
DE90
  8
ALPHA
 10
146.779732
 20
126.484426
 30
0.0
  0
VERTEX
  5
DE91
  8
ALPHA
 10
146.619215
 20
126.344592
 30
0.0
  0
VERTEX
  5
DE92
  8
ALPHA
 10
146.241186
 20
125.987178
 30
0.0
  0
VERTEX
  5
DE93
  8
ALPHA
 10
145.453737
 20
124.992125
 30
0.0
  0
SEQEND
  5
DE94
  8
ALPHA
  0
POLYLINE
  5
C44D
  8
ALPHA
 66
     1
 10
0.0
 20
0.0
 30
0.0
 70
   128
  0
VERTEX
  5
DE95
  8
ALPHA
 10
145.370584
 20
128.143033
 30
0.0
  0
VERTEX
  5
DE96
  8
ALPHA
 10
145.370584
 20
127.852251
 30
0.0
  0
VERTEX
  5
DE97
  8
ALPHA
 10
145.370584
 20
127.146066
 30
0.0
  0
VERTEX
  5
DE98
  8
ALPHA
 10
145.370584
 20
125.484454
 30
0.0
  0
VERTEX
  5
DE99
  8
ALPHA
 10
145.392414
 20
124.805358
 30
0.0
  0
VERTEX
  5
DE9A
  8
ALPHA
 10
145.650112
 20
124.578772
 30
0.0
  0
VERTEX
  5
DE9B
  8
ALPHA
 10
146.013051
 20
124.77127
 30
0.0
  0
VERTEX
  5
DE9C
  8
ALPHA
 10
146.092646
 20
124.872598
 30
0.0
  0
VERTEX
  5
DE9D
  8
ALPHA
 10
146.110843
 20
124.900808
 30
0.0
  0
VERTEX
  5
DE9E
  8
ALPHA
 10
146.353588
 20
125.258227
 30
0.0
  0
VERTEX
  5
DE9F
  8
ALPHA
 10
147.150904
 20
126.189098
 30
0.0
  0
VERTEX
  5
DEA0
  8
ALPHA
 10
149.084025
 20
127.581917
 30
0.0
  0
VERTEX
  5
DEA1
  8
ALPHA
 10
151.364648
 20
128.423605
 30
0.0
  0
VERTEX
  5
DEA2
  8
ALPHA
 10
153.868194
 20
128.803084
 30
0.0
  0
VERTEX
  5
DEA3
  8
ALPHA
 10
156.47008
 20
128.809275
 30
0.0
  0
VERTEX
  5
DEA4
  8
ALPHA
 10
161.470555
 20
128.057481
 30
0.0
  0
VERTEX
  5
DEA5
  8
ALPHA
 10
163.619982
 20
127.477339
 30
0.0
  0
VERTEX
  5
DEA6
  8
ALPHA
 10
165.369429
 20
126.879596
 30
0.0
  0
VERTEX
  5
DEA7
  8
ALPHA
 10
166.594314
 20
126.353173
 30
0.0
  0
VERTEX
  5
DEA8
  8
ALPHA
 10
167.170058
 20
125.986992
 30
0.0
  0
SEQEND
  5
DEA9
  8
ALPHA
  0
POLYLINE
  5
C44E
  8
ALPHA
 66
     1
 10
0.0
 20
0.0
 30
0.0
 70
   128
  0
VERTEX
  5
DEAA
  8
ALPHA
 10
145.701712
 20
131.075664
 30
0.0
  0
VERTEX
  5
DEAB
  8
ALPHA
 10
145.701712
 20
130.617441
 30
0.0
  0
VERTEX
  5
DEAC
  8
ALPHA
 10
145.701712
 20
129.609349
 30
0.0
  0
VERTEX
  5
DEAD
  8
ALPHA
 10
145.701712
 20
128.601257
 30
0.0
  0
VERTEX
  5
DEAE
  8
ALPHA
 10
145.701712
 20
128.143033
 30
0.0
  0
SEQEND
  5
DEAF
  8
ALPHA
  0
POLYLINE
  5
C44F
  8
ALPHA
 66
     1
 10
0.0
 20
0.0
 30
0.0
 70
   128
210
0.0
220
0.0
230
-1.0
  0
VERTEX
  5
DEB0
  8
ALPHA
 10
-144.127742
 20
128.027213
 30
0.0
  0
VERTEX
  5
DEB1
  8
ALPHA
 10
-143.049536
 20
128.473975
 30
0.0
  0
VERTEX
  5
DEB2
  8
ALPHA
 10
-142.602774
 20
129.552181
 30
0.0
  0
VERTEX
  5
DEB3
  8
ALPHA
 10
-143.049536
 20
130.629645
 30
0.0
  0
VERTEX
  5
DEB4
  8
ALPHA
 10
-144.127742
 20
131.075664
 30
0.0
  0
SEQEND
  5
DEB5
  8
ALPHA
  0
LINE
  5
C450
  8
ALPHA
 10
146.531758
 20
130.588625
 30
0.0
 11
146.448605
 21
130.049615
 31
0.0
  0
LINE
  5
C451
  8
ALPHA
 10
145.701712
 20
128.143033
 30
0.0
 11
144.127742
 21
128.027213
 31
0.0
  0
LINE
  5
C452
  8
ALPHA
 10
146.448605
 20
130.049615
 30
0.0
 11
146.033582
 21
130.049615
 31
0.0
  0
LINE
  5
C453
  8
ALPHA
 10
146.696579
 20
127.231319
 30
0.0
 11
146.779732
 21
126.484426
 31
0.0
  0
LINE
  5
C454
  8
ALPHA
 10
144.127742
 20
131.075664
 30
0.0
 11
145.701712
 21
131.075664
 31
0.0
  0
POLYLINE
  5
C455
  8
ALPHA
 66
     1
 10
0.0
 20
0.0
 30
0.0
 70
   128
  0
VERTEX
  5
DEB6
  8
ALPHA
 10
148.105727
 20
125.572711
 30
0.0
  0
VERTEX
  5
DEB7
  8
ALPHA
 10
148.105727
 20
125.133698
 30
0.0
  0
VERTEX
  5
DEB8
  8
ALPHA
 10
148.105727
 20
124.111964
 30
0.0
  0
VERTEX
  5
DEB9
  8
ALPHA
 10
148.105727
 20
122.950466
 30
0.0
  0
VERTEX
  5
DEBA
  8
ALPHA
 10
148.105727
 20
122.092161
 30
0.0
  0
VERTEX
  5
DEBB
  8
ALPHA
 10
148.385162
 20
121.231489
 30
0.0
  0
VERTEX
  5
DEBC
  8
ALPHA
 10
149.347826
 20
120.930987
 30
0.0
  0
SEQEND
  5
DEBD
  8
ALPHA
  0
POLYLINE
  5
C456
  8
ALPHA
 66
     1
 10
0.0
 20
0.0
 30
0.0
 70
   128
  0
VERTEX
  5
DEBE
  8
ALPHA
 10
148.72789
 20
122.009008
 30
0.0
  0
VERTEX
  5
DEBF
  8
ALPHA
 10
148.72789
 20
122.565836
 30
0.0
  0
VERTEX
  5
DEC0
  8
ALPHA
 10
148.72789
 20
123.79086
 30
0.0
  0
VERTEX
  5
DEC1
  8
ALPHA
 10
148.72789
 20
125.015883
 30
0.0
  0
VERTEX
  5
DEC2
  8
ALPHA
 10
148.72789
 20
125.572711
 30
0.0
  0
SEQEND
  5
DEC3
  8
ALPHA
  0
POLYLINE
  5
C457
  8
ALPHA
 66
     1
 10
0.0
 20
0.0
 30
0.0
 70
   128
  0
VERTEX
  5
DEC4
  8
ALPHA
 10
149.347826
 20
120.930987
 30
0.0
  0
VERTEX
  5
DEC5
  8
ALPHA
 10
149.627476
 20
120.930987
 30
0.0
  0
VERTEX
  5
DEC6
  8
ALPHA
 10
150.364735
 20
120.930987
 30
0.0
  0
VERTEX
  5
DEC7
  8
ALPHA
 10
152.601933
 20
120.930987
 30
0.0
  0
VERTEX
  5
DEC8
  8
ALPHA
 10
154.839132
 20
120.930987
 30
0.0
  0
VERTEX
  5
DEC9
  8
ALPHA
 10
155.576391
 20
120.930987
 30
0.0
  0
VERTEX
  5
DECA
  8
ALPHA
 10
155.856041
 20
120.930987
 30
0.0
  0
SEQEND
  5
DECB
  8
ALPHA
  0
POLYLINE
  5
C458
  8
ALPHA
 66
     1
 10
0.0
 20
0.0
 30
0.0
 70
   128
  0
VERTEX
  5
DECC
  8
ALPHA
 10
155.233877
 20
121.428421
 30
0.0
  0
VERTEX
  5
DECD
  8
ALPHA
 10
155.034952
 20
121.428421
 30
0.0
  0
VERTEX
  5
DECE
  8
ALPHA
 10
154.504861
 20
121.428421
 30
0.0
  0
VERTEX
  5
DECF
  8
ALPHA
 10
152.8513
 20
121.428421
 30
0.0
  0
VERTEX
  5
DED0
  8
ALPHA
 10
151.073427
 20
121.428421
 30
0.0
  0
VERTEX
  5
DED1
  8
ALPHA
 10
149.971475
 20
121.428421
 30
0.0
  0
VERTEX
  5
DED2
  8
ALPHA
 10
149.101058
 20
121.500994
 30
0.0
  0
VERTEX
  5
DED3
  8
ALPHA
 10
148.72789
 20
122.009008
 30
0.0
  0
SEQEND
  5
DED4
  8
ALPHA
  0
LINE
  5
C459
  8
ALPHA
 10
156.436627
 20
121.428421
 30
0.0
 11
155.233877
 21
121.428421
 31
0.0
  0
LINE
  5
C45A
  8
ALPHA
 10
148.72789
 20
125.572711
 30
0.0
 11
148.105727
 21
125.572711
 31
0.0
  0
LINE
  5
C45B
  8
ALPHA
 10
163.564778
 20
125.572711
 30
0.0
 11
162.942614
 21
125.572711
 31
0.0
  0
LINE
  5
C48B
  8
ALPHA
 10
152.870698
 20
127.396139
 30
0.0
 11
150.385014
 21
127.396139
 31
0.0
  0
LINE
  5
C48C
  8
ALPHA
 10
151.007176
 20
120.683015
 30
0.0
 11
152.500217
 21
120.683015
 31
0.0
  0
LINE
  5
C48D
  8
ALPHA
 10
150.385014
 20
122.525745
 30
0.0
 11
152.809818
 21
122.525745
 31
0.0
  0
LINE
  5
C493
  8
ALPHA
 10
162.402863
 20
121.428419
 30
0.0
 11
149.26616
 21
121.428419
 31
0.0
  0
LINE
  5
C494
  8
ALPHA
 10
167.253211
 20
131.541916
 30
0.0
 11
145.288175
 21
131.541916
 31
0.0
  0
LINE
  5
C498
  8
ALPHA
 10
146.531756
 20
130.049616
 30
0.0
 11
146.531756
 21
131.582009
 31
0.0
  0
LINE
  5
C499
  8
ALPHA
 10
146.116735
 20
131.582009
 30
0.0
 11
146.116735
 21
130.049616
 31
0.0
  0
CIRCLE
  5
C49A
  8
ALPHA
 10
144.127741
 20
129.552181
 30
0.0
 40
1.171568
  0
LINE
  5
C49B
  8
ALPHA
 10
148.852621
 20
124.660999
 30
0.0
 11
148.852621
 21
125.076761
 31
0.0
  0
LINE
  5
C49C
  8
ALPHA
 10
149.347828
 20
125.407891
 30
0.0
 11
149.347828
 21
126.070144
 31
0.0
  0
LINE
  5
C49D
  8
ALPHA
 10
148.852621
 20
125.076761
 30
0.0
 11
149.347828
 21
125.407891
 31
0.0
  0
LINE
  5
C49E
  8
ALPHA
 10
148.436854
 20
128.05988
 30
0.0
 11
148.436854
 21
127.312988
 31
0.0
  0
LINE
  5
C49F
  8
ALPHA
 10
148.105725
 20
127.893574
 30
0.0
 11
148.105725
 21
127.146682
 31
0.0
  0
LINE
  5
C4A0
  8
ALPHA
 10
146.116735
 20
130.049616
 30
0.0
 11
146.531756
 21
130.049616
 31
0.0
  0
LINE
  5
C4A1
  8
ALPHA
 10
149.347828
 20
126.070144
 30
0.0
 11
147.7746
 21
126.070144
 31
0.0
  0
LINE
  5
C4A4
  8
ALPHA
 10
145.288175
 20
131.541916
 30
0.0
 11
145.288175
 21
131.044481
 31
0.0
  0
LINE
  5
C4A7
  8
ALPHA
 10
150.302601
 20
119.977698
 30
0.0
 11
151.007176
 21
120.683015
 31
0.0
  0
LINE
  5
C4A8
  8
ALPHA
 10
149.347828
 20
123.085543
 30
0.0
 11
149.347828
 21
124.32987
 31
0.0
  0
LINE
  5
C4A9
  8
ALPHA
 10
148.852621
 20
122.754414
 30
0.0
 11
149.347828
 21
123.085543
 31
0.0
  0
LINE
  5
C4AA
  8
ALPHA
 10
148.852621
 20
122.423289
 30
0.0
 11
148.852621
 21
122.754414
 31
0.0
  0
LINE
  5
C4AB
  8
ALPHA
 10
149.26616
 20
122.09216
 30
0.0
 11
148.852621
 21
122.423289
 31
0.0
  0
LINE
  5
C4AC
  8
ALPHA
 10
149.26616
 20
121.428419
 30
0.0
 11
149.26616
 21
122.09216
 31
0.0
  0
LINE
  5
C4AF
  8
ALPHA
 10
147.7746
 20
123.418155
 30
0.0
 11
147.7746
 21
119.977698
 31
0.0
  0
LINE
  5
C4B0
  8
ALPHA
 10
148.105725
 20
124.081896
 30
0.0
 11
147.7746
 21
123.418155
 31
0.0
  0
LINE
  5
C4B1
  8
ALPHA
 10
147.7746
 20
124.413025
 30
0.0
 11
148.105725
 21
124.081896
 31
0.0
  0
LINE
  5
C4B2
  8
ALPHA
 10
147.7746
 20
119.977698
 30
0.0
 11
150.302601
 21
119.977698
 31
0.0
  0
LINE
  5
C4B3
  8
ALPHA
 10
149.347828
 20
124.32987
 30
0.0
 11
148.852621
 21
124.660999
 31
0.0
  0
LINE
  5
C4B4
  8
ALPHA
 10
147.7746
 20
126.070144
 30
0.0
 11
147.7746
 21
124.413025
 31
0.0
  0
LINE
  5
C4B5
  8
ALPHA
 10
150.385014
 20
127.396139
 30
0.0
 11
150.385014
 21
122.525745
 31
0.0
  0
LINE
  5
C4B9
  8
ALPHA
 10
165.512936
 20
130.049616
 30
0.0
 11
165.512936
 21
131.582009
 31
0.0
  0
LINE
  5
C4BA
  8
ALPHA
 10
165.09717
 20
131.582009
 30
0.0
 11
165.09717
 21
130.049616
 31
0.0
  0
LINE
  5
C4BB
  8
ALPHA
 10
165.09717
 20
130.049616
 30
0.0
 11
165.512936
 21
130.049616
 31
0.0
  0
LINE
  5
C4BC
  8
ALPHA
 10
162.817885
 20
125.076761
 30
0.0
 11
162.817885
 21
124.660999
 31
0.0
  0
LINE
  5
C4BD
  8
ALPHA
 10
162.321195
 20
125.407891
 30
0.0
 11
162.817885
 21
125.076761
 31
0.0
  0
LINE
  5
C4BE
  8
ALPHA
 10
162.321195
 20
126.070144
 30
0.0
 11
162.321195
 21
125.407891
 31
0.0
  0
LINE
  5
C4BF
  8
ALPHA
 10
163.895905
 20
126.070144
 30
0.0
 11
162.321195
 21
126.070144
 31
0.0
  0
LINE
  5
C4C0
  8
ALPHA
 10
162.445921
 20
128.224703
 30
0.0
 11
162.445921
 21
127.893574
 31
0.0
  0
LINE
  5
C4C5
  8
ALPHA
 10
160.66333
 20
120.683015
 30
0.0
 11
161.367901
 21
119.977698
 31
0.0
  0
LINE
  5
C4C6
  8
ALPHA
 10
162.402863
 20
122.09216
 30
0.0
 11
162.402863
 21
121.428419
 31
0.0
  0
LINE
  5
C4C7
  8
ALPHA
 10
162.817885
 20
122.423289
 30
0.0
 11
162.402863
 21
122.09216
 31
0.0
  0
LINE
  5
C4C8
  8
ALPHA
 10
162.817885
 20
122.754414
 30
0.0
 11
162.817885
 21
122.423289
 31
0.0
  0
LINE
  5
C4C9
  8
ALPHA
 10
162.321195
 20
123.085543
 30
0.0
 11
162.817885
 21
122.754414
 31
0.0
  0
LINE
  5
C4CA
  8
ALPHA
 10
162.321195
 20
124.32987
 30
0.0
 11
162.321195
 21
123.085543
 31
0.0
  0
LINE
  5
C4CB
  8
ALPHA
 10
163.564776
 20
124.081896
 30
0.0
 11
163.895905
 21
124.413025
 31
0.0
  0
LINE
  5
C4CC
  8
ALPHA
 10
163.895905
 20
123.418155
 30
0.0
 11
163.564776
 21
124.081896
 31
0.0
  0
LINE
  5
C4CD
  8
ALPHA
 10
163.895905
 20
119.977698
 30
0.0
 11
163.895905
 21
123.418155
 31
0.0
  0
LINE
  5
C4CE
  8
ALPHA
 10
161.367901
 20
119.977698
 30
0.0
 11
163.895905
 21
119.977698
 31
0.0
  0
LINE
  5
C4CF
  8
ALPHA
 10
160.08274
 20
127.312988
 30
0.0
 11
160.08274
 21
122.50644
 31
0.0
  0
LINE
  5
C4D0
  8
ALPHA
 10
161.326325
 20
122.525745
 30
0.0
 11
161.326325
 21
127.396139
 31
0.0
  0
LINE
  5
C4D1
  8
ALPHA
 10
163.895905
 20
124.413025
 30
0.0
 11
163.895905
 21
126.070144
 31
0.0
  0
LINE
  5
C4D2
  8
ALPHA
 10
162.817885
 20
124.660999
 30
0.0
 11
162.321195
 21
124.32987
 31
0.0
  0
LINE
  5
C4D5
  8
ALPHA
 10
158.839159
 20
127.396139
 30
0.0
 11
158.052916
 21
128.18461
 31
0.0
  0
LINE
  5
C4D6
  8
ALPHA
 10
158.052916
 20
128.18461
 30
0.0
 11
153.659906
 21
128.18461
 31
0.0
  0
LINE
  5
C4D7
  8
ALPHA
 10
153.659906
 20
128.18461
 30
0.0
 11
152.870698
 21
127.396139
 31
0.0
  0
LINE
  5
C4D8
  8
ALPHA
 10
155.898362
 20
121.884279
 30
0.0
 11
158.260056
 21
121.884279
 31
0.0
  0
LINE
  5
C4D9
  8
ALPHA
 10
155.856041
 20
120.102425
 30
0.0
 11
158.756745
 21
120.102425
 31
0.0
  0
LINE
  5
C4DA
  8
ALPHA
 10
152.913756
 20
120.102425
 30
0.0
 11
155.856041
 21
120.102425
 31
0.0
  0
LINE
  5
C4DB
  8
ALPHA
 10
153.452025
 20
121.884279
 30
0.0
 11
155.898362
 21
121.884279
 31
0.0
  0
LINE
  5
C4DC
  8
ALPHA
 10
152.500217
 20
120.683015
 30
0.0
 11
152.913756
 21
120.102425
 31
0.0
  0
LINE
  5
C4DD
  8
ALPHA
 10
152.809818
 20
122.525745
 30
0.0
 11
153.452025
 21
121.884279
 31
0.0
  0
LINE
  5
C4DE
  8
ALPHA
 10
158.260056
 20
121.884279
 30
0.0
 11
158.903009
 21
122.525745
 31
0.0
  0
LINE
  5
C4DF
  8
ALPHA
 10
158.756745
 20
120.102425
 30
0.0
 11
159.171771
 21
120.683015
 31
0.0
  0
LINE
  5
C4E0
  8
ALPHA
 10
151.628595
 20
127.312988
 30
0.0
 11
151.628595
 21
122.50644
 31
0.0
  0
CIRCLE
  5
C4E1
  8
ALPHA
 10
155.814465
 20
124.95129
 30
0.0
 40
1.699441
  0
CIRCLE
  5
C4E2
  8
ALPHA
 10
155.814465
 20
124.95129
 30
0.0
 40
0.820396
  0
LINE
  5
C4E3
  8
ALPHA
 10
161.326325
 20
127.396139
 30
0.0
 11
158.839159
 21
127.396139
 31
0.0
  0
LINE
  5
C4E4
  8
ALPHA
 10
158.903009
 20
122.525745
 30
0.0
 11
161.326325
 21
122.525745
 31
0.0
  0
LINE
  5
C4E5
  8
ALPHA
 10
159.171771
 20
120.683015
 30
0.0
 11
160.66333
 21
120.683015
 31
0.0
  0
DIMENSION
  5
C6F4
  8
COTATION1
  2
*D6
 10
110.273291
 20
108.728457
 30
0.0
 11
110.273291
 21
142.728457
 31
0.0
 13
155.773291
 23
176.728457
 33
0.0
 14
141.623291
 24
108.728457
 34
0.0
 50
90.0
  0
DIMENSION
  5
CDC8
  8
COTATION1
  2
*D7
 10
120.273291
 20
143.728457
 30
0.0
 11
120.273291
 21
160.228457
 31
0.0
 70
   128
 13
155.773291
 23
176.728457
 33
0.0
 14
144.773291
 24
143.728457
 34
0.0
 50
90.0
  0
LINE
  5
D43D
  8
ALPHA
 10
163.731038
 20
149.725977
 30
0.0
 11
163.815366
 21
149.146476
 31
0.0
  0
LINE
  5
D43E
  8
ALPHA
 10
147.729549
 20
149.146476
 30
0.0
 11
147.815544
 21
149.730877
 31
0.0
  0
POLYLINE
  5
D43F
  8
ALPHA
 66
     1
 10
0.0
 20
0.0
 30
0.0
 70
   128
  0
VERTEX
  5
DED5
  8
ALPHA
 10
147.735661
 20
140.819573
 30
0.0
  0
VERTEX
  5
DED6
  8
ALPHA
 10
148.973568
 20
138.551879
 30
0.0
  0
VERTEX
  5
DED7
  8
ALPHA
 10
150.813881
 20
136.768599
 30
0.0
  0
VERTEX
  5
DED8
  8
ALPHA
 10
153.124492
 20
135.60179
 30
0.0
  0
VERTEX
  5
DED9
  8
ALPHA
 10
155.773291
 20
135.183508
 30
0.0
  0
VERTEX
  5
DEDA
  8
ALPHA
 10
158.422012
 20
135.601616
 30
0.0
  0
VERTEX
  5
DEDB
  8
ALPHA
 10
160.732492
 20
136.768043
 30
0.0
  0
VERTEX
  5
DEDC
  8
ALPHA
 10
162.572779
 20
138.550941
 30
0.0
  0
VERTEX
  5
DEDD
  8
ALPHA
 10
163.810921
 20
140.818462
 30
0.0
  0
SEQEND
  5
DEDE
  8
ALPHA
  0
POLYLINE
  5
D440
  8
ALPHA
 66
     1
 10
0.0
 20
0.0
 30
0.0
 70
   128
  0
VERTEX
  5
DEDF
  8
ALPHA
 10
147.729549
 20
133.63154
 30
0.0
  0
VERTEX
  5
DEE0
  8
ALPHA
 10
147.729549
 20
133.80578
 30
0.0
  0
VERTEX
  5
DEE1
  8
ALPHA
 10
147.729549
 20
134.298197
 30
0.0
  0
VERTEX
  5
DEE2
  8
ALPHA
 10
147.729549
 20
136.055749
 30
0.0
  0
VERTEX
  5
DEE3
  8
ALPHA
 10
147.729549
 20
138.540563
 30
0.0
  0
VERTEX
  5
DEE4
  8
ALPHA
 10
147.729549
 20
141.389008
 30
0.0
  0
VERTEX
  5
DEE5
  8
ALPHA
 10
147.729549
 20
144.237453
 30
0.0
  0
VERTEX
  5
DEE6
  8
ALPHA
 10
147.729549
 20
146.722267
 30
0.0
  0
VERTEX
  5
DEE7
  8
ALPHA
 10
147.729549
 20
148.479818
 30
0.0
  0
VERTEX
  5
DEE8
  8
ALPHA
 10
147.729549
 20
148.972236
 30
0.0
  0
VERTEX
  5
DEE9
  8
ALPHA
 10
147.729549
 20
149.146476
 30
0.0
  0
SEQEND
  5
DEEA
  8
ALPHA
  0
POLYLINE
  5
D441
  8
ALPHA
 66
     1
 10
0.0
 20
0.0
 30
0.0
 70
   128
  0
VERTEX
  5
DEEB
  8
ALPHA
 10
163.815366
 20
149.146476
 30
0.0
  0
VERTEX
  5
DEEC
  8
ALPHA
 10
163.815366
 20
148.972238
 30
0.0
  0
VERTEX
  5
DEED
  8
ALPHA
 10
163.815366
 20
148.479829
 30
0.0
  0
VERTEX
  5
DEEE
  8
ALPHA
 10
163.815366
 20
146.722306
 30
0.0
  0
VERTEX
  5
DEEF
  8
ALPHA
 10
163.815366
 20
144.237532
 30
0.0
  0
VERTEX
  5
DEF0
  8
ALPHA
 10
163.815366
 20
141.389132
 30
0.0
  0
VERTEX
  5
DEF1
  8
ALPHA
 10
163.815366
 20
138.540733
 30
0.0
  0
VERTEX
  5
DEF2
  8
ALPHA
 10
163.815366
 20
136.055959
 30
0.0
  0
VERTEX
  5
DEF3
  8
ALPHA
 10
163.815366
 20
134.298436
 30
0.0
  0
VERTEX
  5
DEF4
  8
ALPHA
 10
163.815366
 20
133.806026
 30
0.0
  0
VERTEX
  5
DEF5
  8
ALPHA
 10
163.815366
 20
133.631789
 30
0.0
  0
SEQEND
  5
DEF6
  8
ALPHA
  0
DIMENSION
  5
D45C
  8
COTATION1
  2
*D8
 10
162.47627
 20
160.496439
 30
0.0
 11
139.806288
 21
183.264633
 31
0.0
 70
   131
 15
149.070312
 25
173.960475
 35
0.0
 40
0.0
1001
ACAD
1000
DSTYLE
1002
{
1070
   288
1070
     1
1002
}
  0
LINE
  5
D45D
  8
ALPHA
 10
147.815544
 20
157.142671
 30
0.0
 11
163.731038
 21
157.142671
 31
0.0
  0
ARC
  5
D45E
  8
ALPHA
 10
155.773291
 20
143.728457
 30
0.0
 40
7.957747
 50
180.0
 51
0.0
  0
LINE
  5
D45F
  8
ALPHA
 10
147.815544
 20
151.570928
 30
0.0
 11
163.731038
 21
151.570928
 31
0.0
  0
LINE
  5
D460
  8
AXE
 10
144.773291
 20
143.728457
 30
0.0
 11
166.773291
 21
143.728457
 31
0.0
  0
CIRCLE
  5
D461
  8
ALPHA
 10
155.773291
 20
167.228457
 30
0.0
 40
9.5
  0
LINE
  5
D4C4
  8
ALPHA
 10
147.815544
 20
143.165346
 30
0.0
 11
147.815544
 21
162.039598
 31
0.0
  0
LINE
  5
D4C5
  8
ALPHA
 10
156.769036
 20
143.728457
 30
0.0
 11
159.113923
 21
146.075012
 31
0.0
  0
LINE
  5
D4C6
  8
ALPHA
 10
157.870352
 20
142.627138
 30
0.0
 11
156.769036
 21
143.728457
 31
0.0
  0
LINE
  5
D4C7
  8
ALPHA
 10
156.87461
 20
141.631393
 30
0.0
 11
157.870352
 21
142.627138
 31
0.0
  0
LINE
  5
D4C8
  8
ALPHA
 10
154.671417
 20
145.825518
 30
0.0
 11
153.675672
 21
144.829776
 31
0.0
  0
LINE
  5
D4C9
  8
ALPHA
 10
155.773291
 20
144.724199
 30
0.0
 11
154.671417
 21
145.825518
 31
0.0
  0
LINE
  5
D4CA
  8
ALPHA
 10
153.427849
 20
140.38727
 30
0.0
 11
155.773291
 21
142.733825
 31
0.0
  0
LINE
  5
D4CB
  8
ALPHA
 10
154.778659
 20
143.728457
 30
0.0
 11
152.432104
 21
141.383012
 31
0.0
  0
LINE
  5
D4CC
  8
ALPHA
 10
153.675672
 20
144.829776
 30
0.0
 11
154.778659
 21
143.728457
 31
0.0
  0
CIRCLE
  5
D4CD
  8
ALPHA
 10
155.773291
 20
143.728457
 30
0.0
 40
4.021871
  0
CIRCLE
  5
D4CE
  8
ALPHA
 10
155.773291
 20
143.728457
 30
0.0
 40
5.026506
  0
CIRCLE
  5
D4CF
  8
ALPHA
 10
155.773291
 20
143.728457
 30
0.0
 40
6.5
  0
LINE
  5
D4D0
  8
ALPHA
 10
158.119846
 20
147.069644
 30
0.0
 11
155.773291
 21
144.724199
 31
0.0
  0
LINE
  5
D4D1
  8
ALPHA
 10
155.773291
 20
142.733825
 30
0.0
 11
156.87461
 21
141.631393
 31
0.0
  0
CIRCLE
  5
D4D2
  8
ALPHA
 10
155.773291
 20
167.228457
 30
0.0
 40
4.0
  0
LINE
  5
D4E3
  8
ALPHA
 10
163.731038
 20
143.165346
 30
0.0
 11
163.731038
 21
162.039598
 31
0.0
  0
DIMENSION
  5
DA1D
  8
COTATION1
  2
*D9
 10
165.273291
 20
13.728457
 30
0.0
 11
155.773291
 21
16.978457
 31
0.0
 13
146.273291
 23
53.228457
 33
0.0
 14
165.273291
 24
53.228457
 34
0.0
  0
CIRCLE
  5
DA1E
  8
ALPHA
 10
155.773291
 20
107.728457
 30
0.0
 40
2.735279
  0
LINE
  5
DA1F
  8
ALPHA
 10
143.273291
 20
58.780776
 30
0.0
 11
155.773291
 21
58.780776
 31
0.0
  0
LINE
  5
DA20
  8
ALPHA
 10
144.773291
 20
54.728457
 30
0.0
 11
166.773291
 21
54.728457
 31
0.0
  0
LINE
  5
DA21
  8
ALPHA
 10
155.773291
 20
39.728457
 30
0.0
 11
143.773291
 21
39.728457
 31
0.0
  0
LINE
  5
DA22
  8
ALPHA
 10
155.773291
 20
49.228457
 30
0.0
 11
144.073291
 21
49.228457
 31
0.0
  0
ARC
  5
DA23
  8
ALPHA
 10
155.773291
 20
34.395124
 30
0.0
 40
14.833333
 50
64.010766
 51
115.989234
  0
TEXT
  5
DA24
  8
AXE
 10
148.297101
 20
23.728457
 30
0.0
 40
8.0
  1
Y
 72
     2
 11
154.773291
 21
23.728457
 31
0.0
  0
DIMENSION
  5
DA25
  8
COTATION1
  2
*D10
 10
171.273291
 20
3.728457
 30
0.0
 11
155.773291
 21
6.978457
 31
0.0
 13
140.273291
 23
53.728457
 33
0.0
 14
171.273291
 24
53.728457
 34
0.0
  0
LINE
  5
DA26
  8
ALPHA
 10
140.273291
 20
53.728457
 30
0.0
 11
171.273291
 21
53.728457
 31
0.0
  0
LINE
  5
DA27
  8
AXE
 10
136.273291
 20
86.228457
 30
0.0
 11
186.273291
 21
86.228457
 31
0.0
  0
ARC
  5
DA28
  8
ALPHA
 10
155.773291
 20
64.233363
 30
0.0
 40
54.495095
 50
73.978407
 51
106.021593
  0
POLYLINE
  5
DA29
  8
ALPHA
 66
     1
 10
0.0
 20
0.0
 30
0.0
 70
   128
210
0.0
220
0.0
230
-1.0
  0
VERTEX
  5
DEF7
  8
ALPHA
 10
-164.216341
 20
104.326884
 30
0.0
  0
VERTEX
  5
DEF8
  8
ALPHA
 10
-163.199648
 20
104.700782
 30
0.0
  0
VERTEX
  5
DEF9
  8
ALPHA
 10
-162.330151
 20
105.576464
 30
0.0
  0
VERTEX
  5
DEFA
  8
ALPHA
 10
-159.339721
 20
111.920158
 30
0.0
  0
VERTEX
  5
DEFB
  8
ALPHA
 10
-157.639767
 20
114.345721
 30
0.0
  0
VERTEX
  5
DEFC
  8
ALPHA
 10
-156.728752
 20
115.057066
 30
0.0
  0
VERTEX
  5
DEFD
  8
ALPHA
 10
-155.773291
 20
115.314173
 30
0.0
  0
VERTEX
  5
DEFE
  8
ALPHA
 10
-154.817669
 20
115.057066
 30
0.0
  0
VERTEX
  5
DEFF
  8
ALPHA
 10
-153.906557
 20
114.345721
 30
0.0
  0
VERTEX
  5
DF00
  8
ALPHA
 10
-152.206449
 20
111.920158
 30
0.0
  0
VERTEX
  5
DF01
  8
ALPHA
 10
-149.214782
 20
105.576464
 30
0.0
  0
VERTEX
  5
DF02
  8
ALPHA
 10
-148.345904
 20
104.700782
 30
0.0
  0
VERTEX
  5
DF03
  8
ALPHA
 10
-147.330242
 20
104.326884
 30
0.0
  0
SEQEND
  5
DF04
  8
ALPHA
  0
POLYLINE
  5
DA2A
  8
ALPHA
 66
     1
 10
0.0
 20
0.0
 30
0.0
 70
   128
  0
VERTEX
  5
DF05
  8
ALPHA
 10
171.273291
 20
102.014089
 30
0.0
  0
VERTEX
  5
DF06
  8
ALPHA
 10
170.653905
 20
102.840362
 30
0.0
  0
VERTEX
  5
DF07
  8
ALPHA
 10
168.131749
 20
103.606102
 30
0.0
  0
VERTEX
  5
DF08
  8
ALPHA
 10
164.661431
 20
104.264281
 30
0.0
  0
VERTEX
  5
DF09
  8
ALPHA
 10
160.467197
 20
104.725066
 30
0.0
  0
VERTEX
  5
DF0A
  8
ALPHA
 10
155.773291
 20
104.898623
 30
0.0
  0
VERTEX
  5
DF0B
  8
ALPHA
 10
151.079377
 20
104.725066
 30
0.0
  0
VERTEX
  5
DF0C
  8
ALPHA
 10
146.885082
 20
104.264281
 30
0.0
  0
VERTEX
  5
DF0D
  8
ALPHA
 10
143.414601
 20
103.606102
 30
0.0
  0
VERTEX
  5
DF0E
  8
ALPHA
 10
140.892128
 20
102.840362
 30
0.0
  0
VERTEX
  5
DF0F
  8
ALPHA
 10
140.273291
 20
102.014089
 30
0.0
  0
SEQEND
  5
DF10
  8
ALPHA
  0
POLYLINE
  5
DA2B
  8
ALPHA
 66
     1
 10
0.0
 20
0.0
 30
0.0
 70
   128
  0
VERTEX
  5
DF11
  8
ALPHA
 10
147.318697
 20
116.646215
 30
0.0
  0
VERTEX
  5
DF12
  8
ALPHA
 10
147.508756
 20
116.646215
 30
0.0
  0
VERTEX
  5
DF13
  8
ALPHA
 10
148.045878
 20
116.646215
 30
0.0
  0
VERTEX
  5
DF14
  8
ALPHA
 10
149.962991
 20
116.646215
 30
0.0
  0
VERTEX
  5
DF15
  8
ALPHA
 10
152.673392
 20
116.646215
 30
0.0
  0
VERTEX
  5
DF16
  8
ALPHA
 10
155.780438
 20
116.646215
 30
0.0
  0
VERTEX
  5
DF17
  8
ALPHA
 10
158.887483
 20
116.646215
 30
0.0
  0
VERTEX
  5
DF18
  8
ALPHA
 10
161.597885
 20
116.646215
 30
0.0
  0
VERTEX
  5
DF19
  8
ALPHA
 10
163.514998
 20
116.646215
 30
0.0
  0
VERTEX
  5
DF1A
  8
ALPHA
 10
164.05212
 20
116.646215
 30
0.0
  0
VERTEX
  5
DF1B
  8
ALPHA
 10
164.242179
 20
116.646215
 30
0.0
  0
SEQEND
  5
DF1C
  8
ALPHA
  0
POLYLINE
  5
DA2C
  8
ALPHA
 66
     1
 10
0.0
 20
0.0
 30
0.0
 70
   128
  0
VERTEX
  5
DF1D
  8
ALPHA
 10
147.318697
 20
114.657772
 30
0.0
  0
VERTEX
  5
DF1E
  8
ALPHA
 10
147.318697
 20
114.968467
 30
0.0
  0
VERTEX
  5
DF1F
  8
ALPHA
 10
147.318697
 20
115.651994
 30
0.0
  0
VERTEX
  5
DF20
  8
ALPHA
 10
147.318697
 20
116.335521
 30
0.0
  0
VERTEX
  5
DF21
  8
ALPHA
 10
147.318697
 20
116.646215
 30
0.0
  0
SEQEND
  5
DF22
  8
ALPHA
  0
POLYLINE
  5
DA2D
  8
ALPHA
 66
     1
 10
0.0
 20
0.0
 30
0.0
 70
   128
  0
VERTEX
  5
DF23
  8
ALPHA
 10
152.643783
 20
112.66713
 30
0.0
  0
VERTEX
  5
DF24
  8
ALPHA
 10
152.039187
 20
112.66713
 30
0.0
  0
VERTEX
  5
DF25
  8
ALPHA
 10
151.794206
 20
112.66713
 30
0.0
  0
SEQEND
  5
DF26
  8
ALPHA
  0
POLYLINE
  5
DA2E
  8
ALPHA
 66
     1
 10
0.0
 20
0.0
 30
0.0
 70
   128
210
0.0
220
0.0
230
-1.0
  0
VERTEX
  5
DF27
  8
ALPHA
 10
-151.794206
 20
112.66713
 30
0.0
  0
VERTEX
  5
DF28
  8
ALPHA
 10
-150.657573
 20
112.850918
 30
0.0
  0
VERTEX
  5
DF29
  8
ALPHA
 10
-149.3806
 20
113.323118
 30
0.0
  0
VERTEX
  5
DF2A
  8
ALPHA
 10
-148.191553
 20
113.964985
 30
0.0
  0
VERTEX
  5
DF2B
  8
ALPHA
 10
-147.318697
 20
114.657772
 30
0.0
  0
SEQEND
  5
DF2C
  8
ALPHA
  0
LINE
  5
DA2F
  8
ALPHA
 10
140.273291
 20
116.028457
 30
0.0
 11
140.273291
 21
53.728457
 31
0.0
  0
LINE
  5
DA30
  8
ALPHA
 10
143.773291
 20
47.728457
 30
0.0
 11
143.773291
 21
39.728457
 31
0.0
  0
LINE
  5
DA31
  8
ALPHA
 10
149.273291
 20
47.728457
 30
0.0
 11
149.273291
 21
39.728457
 31
0.0
  0
DIMENSION
  5
DA32
  8
COTATION1
  2
*D11
 10
147.363749
 20
56.698456
 30
0.0
 11
128.038044
 21
74.952719
 31
0.0
 70
   131
  1
2x<>
 15
145.182834
 25
58.758458
 35
0.0
 40
0.0
  0
ARC
  5
DA33
  8
ALPHA
 10
139.63391
 20
51.192498
 30
0.0
 40
4.854438
 50
336.134766
 51
31.493383
  0
LINE
  5
DA34
  8
ALPHA
 10
149.273291
 20
47.728457
 30
0.0
 11
143.773291
 21
47.728457
 31
0.0
  0
LINE
  5
DA35
  8
ALPHA
 10
144.073291
 20
49.228457
 30
0.0
 11
143.773291
 21
47.728457
 31
0.0
  0
LINE
  5
DA36
  8
ALPHA
 10
144.773291
 20
58.780776
 30
0.0
 11
145.786091
 21
54.728457
 31
0.0
  0
CIRCLE
  5
DA37
  8
POINTILLE_COURT
 10
146.273291
 20
57.728457
 30
0.0
 40
1.5
  0
LINE
  5
DA38
  8
AXE
 10
150.773291
 20
57.728457
 30
0.0
 11
141.773291
 21
57.728457
 31
0.0
  0
LINE
  5
DA39
  8
ALPHA
 10
144.773291
 20
54.728457
 30
0.0
 11
144.773291
 21
58.780776
 31
0.0
  0
LINE
  5
DA3A
  8
ALPHA
 10
143.273291
 20
54.728457
 30
0.0
 11
143.273291
 21
58.780776
 31
0.0
  0
LINE
  5
DA3B
  8
ALPHA
 10
140.273291
 20
54.728457
 30
0.0
 11
143.273291
 21
54.728457
 31
0.0
  0
LINE
  5
DA3C
  8
AXE
 10
146.273291
 20
53.228457
 30
0.0
 11
146.273291
 21
62.228457
 31
0.0
  0
DIMENSION
  5
DA3D
  8
COTATION1
  2
*D12
 10
147.672682
 20
109.735837
 30
0.0
 11
116.583606
 21
93.24713
 31
0.0
 70
   131
  1
2x<>
 15
143.8739
 25
107.721078
 35
0.0
 40
0.0
1001
ACAD
1000
DSTYLE
1002
{
1070
   288
1070
     1
1002
}
  0
LINE
  5
DA3E
  8
AXE
 10
145.773291
 20
104.578457
 30
0.0
 11
145.773291
 21
112.878457
 31
0.0
  0
LINE
  5
DA3F
  8
AXE
 10
144.773291
 20
106.578457
 30
0.0
 11
144.773291
 21
114.878457
 31
0.0
  0
LINE
  5
DA40
  8
ALPHA
 10
142.623291
 20
110.728457
 30
0.0
 11
142.623291
 21
108.728457
 31
0.0
  0
ARC
  5
DA41
  8
ALPHA
 10
145.773291
 20
108.728457
 30
0.0
 40
2.15
 50
270.0
 51
57.663974
  0
LINE
  5
DA42
  8
ALPHA
 10
144.773291
 20
106.578457
 30
0.0
 11
145.773291
 21
106.578457
 31
0.0
  0
LINE
  5
DA43
  8
AXE
 10
141.623291
 20
108.728457
 30
0.0
 11
149.923291
 21
108.728457
 31
0.0
  0
ARC
  5
DA44
  8
ALPHA
 10
144.773291
 20
108.728457
 30
0.0
 40
2.15
 50
180.0
 51
270.0
  0
ARC
  5
DA45
  8
ALPHA
 10
144.773291
 20
110.728457
 30
0.0
 40
2.15
 50
0.0
 51
180.0
  0
LINE
  5
DA46
  8
AXE
 10
140.623291
 20
110.728457
 30
0.0
 11
148.923291
 21
110.728457
 31
0.0
  0
ARC
  5
DA47
  8
ALPHA
 10
140.873291
 20
116.028457
 30
0.0
 40
0.6
 50
103.554708
 51
180.0
  0
LINE
  5
DA48
  8
ALPHA
 10
146.923291
 20
110.728457
 30
0.0
 11
146.923291
 21
110.545047
 31
0.0
  0
LINE
  5
DA49
  8
ALPHA
 10
147.304403
 20
116.646216
 30
0.0
 11
147.304403
 21
114.656673
 31
0.0
  0
LINE
  5
DA4A
  8
ALPHA
 10
145.329704
 20
114.656673
 30
0.0
 11
145.329704
 21
116.646216
 31
0.0
  0
LINE
  5
DA4B
  8
ALPHA
 10
147.304403
 20
114.656673
 30
0.0
 11
145.329704
 21
114.656673
 31
0.0
  0
LINE
  5
DA4C
  8
ALPHA
 10
147.285161
 20
116.059633
 30
0.0
 11
145.355542
 21
116.059633
 31
0.0
  0
LINE
  5
DA4D
  8
ALPHA
 10
145.329704
 20
116.646216
 30
0.0
 11
147.304403
 21
116.646216
 31
0.0
  0
POLYLINE
  5
DA4E
  8
ALPHA
 66
     1
 10
0.0
 20
0.0
 30
0.0
 70
   128
  0
VERTEX
  5
DF2D
  8
ALPHA
 10
159.76667
 20
112.66713
 30
0.0
  0
VERTEX
  5
DF2E
  8
ALPHA
 10
159.517159
 20
112.66713
 30
0.0
  0
VERTEX
  5
DF2F
  8
ALPHA
 10
158.902435
 20
112.66713
 30
0.0
  0
SEQEND
  5
DF30
  8
ALPHA
  0
POLYLINE
  5
DA4F
  8
ALPHA
 66
     1
 10
0.0
 20
0.0
 30
0.0
 70
   128
  0
VERTEX
  5
DF31
  8
ALPHA
 10
164.242179
 20
116.646215
 30
0.0
  0
VERTEX
  5
DF32
  8
ALPHA
 10
164.242179
 20
116.335521
 30
0.0
  0
VERTEX
  5
DF33
  8
ALPHA
 10
164.242179
 20
115.651994
 30
0.0
  0
VERTEX
  5
DF34
  8
ALPHA
 10
164.242179
 20
114.968467
 30
0.0
  0
VERTEX
  5
DF35
  8
ALPHA
 10
164.242179
 20
114.657772
 30
0.0
  0
VERTEX
  5
DF36
  8
ALPHA
 10
163.36971
 20
113.964985
 30
0.0
  0
VERTEX
  5
DF37
  8
ALPHA
 10
162.180894
 20
113.323118
 30
0.0
  0
VERTEX
  5
DF38
  8
ALPHA
 10
160.903843
 20
112.850918
 30
0.0
  0
VERTEX
  5
DF39
  8
ALPHA
 10
159.76667
 20
112.66713
 30
0.0
  0
SEQEND
  5
DF3A
  8
ALPHA
  0
LINE
  5
DA50
  8
ALPHA
 10
171.273291
 20
116.028457
 30
0.0
 11
171.273291
 21
53.728457
 31
0.0
  0
DIMENSION
  5
DA51
  8
COTATION1
  2
*D13
 10
206.273291
 20
57.728457
 30
0.0
 11
206.273291
 21
83.228457
 31
0.0
 13
169.923291
 23
108.728457
 33
0.0
 14
169.773291
 24
57.728457
 34
0.0
 50
90.0
  0
LINE
  5
DA54
  8
ALPHA
 10
167.773291
 20
47.728457
 30
0.0
 11
167.773291
 21
39.728457
 31
0.0
  0
LINE
  5
DA55
  8
ALPHA
 10
162.273291
 20
47.728457
 30
0.0
 11
162.273291
 21
39.728457
 31
0.0
  0
DIMENSION
  5
DA56
  8
COTATION1
  2
*D14
 10
196.273291
 20
39.728457
 30
0.0
 11
196.273291
 21
46.728457
 31
0.0
 70
   128
 13
171.273291
 23
53.728457
 33
0.0
 14
167.773291
 24
39.728457
 34
0.0
 50
90.0
1001
ACAD
1000
DSTYLE
1002
{
1070
   287
1070
     5
1070
   287
1070
     5
1070
   287
1070
     5
1070
   287
1070
     5
1070
   287
1070
     5
1070
   279
1070
     2
1070
   175
1070
     0
1070
   172
1070
     0
1070
   282
1070
     0
1070
   281
1070
     0
1002
}
  0
LINE
  5
DA57
  8
ALPHA
 10
155.773291
 20
39.728457
 30
0.0
 11
167.773291
 21
39.728457
 31
0.0
  0
LINE
  5
DA58
  8
ALPHA
 10
168.273291
 20
54.728457
 30
0.0
 11
171.273291
 21
54.728457
 31
0.0
  0
LINE
  5
DA59
  8
AXE
 10
160.773291
 20
57.728457
 30
0.0
 11
169.773291
 21
57.728457
 31
0.0
  0
ARC
  5
DA5A
  8
ALPHA
 10
171.912673
 20
51.192498
 30
0.0
 40
4.854438
 50
148.506617
 51
203.865234
  0
LINE
  5
DA5B
  8
ALPHA
 10
155.773291
 20
49.228457
 30
0.0
 11
167.473291
 21
49.228457
 31
0.0
  0
LINE
  5
DA5C
  8
ALPHA
 10
167.473291
 20
49.228457
 30
0.0
 11
167.773291
 21
47.728457
 31
0.0
  0
LINE
  5
DA5D
  8
ALPHA
 10
162.273291
 20
47.728457
 30
0.0
 11
167.773291
 21
47.728457
 31
0.0
  0
LINE
  5
DA5E
  8
ALPHA
 10
168.273291
 20
58.780776
 30
0.0
 11
155.773291
 21
58.780776
 31
0.0
  0
LINE
  5
DA5F
  8
ALPHA
 10
166.773291
 20
54.728457
 30
0.0
 11
166.773291
 21
58.780776
 31
0.0
  0
LINE
  5
DA60
  8
ALPHA
 10
168.273291
 20
54.728457
 30
0.0
 11
168.273291
 21
58.780776
 31
0.0
  0
LINE
  5
DA61
  8
AXE
 10
165.273291
 20
53.228457
 30
0.0
 11
165.273291
 21
62.228457
 31
0.0
  0
LINE
  5
DA62
  8
ALPHA
 10
166.773291
 20
58.780776
 30
0.0
 11
165.760491
 21
54.728457
 31
0.0
  0
CIRCLE
  5
DA63
  8
POINTILLE_COURT
 10
165.273291
 20
57.728457
 30
0.0
 40
1.5
  0
DIMENSION
  5
DA64
  8
COTATION1
  2
*D15
 10
165.574152
 20
108.943922
 30
0.0
 11
180.095357
 21
130.55409
 31
0.0
 70
   131
  1
2x<>x6.3
 15
167.97243
 25
112.512992
 35
0.0
 40
0.0
1001
ACAD
1000
DSTYLE
1002
{
1070
   288
1070
     1
1002
}
  0
TEXT
  5
DA65
  8
AXE
 10
179.797101
 20
87.228457
 30
0.0
 40
8.0
  1
X
 72
     2
 11
186.273291
 21
87.228457
 31
0.0
  0
DIMENSION
  5
DA66
  8
COTATION1
  2
*D16
 10
196.273291
 20
108.728457
 30
0.0
 11
193.439958
 21
100.330197
 31
0.0
 70
   128
 13
170.923291
 23
110.728457
 33
0.0
 14
169.923291
 24
108.728457
 34
0.0
 50
90.0
1001
ACAD
1000
DSTYLE
1002
{
1070
   287
1070
     5
1070
   287
1070
     5
1070
   287
1070
     5
1070
   279
1070
     2
1070
   289
1070
     3
1002
}
  0
DIMENSION
  5
DA67
  8
COTATION1
  2
*D17
 10
206.273291
 20
108.728457
 30
0.0
 11
206.273291
 21
113.728457
 31
0.0
 70
   128
 13
155.773291
 23
118.728457
 33
0.0
 14
169.923291
 24
108.728457
 34
0.0
 50
90.0
1001
ACAD
1000
DSTYLE
1002
{
1070
   287
1070
     5
1070
   287
1070
     5
1070
   287
1070
     5
1070
   279
1070
     2
1070
   289
1070
     3
1002
}
  0
LINE
  5
DA68
  8
AXE
 10
165.773291
 20
104.578457
 30
0.0
 11
165.773291
 21
112.878457
 31
0.0
  0
LINE
  5
DA69
  8
AXE
 10
166.773291
 20
106.578457
 30
0.0
 11
166.773291
 21
114.878457
 31
0.0
  0
ARC
  5
DA6A
  8
ALPHA
 10
165.773291
 20
108.728457
 30
0.0
 40
2.15
 50
122.336026
 51
270.0
  0
LINE
  5
DA6B
  8
ALPHA
 10
168.923291
 20
110.728457
 30
0.0
 11
168.923291
 21
108.728457
 31
0.0
  0
LINE
  5
DA6C
  8
AXE
 10
169.923291
 20
108.728457
 30
0.0
 11
161.623291
 21
108.728457
 31
0.0
  0
LINE
  5
DA6D
  8
ALPHA
 10
158.084437
 20
109.175673
 30
0.0
 11
156.627602
 21
107.717737
 31
0.0
  0
LINE
  5
DA6E
  8
ALPHA
 10
156.627602
 20
107.717737
 30
0.0
 11
157.200991
 21
107.145998
 31
0.0
  0
LINE
  5
DA6F
  8
ALPHA
 10
157.200991
 20
107.145998
 30
0.0
 11
156.356574
 21
106.301584
 31
0.0
  0
LINE
  5
DA70
  8
ALPHA
 10
155.783188
 20
106.874421
 30
0.0
 11
154.320854
 21
105.41209
 31
0.0
  0
LINE
  5
DA71
  8
ALPHA
 10
155.773291
 20
108.573698
 30
0.0
 11
155.199902
 21
109.145437
 31
0.0
  0
LINE
  5
DA72
  8
ALPHA
 10
155.199902
 20
109.145437
 30
0.0
 11
154.355488
 21
108.302121
 31
0.0
  0
LINE
  5
DA73
  8
ALPHA
 10
154.355488
 20
108.302121
 30
0.0
 11
154.928877
 21
107.729281
 31
0.0
  0
LINE
  5
DA74
  8
ALPHA
 10
156.356574
 20
106.301584
 30
0.0
 11
155.783188
 21
106.874421
 31
0.0
  0
LINE
  5
DA75
  8
ALPHA
 10
154.928877
 20
107.729281
 30
0.0
 11
153.467092
 21
106.266401
 31
0.0
  0
LINE
  5
DA76
  8
ALPHA
 10
157.230126
 20
110.030533
 30
0.0
 11
155.773291
 21
108.573698
 31
0.0
  0
ARC
  5
DA77
  8
ALPHA
 10
166.773291
 20
108.728457
 30
0.0
 40
2.15
 50
270.0
 51
0.0
  0
LINE
  5
DA78
  8
ALPHA
 10
166.773291
 20
106.578457
 30
0.0
 11
165.773291
 21
106.578457
 31
0.0
  0
LINE
  5
DA79
  8
AXE
 10
170.923291
 20
110.728457
 30
0.0
 11
162.623291
 21
110.728457
 31
0.0
  0
LINE
  5
DA7A
  8
ALPHA
 10
164.623291
 20
110.728457
 30
0.0
 11
164.623291
 21
110.545047
 31
0.0
  0
LINE
  5
DA7B
  8
ALPHA
 10
164.242179
 20
114.657771
 30
0.0
 11
166.216878
 21
114.657771
 31
0.0
  0
LINE
  5
DA7C
  8
ALPHA
 10
164.26032
 20
116.059633
 30
0.0
 11
166.19104
 21
116.059633
 31
0.0
  0
LINE
  5
DA7D
  8
ALPHA
 10
166.216878
 20
116.647314
 30
0.0
 11
164.242179
 21
116.647314
 31
0.0
  0
LINE
  5
DA7E
  8
ALPHA
 10
164.242179
 20
116.647314
 30
0.0
 11
164.242179
 21
114.657771
 31
0.0
  0
LINE
  5
DA7F
  8
ALPHA
 10
166.216878
 20
114.657771
 30
0.0
 11
166.216878
 21
116.647314
 31
0.0
  0
ARC
  5
DA80
  8
ALPHA
 10
166.773291
 20
110.728457
 30
0.0
 40
2.15
 50
0.0
 51
180.0
  0
ARC
  5
DA81
  8
ALPHA
 10
170.673291
 20
116.028457
 30
0.0
 40
0.6
 50
0.0
 51
76.445292
  0
VIEWPORT
  5
494D
 67
     1
  8
0
 10
4.995325
 20
6.556512
 30
0.0
 40
22.70986
 41
13.988421
 68
    -1
 69
     1
1001
ACAD
1000
MVIEW
1002
{
1070
    16
1010
0.0
1020
0.0
1030
0.0
1010
0.0
1020
0.0
1030
1.0
1040
0.0
1040
13.988421
1040
4.995325
1040
6.556512
1040
50.0
1040
0.0
1040
0.0
1070
     0
1070
   100
1070
     1
1070
     1
1070
     0
1070
     0
1070
     0
1070
     0
1040
0.0
1040
0.0
1040
0.0
1040
10.0
1040
10.0
1040
10.0
1040
10.0
1070
     0
1002
{
1002
}
1002
}
  0
ENDSEC
  0
EOF
