  0
SECTION
  2
HEADER
  9
$ACADVER
  1
AC1009
  9
$INSBASE
 10
402.590624
 20
-1.041018
 30
0.0
  9
$EXTMIN
 10
172.484767
 20
7.332779
 30
0.0
  9
$EXTMAX
 10
232.270481
 20
200.332779
 30
0.0
  9
$LIMMIN
 10
-407.970438
 20
-367.832444
  9
$LIMMAX
 10
429.804077
 20
234.370848
  9
$ORTHOMODE
 70
     1
  9
$REGENMODE
 70
     1
  9
$FILLMODE
 70
     1
  9
$QTEXTMODE
 70
     0
  9
$MIRRTEXT
 70
     1
  9
$DRAGMODE
 70
     2
  9
$LTSCALE
 40
10.0
  9
$OSMODE
 70
    37
  9
$ATTMODE
 70
     1
  9
$TEXTSIZE
 40
6.0
  9
$TRACEWID
 40
1.0
  9
$TEXTSTYLE
  7
ROMANS
  9
$CLAYER
  8
ALPHA
  9
$CELTYPE
  6
BYLAYER
  9
$CECOLOR
 62
   256
  9
$DIMSCALE
 40
1.0
  9
$DIMASZ
 40
5.0
  9
$DIMEXO
 40
2.0
  9
$DIMDLI
 40
0.38
  9
$DIMRND
 40
0.0
  9
$DIMDLE
 40
0.0
  9
$DIMEXE
 40
2.5
  9
$DIMTP
 40
0.0
  9
$DIMTM
 40
0.0
  9
$DIMTXT
 40
2.5
  9
$DIMCEN
 40
0.0
  9
$DIMTSZ
 40
0.0
  9
$DIMTOL
 70
     0
  9
$DIMLIM
 70
     0
  9
$DIMTIH
 70
     1
  9
$DIMTOH
 70
     1
  9
$DIMSE1
 70
     0
  9
$DIMSE2
 70
     0
  9
$DIMTAD
 70
     1
  9
$DIMZIN
 70
    12
  9
$DIMBLK
  1
OPEN30
  9
$DIMASO
 70
     1
  9
$DIMSHO
 70
     1
  9
$DIMPOST
  1

  9
$DIMAPOST
  1

  9
$DIMALT
 70
     0
  9
$DIMALTD
 70
     2
  9
$DIMALTF
 40
25.4
  9
$DIMLFAC
 40
1.0
  9
$DIMTOFL
 70
     0
  9
$DIMTVP
 40
0.0
  9
$DIMTIX
 70
     0
  9
$DIMSOXD
 70
     0
  9
$DIMSAH
 70
     0
  9
$DIMBLK1
  1

  9
$DIMBLK2
  1

  9
$DIMSTYLE
  2
SC_DEFAUT
  9
$DIMCLRD
 70
     0
  9
$DIMCLRE
 70
     0
  9
$DIMCLRT
 70
     0
  9
$DIMTFAC
 40
1.0
  9
$DIMGAP
 40
2.0
  9
$LUNITS
 70
     2
  9
$LUPREC
 70
     1
  9
$SKETCHINC
 40
0.1
  9
$FILLETRAD
 40
5.0
  9
$AUNITS
 70
     0
  9
$AUPREC
 70
     0
  9
$MENU
  1
acad
  9
$ELEVATION
 40
0.0
  9
$PELEVATION
 40
0.0
  9
$THICKNESS
 40
0.0
  9
$LIMCHECK
 70
     0
  9
$BLIPMODE
 70
     0
  9
$CHAMFERA
 40
0.0
  9
$CHAMFERB
 40
0.0
  9
$SKPOLY
 70
     0
  9
$TDCREATE
 40
2450373.687919
  9
$TDUPDATE
 40
2452850.6356
  9
$TDINDWG
 40
1.588864
  9
$TDUSRTIMER
 40
1.588864
  9
$USRTIMER
 70
     1
  9
$ANGBASE
 50
0.0
  9
$ANGDIR
 70
     0
  9
$PDMODE
 70
    32
  9
$PDSIZE
 40
0.0
  9
$PLINEWID
 40
0.0
  9
$COORDS
 70
     1
  9
$SPLFRAME
 70
     0
  9
$SPLINETYPE
 70
     6
  9
$SPLINESEGS
 70
     8
  9
$ATTDIA
 70
     0
  9
$ATTREQ
 70
     1
  9
$HANDLING
 70
     1
  9
$HANDSEED
  5
12118
  9
$SURFTAB1
 70
     6
  9
$SURFTAB2
 70
     6
  9
$SURFTYPE
 70
     6
  9
$SURFU
 70
     6
  9
$SURFV
 70
     6
  9
$UCSNAME
  2

  9
$UCSORG
 10
0.0
 20
0.0
 30
0.0
  9
$UCSXDIR
 10
1.0
 20
0.0
 30
0.0
  9
$UCSYDIR
 10
0.0
 20
1.0
 30
0.0
  9
$PUCSNAME
  2

  9
$PUCSORG
 10
0.0
 20
0.0
 30
0.0
  9
$PUCSXDIR
 10
1.0
 20
0.0
 30
0.0
  9
$PUCSYDIR
 10
0.0
 20
1.0
 30
0.0
  9
$USERI1
 70
     0
  9
$USERI2
 70
     0
  9
$USERI3
 70
     0
  9
$USERI4
 70
     0
  9
$USERI5
 70
     0
  9
$USERR1
 40
0.0
  9
$USERR2
 40
0.0
  9
$USERR3
 40
0.0
  9
$USERR4
 40
0.0
  9
$USERR5
 40
0.0
  9
$WORLDVIEW
 70
     1
  9
$SHADEDGE
 70
     3
  9
$SHADEDIF
 70
    70
  9
$TILEMODE
 70
     1
  9
$MAXACTVP
 70
    16
  9
$PLIMCHECK
 70
     0
  9
$PEXTMIN
 10
-1.452248
 20
-0.437698
 30
0.0
  9
$PEXTMAX
 10
12.749749
 20
8.310198
 30
0.0
  9
$PLIMMIN
 10
0.0
 20
0.0
  9
$PLIMMAX
 10
12.0
 20
9.0
  9
$UNITMODE
 70
     0
  9
$VISRETAIN
 70
     0
  9
$PLINEGEN
 70
     0
  9
$PSLTSCALE
 70
     0
  0
ENDSEC
  0
SECTION
  2
TABLES
  0
TABLE
  2
VPORT
 70
     2
  0
VPORT
  2
*ACTIVE
 70
     0
 10
0.0
 20
0.0
 11
1.0
 21
1.0
 12
202.380564
 22
103.83803
 13
0.0
 23
0.0
 14
1.0
 24
1.0
 15
10.0
 25
10.0
 16
0.0
 26
0.0
 36
1.0
 17
0.0
 27
0.0
 37
0.0
 40
194.664732
 41
1.56
 42
50.0
 43
0.0
 44
0.0
 50
0.0
 51
0.0
 71
     0
 72
   100
 73
     1
 74
     0
 75
     0
 76
     0
 77
     0
 78
     0
  0
ENDTAB
  0
TABLE
  2
LTYPE
 70
     3
  0
LTYPE
  2
CONTINUOUS
 70
     0
  3
Solid line
 72
    65
 73
     0
 40
0.0
  0
LTYPE
  2
AXES2
 70
     0
  3
___ _ ___ _ ___ _ ___ _ ___ _ ___ _ ___ _ ___ _
 72
    65
 73
     4
 40
1.125
 49
0.75
 49
-0.125
 49
0.125
 49
-0.125
  0
LTYPE
  2
CACHE2
 70
     0
  3
Caché (x.5) _ _ _ _ _ _ _ _ _ _ _ _ _ _ _ _ _
 72
    65
 73
     2
 40
0.1875
 49
0.125
 49
-0.0625
  0
ENDTAB
  0
TABLE
  2
LAYER
 70
     7
  0
LAYER
  2
0
 70
     0
 62
   255
  6
CONTINUOUS
  0
LAYER
  2
COTATION1
 70
     0
 62
     2
  6
CONTINUOUS
  0
LAYER
  2
AXE
 70
     0
 62
    80
  6
AXES2
  0
LAYER
  2
DEFPOINTS
 70
     0
 62
     7
  6
CONTINUOUS
  0
LAYER
  2
ALPHA
 70
     0
 62
   254
  6
CONTINUOUS
  0
LAYER
  2
ALPHA_FIN
 70
     0
 62
   255
  6
CONTINUOUS
  0
LAYER
  2
POINTILLE_COURT
 70
     0
 62
    41
  6
CACHE2
  0
ENDTAB
  0
TABLE
  2
STYLE
 70
     2
  0
STYLE
  2
ROMANS
 70
     0
 40
0.0
 41
1.0
 50
0.0
 71
     0
 42
6.0
  3
romans
  4

  0
STYLE
  2
STANDARD
 70
     0
 40
0.2
 41
1.0
 50
0.0
 71
     0
 42
0.2
  3
txt
  4

  0
ENDTAB
  0
TABLE
  2
VIEW
 70
     0
  0
ENDTAB
  0
TABLE
  2
UCS
 70
     0
  0
ENDTAB
  0
TABLE
  2
APPID
 70
     1
  0
APPID
  2
ACAD
 70
     0
  0
ENDTAB
  0
TABLE
  2
DIMSTYLE
 70
     1
  0
DIMSTYLE
  2
SC_DEFAUT
 70
     0
  3

  4

  5
OPEN30
  6

  7

 40
1.0
 41
5.0
 42
2.0
 43
0.38
 44
2.5
 45
0.0
 46
0.0
 47
0.0
 48
0.0
140
2.5
141
0.0
142
0.0
143
25.4
144
1.0
145
0.0
146
1.0
147
2.0
 71
     0
 72
     0
 73
     1
 74
     1
 75
     0
 76
     0
 77
     1
 78
    12
170
     0
171
     2
172
     0
173
     0
174
     0
175
     0
176
     0
177
     0
178
     0
  0
ENDTAB
  0
ENDSEC
  0
SECTION
  2
BLOCKS
  0
BLOCK
  8
0
  2
$MODEL_SPACE
 70
     0
 10
0.0
 20
0.0
 30
0.0
  3
$MODEL_SPACE
  1

  0
ENDBLK
  5
120B5
  8
0
  0
BLOCK
 67
     1
  8
0
  2
$PAPER_SPACE
 70
     0
 10
0.0
 20
0.0
 30
0.0
  3
$PAPER_SPACE
  1

  0
ENDBLK
  5
120B3
 67
     1
  8
0
  0
BLOCK
  8
0
  2
COTE
 70
     0
 10
0.0
 20
0.0
 30
0.0
  3
COTE
  1

  0
ENDBLK
  5
F
  8
0
  0
BLOCK
  8
0
  2
FOND
 70
     0
 10
0.0
 20
0.0
 30
0.0
  3
FOND
  1

  0
ENDBLK
  5
75
  8
0
  0
BLOCK
  8
0
  2
_OPEN30
 70
     0
 10
0.0
 20
0.0
 30
0.0
  3
_OPEN30
  1

  0
LINE
  5
4B05
  8
COTATION1
 62
     0
 10
-1.0
 20
0.267949
 30
0.0
 11
0.0
 21
0.0
 31
0.0
1001
ACAD
1000
RTLwPs
1070
   158
  0
LINE
  5
4B06
  8
COTATION1
 62
     0
 10
0.0
 20
0.0
 30
0.0
 11
-1.0
 21
-0.267949
 31
0.0
1001
ACAD
1000
RTLwPs
1070
   158
  0
LINE
  5
4B07
  8
COTATION1
 62
     0
 10
0.0
 20
0.0
 30
0.0
 11
-1.0
 21
0.0
 31
0.0
1001
ACAD
1000
RTLwPs
1070
   158
  0
ENDBLK
  5
4B09
  8
0
  0
BLOCK
  8
0
  2
*D3
 70
     1
 10
0.0
 20
0.0
 30
0.0
  3
*D3
  1

  0
LINE
  5
11EF6
  8
COTATION1
 62
     0
 10
189.984767
 20
160.832779
 30
0.0
 11
231.734767
 21
160.832779
 31
0.0
1001
ACAD
1000
RTLwPs
1070
   158
  0
LINE
  5
11EF7
  8
COTATION1
 62
     0
 10
207.502716
 20
44.832779
 30
0.0
 11
231.734767
 21
44.832779
 31
0.0
1001
ACAD
1000
RTLwPs
1070
   158
  0
LINE
  5
11EF8
  8
COTATION1
 62
     0
 10
229.234767
 20
155.832779
 30
0.0
 11
229.234767
 21
106.082779
 31
0.0
1001
ACAD
1000
RTLwPs
1070
   158
  0
LINE
  5
11EF9
  8
COTATION1
 62
     0
 10
229.234767
 20
49.832779
 30
0.0
 11
229.234767
 21
99.582779
 31
0.0
1001
ACAD
1000
RTLwPs
1070
   158
  0
INSERT
  5
11EFA
  8
COTATION1
 62
     0
  2
_OPEN30
 10
229.234767
 20
160.832779
 30
0.0
 41
5.0
 42
5.0
 43
5.0
 50
90.0
1001
ACAD
1000
RTLwPs
1070
   158
  0
INSERT
  5
11EFB
  8
COTATION1
 62
     0
  2
_OPEN30
 10
229.234767
 20
44.832779
 30
0.0
 41
5.0
 42
5.0
 43
5.0
 50
270.0
1001
ACAD
1000
RTLwPs
1070
   158
  0
TEXT
  5
11EFC
  8
COTATION1
 62
     0
 10
225.484767
 20
101.582779
 30
0.0
 40
2.5
  1
116
1001
ACAD
1000
MTEXTBEGIN
1070
    73
1070
     1
1070
    44
1040
1.0
1070
    74
1070
     0
1000
MTEXTEND
1000
MTEXTBEGIN
1070
    73
1070
     1
1070
    44
1040
1.0
1070
    74
1070
     0
1000
MTEXTEND
1000
MTEXTBEGIN
1070
    73
1070
     1
1070
    44
1040
1.0
1070
    74
1070
     0
1000
MTEXTEND
  0
POINT
  5
11EFD
  8
DEFPOINTS
 62
     0
 10
187.984767
 20
160.832779
 30
0.0
  0
POINT
  5
11EFE
  8
DEFPOINTS
 62
     0
 10
205.502716
 20
44.832779
 30
0.0
  0
POINT
  5
11EFF
  8
DEFPOINTS
 62
     0
 10
229.234767
 20
44.832779
 30
0.0
  0
ENDBLK
  5
11259
  8
0
  0
BLOCK
  8
0
  2
*D4
 70
     1
 10
0.0
 20
0.0
 30
0.0
  3
*D4
  1

  0
LINE
  5
11F12
  8
COTATION1
 62
     0
 10
193.234767
 20
64.832779
 30
0.0
 11
193.234767
 21
17.332779
 31
0.0
1001
ACAD
1000
RTLwPs
1070
   158
  0
LINE
  5
11F13
  8
COTATION1
 62
     0
 10
209.234767
 20
64.832779
 30
0.0
 11
209.234767
 21
17.332779
 31
0.0
1001
ACAD
1000
RTLwPs
1070
   158
  0
LINE
  5
11F14
  8
COTATION1
 62
     0
 10
198.234767
 20
19.832779
 30
0.0
 11
204.234767
 21
19.832779
 31
0.0
1001
ACAD
1000
RTLwPs
1070
   158
  0
INSERT
  5
11F15
  8
COTATION1
 62
     0
  2
_OPEN30
 10
193.234767
 20
19.832779
 30
0.0
 41
5.0
 42
5.0
 43
5.0
 50
180.0
1001
ACAD
1000
RTLwPs
1070
   158
  0
INSERT
  5
11F16
  8
COTATION1
 62
     0
  2
_OPEN30
 10
209.234767
 20
19.832779
 30
0.0
 41
5.0
 42
5.0
 43
5.0
1001
ACAD
1000
RTLwPs
1070
   158
  0
TEXT
  5
11F17
  8
COTATION1
 62
     0
 10
198.675243
 20
21.832779
 30
0.0
 40
2.5
  1
16
1001
ACAD
1000
MTEXTBEGIN
1070
    73
1070
     1
1070
    44
1040
1.0
1070
    74
1070
     0
1000
MTEXTEND
1000
MTEXTBEGIN
1070
    73
1070
     1
1070
    44
1040
1.0
1070
    74
1070
     0
1000
MTEXTEND
1000
MTEXTBEGIN
1070
    73
1070
     1
1070
    44
1040
1.0
1070
    74
1070
     0
1000
MTEXTEND
  0
POINT
  5
11F18
  8
DEFPOINTS
 62
     0
 10
193.234767
 20
66.832779
 30
0.0
  0
POINT
  5
11F19
  8
DEFPOINTS
 62
     0
 10
209.234767
 20
66.832779
 30
0.0
  0
POINT
  5
11F1A
  8
DEFPOINTS
 62
     0
 10
209.234767
 20
19.832779
 30
0.0
  0
ENDBLK
  5
112CF
  8
0
  0
BLOCK
  8
0
  2
*D5
 70
     1
 10
0.0
 20
0.0
 30
0.0
  3
*D5
  1

  0
LINE
  5
11F65
  8
COTATION1
 62
     0
 10
176.834767
 20
124.432779
 30
0.0
 11
176.834767
 21
7.332779
 31
0.0
1001
ACAD
1000
RTLwPs
1070
   158
  0
LINE
  5
11F66
  8
COTATION1
 62
     0
 10
209.234767
 20
64.832779
 30
0.0
 11
209.234767
 21
7.332779
 31
0.0
1001
ACAD
1000
RTLwPs
1070
   158
  0
LINE
  5
11F67
  8
COTATION1
 62
     0
 10
181.834767
 20
9.832779
 30
0.0
 11
204.234767
 21
9.832779
 31
0.0
1001
ACAD
1000
RTLwPs
1070
   158
  0
INSERT
  5
11F68
  8
COTATION1
 62
     0
  2
_OPEN30
 10
176.834767
 20
9.832779
 30
0.0
 41
5.0
 42
5.0
 43
5.0
 50
180.0
1001
ACAD
1000
RTLwPs
1070
   158
  0
INSERT
  5
11F69
  8
COTATION1
 62
     0
  2
_OPEN30
 10
209.234767
 20
9.832779
 30
0.0
 41
5.0
 42
5.0
 43
5.0
1001
ACAD
1000
RTLwPs
1070
   158
  0
TEXT
  5
11F6A
  8
COTATION1
 62
     0
 10
188.808576
 20
11.832779
 30
0.0
 40
2.5
  1
32.4
1001
ACAD
1000
MTEXTBEGIN
1070
    73
1070
     1
1070
    44
1040
1.0
1070
    74
1070
     0
1000
MTEXTEND
1000
MTEXTBEGIN
1070
    73
1070
     1
1070
    44
1040
1.0
1070
    74
1070
     0
1000
MTEXTEND
1000
MTEXTBEGIN
1070
    73
1070
     1
1070
    44
1040
1.0
1070
    74
1070
     0
1000
MTEXTEND
  0
POINT
  5
11F6B
  8
DEFPOINTS
 62
     0
 10
176.834767
 20
126.432779
 30
0.0
  0
POINT
  5
11F6C
  8
DEFPOINTS
 62
     0
 10
209.234767
 20
66.832779
 30
0.0
  0
POINT
  5
11F6D
  8
DEFPOINTS
 62
     0
 10
209.234767
 20
9.832779
 30
0.0
  0
ENDBLK
  5
11E97
  8
0
  0
BLOCK
  8
0
  2
*D6
 70
     1
 10
0.0
 20
0.0
 30
0.0
  3
*D6
  1

  0
LINE
  5
11F2E
  8
COTATION1
 62
     0
 10
178.234767
 20
167.832779
 30
0.0
 11
178.234767
 21
198.332779
 31
0.0
1001
ACAD
1000
RTLwPs
1070
   158
  0
LINE
  5
11F2F
  8
COTATION1
 62
     0
 10
209.234767
 20
134.833402
 30
0.0
 11
209.234767
 21
198.332779
 31
0.0
1001
ACAD
1000
RTLwPs
1070
   158
  0
LINE
  5
11F30
  8
COTATION1
 62
     0
 10
183.234767
 20
195.832779
 30
0.0
 11
204.234767
 21
195.832779
 31
0.0
1001
ACAD
1000
RTLwPs
1070
   158
  0
INSERT
  5
11F31
  8
COTATION1
 62
     0
  2
_OPEN30
 10
178.234767
 20
195.832779
 30
0.0
 41
5.0
 42
5.0
 43
5.0
 50
180.0
1001
ACAD
1000
RTLwPs
1070
   158
  0
INSERT
  5
11F32
  8
COTATION1
 62
     0
  2
_OPEN30
 10
209.234767
 20
195.832779
 30
0.0
 41
5.0
 42
5.0
 43
5.0
1001
ACAD
1000
RTLwPs
1070
   158
  0
TEXT
  5
11F33
  8
COTATION1
 62
     0
 10
191.710958
 20
197.832779
 30
0.0
 40
2.5
  1
31
1001
ACAD
1000
MTEXTBEGIN
1070
    73
1070
     1
1070
    44
1040
1.0
1070
    74
1070
     0
1000
MTEXTEND
1000
MTEXTBEGIN
1070
    73
1070
     1
1070
    44
1040
1.0
1070
    74
1070
     0
1000
MTEXTEND
1000
MTEXTBEGIN
1070
    73
1070
     1
1070
    44
1040
1.0
1070
    74
1070
     0
1000
MTEXTEND
  0
POINT
  5
11F34
  8
DEFPOINTS
 62
     0
 10
178.234767
 20
165.832779
 30
0.0
  0
POINT
  5
11F35
  8
DEFPOINTS
 62
     0
 10
209.234767
 20
132.833402
 30
0.0
  0
POINT
  5
11F36
  8
DEFPOINTS
 62
     0
 10
209.234767
 20
195.832779
 30
0.0
  0
ENDBLK
  5
11EA3
  8
0
  0
BLOCK
  8
0
  2
*D7
 70
     1
 10
0.0
 20
0.0
 30
0.0
  3
*D7
  1

  0
LINE
  5
11F37
  8
COTATION1
 62
     0
 10
185.234767
 20
167.832779
 30
0.0
 11
185.234767
 21
188.332779
 31
0.0
1001
ACAD
1000
RTLwPs
1070
   158
  0
LINE
  5
11F38
  8
COTATION1
 62
     0
 10
209.234767
 20
134.833402
 30
0.0
 11
209.234767
 21
188.332779
 31
0.0
1001
ACAD
1000
RTLwPs
1070
   158
  0
LINE
  5
11F39
  8
COTATION1
 62
     0
 10
190.234767
 20
185.832779
 30
0.0
 11
204.234767
 21
185.832779
 31
0.0
1001
ACAD
1000
RTLwPs
1070
   158
  0
INSERT
  5
11F3A
  8
COTATION1
 62
     0
  2
_OPEN30
 10
185.234767
 20
185.832779
 30
0.0
 41
5.0
 42
5.0
 43
5.0
 50
180.0
1001
ACAD
1000
RTLwPs
1070
   158
  0
INSERT
  5
11F3B
  8
COTATION1
 62
     0
  2
_OPEN30
 10
209.234767
 20
185.832779
 30
0.0
 41
5.0
 42
5.0
 43
5.0
1001
ACAD
1000
RTLwPs
1070
   158
  0
TEXT
  5
11F3C
  8
COTATION1
 62
     0
 10
194.794291
 20
187.832779
 30
0.0
 40
2.5
  1
24
1001
ACAD
1000
MTEXTBEGIN
1070
    73
1070
     1
1070
    44
1040
1.0
1070
    74
1070
     0
1000
MTEXTEND
1000
MTEXTBEGIN
1070
    73
1070
     1
1070
    44
1040
1.0
1070
    74
1070
     0
1000
MTEXTEND
1000
MTEXTBEGIN
1070
    73
1070
     1
1070
    44
1040
1.0
1070
    74
1070
     0
1000
MTEXTEND
  0
POINT
  5
11F3D
  8
DEFPOINTS
 62
     0
 10
185.234767
 20
165.832779
 30
0.0
  0
POINT
  5
11F3E
  8
DEFPOINTS
 62
     0
 10
209.234767
 20
132.833402
 30
0.0
  0
POINT
  5
11F3F
  8
DEFPOINTS
 62
     0
 10
209.234767
 20
185.832779
 30
0.0
  0
ENDBLK
  5
11EAF
  8
0
  0
BLOCK
  8
0
  2
*D8
 70
     1
 10
0.0
 20
0.0
 30
0.0
  3
*D8
  1

  0
LINE
  5
11F24
  8
COTATION1
 62
     0
 10
182.484767
 20
162.832779
 30
0.0
 11
182.484767
 21
178.332779
 31
0.0
1001
ACAD
1000
RTLwPs
1070
   158
  0
LINE
  5
11F25
  8
COTATION1
 62
     0
 10
187.984767
 20
162.832779
 30
0.0
 11
187.984767
 21
178.332779
 31
0.0
1001
ACAD
1000
RTLwPs
1070
   158
  0
LINE
  5
11F26
  8
COTATION1
 62
     0
 10
177.484767
 20
175.832779
 30
0.0
 11
172.484767
 21
175.832779
 31
0.0
1001
ACAD
1000
RTLwPs
1070
   158
  0
LINE
  5
11F27
  8
COTATION1
 62
     0
 10
192.984767
 20
175.832779
 30
0.0
 11
207.222863
 21
175.832779
 31
0.0
1001
ACAD
1000
RTLwPs
1070
   158
  0
INSERT
  5
11F28
  8
COTATION1
 62
     0
  2
_OPEN30
 10
182.484767
 20
175.832779
 30
0.0
 41
5.0
 42
5.0
 43
5.0
1001
ACAD
1000
RTLwPs
1070
   158
  0
INSERT
  5
11F29
  8
COTATION1
 62
     0
  2
_OPEN30
 10
187.984767
 20
175.832779
 30
0.0
 41
5.0
 42
5.0
 43
5.0
 50
180.0
1001
ACAD
1000
RTLwPs
1070
   158
  0
TEXT
  5
11F2A
  8
COTATION1
 62
     0
 10
199.627625
 20
177.832779
 30
0.0
 40
2.5
  1
5.5
1001
ACAD
1000
MTEXTBEGIN
1070
    73
1070
     1
1070
    44
1040
1.0
1070
    74
1070
     0
1000
MTEXTEND
1000
MTEXTBEGIN
1070
    73
1070
     1
1070
    44
1040
1.0
1070
    74
1070
     0
1000
MTEXTEND
1000
MTEXTBEGIN
1070
    73
1070
     1
1070
    44
1040
1.0
1070
    74
1070
     0
1000
MTEXTEND
  0
POINT
  5
11F2B
  8
DEFPOINTS
 62
     0
 10
182.484767
 20
160.832779
 30
0.0
  0
POINT
  5
11F2C
  8
DEFPOINTS
 62
     0
 10
187.984767
 20
160.832779
 30
0.0
  0
POINT
  5
11F2D
  8
DEFPOINTS
 62
     0
 10
187.984767
 20
175.832779
 30
0.0
  0
ENDBLK
  5
11EBC
  8
0
  0
ENDSEC
  0
SECTION
  2
ENTITIES
  0
INSERT
  5
A
  8
0
  2
COTE
 10
0.0
 20
0.0
 30
0.0
  0
INSERT
  5
17
  8
0
  2
COTE
 10
284.010391
 20
6.373258
 30
0.0
  0
INSERT
  5
72
  8
0
  2
FOND
 10
0.0
 20
0.0
 30
0.0
  0
LINE
  5
111B8
  8
AXE
 10
201.234767
 20
142.232779
 30
0.0
 11
201.234767
 21
29.832779
 31
0.0
  0
DIMENSION
  5
111BB
  8
COTATION1
  2
*D3
 10
229.234767
 20
44.832779
 30
0.0
 11
229.234767
 21
102.832779
 31
0.0
 13
187.984767
 23
160.832779
 33
0.0
 14
205.502716
 24
44.832779
 34
0.0
 50
90.0
  0
DIMENSION
  5
11208
  8
COTATION1
  2
*D4
 10
209.234767
 20
19.832779
 30
0.0
 11
201.234767
 21
23.082779
 31
0.0
 13
193.234767
 23
66.832779
 33
0.0
 14
209.234767
 24
66.832779
 34
0.0
  0
LINE
  5
11209
  8
AXE
 10
188.234767
 20
91.832779
 30
0.0
 11
221.734767
 21
91.832779
 31
0.0
  0
LINE
  5
11210
  8
ALPHA
 10
209.234767
 20
66.832779
 30
0.0
 11
209.234767
 21
116.832779
 31
0.0
  0
LINE
  5
11211
  8
ALPHA
 10
193.234767
 20
66.832779
 30
0.0
 11
193.234767
 21
116.832779
 31
0.0
  0
LINE
  5
11212
  8
ALPHA_FIN
 10
206.161257
 20
56.832779
 30
0.0
 11
206.161257
 21
45.212988
 31
0.0
  0
LINE
  5
11213
  8
ALPHA
 10
207.234767
 20
45.832779
 30
0.0
 11
207.234767
 21
56.832779
 31
0.0
  0
LINE
  5
11214
  8
ALPHA_FIN
 10
196.308276
 20
56.832779
 30
0.0
 11
196.308276
 21
45.212988
 31
0.0
  0
LINE
  5
11215
  8
ALPHA
 10
195.234767
 20
45.832779
 30
0.0
 11
195.234767
 21
56.832779
 31
0.0
  0
TEXT
  5
11216
  8
AXE
 10
193.758576
 20
29.948358
 30
0.0
 40
8.0
  1
Y
 72
     2
 11
200.234767
 21
29.948358
 31
0.0
  0
LINE
  5
11217
  8
ALPHA
 10
201.234767
 20
44.832779
 30
0.0
 11
196.966817
 21
44.832779
 31
0.0
  0
LINE
  5
11218
  8
ALPHA
 10
201.234767
 20
45.832779
 30
0.0
 11
195.234767
 21
45.832779
 31
0.0
  0
LINE
  5
11219
  8
ALPHA
 10
195.234767
 20
45.832779
 30
0.0
 11
196.966817
 21
44.832779
 31
0.0
  0
LINE
  5
1121A
  8
ALPHA
 10
207.234767
 20
45.832779
 30
0.0
 11
205.502716
 21
44.832779
 31
0.0
  0
LINE
  5
1121B
  8
ALPHA
 10
201.234767
 20
44.832779
 30
0.0
 11
205.502716
 21
44.832779
 31
0.0
  0
LINE
  5
1121C
  8
ALPHA
 10
201.234767
 20
45.832779
 30
0.0
 11
207.234767
 21
45.832779
 31
0.0
  0
LINE
  5
1121D
  8
ALPHA
 10
193.234767
 20
68.832779
 30
0.0
 11
209.234767
 21
68.832779
 31
0.0
  0
LINE
  5
1121E
  8
ALPHA
 10
193.234767
 20
66.832779
 30
0.0
 11
209.234767
 21
66.832779
 31
0.0
  0
LINE
  5
1121F
  8
ALPHA
 10
208.234767
 20
66.832779
 30
0.0
 11
208.234767
 21
57.832779
 31
0.0
  0
LINE
  5
11220
  8
ALPHA
 10
194.234767
 20
66.832779
 30
0.0
 11
194.234767
 21
57.832779
 31
0.0
  0
LINE
  5
11221
  8
ALPHA
 10
194.234767
 20
57.832779
 30
0.0
 11
201.234767
 21
57.832779
 31
0.0
  0
LINE
  5
11222
  8
ALPHA
 10
195.234767
 20
56.832779
 30
0.0
 11
201.234767
 21
56.832779
 31
0.0
  0
LINE
  5
11223
  8
ALPHA
 10
195.234767
 20
56.832779
 30
0.0
 11
194.234767
 21
57.832779
 31
0.0
  0
LINE
  5
11224
  8
ALPHA
 10
207.234767
 20
56.832779
 30
0.0
 11
208.234767
 21
57.832779
 31
0.0
  0
LINE
  5
11225
  8
ALPHA
 10
208.234767
 20
57.832779
 30
0.0
 11
201.234767
 21
57.832779
 31
0.0
  0
LINE
  5
11226
  8
ALPHA
 10
207.234767
 20
56.832779
 30
0.0
 11
201.234767
 21
56.832779
 31
0.0
  0
TEXT
  5
11227
  8
AXE
 10
215.258576
 20
92.832779
 30
0.0
 40
8.0
  1
Z
 72
     2
 11
221.734767
 21
92.832779
 31
0.0
  0
LINE
  5
11228
  8
ALPHA
 10
193.234767
 20
80.832779
 30
0.0
 11
209.234767
 21
80.832779
 31
0.0
  0
POLYLINE
  5
11E50
  8
ALPHA
 66
     1
 10
0.0
 20
0.0
 30
0.0
 70
   128
  0
VERTEX
  5
120BB
  8
ALPHA
 10
209.234767
 20
132.833402
 30
0.0
  0
VERTEX
  5
120BC
  8
ALPHA
 10
209.234767
 20
132.653707
 30
0.0
  0
VERTEX
  5
120BD
  8
ALPHA
 10
209.234767
 20
132.145875
 30
0.0
  0
VERTEX
  5
120BE
  8
ALPHA
 10
209.234767
 20
130.333304
 30
0.0
  0
VERTEX
  5
120BF
  8
ALPHA
 10
209.234767
 20
127.770704
 30
0.0
  0
VERTEX
  5
120C0
  8
ALPHA
 10
209.234767
 20
124.83309
 30
0.0
  0
VERTEX
  5
120C1
  8
ALPHA
 10
209.234767
 20
121.895476
 30
0.0
  0
VERTEX
  5
120C2
  8
ALPHA
 10
209.234767
 20
119.332876
 30
0.0
  0
VERTEX
  5
120C3
  8
ALPHA
 10
209.234767
 20
117.520305
 30
0.0
  0
VERTEX
  5
120C4
  8
ALPHA
 10
209.234767
 20
117.012473
 30
0.0
  0
VERTEX
  5
120C5
  8
ALPHA
 10
209.234767
 20
116.832778
 30
0.0
  0
SEQEND
  5
120C6
  8
ALPHA
  0
LINE
  5
11E51
  8
ALPHA
 10
193.234765
 20
116.832778
 30
0.0
 11
193.234765
 21
117.633399
 31
0.0
  0
POLYLINE
  5
11E52
  8
ALPHA
 66
     1
 10
0.0
 20
0.0
 30
0.0
 70
   128
  0
VERTEX
  5
120C7
  8
ALPHA
 10
201.234143
 20
123.239008
 30
0.0
  0
VERTEX
  5
120C8
  8
ALPHA
 10
199.894315
 20
122.998142
 30
0.0
  0
VERTEX
  5
120C9
  8
ALPHA
 10
198.633977
 20
122.363131
 30
0.0
  0
VERTEX
  5
120CA
  8
ALPHA
 10
196.387024
 20
120.436204
 30
0.0
  0
VERTEX
  5
120CB
  8
ALPHA
 10
194.563786
 20
118.509276
 30
0.0
  0
VERTEX
  5
120CC
  8
ALPHA
 10
193.833092
 20
117.874265
 30
0.0
  0
VERTEX
  5
120CD
  8
ALPHA
 10
193.234765
 20
117.633399
 30
0.0
  0
SEQEND
  5
120CE
  8
ALPHA
  0
POLYLINE
  5
11E53
  8
ALPHA
 66
     1
 10
0.0
 20
0.0
 30
0.0
 70
   128
210
0.0
220
0.0
230
-1.0
  0
VERTEX
  5
120CF
  8
ALPHA
 10
-207.234144
 20
134.832779
 30
0.0
  0
VERTEX
  5
120D0
  8
ALPHA
 10
-208.012775
 20
134.675633
 30
0.0
  0
VERTEX
  5
120D1
  8
ALPHA
 10
-208.648708
 20
134.247109
 30
0.0
  0
VERTEX
  5
120D2
  8
ALPHA
 10
-209.077515
 20
133.611575
 30
0.0
  0
VERTEX
  5
120D3
  8
ALPHA
 10
-209.234767
 20
132.833402
 30
0.0
  0
SEQEND
  5
120D4
  8
ALPHA
  0
POLYLINE
  5
11E54
  8
ALPHA
 66
     1
 10
0.0
 20
0.0
 30
0.0
 70
   128
  0
VERTEX
  5
120D5
  8
ALPHA
 10
209.234767
 20
116.832778
 30
0.0
  0
VERTEX
  5
120D6
  8
ALPHA
 10
209.05508
 20
116.832778
 30
0.0
  0
VERTEX
  5
120D7
  8
ALPHA
 10
208.547267
 20
116.832778
 30
0.0
  0
VERTEX
  5
120D8
  8
ALPHA
 10
206.734767
 20
116.832778
 30
0.0
  0
VERTEX
  5
120D9
  8
ALPHA
 10
204.172267
 20
116.832778
 30
0.0
  0
VERTEX
  5
120DA
  8
ALPHA
 10
201.234766
 20
116.832778
 30
0.0
  0
VERTEX
  5
120DB
  8
ALPHA
 10
198.297266
 20
116.832778
 30
0.0
  0
VERTEX
  5
120DC
  8
ALPHA
 10
195.734766
 20
116.832778
 30
0.0
  0
VERTEX
  5
120DD
  8
ALPHA
 10
193.922265
 20
116.832778
 30
0.0
  0
VERTEX
  5
120DE
  8
ALPHA
 10
193.414453
 20
116.832778
 30
0.0
  0
VERTEX
  5
120DF
  8
ALPHA
 10
193.234765
 20
116.832778
 30
0.0
  0
SEQEND
  5
120E0
  8
ALPHA
  0
POLYLINE
  5
11E55
  8
ALPHA
 66
     1
 10
0.0
 20
0.0
 30
0.0
 70
   128
  0
VERTEX
  5
120E1
  8
ALPHA
 10
177.819814
 20
130.316268
 30
0.0
  0
VERTEX
  5
120E2
  8
ALPHA
 10
178.101161
 20
130.334376
 30
0.0
  0
VERTEX
  5
120E3
  8
ALPHA
 10
178.720125
 20
130.374212
 30
0.0
  0
VERTEX
  5
120E4
  8
ALPHA
 10
179.339089
 20
130.414049
 30
0.0
  0
VERTEX
  5
120E5
  8
ALPHA
 10
179.620437
 20
130.432156
 30
0.0
  0
SEQEND
  5
120E6
  8
ALPHA
  0
POLYLINE
  5
11E56
  8
ALPHA
 66
     1
 10
0.0
 20
0.0
 30
0.0
 70
   128
  0
VERTEX
  5
120E7
  8
ALPHA
 10
179.620437
 20
122.431532
 30
0.0
  0
VERTEX
  5
120E8
  8
ALPHA
 10
179.339089
 20
122.449737
 30
0.0
  0
VERTEX
  5
120E9
  8
ALPHA
 10
178.720125
 20
122.489788
 30
0.0
  0
VERTEX
  5
120EA
  8
ALPHA
 10
178.101161
 20
122.529838
 30
0.0
  0
VERTEX
  5
120EB
  8
ALPHA
 10
177.819814
 20
122.548043
 30
0.0
  0
SEQEND
  5
120EC
  8
ALPHA
  0
POLYLINE
  5
11E57
  8
ALPHA
 66
     1
 10
0.0
 20
0.0
 30
0.0
 70
   128
  0
VERTEX
  5
120ED
  8
ALPHA
 10
182.120126
 20
117.633399
 30
0.0
  0
VERTEX
  5
120EE
  8
ALPHA
 10
182.120126
 20
117.826557
 30
0.0
  0
VERTEX
  5
120EF
  8
ALPHA
 10
182.120126
 20
118.372435
 30
0.0
  0
VERTEX
  5
120F0
  8
ALPHA
 10
182.120126
 20
120.320802
 30
0.0
  0
VERTEX
  5
120F1
  8
ALPHA
 10
182.120126
 20
123.075391
 30
0.0
  0
VERTEX
  5
120F2
  8
ALPHA
 10
182.120126
 20
126.233089
 30
0.0
  0
VERTEX
  5
120F3
  8
ALPHA
 10
182.120126
 20
129.390788
 30
0.0
  0
VERTEX
  5
120F4
  8
ALPHA
 10
182.120126
 20
132.145376
 30
0.0
  0
VERTEX
  5
120F5
  8
ALPHA
 10
182.120126
 20
134.093743
 30
0.0
  0
VERTEX
  5
120F6
  8
ALPHA
 10
182.120126
 20
134.639622
 30
0.0
  0
VERTEX
  5
120F7
  8
ALPHA
 10
182.120126
 20
134.832779
 30
0.0
  0
SEQEND
  5
120F8
  8
ALPHA
  0
POLYLINE
  5
11E58
  8
ALPHA
 66
     1
 10
0.0
 20
0.0
 30
0.0
 70
   128
  0
VERTEX
  5
120F9
  8
ALPHA
 10
179.620437
 20
130.432156
 30
0.0
  0
VERTEX
  5
120FA
  8
ALPHA
 10
179.620437
 20
130.088379
 30
0.0
  0
VERTEX
  5
120FB
  8
ALPHA
 10
179.620437
 20
129.182059
 30
0.0
  0
VERTEX
  5
120FC
  8
ALPHA
 10
179.620437
 20
126.431844
 30
0.0
  0
VERTEX
  5
120FD
  8
ALPHA
 10
179.620437
 20
123.68163
 30
0.0
  0
VERTEX
  5
120FE
  8
ALPHA
 10
179.620437
 20
122.775309
 30
0.0
  0
VERTEX
  5
120FF
  8
ALPHA
 10
179.620437
 20
122.431532
 30
0.0
  0
SEQEND
  5
12100
  8
ALPHA
  0
POLYLINE
  5
11E59
  8
ALPHA
 66
     1
 10
0.0
 20
0.0
 30
0.0
 70
   128
  0
VERTEX
  5
12101
  8
ALPHA
 10
193.234765
 20
117.633399
 30
0.0
  0
VERTEX
  5
12102
  8
ALPHA
 10
192.757183
 20
117.633399
 30
0.0
  0
VERTEX
  5
12103
  8
ALPHA
 10
191.498103
 20
117.633399
 30
0.0
  0
VERTEX
  5
12104
  8
ALPHA
 10
187.677445
 20
117.633399
 30
0.0
  0
VERTEX
  5
12105
  8
ALPHA
 10
183.856788
 20
117.633399
 30
0.0
  0
VERTEX
  5
12106
  8
ALPHA
 10
182.597708
 20
117.633399
 30
0.0
  0
VERTEX
  5
12107
  8
ALPHA
 10
182.120126
 20
117.633399
 30
0.0
  0
SEQEND
  5
12108
  8
ALPHA
  0
POLYLINE
  5
11E5A
  8
ALPHA
 66
     1
 10
0.0
 20
0.0
 30
0.0
 70
   128
  0
VERTEX
  5
12109
  8
ALPHA
 10
182.120126
 20
134.832779
 30
0.0
  0
VERTEX
  5
1210A
  8
ALPHA
 10
182.402168
 20
134.832779
 30
0.0
  0
VERTEX
  5
1210B
  8
ALPHA
 10
183.199244
 20
134.832779
 30
0.0
  0
VERTEX
  5
1210C
  8
ALPHA
 10
184.437777
 20
134.832779
 30
0.0
  0
VERTEX
  5
1210D
  8
ALPHA
 10
186.044191
 20
134.832779
 30
0.0
  0
VERTEX
  5
1210E
  8
ALPHA
 10
190.066358
 20
134.832779
 30
0.0
  0
VERTEX
  5
1210F
  8
ALPHA
 10
194.677135
 20
134.832779
 30
0.0
  0
VERTEX
  5
12110
  8
ALPHA
 10
199.287912
 20
134.832779
 30
0.0
  0
VERTEX
  5
12111
  8
ALPHA
 10
203.310079
 20
134.832779
 30
0.0
  0
VERTEX
  5
12112
  8
ALPHA
 10
204.916493
 20
134.832779
 30
0.0
  0
VERTEX
  5
12113
  8
ALPHA
 10
206.155026
 20
134.832779
 30
0.0
  0
VERTEX
  5
12114
  8
ALPHA
 10
206.952102
 20
134.832779
 30
0.0
  0
VERTEX
  5
12115
  8
ALPHA
 10
207.234144
 20
134.832779
 30
0.0
  0
SEQEND
  5
12116
  8
ALPHA
  0
LINE
  5
11E5B
  8
ALPHA
 10
180.119503
 20
139.059329
 30
0.0
 11
180.119503
 21
118.33496
 31
0.0
  0
LINE
  5
11E5C
  8
ALPHA
 10
181.919503
 20
138.871868
 30
0.0
 11
181.919503
 21
118.33496
 31
0.0
  0
LINE
  5
11E5D
  8
ALPHA
 10
179.620437
 20
132.930598
 30
0.0
 11
179.620437
 21
119.931844
 31
0.0
  0
LINE
  5
11E5E
  8
ALPHA
 10
180.119503
 20
119.931844
 30
0.0
 11
180.119503
 21
132.930598
 31
0.0
  0
LINE
  5
11E5F
  8
ALPHA
 10
182.120126
 20
121.43278
 30
0.0
 11
182.120126
 21
131.432781
 31
0.0
  0
LINE
  5
11E60
  8
ALPHA
 10
180.119503
 20
131.432781
 30
0.0
 11
180.119503
 21
121.43278
 31
0.0
  0
LINE
  5
11E61
  8
ALPHA
 10
180.119503
 20
121.43278
 30
0.0
 11
182.120126
 21
121.43278
 31
0.0
  0
LINE
  5
11E62
  8
ALPHA
 10
181.919503
 20
118.33496
 30
0.0
 11
180.119503
 21
118.33496
 31
0.0
  0
LINE
  5
11E63
  8
ALPHA
 10
179.620437
 20
119.931844
 30
0.0
 11
180.119503
 21
119.931844
 31
0.0
  0
LINE
  5
11E64
  8
ALPHA
 10
193.234767
 20
114.832779
 30
0.0
 11
209.234767
 21
114.832779
 31
0.0
  0
LINE
  5
11E65
  8
ALPHA
 10
209.234767
 20
116.832779
 30
0.0
 11
193.234767
 21
116.832779
 31
0.0
  0
LINE
  5
11E66
  8
ALPHA
 10
193.234767
 20
114.832779
 30
0.0
 11
209.234767
 21
114.832779
 31
0.0
  0
LINE
  5
11E67
  8
ALPHA
 10
193.234767
 20
116.832779
 30
0.0
 11
209.234767
 21
116.832779
 31
0.0
  0
DIMENSION
  5
11E68
  8
COTATION1
  2
*D7
 10
209.234767
 20
185.832779
 30
0.0
 11
197.234767
 21
189.082779
 31
0.0
 13
185.234767
 23
165.832779
 33
0.0
 14
209.234767
 24
132.833402
 34
0.0
  0
DIMENSION
  5
11E69
  8
COTATION1
  2
*D6
 10
209.234767
 20
195.832779
 30
0.0
 11
193.734767
 21
199.082779
 31
0.0
 13
178.234767
 23
165.832779
 33
0.0
 14
209.234767
 24
132.833402
 34
0.0
  0
DIMENSION
  5
11E6A
  8
COTATION1
  2
*D8
 10
187.984767
 20
175.832779
 30
0.0
 11
202.603815
 21
175.832779
 31
0.0
 70
   128
 13
182.484767
 23
160.832779
 33
0.0
 14
187.984767
 24
160.832779
 34
0.0
  0
LINE
  5
11E6B
  8
ALPHA
 10
201.234145
 20
123.239006
 30
0.0
 11
182.249099
 21
123.239006
 31
0.0
  0
LINE
  5
11E6C
  8
AXE
 10
185.234767
 20
139.832779
 30
0.0
 11
185.234767
 21
165.832779
 31
0.0
  0
LINE
  5
11E6D
  8
ALPHA
 10
189.784767
 20
143.645318
 30
0.0
 11
189.784767
 21
159.332779
 31
0.0
  0
LINE
  5
11E6E
  8
ALPHA
 10
187.984767
 20
143.832779
 30
0.0
 11
187.984767
 21
160.832779
 31
0.0
  0
LINE
  5
11E6F
  8
ALPHA
 10
182.484767
 20
144.832779
 30
0.0
 11
182.484767
 21
160.832779
 31
0.0
  0
LINE
  5
11E70
  8
POINTILLE_COURT
 10
180.984767
 20
144.832779
 30
0.0
 11
180.984767
 21
160.832779
 31
0.0
  0
LINE
  5
11E71
  8
AXE
 10
178.234767
 20
139.832779
 30
0.0
 11
178.234767
 21
165.832779
 31
0.0
  0
LINE
  5
11E72
  8
POINTILLE_COURT
 10
175.484767
 20
144.832779
 30
0.0
 11
175.484767
 21
160.832779
 31
0.0
  0
LINE
  5
11E73
  8
ALPHA
 10
180.119503
 20
124.086984
 30
0.0
 11
182.120126
 21
124.086984
 31
0.0
  0
LINE
  5
11E74
  8
ALPHA
 10
180.119503
 20
124.982311
 30
0.0
 11
182.120126
 21
124.982311
 31
0.0
  0
LINE
  5
11E75
  8
ALPHA
 10
180.119503
 20
125.87826
 30
0.0
 11
182.120126
 21
125.87826
 31
0.0
  0
LINE
  5
11E76
  8
ALPHA
 10
180.119503
 20
121.888231
 30
0.0
 11
182.120126
 21
121.888231
 31
0.0
  0
LINE
  5
11E77
  8
ALPHA
 10
180.119503
 20
122.527482
 30
0.0
 11
182.120126
 21
122.527482
 31
0.0
  0
LINE
  5
11E78
  8
ALPHA
 10
180.119503
 20
123.189788
 30
0.0
 11
182.120126
 21
123.189788
 31
0.0
  0
LINE
  5
11E79
  8
ALPHA
 10
180.119503
 20
130.976082
 30
0.0
 11
182.120126
 21
130.976082
 31
0.0
  0
LINE
  5
11E7A
  8
ALPHA
 10
182.120126
 20
131.432781
 30
0.0
 11
180.119503
 21
131.432781
 31
0.0
  0
LINE
  5
11E7B
  8
ALPHA
 10
180.119503
 20
130.336831
 30
0.0
 11
182.120126
 21
130.336831
 31
0.0
  0
LINE
  5
11E7C
  8
ALPHA
 10
180.119503
 20
129.675769
 30
0.0
 11
182.120126
 21
129.675769
 31
0.0
  0
LINE
  5
11E7D
  8
ALPHA
 10
180.119503
 20
128.778572
 30
0.0
 11
182.120126
 21
128.778572
 31
0.0
  0
LINE
  5
11E7E
  8
ALPHA
 10
180.119503
 20
127.881375
 30
0.0
 11
182.120126
 21
127.881375
 31
0.0
  0
LINE
  5
11E7F
  8
ALPHA
 10
180.119503
 20
126.986049
 30
0.0
 11
182.120126
 21
126.986049
 31
0.0
  0
ARC
  5
11E80
  8
ALPHA
 10
184.984962
 20
126.432156
 30
0.0
 40
8.150195
 50
151.538585
 51
208.461415
  0
LINE
  5
11E81
  8
ALPHA
 10
180.119503
 20
132.930598
 30
0.0
 11
179.620437
 21
132.930598
 31
0.0
  0
LINE
  5
11E82
  8
ALPHA
 10
180.961946
 20
140.40752
 30
0.0
 11
187.984767
 21
143.832779
 31
0.0
  0
LINE
  5
11E83
  8
ALPHA
 10
181.919503
 20
138.871868
 30
0.0
 11
188.942324
 21
142.297127
 31
0.0
  0
LINE
  5
11E84
  8
ALPHA
 10
182.484767
 20
144.832779
 30
0.0
 11
187.984767
 21
144.832779
 31
0.0
  0
ARC
  5
11E85
  8
ALPHA
 10
181.619503
 20
139.059329
 30
0.0
 40
1.5
 50
116.0
 51
180.0
  0
LINE
  5
11E86
  8
POINTILLE_COURT
 10
175.484767
 20
144.832779
 30
0.0
 11
180.984767
 21
144.832779
 31
0.0
  0
ARC
  5
11E87
  8
ALPHA
 10
188.284767
 20
143.645318
 30
0.0
 40
1.5
 50
296.0
 51
0.0
  0
LINE
  5
11E88
  8
ALPHA
 10
182.484767
 20
160.832779
 30
0.0
 11
187.984767
 21
160.832779
 31
0.0
  0
LINE
  5
11E89
  8
POINTILLE_COURT
 10
175.484767
 20
160.832779
 30
0.0
 11
180.984767
 21
160.832779
 31
0.0
  0
LINE
  5
11E8A
  8
ALPHA
 10
187.984767
 20
159.332779
 30
0.0
 11
189.784767
 21
159.332779
 31
0.0
  0
DIMENSION
  5
11E8B
  8
COTATION1
  2
*D5
 10
209.234767
 20
9.832779
 30
0.0
 11
193.034767
 21
13.082779
 31
0.0
 13
176.834767
 23
126.432779
 33
0.0
 14
209.234767
 24
66.832779
 34
0.0
  0
VIEWPORT
  5
494D
 67
     1
  8
0
 10
4.995325
 20
6.556512
 30
0.0
 40
22.70986
 41
13.988421
 68
    -1
 69
     1
1001
ACAD
1000
MVIEW
1002
{
1070
    16
1010
0.0
1020
0.0
1030
0.0
1010
0.0
1020
0.0
1030
1.0
1040
0.0
1040
13.988421
1040
4.995325
1040
6.556512
1040
50.0
1040
0.0
1040
0.0
1070
     0
1070
   100
1070
     1
1070
     1
1070
     0
1070
     0
1070
     0
1070
     0
1040
0.0
1040
0.0
1040
0.0
1040
10.0
1040
10.0
1040
10.0
1040
10.0
1070
     0
1002
{
1002
}
1002
}
  0
ENDSEC
  0
EOF
