  0
SECTION
  2
HEADER
  9
$ACADVER
  1
AC1009
  9
$INSBASE
 10
402.590624
 20
-1.041018
 30
0.0
  9
$EXTMIN
 10
27.979413
 20
-1.667221
 30
0.0
  9
$EXTMAX
 10
147.457455
 20
156.332779
 30
0.0
  9
$LIMMIN
 10
-407.970438
 20
-367.832444
  9
$LIMMAX
 10
429.804077
 20
234.370848
  9
$ORTHOMODE
 70
     1
  9
$REGENMODE
 70
     1
  9
$FILLMODE
 70
     1
  9
$QTEXTMODE
 70
     0
  9
$MIRRTEXT
 70
     1
  9
$DRAGMODE
 70
     2
  9
$LTSCALE
 40
10.0
  9
$OSMODE
 70
    37
  9
$ATTMODE
 70
     1
  9
$TEXTSIZE
 40
6.0
  9
$TRACEWID
 40
1.0
  9
$TEXTSTYLE
  7
ROMANS
  9
$CLAYER
  8
ALPHA
  9
$CELTYPE
  6
BYLAYER
  9
$CECOLOR
 62
   256
  9
$DIMSCALE
 40
1.0
  9
$DIMASZ
 40
5.0
  9
$DIMEXO
 40
2.0
  9
$DIMDLI
 40
0.38
  9
$DIMRND
 40
0.0
  9
$DIMDLE
 40
0.0
  9
$DIMEXE
 40
2.5
  9
$DIMTP
 40
0.0
  9
$DIMTM
 40
0.0
  9
$DIMTXT
 40
2.5
  9
$DIMCEN
 40
0.0
  9
$DIMTSZ
 40
0.0
  9
$DIMTOL
 70
     0
  9
$DIMLIM
 70
     0
  9
$DIMTIH
 70
     1
  9
$DIMTOH
 70
     1
  9
$DIMSE1
 70
     0
  9
$DIMSE2
 70
     0
  9
$DIMTAD
 70
     1
  9
$DIMZIN
 70
    12
  9
$DIMBLK
  1
OPEN30
  9
$DIMASO
 70
     1
  9
$DIMSHO
 70
     1
  9
$DIMPOST
  1

  9
$DIMAPOST
  1

  9
$DIMALT
 70
     0
  9
$DIMALTD
 70
     2
  9
$DIMALTF
 40
25.4
  9
$DIMLFAC
 40
1.0
  9
$DIMTOFL
 70
     0
  9
$DIMTVP
 40
0.0
  9
$DIMTIX
 70
     0
  9
$DIMSOXD
 70
     0
  9
$DIMSAH
 70
     0
  9
$DIMBLK1
  1

  9
$DIMBLK2
  1

  9
$DIMSTYLE
  2
SC_DEFAUT
  9
$DIMCLRD
 70
     0
  9
$DIMCLRE
 70
     0
  9
$DIMCLRT
 70
     0
  9
$DIMTFAC
 40
1.0
  9
$DIMGAP
 40
2.0
  9
$LUNITS
 70
     2
  9
$LUPREC
 70
     1
  9
$SKETCHINC
 40
0.1
  9
$FILLETRAD
 40
5.0
  9
$AUNITS
 70
     0
  9
$AUPREC
 70
     0
  9
$MENU
  1
acad
  9
$ELEVATION
 40
0.0
  9
$PELEVATION
 40
0.0
  9
$THICKNESS
 40
0.0
  9
$LIMCHECK
 70
     0
  9
$BLIPMODE
 70
     0
  9
$CHAMFERA
 40
0.0
  9
$CHAMFERB
 40
0.0
  9
$SKPOLY
 70
     0
  9
$TDCREATE
 40
2450373.687919
  9
$TDUPDATE
 40
2452852.569557
  9
$TDINDWG
 40
1.582185
  9
$TDUSRTIMER
 40
1.582185
  9
$USRTIMER
 70
     1
  9
$ANGBASE
 50
0.0
  9
$ANGDIR
 70
     0
  9
$PDMODE
 70
    32
  9
$PDSIZE
 40
0.0
  9
$PLINEWID
 40
0.0
  9
$COORDS
 70
     1
  9
$SPLFRAME
 70
     0
  9
$SPLINETYPE
 70
     6
  9
$SPLINESEGS
 70
     8
  9
$ATTDIA
 70
     0
  9
$ATTREQ
 70
     1
  9
$HANDLING
 70
     1
  9
$HANDSEED
  5
117AE
  9
$SURFTAB1
 70
     6
  9
$SURFTAB2
 70
     6
  9
$SURFTYPE
 70
     6
  9
$SURFU
 70
     6
  9
$SURFV
 70
     6
  9
$UCSNAME
  2

  9
$UCSORG
 10
0.0
 20
0.0
 30
0.0
  9
$UCSXDIR
 10
1.0
 20
0.0
 30
0.0
  9
$UCSYDIR
 10
0.0
 20
1.0
 30
0.0
  9
$PUCSNAME
  2

  9
$PUCSORG
 10
0.0
 20
0.0
 30
0.0
  9
$PUCSXDIR
 10
1.0
 20
0.0
 30
0.0
  9
$PUCSYDIR
 10
0.0
 20
1.0
 30
0.0
  9
$USERI1
 70
     0
  9
$USERI2
 70
     0
  9
$USERI3
 70
     0
  9
$USERI4
 70
     0
  9
$USERI5
 70
     0
  9
$USERR1
 40
0.0
  9
$USERR2
 40
0.0
  9
$USERR3
 40
0.0
  9
$USERR4
 40
0.0
  9
$USERR5
 40
0.0
  9
$WORLDVIEW
 70
     1
  9
$SHADEDGE
 70
     3
  9
$SHADEDIF
 70
    70
  9
$TILEMODE
 70
     1
  9
$MAXACTVP
 70
    16
  9
$PLIMCHECK
 70
     0
  9
$PEXTMIN
 10
-1.452248
 20
-0.437698
 30
0.0
  9
$PEXTMAX
 10
12.749749
 20
8.310198
 30
0.0
  9
$PLIMMIN
 10
0.0
 20
0.0
  9
$PLIMMAX
 10
12.0
 20
9.0
  9
$UNITMODE
 70
     0
  9
$VISRETAIN
 70
     0
  9
$PLINEGEN
 70
     0
  9
$PSLTSCALE
 70
     0
  0
ENDSEC
  0
SECTION
  2
TABLES
  0
TABLE
  2
VPORT
 70
     2
  0
VPORT
  2
*ACTIVE
 70
     0
 10
0.0
 20
0.0
 11
1.0
 21
1.0
 12
87.713245
 22
77.351046
 13
0.0
 23
0.0
 14
1.0
 24
1.0
 15
10.0
 25
10.0
 16
0.0
 26
0.0
 36
1.0
 17
0.0
 27
0.0
 37
0.0
 40
159.401732
 41
1.56
 42
50.0
 43
0.0
 44
0.0
 50
0.0
 51
0.0
 71
     0
 72
   100
 73
     1
 74
     0
 75
     0
 76
     0
 77
     0
 78
     0
  0
ENDTAB
  0
TABLE
  2
LTYPE
 70
     3
  0
LTYPE
  2
CONTINUOUS
 70
     0
  3
Solid line
 72
    65
 73
     0
 40
0.0
  0
LTYPE
  2
AXES2
 70
     0
  3
___ _ ___ _ ___ _ ___ _ ___ _ ___ _ ___ _ ___ _
 72
    65
 73
     4
 40
1.125
 49
0.75
 49
-0.125
 49
0.125
 49
-0.125
  0
LTYPE
  2
CACHE2
 70
     0
  3
Caché (x.5) _ _ _ _ _ _ _ _ _ _ _ _ _ _ _ _ _
 72
    65
 73
     2
 40
0.1875
 49
0.125
 49
-0.0625
  0
ENDTAB
  0
TABLE
  2
LAYER
 70
     7
  0
LAYER
  2
0
 70
     0
 62
   255
  6
CONTINUOUS
  0
LAYER
  2
COTATION1
 70
     0
 62
     2
  6
CONTINUOUS
  0
LAYER
  2
AXE
 70
     0
 62
    80
  6
AXES2
  0
LAYER
  2
DEFPOINTS
 70
     0
 62
     7
  6
CONTINUOUS
  0
LAYER
  2
ALPHA
 70
     0
 62
   254
  6
CONTINUOUS
  0
LAYER
  2
ALPHA_FIN
 70
     0
 62
   255
  6
CONTINUOUS
  0
LAYER
  2
POINTILLE_COURT
 70
     0
 62
    41
  6
CACHE2
  0
ENDTAB
  0
TABLE
  2
STYLE
 70
     2
  0
STYLE
  2
ROMANS
 70
     0
 40
0.0
 41
1.0
 50
0.0
 71
     0
 42
6.0
  3
romans
  4

  0
STYLE
  2
STANDARD
 70
     0
 40
0.2
 41
1.0
 50
0.0
 71
     0
 42
0.2
  3
txt
  4

  0
ENDTAB
  0
TABLE
  2
VIEW
 70
     0
  0
ENDTAB
  0
TABLE
  2
UCS
 70
     0
  0
ENDTAB
  0
TABLE
  2
APPID
 70
     1
  0
APPID
  2
ACAD
 70
     0
  0
ENDTAB
  0
TABLE
  2
DIMSTYLE
 70
     1
  0
DIMSTYLE
  2
SC_DEFAUT
 70
     0
  3

  4

  5
OPEN30
  6

  7

 40
1.0
 41
5.0
 42
2.0
 43
0.38
 44
2.5
 45
0.0
 46
0.0
 47
0.0
 48
0.0
140
2.5
141
0.0
142
0.0
143
25.4
144
1.0
145
0.0
146
1.0
147
2.0
 71
     0
 72
     0
 73
     1
 74
     1
 75
     0
 76
     0
 77
     1
 78
    12
170
     0
171
     2
172
     0
173
     0
174
     0
175
     0
176
     0
177
     0
178
     0
  0
ENDTAB
  0
ENDSEC
  0
SECTION
  2
BLOCKS
  0
BLOCK
  8
0
  2
$MODEL_SPACE
 70
     0
 10
0.0
 20
0.0
 30
0.0
  3
$MODEL_SPACE
  1

  0
ENDBLK
  5
1173F
  8
0
  0
BLOCK
 67
     1
  8
0
  2
$PAPER_SPACE
 70
     0
 10
0.0
 20
0.0
 30
0.0
  3
$PAPER_SPACE
  1

  0
ENDBLK
  5
1173D
 67
     1
  8
0
  0
BLOCK
  8
0
  2
COTE
 70
     0
 10
0.0
 20
0.0
 30
0.0
  3
COTE
  1

  0
ENDBLK
  5
F
  8
0
  0
BLOCK
  8
0
  2
FOND
 70
     0
 10
0.0
 20
0.0
 30
0.0
  3
FOND
  1

  0
ENDBLK
  5
75
  8
0
  0
BLOCK
  8
0
  2
_OPEN30
 70
     0
 10
0.0
 20
0.0
 30
0.0
  3
_OPEN30
  1

  0
LINE
  5
4B05
  8
COTATION1
 62
     0
 10
-1.0
 20
0.267949
 30
0.0
 11
0.0
 21
0.0
 31
0.0
1001
ACAD
1000
RTLwPs
1070
   158
  0
LINE
  5
4B06
  8
COTATION1
 62
     0
 10
0.0
 20
0.0
 30
0.0
 11
-1.0
 21
-0.267949
 31
0.0
1001
ACAD
1000
RTLwPs
1070
   158
  0
LINE
  5
4B07
  8
COTATION1
 62
     0
 10
0.0
 20
0.0
 30
0.0
 11
-1.0
 21
0.0
 31
0.0
1001
ACAD
1000
RTLwPs
1070
   158
  0
ENDBLK
  5
4B09
  8
0
  0
BLOCK
  8
0
  2
*D3
 70
     1
 10
0.0
 20
0.0
 30
0.0
  3
*D3
  1

  0
LINE
  5
11633
  8
COTATION1
 62
     0
 10
72.944524
 20
136.832779
 30
0.0
 11
137.457455
 21
136.832779
 31
0.0
1001
ACAD
1000
RTLwPs
1070
   158
  0
LINE
  5
11634
  8
COTATION1
 62
     0
 10
95.957455
 20
66.832779
 30
0.0
 11
137.457455
 21
66.832779
 31
0.0
1001
ACAD
1000
RTLwPs
1070
   158
  0
LINE
  5
11635
  8
COTATION1
 62
     0
 10
134.957455
 20
131.832779
 30
0.0
 11
134.957455
 21
105.082779
 31
0.0
1001
ACAD
1000
RTLwPs
1070
   158
  0
LINE
  5
11636
  8
COTATION1
 62
     0
 10
134.957455
 20
71.832779
 30
0.0
 11
134.957455
 21
98.582779
 31
0.0
1001
ACAD
1000
RTLwPs
1070
   158
  0
INSERT
  5
11637
  8
COTATION1
 62
     0
  2
_OPEN30
 10
134.957455
 20
136.832779
 30
0.0
 41
5.0
 42
5.0
 43
5.0
 50
90.0
1001
ACAD
1000
RTLwPs
1070
   158
  0
INSERT
  5
11638
  8
COTATION1
 62
     0
  2
_OPEN30
 10
134.957455
 20
66.832779
 30
0.0
 41
5.0
 42
5.0
 43
5.0
 50
270.0
1001
ACAD
1000
RTLwPs
1070
   158
  0
TEXT
  5
11639
  8
COTATION1
 62
     0
 10
132.576502
 20
100.582779
 30
0.0
 40
2.5
  1
70
1001
ACAD
1000
MTEXTBEGIN
1070
    73
1070
     1
1070
    44
1040
1.0
1070
    74
1070
     0
1000
MTEXTEND
  0
POINT
  5
1163A
  8
DEFPOINTS
 62
     0
 10
70.944524
 20
136.832779
 30
0.0
  0
POINT
  5
1163B
  8
DEFPOINTS
 62
     0
 10
93.957455
 20
66.832779
 30
0.0
  0
POINT
  5
1163C
  8
DEFPOINTS
 62
     0
 10
134.957455
 20
66.832779
 30
0.0
  0
ENDBLK
  5
11266
  8
0
  0
BLOCK
  8
0
  2
*D4
 70
     1
 10
0.0
 20
0.0
 30
0.0
  3
*D4
  1

  0
LINE
  5
11629
  8
COTATION1
 62
     0
 10
72.944524
 20
136.832779
 30
0.0
 11
147.457455
 21
136.832779
 31
0.0
1001
ACAD
1000
RTLwPs
1070
   158
  0
LINE
  5
1162A
  8
COTATION1
 62
     0
 10
84.225404
 20
44.832779
 30
0.0
 11
147.457455
 21
44.832779
 31
0.0
1001
ACAD
1000
RTLwPs
1070
   158
  0
LINE
  5
1162B
  8
COTATION1
 62
     0
 10
144.957455
 20
131.832779
 30
0.0
 11
144.957455
 21
94.082779
 31
0.0
1001
ACAD
1000
RTLwPs
1070
   158
  0
LINE
  5
1162C
  8
COTATION1
 62
     0
 10
144.957455
 20
49.832779
 30
0.0
 11
144.957455
 21
87.582779
 31
0.0
1001
ACAD
1000
RTLwPs
1070
   158
  0
INSERT
  5
1162D
  8
COTATION1
 62
     0
  2
_OPEN30
 10
144.957455
 20
136.832779
 30
0.0
 41
5.0
 42
5.0
 43
5.0
 50
90.0
1001
ACAD
1000
RTLwPs
1070
   158
  0
INSERT
  5
1162E
  8
COTATION1
 62
     0
  2
_OPEN30
 10
144.957455
 20
44.832779
 30
0.0
 41
5.0
 42
5.0
 43
5.0
 50
270.0
1001
ACAD
1000
RTLwPs
1070
   158
  0
TEXT
  5
1162F
  8
COTATION1
 62
     0
 10
142.576502
 20
89.582779
 30
0.0
 40
2.5
  1
92
1001
ACAD
1000
MTEXTBEGIN
1070
    73
1070
     1
1070
    44
1040
1.0
1070
    74
1070
     0
1000
MTEXTEND
  0
POINT
  5
11630
  8
DEFPOINTS
 62
     0
 10
70.944524
 20
136.832779
 30
0.0
  0
POINT
  5
11631
  8
DEFPOINTS
 62
     0
 10
82.225404
 20
44.832779
 30
0.0
  0
POINT
  5
11632
  8
DEFPOINTS
 62
     0
 10
144.957455
 20
44.832779
 30
0.0
  0
ENDBLK
  5
11273
  8
0
  0
BLOCK
  8
0
  2
*D5
 70
     1
 10
0.0
 20
0.0
 30
0.0
  3
*D5
  1

  0
LINE
  5
11382
  8
COTATION1
 62
     0
 10
54.957455
 20
64.832779
 30
0.0
 11
54.957455
 21
-1.667221
 31
0.0
1001
ACAD
1000
RTLwPs
1070
   158
  0
LINE
  5
11383
  8
COTATION1
 62
     0
 10
106.957455
 20
67.56483
 30
0.0
 11
106.957455
 21
-1.667221
 31
0.0
1001
ACAD
1000
RTLwPs
1070
   158
  0
LINE
  5
11384
  8
COTATION1
 62
     0
 10
59.957455
 20
0.832779
 30
0.0
 11
101.957455
 21
0.832779
 31
0.0
1001
ACAD
1000
RTLwPs
1070
   158
  0
INSERT
  5
11385
  8
COTATION1
 62
     0
  2
_OPEN30
 10
54.957455
 20
0.832779
 30
0.0
 41
5.0
 42
5.0
 43
5.0
 50
180.0
1001
ACAD
1000
RTLwPs
1070
   158
  0
INSERT
  5
11386
  8
COTATION1
 62
     0
  2
_OPEN30
 10
106.957455
 20
0.832779
 30
0.0
 41
5.0
 42
5.0
 43
5.0
1001
ACAD
1000
RTLwPs
1070
   158
  0
TEXT
  5
11387
  8
COTATION1
 62
     0
 10
78.576502
 20
2.832779
 30
0.0
 40
2.5
  1
52
1001
ACAD
1000
MTEXTBEGIN
1070
    73
1070
     1
1070
    44
1040
1.0
1070
    74
1070
     0
1000
MTEXTEND
1000
MTEXTBEGIN
1070
    73
1070
     1
1070
    44
1040
1.0
1070
    74
1070
     0
1000
MTEXTEND
  0
POINT
  5
11388
  8
DEFPOINTS
 62
     0
 10
54.957455
 20
66.832779
 30
0.0
  0
POINT
  5
11389
  8
DEFPOINTS
 62
     0
 10
106.957455
 20
69.56483
 30
0.0
  0
POINT
  5
1138A
  8
DEFPOINTS
 62
     0
 10
106.957455
 20
0.832779
 30
0.0
  0
ENDBLK
  5
1127F
  8
0
  0
BLOCK
  8
0
  2
*D6
 70
     1
 10
0.0
 20
0.0
 30
0.0
  3
*D6
  1

  0
LINE
  5
1139D
  8
COTATION1
 62
     0
 10
71.957455
 20
43.832779
 30
0.0
 11
71.957455
 21
28.332779
 31
0.0
1001
ACAD
1000
RTLwPs
1070
   158
  0
LINE
  5
1139E
  8
COTATION1
 62
     0
 10
83.957455
 20
43.832779
 30
0.0
 11
83.957455
 21
28.332779
 31
0.0
1001
ACAD
1000
RTLwPs
1070
   158
  0
LINE
  5
1139F
  8
COTATION1
 62
     0
 10
66.957455
 20
30.832779
 30
0.0
 11
61.957455
 21
30.832779
 31
0.0
1001
ACAD
1000
RTLwPs
1070
   158
  0
LINE
  5
113A0
  8
COTATION1
 62
     0
 10
88.957455
 20
30.832779
 30
0.0
 11
104.975851
 21
30.832779
 31
0.0
1001
ACAD
1000
RTLwPs
1070
   158
  0
INSERT
  5
113A1
  8
COTATION1
 62
     0
  2
_OPEN30
 10
71.957455
 20
30.832779
 30
0.0
 41
5.0
 42
5.0
 43
5.0
1001
ACAD
1000
RTLwPs
1070
   158
  0
INSERT
  5
113A2
  8
COTATION1
 62
     0
  2
_OPEN30
 10
83.957455
 20
30.832779
 30
0.0
 41
5.0
 42
5.0
 43
5.0
 50
180.0
1001
ACAD
1000
RTLwPs
1070
   158
  0
TEXT
  5
113A3
  8
COTATION1
 62
     0
 10
95.713946
 20
32.832779
 30
0.0
 40
2.5
  1
M12
1001
ACAD
1000
MTEXTBEGIN
1070
    73
1070
     1
1070
    44
1040
1.0
1070
    74
1070
     0
1000
MTEXTEND
1000
MTEXTBEGIN
1070
    73
1070
     1
1070
    44
1040
1.0
1070
    74
1070
     0
1000
MTEXTEND
  0
POINT
  5
113A4
  8
DEFPOINTS
 62
     0
 10
71.957455
 20
45.832779
 30
0.0
  0
POINT
  5
113A5
  8
DEFPOINTS
 62
     0
 10
83.957455
 20
45.832779
 30
0.0
  0
POINT
  5
113A6
  8
DEFPOINTS
 62
     0
 10
83.957455
 20
30.832779
 30
0.0
  0
ENDBLK
  5
1128C
  8
0
  0
BLOCK
  8
0
  2
*D7
 70
     1
 10
0.0
 20
0.0
 30
0.0
  3
*D7
  1

  0
LINE
  5
1135A
  8
COTATION1
 62
     0
 10
88.337124
 20
106.832779
 30
0.0
 11
117.457455
 21
106.832779
 31
0.0
1001
ACAD
1000
RTLwPs
1070
   158
  0
LINE
  5
1135B
  8
COTATION1
 62
     0
 10
95.957455
 20
66.832779
 30
0.0
 11
117.457455
 21
66.832779
 31
0.0
1001
ACAD
1000
RTLwPs
1070
   158
  0
LINE
  5
1135C
  8
COTATION1
 62
     0
 10
114.957455
 20
101.832779
 30
0.0
 11
114.957455
 21
90.082779
 31
0.0
1001
ACAD
1000
RTLwPs
1070
   158
  0
LINE
  5
1135D
  8
COTATION1
 62
     0
 10
114.957455
 20
71.832779
 30
0.0
 11
114.957455
 21
83.582779
 31
0.0
1001
ACAD
1000
RTLwPs
1070
   158
  0
INSERT
  5
1135E
  8
COTATION1
 62
     0
  2
_OPEN30
 10
114.957455
 20
106.832779
 30
0.0
 41
5.0
 42
5.0
 43
5.0
 50
90.0
1001
ACAD
1000
RTLwPs
1070
   158
  0
INSERT
  5
1135F
  8
COTATION1
 62
     0
  2
_OPEN30
 10
114.957455
 20
66.832779
 30
0.0
 41
5.0
 42
5.0
 43
5.0
 50
270.0
1001
ACAD
1000
RTLwPs
1070
   158
  0
TEXT
  5
11360
  8
COTATION1
 62
     0
 10
112.576502
 20
85.582779
 30
0.0
 40
2.5
  1
40
1001
ACAD
1000
MTEXTBEGIN
1070
    73
1070
     1
1070
    44
1040
1.0
1070
    74
1070
     0
1000
MTEXTEND
1000
MTEXTBEGIN
1070
    73
1070
     1
1070
    44
1040
1.0
1070
    74
1070
     0
1000
MTEXTEND
  0
POINT
  5
11361
  8
DEFPOINTS
 62
     0
 10
86.337124
 20
106.832779
 30
0.0
  0
POINT
  5
11362
  8
DEFPOINTS
 62
     0
 10
93.957455
 20
66.832779
 30
0.0
  0
POINT
  5
11363
  8
DEFPOINTS
 62
     0
 10
114.957455
 20
66.832779
 30
0.0
  0
ENDBLK
  5
11299
  8
0
  0
BLOCK
  8
0
  2
*D8
 70
     1
 10
0.0
 20
0.0
 30
0.0
  3
*D8
  1

  0
LINE
  5
11394
  8
COTATION1
 62
     0
 10
54.957455
 20
64.832779
 30
0.0
 11
54.957455
 21
8.332779
 31
0.0
1001
ACAD
1000
RTLwPs
1070
   158
  0
LINE
  5
11395
  8
COTATION1
 62
     0
 10
84.957455
 20
55.832779
 30
0.0
 11
84.957455
 21
8.332779
 31
0.0
1001
ACAD
1000
RTLwPs
1070
   158
  0
LINE
  5
11396
  8
COTATION1
 62
     0
 10
59.957455
 20
10.832779
 30
0.0
 11
79.957455
 21
10.832779
 31
0.0
1001
ACAD
1000
RTLwPs
1070
   158
  0
INSERT
  5
11397
  8
COTATION1
 62
     0
  2
_OPEN30
 10
54.957455
 20
10.832779
 30
0.0
 41
5.0
 42
5.0
 43
5.0
 50
180.0
1001
ACAD
1000
RTLwPs
1070
   158
  0
INSERT
  5
11398
  8
COTATION1
 62
     0
  2
_OPEN30
 10
84.957455
 20
10.832779
 30
0.0
 41
5.0
 42
5.0
 43
5.0
1001
ACAD
1000
RTLwPs
1070
   158
  0
TEXT
  5
11399
  8
COTATION1
 62
     0
 10
67.576502
 20
12.832779
 30
0.0
 40
2.5
  1
30
1001
ACAD
1000
MTEXTBEGIN
1070
    73
1070
     1
1070
    44
1040
1.0
1070
    74
1070
     0
1000
MTEXTEND
1000
MTEXTBEGIN
1070
    73
1070
     1
1070
    44
1040
1.0
1070
    74
1070
     0
1000
MTEXTEND
  0
POINT
  5
1139A
  8
DEFPOINTS
 62
     0
 10
54.957455
 20
66.832779
 30
0.0
  0
POINT
  5
1139B
  8
DEFPOINTS
 62
     0
 10
84.957455
 20
57.832779
 30
0.0
  0
POINT
  5
1139C
  8
DEFPOINTS
 62
     0
 10
84.957455
 20
10.832779
 30
0.0
  0
ENDBLK
  5
112A5
  8
0
  0
BLOCK
  8
0
  2
*D9
 70
     1
 10
0.0
 20
0.0
 30
0.0
  3
*D9
  1

  0
LINE
  5
1138B
  8
COTATION1
 62
     0
 10
59.837124
 20
98.332779
 30
0.0
 11
59.837124
 21
18.332779
 31
0.0
1001
ACAD
1000
RTLwPs
1070
   158
  0
LINE
  5
1138C
  8
COTATION1
 62
     0
 10
79.837124
 20
98.332779
 30
0.0
 11
79.837124
 21
18.332779
 31
0.0
1001
ACAD
1000
RTLwPs
1070
   158
  0
LINE
  5
1138D
  8
COTATION1
 62
     0
 10
64.837124
 20
20.832779
 30
0.0
 11
74.837124
 21
20.832779
 31
0.0
1001
ACAD
1000
RTLwPs
1070
   158
  0
INSERT
  5
1138E
  8
COTATION1
 62
     0
  2
_OPEN30
 10
59.837124
 20
20.832779
 30
0.0
 41
5.0
 42
5.0
 43
5.0
 50
180.0
1001
ACAD
1000
RTLwPs
1070
   158
  0
INSERT
  5
1138F
  8
COTATION1
 62
     0
  2
_OPEN30
 10
79.837124
 20
20.832779
 30
0.0
 41
5.0
 42
5.0
 43
5.0
1001
ACAD
1000
RTLwPs
1070
   158
  0
TEXT
  5
11390
  8
COTATION1
 62
     0
 10
67.456171
 20
22.832779
 30
0.0
 40
2.5
  1
20
1001
ACAD
1000
MTEXTBEGIN
1070
    73
1070
     1
1070
    44
1040
1.0
1070
    74
1070
     0
1000
MTEXTEND
1000
MTEXTBEGIN
1070
    73
1070
     1
1070
    44
1040
1.0
1070
    74
1070
     0
1000
MTEXTEND
  0
POINT
  5
11391
  8
DEFPOINTS
 62
     0
 10
59.837124
 20
100.332779
 30
0.0
  0
POINT
  5
11392
  8
DEFPOINTS
 62
     0
 10
79.837124
 20
100.332779
 30
0.0
  0
POINT
  5
11393
  8
DEFPOINTS
 62
     0
 10
79.837124
 20
20.832779
 30
0.0
  0
ENDBLK
  5
112B1
  8
0
  0
BLOCK
  8
0
  2
*D10
 70
     1
 10
0.0
 20
0.0
 30
0.0
  3
*D10
  1

  0
LINE
  5
11354
  8
COTATION1
 62
     0
 10
31.812262
 20
93.482114
 30
0.0
 11
37.740834
 21
93.482114
 31
0.0
1001
ACAD
1000
RTLwPs
1070
   158
  0
LINE
  5
11355
  8
COTATION1
 62
     0
 10
37.740834
 20
93.482114
 30
0.0
 11
52.134011
 21
102.178528
 31
0.0
1001
ACAD
1000
RTLwPs
1070
   158
  0
TEXT
  5
11356
  8
COTATION1
 62
     0
 10
31.574167
 20
95.482114
 30
0.0
 40
2.5
  1
%%c8
1001
ACAD
1000
MTEXTBEGIN
1070
    73
1070
     1
1070
    44
1040
1.0
1070
    74
1070
     0
1000
MTEXTEND
1000
MTEXTBEGIN
1070
    73
1070
     1
1070
    44
1040
1.0
1070
    74
1070
     0
1000
MTEXTEND
  0
INSERT
  5
11357
  8
COTATION1
 62
     0
  2
_OPEN30
 10
56.413518
 20
104.764223
 30
0.0
 41
5.0
 42
5.0
 43
5.0
 50
31.140535
1001
ACAD
1000
RTLwPs
1070
   158
  0
POINT
  5
11358
  8
DEFPOINTS
 62
     0
 10
56.413518
 20
104.764223
 30
0.0
  0
POINT
  5
11359
  8
DEFPOINTS
 62
     0
 10
63.260729
 20
108.901335
 30
0.0
  0
ENDBLK
  5
112BA
  8
0
  0
BLOCK
  8
0
  2
*D11
 70
     1
 10
0.0
 20
0.0
 30
0.0
  3
*D11
  1

  0
LINE
  5
113BA
  8
COTATION1
 62
     0
 10
41.548723
 20
116.592548
 30
0.0
 11
51.048723
 21
116.592548
 31
0.0
1001
ACAD
1000
RTLwPs
1070
   158
  0
LINE
  5
113BB
  8
COTATION1
 62
     0
 10
51.048723
 20
116.592548
 30
0.0
 11
55.086098
 21
112.108928
 31
0.0
1001
ACAD
1000
RTLwPs
1070
   158
  0
TEXT
  5
113BC
  8
COTATION1
 62
     0
 10
41.310627
 20
118.592548
 30
0.0
 40
2.5
  1
%%c4.2
1001
ACAD
1000
MTEXTBEGIN
1070
    73
1070
     1
1070
    44
1040
1.0
1070
    74
1070
     0
1000
MTEXTEND
1000
MTEXTBEGIN
1070
    73
1070
     1
1070
    44
1040
1.0
1070
    74
1070
     0
1000
MTEXTEND
  0
INSERT
  5
113BD
  8
COTATION1
 62
     0
  2
_OPEN30
 10
58.431891
 20
108.39333
 30
0.0
 41
5.0
 42
5.0
 43
5.0
 50
312.002156
1001
ACAD
1000
RTLwPs
1070
   158
  0
POINT
  5
113BE
  8
DEFPOINTS
 62
     0
 10
58.431891
 20
108.39333
 30
0.0
  0
POINT
  5
113BF
  8
DEFPOINTS
 62
     0
 10
61.242357
 20
105.272227
 30
0.0
  0
ENDBLK
  5
112C3
  8
0
  0
BLOCK
  8
0
  2
*D12
 70
     1
 10
0.0
 20
0.0
 30
0.0
  3
*D12
  1

  0
LINE
  5
11538
  8
COTATION1
 62
     0
 10
66.729723
 20
136.832779
 30
0.0
 11
27.979413
 21
136.832779
 31
0.0
1001
ACAD
1000
RTLwPs
1070
   158
  0
LINE
  5
11539
  8
COTATION1
 62
     0
 10
51.337124
 20
106.832779
 30
0.0
 11
27.979413
 21
106.832779
 31
0.0
1001
ACAD
1000
RTLwPs
1070
   158
  0
LINE
  5
1153A
  8
COTATION1
 62
     0
 10
30.479413
 20
131.832779
 30
0.0
 11
30.479413
 21
125.5694
 31
0.0
1001
ACAD
1000
RTLwPs
1070
   158
  0
LINE
  5
1153B
  8
COTATION1
 62
     0
 10
30.479413
 20
111.832779
 30
0.0
 11
30.479413
 21
119.0694
 31
0.0
1001
ACAD
1000
RTLwPs
1070
   158
  0
INSERT
  5
1153C
  8
COTATION1
 62
     0
  2
_OPEN30
 10
30.479413
 20
136.832779
 30
0.0
 41
5.0
 42
5.0
 43
5.0
 50
90.0
1001
ACAD
1000
RTLwPs
1070
   158
  0
INSERT
  5
1153D
  8
COTATION1
 62
     0
  2
_OPEN30
 10
30.479413
 20
106.832779
 30
0.0
 41
5.0
 42
5.0
 43
5.0
 50
270.0
1001
ACAD
1000
RTLwPs
1070
   158
  0
TEXT
  5
1153E
  8
COTATION1
 62
     0
 10
28.09846
 20
121.0694
 30
0.0
 40
2.5
  1
30
1001
ACAD
1000
MTEXTBEGIN
1070
    73
1070
     1
1070
    44
1040
1.0
1070
    74
1070
     0
1000
MTEXTEND
1000
MTEXTBEGIN
1070
    73
1070
     1
1070
    44
1040
1.0
1070
    74
1070
     0
1000
MTEXTEND
  0
POINT
  5
1153F
  8
DEFPOINTS
 62
     0
 10
68.729723
 20
136.832779
 30
0.0
  0
POINT
  5
11540
  8
DEFPOINTS
 62
     0
 10
53.337124
 20
106.832779
 30
0.0
  0
POINT
  5
11541
  8
DEFPOINTS
 62
     0
 10
30.479413
 20
106.832779
 30
0.0
  0
ENDBLK
  5
11537
  8
0
  0
BLOCK
  8
0
  2
*D13
 70
     1
 10
0.0
 20
0.0
 30
0.0
  3
*D13
  1

  0
LINE
  5
11564
  8
COTATION1
 62
     0
 10
65.837124
 20
137.663436
 30
0.0
 11
65.837124
 21
154.332779
 31
0.0
1001
ACAD
1000
RTLwPs
1070
   158
  0
LINE
  5
11565
  8
COTATION1
 62
     0
 10
73.837124
 20
137.663436
 30
0.0
 11
73.837124
 21
154.332779
 31
0.0
1001
ACAD
1000
RTLwPs
1070
   158
  0
LINE
  5
11566
  8
COTATION1
 62
     0
 10
60.837124
 20
151.832779
 30
0.0
 11
55.837124
 21
151.832779
 31
0.0
1001
ACAD
1000
RTLwPs
1070
   158
  0
LINE
  5
11567
  8
COTATION1
 62
     0
 10
78.837124
 20
151.832779
 30
0.0
 11
83.837124
 21
151.832779
 31
0.0
1001
ACAD
1000
RTLwPs
1070
   158
  0
INSERT
  5
11568
  8
COTATION1
 62
     0
  2
_OPEN30
 10
65.837124
 20
151.832779
 30
0.0
 41
5.0
 42
5.0
 43
5.0
1001
ACAD
1000
RTLwPs
1070
   158
  0
INSERT
  5
11569
  8
COTATION1
 62
     0
  2
_OPEN30
 10
73.837124
 20
151.832779
 30
0.0
 41
5.0
 42
5.0
 43
5.0
 50
180.0
1001
ACAD
1000
RTLwPs
1070
   158
  0
TEXT
  5
1156A
  8
COTATION1
 62
     0
 10
67.634743
 20
153.832779
 30
0.0
 40
2.5
  1
%%c
1001
ACAD
1000
MTEXTBEGIN
1070
    73
1070
     1
1070
    44
1040
1.0
1070
    74
1070
     0
1000
MTEXTEND
1000
MTEXTBEGIN
1070
    73
1070
     1
1070
    44
1040
1.0
1070
    74
1070
     0
1000
MTEXTEND
  0
TEXT
  5
11704
  8
COTATION1
 62
     0
 10
69.896648
 20
153.832779
 30
0.0
 40
2.5
  1
8
1001
ACAD
1000
R13OBJECT
1002
{
1005
1156A
1002
}
  0
POINT
  5
1156B
  8
DEFPOINTS
 62
     0
 10
65.837124
 20
135.663436
 30
0.0
  0
POINT
  5
1156C
  8
DEFPOINTS
 62
     0
 10
73.837124
 20
135.663436
 30
0.0
  0
POINT
  5
1156D
  8
DEFPOINTS
 62
     0
 10
73.837124
 20
151.832779
 30
0.0
  0
ENDBLK
  5
11563
  8
0
  0
BLOCK
  8
0
  2
*D14
 70
     1
 10
0.0
 20
0.0
 30
0.0
  3
*D14
  1

  0
LINE
  5
11655
  8
COTATION1
 62
     0
 10
71.837124
 20
116.832779
 30
0.0
 11
127.457455
 21
116.832779
 31
0.0
1001
ACAD
1000
RTLwPs
1070
   158
  0
LINE
  5
11656
  8
COTATION1
 62
     0
 10
105.957455
 20
66.832779
 30
0.0
 11
127.457455
 21
66.832779
 31
0.0
1001
ACAD
1000
RTLwPs
1070
   158
  0
LINE
  5
11657
  8
COTATION1
 62
     0
 10
124.957455
 20
111.832779
 30
0.0
 11
124.957455
 21
95.082779
 31
0.0
1001
ACAD
1000
RTLwPs
1070
   158
  0
LINE
  5
11658
  8
COTATION1
 62
     0
 10
124.957455
 20
71.832779
 30
0.0
 11
124.957455
 21
88.582779
 31
0.0
1001
ACAD
1000
RTLwPs
1070
   158
  0
INSERT
  5
11659
  8
COTATION1
 62
     0
  2
_OPEN30
 10
124.957455
 20
116.832779
 30
0.0
 41
5.0
 42
5.0
 43
5.0
 50
90.0
1001
ACAD
1000
RTLwPs
1070
   158
  0
INSERT
  5
1165A
  8
COTATION1
 62
     0
  2
_OPEN30
 10
124.957455
 20
66.832779
 30
0.0
 41
5.0
 42
5.0
 43
5.0
 50
270.0
1001
ACAD
1000
RTLwPs
1070
   158
  0
TEXT
  5
1165B
  8
COTATION1
 62
     0
 10
122.576502
 20
90.582779
 30
0.0
 40
2.5
  1
50
1001
ACAD
1000
MTEXTBEGIN
1070
    73
1070
     1
1070
    44
1040
1.0
1070
    74
1070
     0
1000
MTEXTEND
  0
POINT
  5
1165C
  8
DEFPOINTS
 62
     0
 10
69.837124
 20
116.832779
 30
0.0
  0
POINT
  5
1165D
  8
DEFPOINTS
 62
     0
 10
103.957455
 20
66.832779
 30
0.0
  0
POINT
  5
1165E
  8
DEFPOINTS
 62
     0
 10
124.957455
 20
66.832779
 30
0.0
  0
ENDBLK
  5
1164A
  8
0
  0
ENDSEC
  0
SECTION
  2
ENTITIES
  0
INSERT
  5
A
  8
0
  2
COTE
 10
0.0
 20
0.0
 30
0.0
  0
INSERT
  5
17
  8
0
  2
COTE
 10
284.010391
 20
6.373258
 30
0.0
  0
INSERT
  5
72
  8
0
  2
FOND
 10
0.0
 20
0.0
 30
0.0
  0
POLYLINE
  5
111B4
  8
ALPHA
 66
     1
 10
0.0
 20
0.0
 30
0.0
 70
   128
210
0.0
220
0.0
230
-1.0
  0
VERTEX
  5
11745
  8
ALPHA
 10
-73.282969
 20
111.949789
 30
0.0
  0
VERTEX
  5
11746
  8
ALPHA
 10
-72.693462
 20
109.586374
 30
0.0
  0
VERTEX
  5
11747
  8
ALPHA
 10
-71.919152
 20
107.017873
 30
0.0
  0
VERTEX
  5
11748
  8
ALPHA
 10
-70.964634
 20
104.955335
 30
0.0
  0
VERTEX
  5
11749
  8
ALPHA
 10
-70.421231
 20
104.336006
 30
0.0
  0
VERTEX
  5
1174A
  8
ALPHA
 10
-69.834499
 20
104.109812
 30
0.0
  0
VERTEX
  5
1174B
  8
ALPHA
 10
-69.247767
 20
104.336006
 30
0.0
  0
VERTEX
  5
1174C
  8
ALPHA
 10
-68.704373
 20
104.955335
 30
0.0
  0
VERTEX
  5
1174D
  8
ALPHA
 10
-67.749918
 20
107.017873
 30
0.0
  0
VERTEX
  5
1174E
  8
ALPHA
 10
-66.975782
 20
109.586374
 30
0.0
  0
VERTEX
  5
1174F
  8
ALPHA
 10
-66.386612
 20
111.949789
 30
0.0
  0
SEQEND
  5
11750
  8
ALPHA
  0
DIMENSION
  5
111BC
  8
COTATION1
  2
*D3
 10
134.957455
 20
66.832779
 30
0.0
 11
134.957455
 21
101.832779
 31
0.0
 13
70.944524
 23
136.832779
 33
0.0
 14
93.957455
 24
66.832779
 34
0.0
 50
90.0
  0
LINE
  5
111BD
  8
AXE
 10
69.837124
 20
141.832779
 30
0.0
 11
69.837124
 21
40.832779
 31
0.0
  0
DIMENSION
  5
111BE
  8
COTATION1
  2
*D4
 10
144.957455
 20
44.832779
 30
0.0
 11
144.957455
 21
90.832779
 31
0.0
 13
70.944524
 23
136.832779
 33
0.0
 14
82.225404
 24
44.832779
 34
0.0
 50
90.0
  0
DIMENSION
  5
111BF
  8
COTATION1
  2
*D5
 10
106.957455
 20
0.832779
 30
0.0
 11
80.957455
 21
4.082779
 31
0.0
 13
54.957455
 23
66.832779
 33
0.0
 14
106.957455
 24
69.56483
 34
0.0
  0
DIMENSION
  5
111C0
  8
COTATION1
  2
*D6
 10
83.957455
 20
30.832779
 30
0.0
 11
99.582994
 21
30.832779
 31
0.0
 70
   128
  1
M<>
 13
71.957455
 23
45.832779
 33
0.0
 14
83.957455
 24
45.832779
 34
0.0
  0
LINE
  5
111C1
  8
POINTILLE_COURT
 10
94.957455
 20
78.75927
 30
0.0
 11
106.577246
 21
78.75927
 31
0.0
  0
LINE
  5
111C2
  8
POINTILLE_COURT
 10
105.957455
 20
79.832779
 30
0.0
 11
94.957455
 21
79.832779
 31
0.0
  0
LINE
  5
111C3
  8
POINTILLE_COURT
 10
94.957455
 20
68.906288
 30
0.0
 11
106.577246
 21
68.906288
 31
0.0
  0
LINE
  5
111C4
  8
POINTILLE_COURT
 10
105.957455
 20
67.832779
 30
0.0
 11
94.957455
 21
67.832779
 31
0.0
  0
TEXT
  5
111C5
  8
AXE
 10
90.981264
 20
92.832779
 30
0.0
 40
8.0
  1
X
 72
     2
 11
97.457455
 21
92.832779
 31
0.0
  0
LINE
  5
111C6
  8
AXE
 10
49.957455
 20
91.832779
 30
0.0
 11
97.457455
 21
91.832779
 31
0.0
  0
DIMENSION
  5
111C7
  8
COTATION1
  2
*D7
 10
114.957455
 20
66.832779
 30
0.0
 11
114.957455
 21
86.832779
 31
0.0
 13
86.337124
 23
106.832779
 33
0.0
 14
93.957455
 24
66.832779
 34
0.0
 50
90.0
  0
DIMENSION
  5
111C8
  8
COTATION1
  2
*D8
 10
84.957455
 20
10.832779
 30
0.0
 11
69.957455
 21
14.082779
 31
0.0
 13
54.957455
 23
66.832779
 33
0.0
 14
84.957455
 24
57.832779
 34
0.0
  0
DIMENSION
  5
111C9
  8
COTATION1
  2
*D9
 10
79.837124
 20
20.832779
 30
0.0
 11
69.837124
 21
24.082779
 31
0.0
 13
59.837124
 23
100.332779
 33
0.0
 14
79.837124
 24
100.332779
 34
0.0
  0
LINE
  5
111CA
  8
ALPHA
 10
84.957455
 20
80.832779
 30
0.0
 11
70.957455
 21
66.832779
 31
0.0
  0
LINE
  5
111CB
  8
POINTILLE_COURT
 10
93.957455
 20
80.832779
 30
0.0
 11
93.957455
 21
73.832779
 31
0.0
  0
LINE
  5
111CC
  8
POINTILLE_COURT
 10
94.957455
 20
79.832779
 30
0.0
 11
94.957455
 21
73.832779
 31
0.0
  0
LINE
  5
111CD
  8
ALPHA
 10
54.957455
 20
66.832779
 30
0.0
 11
54.957455
 21
114.832779
 31
0.0
  0
LINE
  5
111CE
  8
ALPHA
 10
84.957455
 20
57.832779
 30
0.0
 11
84.957455
 21
114.832779
 31
0.0
  0
LINE
  5
111CF
  8
ALPHA
 10
54.957455
 20
68.832779
 30
0.0
 11
72.957455
 21
68.832779
 31
0.0
  0
TEXT
  5
111D0
  8
AXE
 10
62.360933
 20
40.832779
 30
0.0
 40
8.0
  1
Y
 72
     2
 11
68.837124
 21
40.832779
 31
0.0
  0
LINE
  5
111D1
  8
ALPHA
 10
54.957455
 20
66.832779
 30
0.0
 11
84.957455
 21
66.832779
 31
0.0
  0
LINE
  5
111D2
  8
ALPHA
 10
71.957455
 20
45.832779
 30
0.0
 11
71.957455
 21
56.832779
 31
0.0
  0
LINE
  5
111D3
  8
ALPHA_FIN
 10
73.030964
 20
56.832779
 30
0.0
 11
73.030964
 21
45.212988
 31
0.0
  0
LINE
  5
111D4
  8
ALPHA
 10
83.957455
 20
45.832779
 30
0.0
 11
83.957455
 21
56.832779
 31
0.0
  0
LINE
  5
111D5
  8
ALPHA_FIN
 10
82.883946
 20
56.832779
 30
0.0
 11
82.883946
 21
45.212988
 31
0.0
  0
LINE
  5
111D6
  8
ALPHA
 10
77.957455
 20
45.832779
 30
0.0
 11
83.957455
 21
45.832779
 31
0.0
  0
LINE
  5
111D7
  8
ALPHA
 10
77.957455
 20
44.832779
 30
0.0
 11
82.225404
 21
44.832779
 31
0.0
  0
LINE
  5
111D8
  8
ALPHA
 10
71.957455
 20
45.832779
 30
0.0
 11
73.689506
 21
44.832779
 31
0.0
  0
LINE
  5
111D9
  8
ALPHA
 10
77.957455
 20
45.832779
 30
0.0
 11
71.957455
 21
45.832779
 31
0.0
  0
LINE
  5
111DA
  8
ALPHA
 10
77.957455
 20
44.832779
 30
0.0
 11
73.689506
 21
44.832779
 31
0.0
  0
LINE
  5
111DB
  8
ALPHA
 10
83.957455
 20
45.832779
 30
0.0
 11
82.225404
 21
44.832779
 31
0.0
  0
LINE
  5
111DC
  8
ALPHA
 10
83.957455
 20
56.832779
 30
0.0
 11
77.957455
 21
56.832779
 31
0.0
  0
LINE
  5
111DD
  8
ALPHA
 10
84.957455
 20
57.832779
 30
0.0
 11
77.957455
 21
57.832779
 31
0.0
  0
LINE
  5
111DE
  8
ALPHA
 10
70.957455
 20
66.832779
 30
0.0
 11
70.957455
 21
57.832779
 31
0.0
  0
LINE
  5
111DF
  8
ALPHA
 10
71.957455
 20
56.832779
 30
0.0
 11
70.957455
 21
57.832779
 31
0.0
  0
LINE
  5
111E0
  8
ALPHA
 10
70.957455
 20
57.832779
 30
0.0
 11
77.957455
 21
57.832779
 31
0.0
  0
LINE
  5
111E1
  8
ALPHA
 10
71.957455
 20
56.832779
 30
0.0
 11
77.957455
 21
56.832779
 31
0.0
  0
LINE
  5
111E2
  8
ALPHA
 10
83.957455
 20
56.832779
 30
0.0
 11
84.957455
 21
57.832779
 31
0.0
  0
LINE
  5
111E3
  8
POINTILLE_COURT
 10
84.957455
 20
66.832779
 30
0.0
 11
93.957455
 21
66.832779
 31
0.0
  0
LINE
  5
111E4
  8
POINTILLE_COURT
 10
94.957455
 20
67.832779
 30
0.0
 11
94.957455
 21
73.832779
 31
0.0
  0
LINE
  5
111E5
  8
POINTILLE_COURT
 10
93.957455
 20
66.832779
 30
0.0
 11
93.957455
 21
73.832779
 31
0.0
  0
LINE
  5
111E6
  8
POINTILLE_COURT
 10
94.957455
 20
67.832779
 30
0.0
 11
93.957455
 21
66.832779
 31
0.0
  0
LINE
  5
111E7
  8
ALPHA
 10
60.475283
 20
111.94979
 30
0.0
 11
69.342859
 21
111.94979
 31
0.0
  0
LINE
  5
111E8
  8
ALPHA
 10
79.194881
 20
114.116382
 30
0.0
 11
60.475283
 21
114.116382
 31
0.0
  0
DIMENSION
  5
111E9
  8
COTATION1
  2
*D10
 10
63.260729
 20
108.901335
 30
0.0
 11
33.776548
 21
93.482114
 31
0.0
 70
   131
 15
56.413518
 25
104.764223
 35
0.0
 40
0.0
  0
LINE
  5
111EA
  8
AXE
 10
53.337124
 20
106.832779
 30
0.0
 11
66.337124
 21
106.832779
 31
0.0
  0
CIRCLE
  5
111EB
  8
ALPHA
 10
59.837124
 20
106.832779
 30
0.0
 40
4.0
  0
ARC
  5
111EC
  8
ALPHA
 10
69.957455
 20
59.586399
 30
0.0
 40
57.246507
 50
74.809764
 51
105.190236
  0
DIMENSION
  5
111EF
  8
COTATION1
  2
*D11
 10
61.242357
 20
105.272227
 30
0.0
 11
45.298723
 21
116.592548
 31
0.0
 70
   131
 15
58.431891
 25
108.39333
 35
0.0
 40
0.0
  0
LINE
  5
111F0
  8
AXE
 10
59.837124
 20
100.332779
 30
0.0
 11
59.837124
 21
113.332779
 31
0.0
  0
CIRCLE
  5
111F1
  8
ALPHA
 10
59.837124
 20
106.832779
 30
0.0
 40
2.1
  0
LINE
  5
111F2
  8
ALPHA
 10
60.475283
 20
114.116382
 30
0.0
 11
60.475283
 21
111.94979
 31
0.0
  0
LINE
  5
111F5
  8
POINTILLE_COURT
 10
93.957455
 20
80.832779
 30
0.0
 11
84.957455
 21
80.832779
 31
0.0
  0
LINE
  5
111F6
  8
POINTILLE_COURT
 10
94.957455
 20
79.832779
 30
0.0
 11
93.957455
 21
80.832779
 31
0.0
  0
LINE
  5
111F7
  8
AXE
 10
86.337124
 20
106.832779
 30
0.0
 11
73.337124
 21
106.832779
 31
0.0
  0
CIRCLE
  5
111F8
  8
ALPHA
 10
79.837124
 20
106.832779
 30
0.0
 40
2.1
  0
CIRCLE
  5
111F9
  8
ALPHA
 10
79.837124
 20
106.832779
 30
0.0
 40
4.0
  0
LINE
  5
111FA
  8
ALPHA
 10
70.327888
 20
111.94979
 30
0.0
 11
79.194881
 21
111.94979
 31
0.0
  0
LINE
  5
111FE
  8
ALPHA
 10
70.327888
 20
112.934817
 30
0.0
 11
70.327888
 21
111.94979
 31
0.0
  0
LINE
  5
111FF
  8
ALPHA
 10
69.342859
 20
112.934817
 30
0.0
 11
70.327888
 21
112.934817
 31
0.0
  0
LINE
  5
11200
  8
ALPHA
 10
69.342859
 20
111.94979
 30
0.0
 11
69.342859
 21
112.934817
 31
0.0
  0
LINE
  5
11203
  8
ALPHA
 10
79.194881
 20
111.94979
 30
0.0
 11
79.194881
 21
114.116382
 31
0.0
  0
LINE
  5
11207
  8
AXE
 10
79.837124
 20
100.332779
 30
0.0
 11
79.837124
 21
113.332779
 31
0.0
  0
LINE
  5
1120A
  8
POINTILLE_COURT
 10
106.957455
 20
73.832779
 30
0.0
 11
106.957455
 21
78.100728
 31
0.0
  0
LINE
  5
1120B
  8
POINTILLE_COURT
 10
105.957455
 20
73.832779
 30
0.0
 11
105.957455
 21
79.832779
 31
0.0
  0
LINE
  5
1120C
  8
POINTILLE_COURT
 10
106.957455
 20
73.832779
 30
0.0
 11
106.957455
 21
69.56483
 31
0.0
  0
LINE
  5
1120D
  8
POINTILLE_COURT
 10
105.957455
 20
73.832779
 30
0.0
 11
105.957455
 21
67.832779
 31
0.0
  0
LINE
  5
1120E
  8
POINTILLE_COURT
 10
105.957455
 20
67.832779
 30
0.0
 11
106.957455
 21
69.56483
 31
0.0
  0
LINE
  5
1120F
  8
POINTILLE_COURT
 10
105.957455
 20
79.832779
 30
0.0
 11
106.957455
 21
78.100728
 31
0.0
  0
DIMENSION
  5
114C7
  8
COTATION1
  2
*D12
 10
30.479413
 20
106.832779
 30
0.0
 11
30.479413
 21
122.3194
 31
0.0
 70
   128
 13
68.729723
 23
136.832779
 33
0.0
 14
53.337124
 24
106.832779
 34
0.0
 50
90.0
  0
POLYLINE
  5
114C8
  8
ALPHA
 66
     1
 10
0.0
 20
0.0
 30
0.0
 70
   128
  0
VERTEX
  5
11751
  8
ALPHA
 10
69.837124
 20
136.832779
 30
0.0
  0
VERTEX
  5
11752
  8
ALPHA
 10
70.598461
 20
136.832779
 30
0.0
  0
VERTEX
  5
11753
  8
ALPHA
 10
70.944524
 20
136.832779
 30
0.0
  0
SEQEND
  5
11754
  8
ALPHA
  0
LINE
  5
114C9
  8
ALPHA
 10
73.730939
 20
135.851553
 30
0.0
 11
73.837124
 21
135.663436
 31
0.0
  0
POLYLINE
  5
114CA
  8
ALPHA
 66
     1
 10
0.0
 20
0.0
 30
0.0
 70
   128
210
0.0
220
0.0
230
-1.0
  0
VERTEX
  5
11755
  8
ALPHA
 10
-70.944524
 20
136.832779
 30
0.0
  0
VERTEX
  5
11756
  8
ALPHA
 10
-72.342136
 20
136.481779
 30
0.0
  0
VERTEX
  5
11757
  8
ALPHA
 10
-73.730939
 20
135.851553
 30
0.0
  0
SEQEND
  5
11758
  8
ALPHA
  0
POLYLINE
  5
114CB
  8
ALPHA
 66
     1
 10
0.0
 20
0.0
 30
0.0
 70
   128
  0
VERTEX
  5
11759
  8
ALPHA
 10
68.729723
 20
136.832779
 30
0.0
  0
VERTEX
  5
1175A
  8
ALPHA
 10
67.332111
 20
136.481779
 30
0.0
  0
VERTEX
  5
1175B
  8
ALPHA
 10
65.943308
 20
135.851553
 30
0.0
  0
SEQEND
  5
1175C
  8
ALPHA
  0
LINE
  5
114CC
  8
ALPHA
 10
65.943308
 20
135.851553
 30
0.0
 11
65.837124
 21
135.663436
 31
0.0
  0
POLYLINE
  5
114CD
  8
ALPHA
 66
     1
 10
0.0
 20
0.0
 30
0.0
 70
   128
  0
VERTEX
  5
1175D
  8
ALPHA
 10
69.837124
 20
136.832779
 30
0.0
  0
VERTEX
  5
1175E
  8
ALPHA
 10
69.075786
 20
136.832779
 30
0.0
  0
VERTEX
  5
1175F
  8
ALPHA
 10
68.729723
 20
136.832779
 30
0.0
  0
SEQEND
  5
11760
  8
ALPHA
  0
POLYLINE
  5
114CE
  8
ALPHA
 66
     1
 10
0.0
 20
0.0
 30
0.0
 70
   128
  0
VERTEX
  5
11761
  8
ALPHA
 10
73.411022
 20
132.846924
 30
0.0
  0
VERTEX
  5
11762
  8
ALPHA
 10
73.103918
 20
132.846924
 30
0.0
  0
VERTEX
  5
11763
  8
ALPHA
 10
72.294281
 20
132.846924
 30
0.0
  0
VERTEX
  5
11764
  8
ALPHA
 10
69.837451
 20
132.846924
 30
0.0
  0
VERTEX
  5
11765
  8
ALPHA
 10
67.380622
 20
132.846924
 30
0.0
  0
VERTEX
  5
11766
  8
ALPHA
 10
66.570985
 20
132.846924
 30
0.0
  0
VERTEX
  5
11767
  8
ALPHA
 10
66.263881
 20
132.846924
 30
0.0
  0
SEQEND
  5
11768
  8
ALPHA
  0
LINE
  5
114CF
  8
ALPHA
 10
65.390153
 20
130.527905
 30
0.0
 11
65.09454
 21
129.947823
 31
0.0
  0
LINE
  5
114D0
  8
ALPHA
 10
63.953383
 20
118.841046
 30
0.0
 11
63.360192
 21
118.232779
 31
0.0
  0
POLYLINE
  5
114D1
  8
ALPHA
 66
     1
 10
0.0
 20
0.0
 30
0.0
 70
   128
  0
VERTEX
  5
11769
  8
ALPHA
 10
63.670224
 20
119.394255
 30
0.0
  0
VERTEX
  5
1176A
  8
ALPHA
 10
63.39362
 20
119.11765
 30
0.0
  0
VERTEX
  5
1176B
  8
ALPHA
 10
63.670224
 20
118.841046
 30
0.0
  0
SEQEND
  5
1176C
  8
ALPHA
  0
LINE
  5
114D2
  8
ALPHA
 10
63.360192
 20
120.003177
 30
0.0
 11
63.953383
 21
119.394255
 31
0.0
  0
POLYLINE
  5
114D3
  8
ALPHA
 66
     1
 10
0.0
 20
0.0
 30
0.0
 70
   128
  0
VERTEX
  5
1176D
  8
ALPHA
 10
65.09454
 20
129.947823
 30
0.0
  0
VERTEX
  5
1176E
  8
ALPHA
 10
64.996782
 20
129.847107
 30
0.0
  0
VERTEX
  5
1176F
  8
ALPHA
 10
64.739055
 20
129.581584
 30
0.0
  0
VERTEX
  5
11770
  8
ALPHA
 10
63.956988
 20
128.775859
 30
0.0
  0
VERTEX
  5
11771
  8
ALPHA
 10
63.174922
 20
127.970135
 30
0.0
  0
VERTEX
  5
11772
  8
ALPHA
 10
62.917195
 20
127.704612
 30
0.0
  0
VERTEX
  5
11773
  8
ALPHA
 10
62.819437
 20
127.603896
 30
0.0
  0
SEQEND
  5
11774
  8
ALPHA
  0
LINE
  5
114D4
  8
ALPHA
 10
63.360192
 20
121.317375
 30
0.0
 11
63.360192
 21
120.003177
 31
0.0
  0
POLYLINE
  5
114D5
  8
ALPHA
 66
     1
 10
0.0
 20
0.0
 30
0.0
 70
   128
  0
VERTEX
  5
11775
  8
ALPHA
 10
62.3829
 20
126.116657
 30
0.0
  0
VERTEX
  5
11776
  8
ALPHA
 10
62.424893
 20
125.910437
 30
0.0
  0
VERTEX
  5
11777
  8
ALPHA
 10
62.535602
 20
125.366769
 30
0.0
  0
VERTEX
  5
11778
  8
ALPHA
 10
62.871546
 20
123.717016
 30
0.0
  0
VERTEX
  5
11779
  8
ALPHA
 10
63.20749
 20
122.067263
 30
0.0
  0
VERTEX
  5
1177A
  8
ALPHA
 10
63.318199
 20
121.523595
 30
0.0
  0
VERTEX
  5
1177B
  8
ALPHA
 10
63.360192
 20
121.317375
 30
0.0
  0
SEQEND
  5
1177C
  8
ALPHA
  0
POLYLINE
  5
114D6
  8
ALPHA
 66
     1
 10
0.0
 20
0.0
 30
0.0
 70
   128
  0
VERTEX
  5
1177D
  8
ALPHA
 10
62.819437
 20
127.603896
 30
0.0
  0
VERTEX
  5
1177E
  8
ALPHA
 10
62.410921
 20
126.916072
 30
0.0
  0
VERTEX
  5
1177F
  8
ALPHA
 10
62.3829
 20
126.116657
 30
0.0
  0
SEQEND
  5
11780
  8
ALPHA
  0
LINE
  5
114D7
  8
ALPHA
 10
63.670224
 20
118.841046
 30
0.0
 11
63.953383
 21
118.841046
 31
0.0
  0
LINE
  5
114D8
  8
ALPHA
 10
63.953383
 20
119.394255
 30
0.0
 11
63.670224
 21
119.394255
 31
0.0
  0
POLYLINE
  5
114D9
  8
ALPHA
 66
     1
 10
0.0
 20
0.0
 30
0.0
 70
   128
  0
VERTEX
  5
11781
  8
ALPHA
 10
65.717883
 20
132.389413
 30
0.0
  0
VERTEX
  5
11782
  8
ALPHA
 10
65.666675
 20
132.098552
 30
0.0
  0
VERTEX
  5
11783
  8
ALPHA
 10
65.554018
 20
131.458659
 30
0.0
  0
VERTEX
  5
11784
  8
ALPHA
 10
65.44136
 20
130.818766
 30
0.0
  0
VERTEX
  5
11785
  8
ALPHA
 10
65.390153
 20
130.527905
 30
0.0
  0
SEQEND
  5
11786
  8
ALPHA
  0
POLYLINE
  5
114DA
  8
ALPHA
 66
     1
 10
0.0
 20
0.0
 30
0.0
 70
   128
  0
VERTEX
  5
11787
  8
ALPHA
 10
66.263881
 20
132.846924
 30
0.0
  0
VERTEX
  5
11788
  8
ALPHA
 10
65.906573
 20
132.718454
 30
0.0
  0
VERTEX
  5
11789
  8
ALPHA
 10
65.717883
 20
132.389413
 30
0.0
  0
SEQEND
  5
1178A
  8
ALPHA
  0
LINE
  5
114DB
  8
ALPHA
 10
74.579707
 20
129.947823
 30
0.0
 11
74.28475
 21
130.527905
 31
0.0
  0
POLYLINE
  5
114DC
  8
ALPHA
 66
     1
 10
0.0
 20
0.0
 30
0.0
 70
   128
  0
VERTEX
  5
1178B
  8
ALPHA
 10
76.004023
 20
118.841046
 30
0.0
  0
VERTEX
  5
1178C
  8
ALPHA
 10
76.280627
 20
119.11765
 30
0.0
  0
VERTEX
  5
1178D
  8
ALPHA
 10
76.004023
 20
119.394255
 30
0.0
  0
SEQEND
  5
1178E
  8
ALPHA
  0
LINE
  5
114DD
  8
ALPHA
 10
76.314056
 20
118.232779
 30
0.0
 11
75.722175
 21
118.841046
 31
0.0
  0
POLYLINE
  5
114DE
  8
ALPHA
 66
     1
 10
0.0
 20
0.0
 30
0.0
 70
   128
  0
VERTEX
  5
1178F
  8
ALPHA
 10
76.855466
 20
127.603896
 30
0.0
  0
VERTEX
  5
11790
  8
ALPHA
 10
76.75768
 20
127.704612
 30
0.0
  0
VERTEX
  5
11791
  8
ALPHA
 10
76.499879
 20
127.970135
 30
0.0
  0
VERTEX
  5
11792
  8
ALPHA
 10
75.717587
 20
128.775859
 30
0.0
  0
VERTEX
  5
11793
  8
ALPHA
 10
74.935295
 20
129.581584
 30
0.0
  0
VERTEX
  5
11794
  8
ALPHA
 10
74.677494
 20
129.847107
 30
0.0
  0
VERTEX
  5
11795
  8
ALPHA
 10
74.579707
 20
129.947823
 30
0.0
  0
SEQEND
  5
11796
  8
ALPHA
  0
LINE
  5
114DF
  8
ALPHA
 10
75.722175
 20
119.394255
 30
0.0
 11
76.314056
 21
120.003177
 31
0.0
  0
LINE
  5
114E0
  8
ALPHA
 10
75.722175
 20
118.841046
 30
0.0
 11
76.004023
 21
118.841046
 31
0.0
  0
LINE
  5
114E1
  8
ALPHA
 10
76.004023
 20
119.394255
 30
0.0
 11
75.722175
 21
119.394255
 31
0.0
  0
POLYLINE
  5
114E2
  8
ALPHA
 66
     1
 10
0.0
 20
0.0
 30
0.0
 70
   128
  0
VERTEX
  5
11797
  8
ALPHA
 10
77.291347
 20
126.116657
 30
0.0
  0
VERTEX
  5
11798
  8
ALPHA
 10
77.263654
 20
126.916072
 30
0.0
  0
VERTEX
  5
11799
  8
ALPHA
 10
76.855466
 20
127.603896
 30
0.0
  0
SEQEND
  5
1179A
  8
ALPHA
  0
POLYLINE
  5
114E3
  8
ALPHA
 66
     1
 10
0.0
 20
0.0
 30
0.0
 70
   128
  0
VERTEX
  5
1179B
  8
ALPHA
 10
76.314056
 20
121.317375
 30
0.0
  0
VERTEX
  5
1179C
  8
ALPHA
 10
76.356049
 20
121.523595
 30
0.0
  0
VERTEX
  5
1179D
  8
ALPHA
 10
76.466758
 20
122.067263
 30
0.0
  0
VERTEX
  5
1179E
  8
ALPHA
 10
76.802701
 20
123.717016
 30
0.0
  0
VERTEX
  5
1179F
  8
ALPHA
 10
77.138645
 20
125.366769
 30
0.0
  0
VERTEX
  5
117A0
  8
ALPHA
 10
77.249354
 20
125.910437
 30
0.0
  0
VERTEX
  5
117A1
  8
ALPHA
 10
77.291347
 20
126.116657
 30
0.0
  0
SEQEND
  5
117A2
  8
ALPHA
  0
LINE
  5
114E4
  8
ALPHA
 10
76.314056
 20
120.003177
 30
0.0
 11
76.314056
 21
121.317375
 31
0.0
  0
POLYLINE
  5
114E5
  8
ALPHA
 66
     1
 10
0.0
 20
0.0
 30
0.0
 70
   128
  0
VERTEX
  5
117A3
  8
ALPHA
 10
73.955709
 20
132.389413
 30
0.0
  0
VERTEX
  5
117A4
  8
ALPHA
 10
73.767674
 20
132.718454
 30
0.0
  0
VERTEX
  5
117A5
  8
ALPHA
 10
73.411022
 20
132.846924
 30
0.0
  0
SEQEND
  5
117A6
  8
ALPHA
  0
POLYLINE
  5
114E6
  8
ALPHA
 66
     1
 10
0.0
 20
0.0
 30
0.0
 70
   128
  0
VERTEX
  5
117A7
  8
ALPHA
 10
74.28475
 20
130.527905
 30
0.0
  0
VERTEX
  5
117A8
  8
ALPHA
 10
74.233338
 20
130.818766
 30
0.0
  0
VERTEX
  5
117A9
  8
ALPHA
 10
74.12023
 20
131.458659
 30
0.0
  0
VERTEX
  5
117AA
  8
ALPHA
 10
74.007122
 20
132.098552
 30
0.0
  0
VERTEX
  5
117AB
  8
ALPHA
 10
73.955709
 20
132.389413
 30
0.0
  0
SEQEND
  5
117AC
  8
ALPHA
  0
LINE
  5
114E7
  8
ALPHA
 10
77.587124
 20
117.732779
 30
0.0
 11
69.837124
 21
117.732779
 31
0.0
  0
LINE
  5
114E8
  8
ALPHA
 10
77.087124
 20
118.232779
 30
0.0
 11
69.837124
 21
118.232779
 31
0.0
  0
LINE
  5
114E9
  8
ALPHA
 10
63.360191
 20
121.317375
 30
0.0
 11
76.314055
 21
121.317375
 31
0.0
  0
LINE
  5
114EA
  8
ALPHA
 10
63.360191
 20
120.003176
 30
0.0
 11
76.314055
 21
120.003176
 31
0.0
  0
LINE
  5
114EB
  8
ALPHA
 10
70.010492
 20
119.394256
 30
0.0
 11
76.002711
 21
119.394256
 31
0.0
  0
LINE
  5
114EC
  8
ALPHA
 10
70.010492
 20
118.841047
 30
0.0
 11
76.002711
 21
118.841047
 31
0.0
  0
LINE
  5
114ED
  8
ALPHA
 10
63.671534
 20
119.394256
 30
0.0
 11
69.66572
 21
119.394256
 31
0.0
  0
LINE
  5
114EE
  8
ALPHA
 10
63.671534
 20
118.841047
 30
0.0
 11
69.66572
 21
118.841047
 31
0.0
  0
LINE
  5
114EF
  8
ALPHA
 10
62.587124
 20
118.232779
 30
0.0
 11
69.837124
 21
118.232779
 31
0.0
  0
LINE
  5
114F0
  8
ALPHA
 10
62.087124
 20
117.732779
 30
0.0
 11
69.837124
 21
117.732779
 31
0.0
  0
LINE
  5
114F1
  8
ALPHA
 10
62.087124
 20
117.732779
 30
0.0
 11
62.087124
 21
116.289312
 31
0.0
  0
LINE
  5
114F2
  8
ALPHA
 10
62.087124
 20
117.732779
 30
0.0
 11
62.587124
 21
118.232779
 31
0.0
  0
LINE
  5
114F3
  8
ALPHA
 10
69.672277
 20
119.272996
 30
0.0
 11
70.00394
 21
119.272996
 31
0.0
  0
LINE
  5
114F4
  8
ALPHA
 10
69.672277
 20
118.962962
 30
0.0
 11
70.00394
 21
118.962962
 31
0.0
  0
LINE
  5
114F5
  8
ALPHA
 10
69.664411
 20
118.843669
 30
0.0
 11
69.66572
 21
118.841047
 31
0.0
  0
LINE
  5
114F6
  8
ALPHA
 10
69.661131
 20
118.866611
 30
0.0
 11
69.664411
 21
118.843669
 31
0.0
  0
LINE
  5
114F7
  8
ALPHA
 10
69.659822
 20
118.909213
 30
0.0
 11
69.661131
 21
118.866611
 31
0.0
  0
LINE
  5
114F8
  8
ALPHA
 10
69.658509
 20
118.968205
 30
0.0
 11
69.659822
 21
118.909213
 31
0.0
  0
LINE
  5
114F9
  8
ALPHA
 10
69.6572
 20
119.039651
 30
0.0
 11
69.658509
 21
118.968205
 31
0.0
  0
LINE
  5
114FA
  8
ALPHA
 10
69.6572
 20
119.11765
 30
0.0
 11
69.6572
 21
119.039651
 31
0.0
  0
LINE
  5
114FB
  8
ALPHA
 10
69.667033
 20
119.392943
 30
0.0
 11
69.66572
 21
119.394256
 31
0.0
  0
LINE
  5
114FC
  8
ALPHA
 10
69.668342
 20
119.370002
 30
0.0
 11
69.667033
 21
119.392943
 31
0.0
  0
LINE
  5
114FD
  8
ALPHA
 10
69.670964
 20
119.326741
 30
0.0
 11
69.668342
 21
119.370002
 31
0.0
  0
LINE
  5
114FE
  8
ALPHA
 10
69.672277
 20
119.267749
 30
0.0
 11
69.670964
 21
119.326741
 31
0.0
  0
LINE
  5
114FF
  8
ALPHA
 10
69.673586
 20
119.196307
 30
0.0
 11
69.672277
 21
119.267749
 31
0.0
  0
LINE
  5
11500
  8
ALPHA
 10
69.673586
 20
119.11765
 30
0.0
 11
69.673586
 21
119.196307
 31
0.0
  0
LINE
  5
11501
  8
ALPHA
 10
69.6572
 20
119.196307
 30
0.0
 11
69.6572
 21
119.11765
 31
0.0
  0
LINE
  5
11502
  8
ALPHA
 10
69.658509
 20
119.267749
 30
0.0
 11
69.6572
 21
119.196307
 31
0.0
  0
LINE
  5
11503
  8
ALPHA
 10
69.659822
 20
119.326741
 30
0.0
 11
69.658509
 21
119.267749
 31
0.0
  0
LINE
  5
11504
  8
ALPHA
 10
69.661131
 20
119.370002
 30
0.0
 11
69.659822
 21
119.326741
 31
0.0
  0
LINE
  5
11505
  8
ALPHA
 10
69.664411
 20
119.392943
 30
0.0
 11
69.661131
 21
119.370002
 31
0.0
  0
LINE
  5
11506
  8
ALPHA
 10
69.66572
 20
119.394256
 30
0.0
 11
69.664411
 21
119.392943
 31
0.0
  0
LINE
  5
11507
  8
ALPHA
 10
69.673586
 20
119.039651
 30
0.0
 11
69.673586
 21
119.11765
 31
0.0
  0
LINE
  5
11508
  8
ALPHA
 10
69.672277
 20
118.968205
 30
0.0
 11
69.673586
 21
119.039651
 31
0.0
  0
LINE
  5
11509
  8
ALPHA
 10
69.670964
 20
118.909213
 30
0.0
 11
69.672277
 21
118.968205
 31
0.0
  0
LINE
  5
1150A
  8
ALPHA
 10
69.668342
 20
118.866611
 30
0.0
 11
69.670964
 21
118.909213
 31
0.0
  0
LINE
  5
1150B
  8
ALPHA
 10
69.667033
 20
118.843669
 30
0.0
 11
69.668342
 21
118.866611
 31
0.0
  0
LINE
  5
1150C
  8
ALPHA
 10
69.66572
 20
118.841047
 30
0.0
 11
69.667033
 21
118.843669
 31
0.0
  0
LINE
  5
1150D
  8
ALPHA
 10
70.002627
 20
119.039651
 30
0.0
 11
70.002627
 21
119.11765
 31
0.0
  0
LINE
  5
1150E
  8
ALPHA
 10
70.00394
 20
118.968205
 30
0.0
 11
70.002627
 21
119.039651
 31
0.0
  0
LINE
  5
1150F
  8
ALPHA
 10
70.005249
 20
118.909213
 30
0.0
 11
70.00394
 21
118.968205
 31
0.0
  0
LINE
  5
11510
  8
ALPHA
 10
70.006562
 20
118.866611
 30
0.0
 11
70.005249
 21
118.909213
 31
0.0
  0
LINE
  5
11511
  8
ALPHA
 10
70.009183
 20
118.843669
 30
0.0
 11
70.006562
 21
118.866611
 31
0.0
  0
LINE
  5
11512
  8
ALPHA
 10
70.010492
 20
118.841047
 30
0.0
 11
70.009183
 21
118.843669
 31
0.0
  0
LINE
  5
11513
  8
ALPHA
 10
70.017049
 20
119.196307
 30
0.0
 11
70.017049
 21
119.11765
 31
0.0
  0
LINE
  5
11514
  8
ALPHA
 10
70.015736
 20
119.267749
 30
0.0
 11
70.017049
 21
119.196307
 31
0.0
  0
LINE
  5
11515
  8
ALPHA
 10
70.014427
 20
119.326741
 30
0.0
 11
70.015736
 21
119.267749
 31
0.0
  0
LINE
  5
11516
  8
ALPHA
 10
70.013114
 20
119.370002
 30
0.0
 11
70.014427
 21
119.326741
 31
0.0
  0
LINE
  5
11517
  8
ALPHA
 10
70.010492
 20
119.392943
 30
0.0
 11
70.013114
 21
119.370002
 31
0.0
  0
LINE
  5
11518
  8
ALPHA
 10
70.010492
 20
119.394256
 30
0.0
 11
70.010492
 21
119.392943
 31
0.0
  0
LINE
  5
11519
  8
ALPHA
 10
70.009183
 20
119.392943
 30
0.0
 11
70.010492
 21
119.394256
 31
0.0
  0
LINE
  5
1151A
  8
ALPHA
 10
70.006562
 20
119.370002
 30
0.0
 11
70.009183
 21
119.392943
 31
0.0
  0
LINE
  5
1151B
  8
ALPHA
 10
70.005249
 20
119.326741
 30
0.0
 11
70.006562
 21
119.370002
 31
0.0
  0
LINE
  5
1151C
  8
ALPHA
 10
70.00394
 20
119.267749
 30
0.0
 11
70.005249
 21
119.326741
 31
0.0
  0
LINE
  5
1151D
  8
ALPHA
 10
70.002627
 20
119.196307
 30
0.0
 11
70.00394
 21
119.267749
 31
0.0
  0
LINE
  5
1151E
  8
ALPHA
 10
70.002627
 20
119.11765
 30
0.0
 11
70.002627
 21
119.196307
 31
0.0
  0
LINE
  5
1151F
  8
ALPHA
 10
70.010492
 20
118.843669
 30
0.0
 11
70.010492
 21
118.841047
 31
0.0
  0
LINE
  5
11520
  8
ALPHA
 10
70.013114
 20
118.866611
 30
0.0
 11
70.010492
 21
118.843669
 31
0.0
  0
LINE
  5
11521
  8
ALPHA
 10
70.014427
 20
118.909213
 30
0.0
 11
70.013114
 21
118.866611
 31
0.0
  0
LINE
  5
11522
  8
ALPHA
 10
70.015736
 20
118.968205
 30
0.0
 11
70.014427
 21
118.909213
 31
0.0
  0
LINE
  5
11523
  8
ALPHA
 10
70.017049
 20
119.039651
 30
0.0
 11
70.015736
 21
118.968205
 31
0.0
  0
LINE
  5
11524
  8
ALPHA
 10
70.017049
 20
119.11765
 30
0.0
 11
70.017049
 21
119.039651
 31
0.0
  0
LINE
  5
11525
  8
ALPHA
 10
77.587124
 20
117.732779
 30
0.0
 11
77.587124
 21
116.322196
 31
0.0
  0
LINE
  5
11526
  8
ALPHA
 10
77.587124
 20
117.732779
 30
0.0
 11
77.087124
 21
118.232779
 31
0.0
  0
LINE
  5
11527
  8
ALPHA
 10
65.837124
 20
135.663436
 30
0.0
 11
65.837124
 21
132.64852
 31
0.0
  0
LINE
  5
11528
  8
ALPHA
 10
73.837124
 20
135.663436
 30
0.0
 11
73.837124
 21
132.64852
 31
0.0
  0
LINE
  5
11529
  8
ALPHA
 10
65.837124
 20
135.663436
 30
0.0
 11
69.837124
 21
135.663436
 31
0.0
  0
LINE
  5
1152A
  8
ALPHA
 10
73.837124
 20
135.663436
 30
0.0
 11
69.837124
 21
135.663436
 31
0.0
  0
DIMENSION
  5
11556
  8
COTATION1
  2
*D13
 10
73.837124
 20
151.832779
 30
0.0
 11
69.837124
 21
151.832779
 31
0.0
 70
   128
  1
%%c<>
 13
65.837124
 23
135.663436
 33
0.0
 14
73.837124
 24
135.663436
 34
0.0
  0
DIMENSION
  5
1163D
  8
COTATION1
  2
*D14
 10
124.957455
 20
66.832779
 30
0.0
 11
124.957455
 21
91.832779
 31
0.0
 13
69.837124
 23
116.832779
 33
0.0
 14
103.957455
 24
66.832779
 34
0.0
 50
90.0
  0
VIEWPORT
  5
494D
 67
     1
  8
0
 10
4.995325
 20
6.556512
 30
0.0
 40
22.70986
 41
13.988421
 68
    -1
 69
     1
1001
ACAD
1000
MVIEW
1002
{
1070
    16
1010
0.0
1020
0.0
1030
0.0
1010
0.0
1020
0.0
1030
1.0
1040
0.0
1040
13.988421
1040
4.995325
1040
6.556512
1040
50.0
1040
0.0
1040
0.0
1070
     0
1070
   100
1070
     1
1070
     1
1070
     0
1070
     0
1070
     0
1070
     0
1040
0.0
1040
0.0
1040
0.0
1040
10.0
1040
10.0
1040
10.0
1040
10.0
1070
     0
1002
{
1002
}
1002
}
  0
ENDSEC
  0
EOF
