  0
SECTION
  2
HEADER
  9
$ACADVER
  1
AC1009
  9
$INSBASE
 10
402.590624
 20
-1.041018
 30
0.0
  9
$EXTMIN
 10
27.236696
 20
-1.667221
 30
0.0
  9
$EXTMAX
 10
148.231264
 20
268.332779
 30
0.0
  9
$LIMMIN
 10
-407.970438
 20
-367.832444
  9
$LIMMAX
 10
429.804077
 20
234.370848
  9
$ORTHOMODE
 70
     1
  9
$REGENMODE
 70
     1
  9
$FILLMODE
 70
     1
  9
$QTEXTMODE
 70
     0
  9
$MIRRTEXT
 70
     1
  9
$DRAGMODE
 70
     2
  9
$LTSCALE
 40
10.0
  9
$OSMODE
 70
    37
  9
$ATTMODE
 70
     1
  9
$TEXTSIZE
 40
6.0
  9
$TRACEWID
 40
1.0
  9
$TEXTSTYLE
  7
ROMANS
  9
$CLAYER
  8
ALPHA
  9
$CELTYPE
  6
BYLAYER
  9
$CECOLOR
 62
   256
  9
$DIMSCALE
 40
1.0
  9
$DIMASZ
 40
5.0
  9
$DIMEXO
 40
2.0
  9
$DIMDLI
 40
0.38
  9
$DIMRND
 40
0.0
  9
$DIMDLE
 40
0.0
  9
$DIMEXE
 40
2.5
  9
$DIMTP
 40
0.0
  9
$DIMTM
 40
0.0
  9
$DIMTXT
 40
2.5
  9
$DIMCEN
 40
0.0
  9
$DIMTSZ
 40
0.0
  9
$DIMTOL
 70
     0
  9
$DIMLIM
 70
     0
  9
$DIMTIH
 70
     1
  9
$DIMTOH
 70
     1
  9
$DIMSE1
 70
     0
  9
$DIMSE2
 70
     0
  9
$DIMTAD
 70
     1
  9
$DIMZIN
 70
    12
  9
$DIMBLK
  1
OPEN30
  9
$DIMASO
 70
     1
  9
$DIMSHO
 70
     1
  9
$DIMPOST
  1

  9
$DIMAPOST
  1

  9
$DIMALT
 70
     0
  9
$DIMALTD
 70
     2
  9
$DIMALTF
 40
25.4
  9
$DIMLFAC
 40
1.0
  9
$DIMTOFL
 70
     0
  9
$DIMTVP
 40
0.0
  9
$DIMTIX
 70
     0
  9
$DIMSOXD
 70
     0
  9
$DIMSAH
 70
     0
  9
$DIMBLK1
  1

  9
$DIMBLK2
  1

  9
$DIMSTYLE
  2
SC_DEFAUT
  9
$DIMCLRD
 70
     0
  9
$DIMCLRE
 70
     0
  9
$DIMCLRT
 70
     0
  9
$DIMTFAC
 40
1.0
  9
$DIMGAP
 40
2.0
  9
$LUNITS
 70
     2
  9
$LUPREC
 70
     1
  9
$SKETCHINC
 40
0.1
  9
$FILLETRAD
 40
5.0
  9
$AUNITS
 70
     0
  9
$AUPREC
 70
     0
  9
$MENU
  1
acad
  9
$ELEVATION
 40
0.0
  9
$PELEVATION
 40
0.0
  9
$THICKNESS
 40
0.0
  9
$LIMCHECK
 70
     0
  9
$BLIPMODE
 70
     0
  9
$CHAMFERA
 40
0.0
  9
$CHAMFERB
 40
0.0
  9
$SKPOLY
 70
     0
  9
$TDCREATE
 40
2450373.687919
  9
$TDUPDATE
 40
2452852.568815
  9
$TDINDWG
 40
1.584289
  9
$TDUSRTIMER
 40
1.584289
  9
$USRTIMER
 70
     1
  9
$ANGBASE
 50
0.0
  9
$ANGDIR
 70
     0
  9
$PDMODE
 70
    32
  9
$PDSIZE
 40
0.0
  9
$PLINEWID
 40
0.0
  9
$COORDS
 70
     1
  9
$SPLFRAME
 70
     0
  9
$SPLINETYPE
 70
     6
  9
$SPLINESEGS
 70
     8
  9
$ATTDIA
 70
     0
  9
$ATTREQ
 70
     1
  9
$HANDLING
 70
     1
  9
$HANDSEED
  5
12003
  9
$SURFTAB1
 70
     6
  9
$SURFTAB2
 70
     6
  9
$SURFTYPE
 70
     6
  9
$SURFU
 70
     6
  9
$SURFV
 70
     6
  9
$UCSNAME
  2

  9
$UCSORG
 10
0.0
 20
0.0
 30
0.0
  9
$UCSXDIR
 10
1.0
 20
0.0
 30
0.0
  9
$UCSYDIR
 10
0.0
 20
1.0
 30
0.0
  9
$PUCSNAME
  2

  9
$PUCSORG
 10
0.0
 20
0.0
 30
0.0
  9
$PUCSXDIR
 10
1.0
 20
0.0
 30
0.0
  9
$PUCSYDIR
 10
0.0
 20
1.0
 30
0.0
  9
$USERI1
 70
     0
  9
$USERI2
 70
     0
  9
$USERI3
 70
     0
  9
$USERI4
 70
     0
  9
$USERI5
 70
     0
  9
$USERR1
 40
0.0
  9
$USERR2
 40
0.0
  9
$USERR3
 40
0.0
  9
$USERR4
 40
0.0
  9
$USERR5
 40
0.0
  9
$WORLDVIEW
 70
     1
  9
$SHADEDGE
 70
     3
  9
$SHADEDIF
 70
    70
  9
$TILEMODE
 70
     1
  9
$MAXACTVP
 70
    16
  9
$PLIMCHECK
 70
     0
  9
$PEXTMIN
 10
-1.452248
 20
-0.437698
 30
0.0
  9
$PEXTMAX
 10
12.749749
 20
8.310198
 30
0.0
  9
$PLIMMIN
 10
0.0
 20
0.0
  9
$PLIMMAX
 10
12.0
 20
9.0
  9
$UNITMODE
 70
     0
  9
$VISRETAIN
 70
     0
  9
$PLINEGEN
 70
     0
  9
$PSLTSCALE
 70
     0
  0
ENDSEC
  0
SECTION
  2
TABLES
  0
TABLE
  2
VPORT
 70
     2
  0
VPORT
  2
*ACTIVE
 70
     0
 10
0.0
 20
0.0
 11
1.0
 21
1.0
 12
87.745203
 22
133.348989
 13
0.0
 23
0.0
 14
1.0
 24
1.0
 15
10.0
 25
10.0
 16
0.0
 26
0.0
 36
1.0
 17
0.0
 27
0.0
 37
0.0
 40
272.375594
 41
1.56
 42
50.0
 43
0.0
 44
0.0
 50
0.0
 51
0.0
 71
     0
 72
   100
 73
     1
 74
     0
 75
     0
 76
     0
 77
     0
 78
     0
  0
ENDTAB
  0
TABLE
  2
LTYPE
 70
     3
  0
LTYPE
  2
CONTINUOUS
 70
     0
  3
Solid line
 72
    65
 73
     0
 40
0.0
  0
LTYPE
  2
AXES2
 70
     0
  3
___ _ ___ _ ___ _ ___ _ ___ _ ___ _ ___ _ ___ _
 72
    65
 73
     4
 40
1.125
 49
0.75
 49
-0.125
 49
0.125
 49
-0.125
  0
LTYPE
  2
CACHE2
 70
     0
  3
Caché (x.5) _ _ _ _ _ _ _ _ _ _ _ _ _ _ _ _ _
 72
    65
 73
     2
 40
0.1875
 49
0.125
 49
-0.0625
  0
ENDTAB
  0
TABLE
  2
LAYER
 70
     7
  0
LAYER
  2
0
 70
     0
 62
   255
  6
CONTINUOUS
  0
LAYER
  2
COTATION1
 70
     0
 62
     2
  6
CONTINUOUS
  0
LAYER
  2
AXE
 70
     0
 62
    80
  6
AXES2
  0
LAYER
  2
DEFPOINTS
 70
     0
 62
     7
  6
CONTINUOUS
  0
LAYER
  2
ALPHA
 70
     0
 62
   254
  6
CONTINUOUS
  0
LAYER
  2
ALPHA_FIN
 70
     0
 62
   255
  6
CONTINUOUS
  0
LAYER
  2
POINTILLE_COURT
 70
     0
 62
    41
  6
CACHE2
  0
ENDTAB
  0
TABLE
  2
STYLE
 70
     2
  0
STYLE
  2
ROMANS
 70
     0
 40
0.0
 41
1.0
 50
0.0
 71
     0
 42
6.0
  3
romans
  4

  0
STYLE
  2
STANDARD
 70
     0
 40
0.2
 41
1.0
 50
0.0
 71
     0
 42
0.2
  3
txt
  4

  0
ENDTAB
  0
TABLE
  2
VIEW
 70
     0
  0
ENDTAB
  0
TABLE
  2
UCS
 70
     0
  0
ENDTAB
  0
TABLE
  2
APPID
 70
     1
  0
APPID
  2
ACAD
 70
     0
  0
ENDTAB
  0
TABLE
  2
DIMSTYLE
 70
     1
  0
DIMSTYLE
  2
SC_DEFAUT
 70
     0
  3

  4

  5
OPEN30
  6

  7

 40
1.0
 41
5.0
 42
2.0
 43
0.38
 44
2.5
 45
0.0
 46
0.0
 47
0.0
 48
0.0
140
2.5
141
0.0
142
0.0
143
25.4
144
1.0
145
0.0
146
1.0
147
2.0
 71
     0
 72
     0
 73
     1
 74
     1
 75
     0
 76
     0
 77
     1
 78
    12
170
     0
171
     2
172
     0
173
     0
174
     0
175
     0
176
     0
177
     0
178
     0
  0
ENDTAB
  0
ENDSEC
  0
SECTION
  2
BLOCKS
  0
BLOCK
  8
0
  2
$MODEL_SPACE
 70
     0
 10
0.0
 20
0.0
 30
0.0
  3
$MODEL_SPACE
  1

  0
ENDBLK
  5
11DF6
  8
0
  0
BLOCK
 67
     1
  8
0
  2
$PAPER_SPACE
 70
     0
 10
0.0
 20
0.0
 30
0.0
  3
$PAPER_SPACE
  1

  0
ENDBLK
  5
11DF4
 67
     1
  8
0
  0
BLOCK
  8
0
  2
COTE
 70
     0
 10
0.0
 20
0.0
 30
0.0
  3
COTE
  1

  0
ENDBLK
  5
F
  8
0
  0
BLOCK
  8
0
  2
FOND
 70
     0
 10
0.0
 20
0.0
 30
0.0
  3
FOND
  1

  0
ENDBLK
  5
75
  8
0
  0
BLOCK
  8
0
  2
_OPEN30
 70
     0
 10
0.0
 20
0.0
 30
0.0
  3
_OPEN30
  1

  0
LINE
  5
4B05
  8
COTATION1
 62
     0
 10
-1.0
 20
0.267949
 30
0.0
 11
0.0
 21
0.0
 31
0.0
1001
ACAD
1000
RTLwPs
1070
   158
  0
LINE
  5
4B06
  8
COTATION1
 62
     0
 10
0.0
 20
0.0
 30
0.0
 11
-1.0
 21
-0.267949
 31
0.0
1001
ACAD
1000
RTLwPs
1070
   158
  0
LINE
  5
4B07
  8
COTATION1
 62
     0
 10
0.0
 20
0.0
 30
0.0
 11
-1.0
 21
0.0
 31
0.0
1001
ACAD
1000
RTLwPs
1070
   158
  0
ENDBLK
  5
4B09
  8
0
  0
BLOCK
  8
0
  2
*D3
 70
     1
 10
0.0
 20
0.0
 30
0.0
  3
*D3
  1

  0
LINE
  5
11B42
  8
COTATION1
 62
     0
 10
72.158853
 20
248.832779
 30
0.0
 11
137.457455
 21
248.832779
 31
0.0
1001
ACAD
1000
RTLwPs
1070
   158
  0
LINE
  5
11B43
  8
COTATION1
 62
     0
 10
95.957455
 20
66.832779
 30
0.0
 11
137.457455
 21
66.832779
 31
0.0
1001
ACAD
1000
RTLwPs
1070
   158
  0
LINE
  5
11B44
  8
COTATION1
 62
     0
 10
134.957455
 20
243.832779
 30
0.0
 11
134.957455
 21
161.082779
 31
0.0
1001
ACAD
1000
RTLwPs
1070
   158
  0
LINE
  5
11B45
  8
COTATION1
 62
     0
 10
134.957455
 20
71.832779
 30
0.0
 11
134.957455
 21
154.582779
 31
0.0
1001
ACAD
1000
RTLwPs
1070
   158
  0
INSERT
  5
11B46
  8
COTATION1
 62
     0
  2
_OPEN30
 10
134.957455
 20
248.832779
 30
0.0
 41
5.0
 42
5.0
 43
5.0
 50
90.0
1001
ACAD
1000
RTLwPs
1070
   158
  0
INSERT
  5
11B47
  8
COTATION1
 62
     0
  2
_OPEN30
 10
134.957455
 20
66.832779
 30
0.0
 41
5.0
 42
5.0
 43
5.0
 50
270.0
1001
ACAD
1000
RTLwPs
1070
   158
  0
TEXT
  5
11B48
  8
COTATION1
 62
     0
 10
131.207455
 20
156.582779
 30
0.0
 40
2.5
  1
182
1001
ACAD
1000
MTEXTBEGIN
1070
    73
1070
     1
1070
    44
1040
1.0
1070
    74
1070
     0
1000
MTEXTEND
  0
POINT
  5
11B49
  8
DEFPOINTS
 62
     0
 10
70.158853
 20
248.832779
 30
0.0
  0
POINT
  5
11B4A
  8
DEFPOINTS
 62
     0
 10
93.957455
 20
66.832779
 30
0.0
  0
POINT
  5
11B4B
  8
DEFPOINTS
 62
     0
 10
134.957455
 20
66.832779
 30
0.0
  0
ENDBLK
  5
11266
  8
0
  0
BLOCK
  8
0
  2
*D4
 70
     1
 10
0.0
 20
0.0
 30
0.0
  3
*D4
  1

  0
LINE
  5
11B38
  8
COTATION1
 62
     0
 10
72.158853
 20
248.832779
 30
0.0
 11
147.457455
 21
248.832779
 31
0.0
1001
ACAD
1000
RTLwPs
1070
   158
  0
LINE
  5
11B39
  8
COTATION1
 62
     0
 10
84.225404
 20
44.832779
 30
0.0
 11
147.457455
 21
44.832779
 31
0.0
1001
ACAD
1000
RTLwPs
1070
   158
  0
LINE
  5
11B3A
  8
COTATION1
 62
     0
 10
144.957455
 20
243.832779
 30
0.0
 11
144.957455
 21
150.082779
 31
0.0
1001
ACAD
1000
RTLwPs
1070
   158
  0
LINE
  5
11B3B
  8
COTATION1
 62
     0
 10
144.957455
 20
49.832779
 30
0.0
 11
144.957455
 21
143.582779
 31
0.0
1001
ACAD
1000
RTLwPs
1070
   158
  0
INSERT
  5
11B3C
  8
COTATION1
 62
     0
  2
_OPEN30
 10
144.957455
 20
248.832779
 30
0.0
 41
5.0
 42
5.0
 43
5.0
 50
90.0
1001
ACAD
1000
RTLwPs
1070
   158
  0
INSERT
  5
11B3D
  8
COTATION1
 62
     0
  2
_OPEN30
 10
144.957455
 20
44.832779
 30
0.0
 41
5.0
 42
5.0
 43
5.0
 50
270.0
1001
ACAD
1000
RTLwPs
1070
   158
  0
TEXT
  5
11B3E
  8
COTATION1
 62
     0
 10
141.326502
 20
145.582779
 30
0.0
 40
2.5
  1
204
1001
ACAD
1000
MTEXTBEGIN
1070
    73
1070
     1
1070
    44
1040
1.0
1070
    74
1070
     0
1000
MTEXTEND
  0
POINT
  5
11B3F
  8
DEFPOINTS
 62
     0
 10
70.158853
 20
248.832779
 30
0.0
  0
POINT
  5
11B40
  8
DEFPOINTS
 62
     0
 10
82.225404
 20
44.832779
 30
0.0
  0
POINT
  5
11B41
  8
DEFPOINTS
 62
     0
 10
144.957455
 20
44.832779
 30
0.0
  0
ENDBLK
  5
11273
  8
0
  0
BLOCK
  8
0
  2
*D5
 70
     1
 10
0.0
 20
0.0
 30
0.0
  3
*D5
  1

  0
LINE
  5
11382
  8
COTATION1
 62
     0
 10
54.957455
 20
64.832779
 30
0.0
 11
54.957455
 21
-1.667221
 31
0.0
1001
ACAD
1000
RTLwPs
1070
   158
  0
LINE
  5
11383
  8
COTATION1
 62
     0
 10
106.957455
 20
67.56483
 30
0.0
 11
106.957455
 21
-1.667221
 31
0.0
1001
ACAD
1000
RTLwPs
1070
   158
  0
LINE
  5
11384
  8
COTATION1
 62
     0
 10
59.957455
 20
0.832779
 30
0.0
 11
101.957455
 21
0.832779
 31
0.0
1001
ACAD
1000
RTLwPs
1070
   158
  0
INSERT
  5
11385
  8
COTATION1
 62
     0
  2
_OPEN30
 10
54.957455
 20
0.832779
 30
0.0
 41
5.0
 42
5.0
 43
5.0
 50
180.0
1001
ACAD
1000
RTLwPs
1070
   158
  0
INSERT
  5
11386
  8
COTATION1
 62
     0
  2
_OPEN30
 10
106.957455
 20
0.832779
 30
0.0
 41
5.0
 42
5.0
 43
5.0
1001
ACAD
1000
RTLwPs
1070
   158
  0
TEXT
  5
11387
  8
COTATION1
 62
     0
 10
78.576502
 20
2.832779
 30
0.0
 40
2.5
  1
52
1001
ACAD
1000
MTEXTBEGIN
1070
    73
1070
     1
1070
    44
1040
1.0
1070
    74
1070
     0
1000
MTEXTEND
1000
MTEXTBEGIN
1070
    73
1070
     1
1070
    44
1040
1.0
1070
    74
1070
     0
1000
MTEXTEND
1000
MTEXTBEGIN
1070
    73
1070
     1
1070
    44
1040
1.0
1070
    74
1070
     0
1000
MTEXTEND
  0
POINT
  5
11388
  8
DEFPOINTS
 62
     0
 10
54.957455
 20
66.832779
 30
0.0
  0
POINT
  5
11389
  8
DEFPOINTS
 62
     0
 10
106.957455
 20
69.56483
 30
0.0
  0
POINT
  5
1138A
  8
DEFPOINTS
 62
     0
 10
106.957455
 20
0.832779
 30
0.0
  0
ENDBLK
  5
1127F
  8
0
  0
BLOCK
  8
0
  2
*D6
 70
     1
 10
0.0
 20
0.0
 30
0.0
  3
*D6
  1

  0
LINE
  5
1139D
  8
COTATION1
 62
     0
 10
71.957455
 20
43.832779
 30
0.0
 11
71.957455
 21
28.332779
 31
0.0
1001
ACAD
1000
RTLwPs
1070
   158
  0
LINE
  5
1139E
  8
COTATION1
 62
     0
 10
83.957455
 20
43.832779
 30
0.0
 11
83.957455
 21
28.332779
 31
0.0
1001
ACAD
1000
RTLwPs
1070
   158
  0
LINE
  5
1139F
  8
COTATION1
 62
     0
 10
66.957455
 20
30.832779
 30
0.0
 11
61.957455
 21
30.832779
 31
0.0
1001
ACAD
1000
RTLwPs
1070
   158
  0
LINE
  5
113A0
  8
COTATION1
 62
     0
 10
88.957455
 20
30.832779
 30
0.0
 11
104.975851
 21
30.832779
 31
0.0
1001
ACAD
1000
RTLwPs
1070
   158
  0
INSERT
  5
113A1
  8
COTATION1
 62
     0
  2
_OPEN30
 10
71.957455
 20
30.832779
 30
0.0
 41
5.0
 42
5.0
 43
5.0
1001
ACAD
1000
RTLwPs
1070
   158
  0
INSERT
  5
113A2
  8
COTATION1
 62
     0
  2
_OPEN30
 10
83.957455
 20
30.832779
 30
0.0
 41
5.0
 42
5.0
 43
5.0
 50
180.0
1001
ACAD
1000
RTLwPs
1070
   158
  0
TEXT
  5
113A3
  8
COTATION1
 62
     0
 10
95.713946
 20
32.832779
 30
0.0
 40
2.5
  1
M12
1001
ACAD
1000
MTEXTBEGIN
1070
    73
1070
     1
1070
    44
1040
1.0
1070
    74
1070
     0
1000
MTEXTEND
1000
MTEXTBEGIN
1070
    73
1070
     1
1070
    44
1040
1.0
1070
    74
1070
     0
1000
MTEXTEND
1000
MTEXTBEGIN
1070
    73
1070
     1
1070
    44
1040
1.0
1070
    74
1070
     0
1000
MTEXTEND
  0
POINT
  5
113A4
  8
DEFPOINTS
 62
     0
 10
71.957455
 20
45.832779
 30
0.0
  0
POINT
  5
113A5
  8
DEFPOINTS
 62
     0
 10
83.957455
 20
45.832779
 30
0.0
  0
POINT
  5
113A6
  8
DEFPOINTS
 62
     0
 10
83.957455
 20
30.832779
 30
0.0
  0
ENDBLK
  5
1128C
  8
0
  0
BLOCK
  8
0
  2
*D7
 70
     1
 10
0.0
 20
0.0
 30
0.0
  3
*D7
  1

  0
LINE
  5
1135A
  8
COTATION1
 62
     0
 10
88.337124
 20
106.832779
 30
0.0
 11
117.457455
 21
106.832779
 31
0.0
1001
ACAD
1000
RTLwPs
1070
   158
  0
LINE
  5
1135B
  8
COTATION1
 62
     0
 10
95.957455
 20
66.832779
 30
0.0
 11
117.457455
 21
66.832779
 31
0.0
1001
ACAD
1000
RTLwPs
1070
   158
  0
LINE
  5
1135C
  8
COTATION1
 62
     0
 10
114.957455
 20
101.832779
 30
0.0
 11
114.957455
 21
90.082779
 31
0.0
1001
ACAD
1000
RTLwPs
1070
   158
  0
LINE
  5
1135D
  8
COTATION1
 62
     0
 10
114.957455
 20
71.832779
 30
0.0
 11
114.957455
 21
83.582779
 31
0.0
1001
ACAD
1000
RTLwPs
1070
   158
  0
INSERT
  5
1135E
  8
COTATION1
 62
     0
  2
_OPEN30
 10
114.957455
 20
106.832779
 30
0.0
 41
5.0
 42
5.0
 43
5.0
 50
90.0
1001
ACAD
1000
RTLwPs
1070
   158
  0
INSERT
  5
1135F
  8
COTATION1
 62
     0
  2
_OPEN30
 10
114.957455
 20
66.832779
 30
0.0
 41
5.0
 42
5.0
 43
5.0
 50
270.0
1001
ACAD
1000
RTLwPs
1070
   158
  0
TEXT
  5
11360
  8
COTATION1
 62
     0
 10
112.576502
 20
85.582779
 30
0.0
 40
2.5
  1
40
1001
ACAD
1000
MTEXTBEGIN
1070
    73
1070
     1
1070
    44
1040
1.0
1070
    74
1070
     0
1000
MTEXTEND
1000
MTEXTBEGIN
1070
    73
1070
     1
1070
    44
1040
1.0
1070
    74
1070
     0
1000
MTEXTEND
1000
MTEXTBEGIN
1070
    73
1070
     1
1070
    44
1040
1.0
1070
    74
1070
     0
1000
MTEXTEND
  0
POINT
  5
11361
  8
DEFPOINTS
 62
     0
 10
86.337124
 20
106.832779
 30
0.0
  0
POINT
  5
11362
  8
DEFPOINTS
 62
     0
 10
93.957455
 20
66.832779
 30
0.0
  0
POINT
  5
11363
  8
DEFPOINTS
 62
     0
 10
114.957455
 20
66.832779
 30
0.0
  0
ENDBLK
  5
11299
  8
0
  0
BLOCK
  8
0
  2
*D8
 70
     1
 10
0.0
 20
0.0
 30
0.0
  3
*D8
  1

  0
LINE
  5
11394
  8
COTATION1
 62
     0
 10
54.957455
 20
64.832779
 30
0.0
 11
54.957455
 21
8.332779
 31
0.0
1001
ACAD
1000
RTLwPs
1070
   158
  0
LINE
  5
11395
  8
COTATION1
 62
     0
 10
84.957455
 20
55.832779
 30
0.0
 11
84.957455
 21
8.332779
 31
0.0
1001
ACAD
1000
RTLwPs
1070
   158
  0
LINE
  5
11396
  8
COTATION1
 62
     0
 10
59.957455
 20
10.832779
 30
0.0
 11
79.957455
 21
10.832779
 31
0.0
1001
ACAD
1000
RTLwPs
1070
   158
  0
INSERT
  5
11397
  8
COTATION1
 62
     0
  2
_OPEN30
 10
54.957455
 20
10.832779
 30
0.0
 41
5.0
 42
5.0
 43
5.0
 50
180.0
1001
ACAD
1000
RTLwPs
1070
   158
  0
INSERT
  5
11398
  8
COTATION1
 62
     0
  2
_OPEN30
 10
84.957455
 20
10.832779
 30
0.0
 41
5.0
 42
5.0
 43
5.0
1001
ACAD
1000
RTLwPs
1070
   158
  0
TEXT
  5
11399
  8
COTATION1
 62
     0
 10
67.576502
 20
12.832779
 30
0.0
 40
2.5
  1
30
1001
ACAD
1000
MTEXTBEGIN
1070
    73
1070
     1
1070
    44
1040
1.0
1070
    74
1070
     0
1000
MTEXTEND
1000
MTEXTBEGIN
1070
    73
1070
     1
1070
    44
1040
1.0
1070
    74
1070
     0
1000
MTEXTEND
1000
MTEXTBEGIN
1070
    73
1070
     1
1070
    44
1040
1.0
1070
    74
1070
     0
1000
MTEXTEND
  0
POINT
  5
1139A
  8
DEFPOINTS
 62
     0
 10
54.957455
 20
66.832779
 30
0.0
  0
POINT
  5
1139B
  8
DEFPOINTS
 62
     0
 10
84.957455
 20
57.832779
 30
0.0
  0
POINT
  5
1139C
  8
DEFPOINTS
 62
     0
 10
84.957455
 20
10.832779
 30
0.0
  0
ENDBLK
  5
112A5
  8
0
  0
BLOCK
  8
0
  2
*D9
 70
     1
 10
0.0
 20
0.0
 30
0.0
  3
*D9
  1

  0
LINE
  5
1138B
  8
COTATION1
 62
     0
 10
59.837124
 20
98.332779
 30
0.0
 11
59.837124
 21
18.332779
 31
0.0
1001
ACAD
1000
RTLwPs
1070
   158
  0
LINE
  5
1138C
  8
COTATION1
 62
     0
 10
79.837124
 20
98.332779
 30
0.0
 11
79.837124
 21
18.332779
 31
0.0
1001
ACAD
1000
RTLwPs
1070
   158
  0
LINE
  5
1138D
  8
COTATION1
 62
     0
 10
64.837124
 20
20.832779
 30
0.0
 11
74.837124
 21
20.832779
 31
0.0
1001
ACAD
1000
RTLwPs
1070
   158
  0
INSERT
  5
1138E
  8
COTATION1
 62
     0
  2
_OPEN30
 10
59.837124
 20
20.832779
 30
0.0
 41
5.0
 42
5.0
 43
5.0
 50
180.0
1001
ACAD
1000
RTLwPs
1070
   158
  0
INSERT
  5
1138F
  8
COTATION1
 62
     0
  2
_OPEN30
 10
79.837124
 20
20.832779
 30
0.0
 41
5.0
 42
5.0
 43
5.0
1001
ACAD
1000
RTLwPs
1070
   158
  0
TEXT
  5
11390
  8
COTATION1
 62
     0
 10
67.456171
 20
22.832779
 30
0.0
 40
2.5
  1
20
1001
ACAD
1000
MTEXTBEGIN
1070
    73
1070
     1
1070
    44
1040
1.0
1070
    74
1070
     0
1000
MTEXTEND
1000
MTEXTBEGIN
1070
    73
1070
     1
1070
    44
1040
1.0
1070
    74
1070
     0
1000
MTEXTEND
1000
MTEXTBEGIN
1070
    73
1070
     1
1070
    44
1040
1.0
1070
    74
1070
     0
1000
MTEXTEND
  0
POINT
  5
11391
  8
DEFPOINTS
 62
     0
 10
59.837124
 20
100.332779
 30
0.0
  0
POINT
  5
11392
  8
DEFPOINTS
 62
     0
 10
79.837124
 20
100.332779
 30
0.0
  0
POINT
  5
11393
  8
DEFPOINTS
 62
     0
 10
79.837124
 20
20.832779
 30
0.0
  0
ENDBLK
  5
112B1
  8
0
  0
BLOCK
  8
0
  2
*D10
 70
     1
 10
0.0
 20
0.0
 30
0.0
  3
*D10
  1

  0
LINE
  5
11354
  8
COTATION1
 62
     0
 10
31.812262
 20
93.482114
 30
0.0
 11
37.740834
 21
93.482114
 31
0.0
1001
ACAD
1000
RTLwPs
1070
   158
  0
LINE
  5
11355
  8
COTATION1
 62
     0
 10
37.740834
 20
93.482114
 30
0.0
 11
52.134011
 21
102.178528
 31
0.0
1001
ACAD
1000
RTLwPs
1070
   158
  0
TEXT
  5
11356
  8
COTATION1
 62
     0
 10
31.574167
 20
95.482114
 30
0.0
 40
2.5
  1
%%c8
1001
ACAD
1000
MTEXTBEGIN
1070
    73
1070
     1
1070
    44
1040
1.0
1070
    74
1070
     0
1000
MTEXTEND
1000
MTEXTBEGIN
1070
    73
1070
     1
1070
    44
1040
1.0
1070
    74
1070
     0
1000
MTEXTEND
1000
MTEXTBEGIN
1070
    73
1070
     1
1070
    44
1040
1.0
1070
    74
1070
     0
1000
MTEXTEND
  0
INSERT
  5
11357
  8
COTATION1
 62
     0
  2
_OPEN30
 10
56.413518
 20
104.764223
 30
0.0
 41
5.0
 42
5.0
 43
5.0
 50
31.140535
1001
ACAD
1000
RTLwPs
1070
   158
  0
POINT
  5
11358
  8
DEFPOINTS
 62
     0
 10
56.413518
 20
104.764223
 30
0.0
  0
POINT
  5
11359
  8
DEFPOINTS
 62
     0
 10
63.260729
 20
108.901335
 30
0.0
  0
ENDBLK
  5
112BA
  8
0
  0
BLOCK
  8
0
  2
*D11
 70
     1
 10
0.0
 20
0.0
 30
0.0
  3
*D11
  1

  0
LINE
  5
113BA
  8
COTATION1
 62
     0
 10
41.548723
 20
116.592548
 30
0.0
 11
51.048723
 21
116.592548
 31
0.0
1001
ACAD
1000
RTLwPs
1070
   158
  0
LINE
  5
113BB
  8
COTATION1
 62
     0
 10
51.048723
 20
116.592548
 30
0.0
 11
55.086098
 21
112.108928
 31
0.0
1001
ACAD
1000
RTLwPs
1070
   158
  0
TEXT
  5
113BC
  8
COTATION1
 62
     0
 10
41.310627
 20
118.592548
 30
0.0
 40
2.5
  1
%%c4.2
1001
ACAD
1000
MTEXTBEGIN
1070
    73
1070
     1
1070
    44
1040
1.0
1070
    74
1070
     0
1000
MTEXTEND
1000
MTEXTBEGIN
1070
    73
1070
     1
1070
    44
1040
1.0
1070
    74
1070
     0
1000
MTEXTEND
1000
MTEXTBEGIN
1070
    73
1070
     1
1070
    44
1040
1.0
1070
    74
1070
     0
1000
MTEXTEND
  0
INSERT
  5
113BD
  8
COTATION1
 62
     0
  2
_OPEN30
 10
58.431891
 20
108.39333
 30
0.0
 41
5.0
 42
5.0
 43
5.0
 50
312.002156
1001
ACAD
1000
RTLwPs
1070
   158
  0
POINT
  5
113BE
  8
DEFPOINTS
 62
     0
 10
58.431891
 20
108.39333
 30
0.0
  0
POINT
  5
113BF
  8
DEFPOINTS
 62
     0
 10
61.242357
 20
105.272227
 30
0.0
  0
ENDBLK
  5
112C3
  8
0
  0
BLOCK
  8
0
  2
*D12
 70
     1
 10
0.0
 20
0.0
 30
0.0
  3
*D12
  1

  0
LINE
  5
11A55
  8
COTATION1
 62
     0
 10
68.158853
 20
248.832779
 30
0.0
 11
27.77241
 21
248.832779
 31
0.0
1001
ACAD
1000
RTLwPs
1070
   158
  0
LINE
  5
11A56
  8
COTATION1
 62
     0
 10
51.337124
 20
106.832779
 30
0.0
 11
27.77241
 21
106.832779
 31
0.0
1001
ACAD
1000
RTLwPs
1070
   158
  0
LINE
  5
11A57
  8
COTATION1
 62
     0
 10
30.27241
 20
243.832779
 30
0.0
 11
30.27241
 21
181.082779
 31
0.0
1001
ACAD
1000
RTLwPs
1070
   158
  0
LINE
  5
11A58
  8
COTATION1
 62
     0
 10
30.27241
 20
111.832779
 30
0.0
 11
30.27241
 21
174.582779
 31
0.0
1001
ACAD
1000
RTLwPs
1070
   158
  0
INSERT
  5
11A59
  8
COTATION1
 62
     0
  2
_OPEN30
 10
30.27241
 20
248.832779
 30
0.0
 41
5.0
 42
5.0
 43
5.0
 50
90.0
1001
ACAD
1000
RTLwPs
1070
   158
  0
INSERT
  5
11A5A
  8
COTATION1
 62
     0
  2
_OPEN30
 10
30.27241
 20
106.832779
 30
0.0
 41
5.0
 42
5.0
 43
5.0
 50
270.0
1001
ACAD
1000
RTLwPs
1070
   158
  0
TEXT
  5
11A5B
  8
COTATION1
 62
     0
 10
26.52241
 20
176.582779
 30
0.0
 40
2.5
  1
142
1001
ACAD
1000
MTEXTBEGIN
1070
    73
1070
     1
1070
    44
1040
1.0
1070
    74
1070
     0
1000
MTEXTEND
1000
MTEXTBEGIN
1070
    73
1070
     1
1070
    44
1040
1.0
1070
    74
1070
     0
1000
MTEXTEND
  0
POINT
  5
11A5C
  8
DEFPOINTS
 62
     0
 10
70.158853
 20
248.832779
 30
0.0
  0
POINT
  5
11A5D
  8
DEFPOINTS
 62
     0
 10
53.337124
 20
106.832779
 30
0.0
  0
POINT
  5
11A5E
  8
DEFPOINTS
 62
     0
 10
30.27241
 20
106.832779
 30
0.0
  0
ENDBLK
  5
11A3A
  8
0
  0
BLOCK
  8
0
  2
*D13
 70
     1
 10
0.0
 20
0.0
 30
0.0
  3
*D13
  1

  0
LINE
  5
11A69
  8
COTATION1
 62
     0
 10
70.158853
 20
250.832779
 30
0.0
 11
70.158853
 21
266.332779
 31
0.0
1001
ACAD
1000
RTLwPs
1070
   158
  0
LINE
  5
11A6A
  8
COTATION1
 62
     0
 10
71.357662
 20
250.679259
 30
0.0
 11
71.357662
 21
266.332779
 31
0.0
1001
ACAD
1000
RTLwPs
1070
   158
  0
LINE
  5
11A6B
  8
COTATION1
 62
     0
 10
76.357662
 20
263.832779
 30
0.0
 11
81.357662
 21
263.832779
 31
0.0
1001
ACAD
1000
RTLwPs
1070
   158
  0
LINE
  5
11A6C
  8
COTATION1
 62
     0
 10
65.158853
 20
263.832779
 30
0.0
 11
48.658853
 21
263.832779
 31
0.0
1001
ACAD
1000
RTLwPs
1070
   158
  0
INSERT
  5
11A6D
  8
COTATION1
 62
     0
  2
_OPEN30
 10
71.357662
 20
263.832779
 30
0.0
 41
5.0
 42
5.0
 43
5.0
 50
180.0
1001
ACAD
1000
RTLwPs
1070
   158
  0
INSERT
  5
11A6E
  8
COTATION1
 62
     0
  2
_OPEN30
 10
70.158853
 20
263.832779
 30
0.0
 41
5.0
 42
5.0
 43
5.0
1001
ACAD
1000
RTLwPs
1070
   158
  0
TEXT
  5
11A6F
  8
COTATION1
 62
     0
 10
50.420758
 20
265.832779
 30
0.0
 40
2.5
  1
%%c
1001
ACAD
1000
MTEXTBEGIN
1070
    73
1070
     1
1070
    44
1040
1.0
1070
    74
1070
     0
1000
MTEXTEND
1000
MTEXTBEGIN
1070
    73
1070
     1
1070
    44
1040
1.0
1070
    74
1070
     0
1000
MTEXTEND
  0
TEXT
  5
11DBB
  8
COTATION1
 62
     0
 10
52.682663
 20
265.832779
 30
0.0
 40
2.5
  1
1.2
1001
ACAD
1000
R13OBJECT
1002
{
1005
11A6F
1002
}
  0
POINT
  5
11A70
  8
DEFPOINTS
 62
     0
 10
70.158853
 20
248.832779
 30
0.0
  0
POINT
  5
11A71
  8
DEFPOINTS
 62
     0
 10
71.357662
 20
248.679259
 30
0.0
  0
POINT
  5
11A72
  8
DEFPOINTS
 62
     0
 10
71.357662
 20
263.832779
 30
0.0
  0
ENDBLK
  5
11A54
  8
0
  0
BLOCK
  8
0
  2
*D14
 70
     1
 10
0.0
 20
0.0
 30
0.0
  3
*D14
  1

  0
LINE
  5
11B6E
  8
COTATION1
 62
     0
 10
71.837124
 20
116.832779
 30
0.0
 11
127.457455
 21
116.832779
 31
0.0
1001
ACAD
1000
RTLwPs
1070
   158
  0
LINE
  5
11B6F
  8
COTATION1
 62
     0
 10
105.957455
 20
66.832779
 30
0.0
 11
127.457455
 21
66.832779
 31
0.0
1001
ACAD
1000
RTLwPs
1070
   158
  0
LINE
  5
11B70
  8
COTATION1
 62
     0
 10
124.957455
 20
111.832779
 30
0.0
 11
124.957455
 21
95.082779
 31
0.0
1001
ACAD
1000
RTLwPs
1070
   158
  0
LINE
  5
11B71
  8
COTATION1
 62
     0
 10
124.957455
 20
71.832779
 30
0.0
 11
124.957455
 21
88.582779
 31
0.0
1001
ACAD
1000
RTLwPs
1070
   158
  0
INSERT
  5
11B72
  8
COTATION1
 62
     0
  2
_OPEN30
 10
124.957455
 20
116.832779
 30
0.0
 41
5.0
 42
5.0
 43
5.0
 50
90.0
1001
ACAD
1000
RTLwPs
1070
   158
  0
INSERT
  5
11B73
  8
COTATION1
 62
     0
  2
_OPEN30
 10
124.957455
 20
66.832779
 30
0.0
 41
5.0
 42
5.0
 43
5.0
 50
270.0
1001
ACAD
1000
RTLwPs
1070
   158
  0
TEXT
  5
11B74
  8
COTATION1
 62
     0
 10
122.576502
 20
90.582779
 30
0.0
 40
2.5
  1
50
1001
ACAD
1000
MTEXTBEGIN
1070
    73
1070
     1
1070
    44
1040
1.0
1070
    74
1070
     0
1000
MTEXTEND
  0
POINT
  5
11B75
  8
DEFPOINTS
 62
     0
 10
69.837124
 20
116.832779
 30
0.0
  0
POINT
  5
11B76
  8
DEFPOINTS
 62
     0
 10
103.957455
 20
66.832779
 30
0.0
  0
POINT
  5
11B77
  8
DEFPOINTS
 62
     0
 10
124.957455
 20
66.832779
 30
0.0
  0
ENDBLK
  5
11B59
  8
0
  0
ENDSEC
  0
SECTION
  2
ENTITIES
  0
INSERT
  5
A
  8
0
  2
COTE
 10
0.0
 20
0.0
 30
0.0
  0
INSERT
  5
17
  8
0
  2
COTE
 10
284.010391
 20
6.373258
 30
0.0
  0
INSERT
  5
72
  8
0
  2
FOND
 10
0.0
 20
0.0
 30
0.0
  0
POLYLINE
  5
111B4
  8
ALPHA
 66
     1
 10
0.0
 20
0.0
 30
0.0
 70
   128
210
0.0
220
0.0
230
-1.0
  0
VERTEX
  5
11DFC
  8
ALPHA
 10
-73.282969
 20
111.949789
 30
0.0
  0
VERTEX
  5
11DFD
  8
ALPHA
 10
-71.919152
 20
107.017873
 30
0.0
  0
VERTEX
  5
11DFE
  8
ALPHA
 10
-70.964634
 20
104.955335
 30
0.0
  0
VERTEX
  5
11DFF
  8
ALPHA
 10
-70.421231
 20
104.336006
 30
0.0
  0
VERTEX
  5
11E00
  8
ALPHA
 10
-69.834499
 20
104.109812
 30
0.0
  0
VERTEX
  5
11E01
  8
ALPHA
 10
-69.247767
 20
104.336006
 30
0.0
  0
VERTEX
  5
11E02
  8
ALPHA
 10
-68.704373
 20
104.955335
 30
0.0
  0
VERTEX
  5
11E03
  8
ALPHA
 10
-67.749918
 20
107.017873
 30
0.0
  0
VERTEX
  5
11E04
  8
ALPHA
 10
-66.386612
 20
111.949789
 30
0.0
  0
SEQEND
  5
11E05
  8
ALPHA
  0
DIMENSION
  5
111BC
  8
COTATION1
  2
*D3
 10
134.957455
 20
66.832779
 30
0.0
 11
134.957455
 21
157.832779
 31
0.0
 13
70.158853
 23
248.832779
 33
0.0
 14
93.957455
 24
66.832779
 34
0.0
 50
90.0
  0
LINE
  5
111BD
  8
AXE
 10
69.837124
 20
171.941996
 30
0.0
 11
69.837124
 21
40.832779
 31
0.0
  0
DIMENSION
  5
111BE
  8
COTATION1
  2
*D4
 10
144.957455
 20
44.832779
 30
0.0
 11
144.957455
 21
146.832779
 31
0.0
 13
70.158853
 23
248.832779
 33
0.0
 14
82.225404
 24
44.832779
 34
0.0
 50
90.0
  0
DIMENSION
  5
111BF
  8
COTATION1
  2
*D5
 10
106.957455
 20
0.832779
 30
0.0
 11
80.957455
 21
4.082779
 31
0.0
 13
54.957455
 23
66.832779
 33
0.0
 14
106.957455
 24
69.56483
 34
0.0
  0
DIMENSION
  5
111C0
  8
COTATION1
  2
*D6
 10
83.957455
 20
30.832779
 30
0.0
 11
99.582994
 21
30.832779
 31
0.0
 70
   128
  1
M<>
 13
71.957455
 23
45.832779
 33
0.0
 14
83.957455
 24
45.832779
 34
0.0
  0
LINE
  5
111C1
  8
POINTILLE_COURT
 10
94.957455
 20
78.75927
 30
0.0
 11
106.577246
 21
78.75927
 31
0.0
  0
LINE
  5
111C2
  8
POINTILLE_COURT
 10
105.957455
 20
79.832779
 30
0.0
 11
94.957455
 21
79.832779
 31
0.0
  0
LINE
  5
111C3
  8
POINTILLE_COURT
 10
94.957455
 20
68.906288
 30
0.0
 11
106.577246
 21
68.906288
 31
0.0
  0
LINE
  5
111C4
  8
POINTILLE_COURT
 10
105.957455
 20
67.832779
 30
0.0
 11
94.957455
 21
67.832779
 31
0.0
  0
TEXT
  5
111C5
  8
AXE
 10
90.981264
 20
92.832779
 30
0.0
 40
8.0
  1
X
 72
     2
 11
97.457455
 21
92.832779
 31
0.0
  0
LINE
  5
111C6
  8
AXE
 10
49.957455
 20
91.832779
 30
0.0
 11
97.457455
 21
91.832779
 31
0.0
  0
DIMENSION
  5
111C7
  8
COTATION1
  2
*D7
 10
114.957455
 20
66.832779
 30
0.0
 11
114.957455
 21
86.832779
 31
0.0
 13
86.337124
 23
106.832779
 33
0.0
 14
93.957455
 24
66.832779
 34
0.0
 50
90.0
  0
DIMENSION
  5
111C8
  8
COTATION1
  2
*D8
 10
84.957455
 20
10.832779
 30
0.0
 11
69.957455
 21
14.082779
 31
0.0
 13
54.957455
 23
66.832779
 33
0.0
 14
84.957455
 24
57.832779
 34
0.0
  0
DIMENSION
  5
111C9
  8
COTATION1
  2
*D9
 10
79.837124
 20
20.832779
 30
0.0
 11
69.837124
 21
24.082779
 31
0.0
 13
59.837124
 23
100.332779
 33
0.0
 14
79.837124
 24
100.332779
 34
0.0
  0
LINE
  5
111CA
  8
ALPHA
 10
84.957455
 20
80.832779
 30
0.0
 11
70.957455
 21
66.832779
 31
0.0
  0
LINE
  5
111CB
  8
POINTILLE_COURT
 10
93.957455
 20
80.832779
 30
0.0
 11
93.957455
 21
73.832779
 31
0.0
  0
LINE
  5
111CC
  8
POINTILLE_COURT
 10
94.957455
 20
79.832779
 30
0.0
 11
94.957455
 21
73.832779
 31
0.0
  0
LINE
  5
111CD
  8
ALPHA
 10
54.957455
 20
66.832779
 30
0.0
 11
54.957455
 21
114.832779
 31
0.0
  0
LINE
  5
111CE
  8
ALPHA
 10
84.957455
 20
57.832779
 30
0.0
 11
84.957455
 21
114.832779
 31
0.0
  0
LINE
  5
111CF
  8
ALPHA
 10
54.957455
 20
68.832779
 30
0.0
 11
72.957455
 21
68.832779
 31
0.0
  0
TEXT
  5
111D0
  8
AXE
 10
62.360933
 20
40.832779
 30
0.0
 40
8.0
  1
Y
 72
     2
 11
68.837124
 21
40.832779
 31
0.0
  0
LINE
  5
111D1
  8
ALPHA
 10
54.957455
 20
66.832779
 30
0.0
 11
84.957455
 21
66.832779
 31
0.0
  0
LINE
  5
111D2
  8
ALPHA
 10
71.957455
 20
45.832779
 30
0.0
 11
71.957455
 21
56.832779
 31
0.0
  0
LINE
  5
111D3
  8
ALPHA_FIN
 10
73.030964
 20
56.832779
 30
0.0
 11
73.030964
 21
45.212988
 31
0.0
  0
LINE
  5
111D4
  8
ALPHA
 10
83.957455
 20
45.832779
 30
0.0
 11
83.957455
 21
56.832779
 31
0.0
  0
LINE
  5
111D5
  8
ALPHA_FIN
 10
82.883946
 20
56.832779
 30
0.0
 11
82.883946
 21
45.212988
 31
0.0
  0
LINE
  5
111D6
  8
ALPHA
 10
77.957455
 20
45.832779
 30
0.0
 11
83.957455
 21
45.832779
 31
0.0
  0
LINE
  5
111D7
  8
ALPHA
 10
77.957455
 20
44.832779
 30
0.0
 11
82.225404
 21
44.832779
 31
0.0
  0
LINE
  5
111D8
  8
ALPHA
 10
71.957455
 20
45.832779
 30
0.0
 11
73.689506
 21
44.832779
 31
0.0
  0
LINE
  5
111D9
  8
ALPHA
 10
77.957455
 20
45.832779
 30
0.0
 11
71.957455
 21
45.832779
 31
0.0
  0
LINE
  5
111DA
  8
ALPHA
 10
77.957455
 20
44.832779
 30
0.0
 11
73.689506
 21
44.832779
 31
0.0
  0
LINE
  5
111DB
  8
ALPHA
 10
83.957455
 20
45.832779
 30
0.0
 11
82.225404
 21
44.832779
 31
0.0
  0
LINE
  5
111DC
  8
ALPHA
 10
83.957455
 20
56.832779
 30
0.0
 11
77.957455
 21
56.832779
 31
0.0
  0
LINE
  5
111DD
  8
ALPHA
 10
84.957455
 20
57.832779
 30
0.0
 11
77.957455
 21
57.832779
 31
0.0
  0
LINE
  5
111DE
  8
ALPHA
 10
70.957455
 20
66.832779
 30
0.0
 11
70.957455
 21
57.832779
 31
0.0
  0
LINE
  5
111DF
  8
ALPHA
 10
71.957455
 20
56.832779
 30
0.0
 11
70.957455
 21
57.832779
 31
0.0
  0
LINE
  5
111E0
  8
ALPHA
 10
70.957455
 20
57.832779
 30
0.0
 11
77.957455
 21
57.832779
 31
0.0
  0
LINE
  5
111E1
  8
ALPHA
 10
71.957455
 20
56.832779
 30
0.0
 11
77.957455
 21
56.832779
 31
0.0
  0
LINE
  5
111E2
  8
ALPHA
 10
83.957455
 20
56.832779
 30
0.0
 11
84.957455
 21
57.832779
 31
0.0
  0
LINE
  5
111E3
  8
POINTILLE_COURT
 10
84.957455
 20
66.832779
 30
0.0
 11
93.957455
 21
66.832779
 31
0.0
  0
LINE
  5
111E4
  8
POINTILLE_COURT
 10
94.957455
 20
67.832779
 30
0.0
 11
94.957455
 21
73.832779
 31
0.0
  0
LINE
  5
111E5
  8
POINTILLE_COURT
 10
93.957455
 20
66.832779
 30
0.0
 11
93.957455
 21
73.832779
 31
0.0
  0
LINE
  5
111E6
  8
POINTILLE_COURT
 10
94.957455
 20
67.832779
 30
0.0
 11
93.957455
 21
66.832779
 31
0.0
  0
LINE
  5
111E7
  8
ALPHA
 10
60.475283
 20
111.94979
 30
0.0
 11
69.342859
 21
111.94979
 31
0.0
  0
LINE
  5
111E8
  8
ALPHA
 10
79.194881
 20
114.116382
 30
0.0
 11
60.475283
 21
114.116382
 31
0.0
  0
DIMENSION
  5
111E9
  8
COTATION1
  2
*D10
 10
63.260729
 20
108.901335
 30
0.0
 11
33.776548
 21
93.482114
 31
0.0
 70
   131
 15
56.413518
 25
104.764223
 35
0.0
 40
0.0
  0
LINE
  5
111EA
  8
AXE
 10
53.337124
 20
106.832779
 30
0.0
 11
66.337124
 21
106.832779
 31
0.0
  0
CIRCLE
  5
111EB
  8
ALPHA
 10
59.837124
 20
106.832779
 30
0.0
 40
4.0
  0
ARC
  5
111EC
  8
ALPHA
 10
69.957455
 20
59.586399
 30
0.0
 40
57.246507
 50
74.809764
 51
105.190236
  0
DIMENSION
  5
111EF
  8
COTATION1
  2
*D11
 10
61.242357
 20
105.272227
 30
0.0
 11
45.298723
 21
116.592548
 31
0.0
 70
   131
 15
58.431891
 25
108.39333
 35
0.0
 40
0.0
  0
LINE
  5
111F0
  8
AXE
 10
59.837124
 20
100.332779
 30
0.0
 11
59.837124
 21
113.332779
 31
0.0
  0
CIRCLE
  5
111F1
  8
ALPHA
 10
59.837124
 20
106.832779
 30
0.0
 40
2.1
  0
LINE
  5
111F2
  8
ALPHA
 10
60.475283
 20
114.116382
 30
0.0
 11
60.475283
 21
111.94979
 31
0.0
  0
LINE
  5
111F5
  8
POINTILLE_COURT
 10
93.957455
 20
80.832779
 30
0.0
 11
84.957455
 21
80.832779
 31
0.0
  0
LINE
  5
111F6
  8
POINTILLE_COURT
 10
94.957455
 20
79.832779
 30
0.0
 11
93.957455
 21
80.832779
 31
0.0
  0
LINE
  5
111F7
  8
AXE
 10
86.337124
 20
106.832779
 30
0.0
 11
73.337124
 21
106.832779
 31
0.0
  0
CIRCLE
  5
111F8
  8
ALPHA
 10
79.837124
 20
106.832779
 30
0.0
 40
2.1
  0
CIRCLE
  5
111F9
  8
ALPHA
 10
79.837124
 20
106.832779
 30
0.0
 40
4.0
  0
LINE
  5
111FA
  8
ALPHA
 10
70.327888
 20
111.94979
 30
0.0
 11
79.194881
 21
111.94979
 31
0.0
  0
LINE
  5
111FE
  8
ALPHA
 10
70.327888
 20
112.934817
 30
0.0
 11
70.327888
 21
111.94979
 31
0.0
  0
LINE
  5
111FF
  8
ALPHA
 10
69.342859
 20
112.934817
 30
0.0
 11
70.327888
 21
112.934817
 31
0.0
  0
LINE
  5
11200
  8
ALPHA
 10
69.342859
 20
111.94979
 30
0.0
 11
69.342859
 21
112.934817
 31
0.0
  0
LINE
  5
11203
  8
ALPHA
 10
79.194881
 20
111.94979
 30
0.0
 11
79.194881
 21
114.116382
 31
0.0
  0
LINE
  5
11207
  8
AXE
 10
79.837124
 20
100.332779
 30
0.0
 11
79.837124
 21
113.332779
 31
0.0
  0
LINE
  5
1120A
  8
POINTILLE_COURT
 10
106.957455
 20
73.832779
 30
0.0
 11
106.957455
 21
78.100728
 31
0.0
  0
LINE
  5
1120B
  8
POINTILLE_COURT
 10
105.957455
 20
73.832779
 30
0.0
 11
105.957455
 21
79.832779
 31
0.0
  0
LINE
  5
1120C
  8
POINTILLE_COURT
 10
106.957455
 20
73.832779
 30
0.0
 11
106.957455
 21
69.56483
 31
0.0
  0
LINE
  5
1120D
  8
POINTILLE_COURT
 10
105.957455
 20
73.832779
 30
0.0
 11
105.957455
 21
67.832779
 31
0.0
  0
LINE
  5
1120E
  8
POINTILLE_COURT
 10
105.957455
 20
67.832779
 30
0.0
 11
106.957455
 21
69.56483
 31
0.0
  0
LINE
  5
1120F
  8
POINTILLE_COURT
 10
105.957455
 20
79.832779
 30
0.0
 11
106.957455
 21
78.100728
 31
0.0
  0
DIMENSION
  5
119E4
  8
COTATION1
  2
*D12
 10
30.27241
 20
106.832779
 30
0.0
 11
30.27241
 21
177.832779
 31
0.0
 70
   128
 13
70.158853
 23
248.832779
 33
0.0
 14
53.337124
 24
106.832779
 34
0.0
 50
90.0
  0
DIMENSION
  5
119E5
  8
COTATION1
  2
*D13
 10
71.357662
 20
263.832779
 30
0.0
 11
54.408853
 21
263.832779
 31
0.0
 70
   128
  1
%%c1.2
 13
70.158853
 23
248.832779
 33
0.0
 14
71.357662
 24
248.679259
 34
0.0
  0
LINE
  5
119E6
  8
ALPHA
 10
70.158853
 20
248.832779
 30
0.0
 11
71.357662
 21
248.679259
 31
0.0
  0
LINE
  5
119E7
  8
ALPHA
 10
71.357662
 20
248.679259
 30
0.0
 11
71.35766
 21
173.561879
 31
0.0
  0
LINE
  5
119E8
  8
ALPHA
 10
70.158853
 20
173.08596
 30
0.0
 11
70.158853
 21
248.832779
 31
0.0
  0
LINE
  5
119E9
  8
ALPHA
 10
71.357662
 20
248.679259
 30
0.0
 11
71.357662
 21
175.736553
 31
0.0
  0
LINE
  5
119EA
  8
ALPHA
 10
70.158853
 20
175.259966
 30
0.0
 11
70.158853
 21
248.832779
 31
0.0
  0
POLYLINE
  5
119EC
  8
ALPHA
 66
     1
 10
0.0
 20
0.0
 30
0.0
 70
   128
  0
VERTEX
  5
11E06
  8
ALPHA
 10
72.875526
 20
159.481903
 30
0.0
  0
VERTEX
  5
11E07
  8
ALPHA
 10
72.59875
 20
159.451944
 30
0.0
  0
VERTEX
  5
11E08
  8
ALPHA
 10
71.872507
 20
159.373334
 30
0.0
  0
VERTEX
  5
11E09
  8
ALPHA
 10
69.696143
 20
159.137761
 30
0.0
  0
VERTEX
  5
11E0A
  8
ALPHA
 10
67.595479
 20
158.910381
 30
0.0
  0
VERTEX
  5
11E0B
  8
ALPHA
 10
66.963861
 20
158.842013
 30
0.0
  0
VERTEX
  5
11E0C
  8
ALPHA
 10
66.770294
 20
158.82364
 30
0.0
  0
VERTEX
  5
11E0D
  8
ALPHA
 10
66.3442
 20
158.615125
 30
0.0
  0
VERTEX
  5
11E0E
  8
ALPHA
 10
66.199774
 20
158.156896
 30
0.0
  0
VERTEX
  5
11E0F
  8
ALPHA
 10
66.428136
 20
157.743695
 30
0.0
  0
VERTEX
  5
11E10
  8
ALPHA
 10
66.709353
 20
157.607349
 30
0.0
  0
VERTEX
  5
11E11
  8
ALPHA
 10
66.30829
 20
157.360825
 30
0.0
  0
VERTEX
  5
11E12
  8
ALPHA
 10
66.208945
 20
156.889755
 30
0.0
  0
VERTEX
  5
11E13
  8
ALPHA
 10
66.475551
 20
156.502593
 30
0.0
  0
VERTEX
  5
11E14
  8
ALPHA
 10
66.701865
 20
156.415605
 30
0.0
  0
VERTEX
  5
11E15
  8
ALPHA
 10
66.65034
 20
156.388492
 30
0.0
  0
VERTEX
  5
11E16
  8
ALPHA
 10
66.276824
 20
156.104819
 30
0.0
  0
VERTEX
  5
11E17
  8
ALPHA
 10
66.223858
 20
155.624852
 30
0.0
  0
VERTEX
  5
11E18
  8
ALPHA
 10
66.526191
 20
155.265124
 30
0.0
  0
VERTEX
  5
11E19
  8
ALPHA
 10
66.762581
 20
155.199871
 30
0.0
  0
VERTEX
  5
11E1A
  8
ALPHA
 10
66.59356
 20
155.162009
 30
0.0
  0
VERTEX
  5
11E1B
  8
ALPHA
 10
66.250108
 20
154.843741
 30
0.0
  0
VERTEX
  5
11E1C
  8
ALPHA
 10
66.244207
 20
154.360502
 30
0.0
  0
VERTEX
  5
11E1D
  8
ALPHA
 10
66.57975
 20
154.032556
 30
0.0
  0
VERTEX
  5
11E1E
  8
ALPHA
 10
66.778032
 20
153.990043
 30
0.0
  0
VERTEX
  5
11E1F
  8
ALPHA
 10
66.539319
 20
153.931036
 30
0.0
  0
VERTEX
  5
11E20
  8
ALPHA
 10
66.228448
 20
153.580121
 30
0.0
  0
VERTEX
  5
11E21
  8
ALPHA
 10
66.269688
 20
153.098045
 30
0.0
  0
VERTEX
  5
11E22
  8
ALPHA
 10
66.635924
 20
152.804622
 30
0.0
  0
VERTEX
  5
11E23
  8
ALPHA
 10
66.716871
 20
152.775807
 30
0.0
  0
VERTEX
  5
11E24
  8
ALPHA
 10
66.487921
 20
152.694186
 30
0.0
  0
VERTEX
  5
11E25
  8
ALPHA
 10
66.212147
 20
152.313203
 30
0.0
  0
VERTEX
  5
11E26
  8
ALPHA
 10
66.299995
 20
151.839043
 30
0.0
  0
VERTEX
  5
11E27
  8
ALPHA
 10
66.694407
 20
151.581652
 30
0.0
  0
VERTEX
  5
11E28
  8
ALPHA
 10
66.657601
 20
151.554949
 30
0.0
  0
VERTEX
  5
11E29
  8
ALPHA
 10
66.439671
 20
151.45201
 30
0.0
  0
VERTEX
  5
11E2A
  8
ALPHA
 10
66.201512
 20
151.044931
 30
0.0
  0
VERTEX
  5
11E2B
  8
ALPHA
 10
66.334823
 20
150.583532
 30
0.0
  0
VERTEX
  5
11E2C
  8
ALPHA
 10
66.754895
 20
150.365124
 30
0.0
  0
VERTEX
  5
11E2D
  8
ALPHA
 10
66.394875
 20
150.206474
 30
0.0
  0
VERTEX
  5
11E2E
  8
ALPHA
 10
66.196847
 20
149.77488
 30
0.0
  0
VERTEX
  5
11E2F
  8
ALPHA
 10
66.373867
 20
149.332342
 30
0.0
  0
VERTEX
  5
11E30
  8
ALPHA
 10
66.785795
 20
149.15501
 30
0.0
  0
VERTEX
  5
11E31
  8
ALPHA
 10
66.353837
 20
148.957082
 30
0.0
  0
VERTEX
  5
11E32
  8
ALPHA
 10
66.198414
 20
148.504638
 30
0.0
  0
VERTEX
  5
11E33
  8
ALPHA
 10
66.416822
 20
148.084958
 30
0.0
  0
VERTEX
  5
11E34
  8
ALPHA
 10
66.724419
 20
147.942193
 30
0.0
  0
VERTEX
  5
11E35
  8
ALPHA
 10
66.316863
 20
147.704313
 30
0.0
  0
VERTEX
  5
11E36
  8
ALPHA
 10
66.206102
 20
147.236706
 30
0.0
  0
VERTEX
  5
11E37
  8
ALPHA
 10
66.463383
 20
146.843162
 30
0.0
  0
VERTEX
  5
11E38
  8
ALPHA
 10
66.686981
 20
146.751017
 30
0.0
  0
VERTEX
  5
11E39
  8
ALPHA
 10
66.664896
 20
146.72474
 30
0.0
  0
VERTEX
  5
11E3A
  8
ALPHA
 10
66.284257
 20
146.448967
 30
0.0
  0
VERTEX
  5
11E3B
  8
ALPHA
 10
66.219608
 20
145.970131
 30
0.0
  0
VERTEX
  5
11E3C
  8
ALPHA
 10
66.513245
 20
145.604816
 30
0.0
  0
VERTEX
  5
11E3D
  8
ALPHA
 10
66.747235
 20
145.534472
 30
0.0
  0
VERTEX
  5
11E3E
  8
ALPHA
 10
66.607529
 20
145.500431
 30
0.0
  0
VERTEX
  5
11E3F
  8
ALPHA
 10
66.256325
 20
145.190494
 30
0.0
  0
VERTEX
  5
11E40
  8
ALPHA
 10
66.238627
 20
144.707036
 30
0.0
  0
VERTEX
  5
11E41
  8
ALPHA
 10
66.566103
 20
144.371493
 30
0.0
  0
VERTEX
  5
11E42
  8
ALPHA
 10
66.793582
 20
144.323885
 30
0.0
  0
VERTEX
  5
11E43
  8
ALPHA
 10
66.552624
 20
144.270708
 30
0.0
  0
VERTEX
  5
11E44
  8
ALPHA
 10
66.233372
 20
143.928195
 30
0.0
  0
VERTEX
  5
11E45
  8
ALPHA
 10
66.262853
 20
143.446195
 30
0.0
  0
VERTEX
  5
11E46
  8
ALPHA
 10
66.621652
 20
143.144318
 30
0.0
  0
VERTEX
  5
11E47
  8
ALPHA
 10
66.731996
 20
143.113171
 30
0.0
  0
VERTEX
  5
11E48
  8
ALPHA
 10
66.500487
 20
143.036942
 30
0.0
  0
VERTEX
  5
11E49
  8
ALPHA
 10
66.215703
 20
142.663427
 30
0.0
  0
VERTEX
  5
11E4A
  8
ALPHA
 10
66.291982
 20
142.18791
 30
0.0
  0
VERTEX
  5
11E4B
  8
ALPHA
 10
66.679586
 20
141.922537
 30
0.0
  0
VERTEX
  5
11E4C
  8
ALPHA
 10
66.672225
 20
141.896448
 30
0.0
  0
VERTEX
  5
11E4D
  8
ALPHA
 10
66.451421
 20
141.79866
 30
0.0
  0
VERTEX
  5
11E4E
  8
ALPHA
 10
66.203623
 20
141.397597
 30
0.0
  0
VERTEX
  5
11E4F
  8
ALPHA
 10
66.325709
 20
140.932813
 30
0.0
  0
VERTEX
  5
11E50
  8
ALPHA
 10
66.739602
 20
140.705259
 30
0.0
  0
VERTEX
  5
11E51
  8
ALPHA
 10
66.405733
 20
140.554597
 30
0.0
  0
VERTEX
  5
11E52
  8
ALPHA
 10
66.197437
 20
140.128504
 30
0.0
  0
VERTEX
  5
11E53
  8
ALPHA
 10
66.363727
 20
139.6809
 30
0.0
  0
VERTEX
  5
11E54
  8
ALPHA
 10
66.801392
 20
139.493997
 30
0.0
  0
SEQEND
  5
11E55
  8
ALPHA
  0
POLYLINE
  5
119ED
  8
ALPHA
 66
     1
 10
0.0
 20
0.0
 30
0.0
 70
   128
  0
VERTEX
  5
11E56
  8
ALPHA
 10
72.875526
 20
159.481903
 30
0.0
  0
VERTEX
  5
11E57
  8
ALPHA
 10
72.59875
 20
159.451944
 30
0.0
  0
VERTEX
  5
11E58
  8
ALPHA
 10
71.872507
 20
159.373334
 30
0.0
  0
VERTEX
  5
11E59
  8
ALPHA
 10
69.696143
 20
159.137761
 30
0.0
  0
VERTEX
  5
11E5A
  8
ALPHA
 10
67.595479
 20
158.910381
 30
0.0
  0
VERTEX
  5
11E5B
  8
ALPHA
 10
66.963861
 20
158.842013
 30
0.0
  0
VERTEX
  5
11E5C
  8
ALPHA
 10
66.770294
 20
158.82364
 30
0.0
  0
VERTEX
  5
11E5D
  8
ALPHA
 10
66.3442
 20
158.615125
 30
0.0
  0
VERTEX
  5
11E5E
  8
ALPHA
 10
66.199774
 20
158.156896
 30
0.0
  0
VERTEX
  5
11E5F
  8
ALPHA
 10
66.428136
 20
157.743695
 30
0.0
  0
VERTEX
  5
11E60
  8
ALPHA
 10
66.709353
 20
157.607349
 30
0.0
  0
VERTEX
  5
11E61
  8
ALPHA
 10
66.30829
 20
157.360825
 30
0.0
  0
VERTEX
  5
11E62
  8
ALPHA
 10
66.208945
 20
156.889755
 30
0.0
  0
VERTEX
  5
11E63
  8
ALPHA
 10
66.475551
 20
156.502593
 30
0.0
  0
VERTEX
  5
11E64
  8
ALPHA
 10
66.701865
 20
156.415605
 30
0.0
  0
VERTEX
  5
11E65
  8
ALPHA
 10
66.65034
 20
156.388492
 30
0.0
  0
VERTEX
  5
11E66
  8
ALPHA
 10
66.276824
 20
156.104819
 30
0.0
  0
VERTEX
  5
11E67
  8
ALPHA
 10
66.223858
 20
155.624852
 30
0.0
  0
VERTEX
  5
11E68
  8
ALPHA
 10
66.526191
 20
155.265124
 30
0.0
  0
VERTEX
  5
11E69
  8
ALPHA
 10
66.762581
 20
155.199871
 30
0.0
  0
VERTEX
  5
11E6A
  8
ALPHA
 10
66.59356
 20
155.162009
 30
0.0
  0
VERTEX
  5
11E6B
  8
ALPHA
 10
66.250108
 20
154.843741
 30
0.0
  0
VERTEX
  5
11E6C
  8
ALPHA
 10
66.244207
 20
154.360502
 30
0.0
  0
VERTEX
  5
11E6D
  8
ALPHA
 10
66.57975
 20
154.032556
 30
0.0
  0
VERTEX
  5
11E6E
  8
ALPHA
 10
66.778032
 20
153.990043
 30
0.0
  0
VERTEX
  5
11E6F
  8
ALPHA
 10
66.539319
 20
153.931036
 30
0.0
  0
VERTEX
  5
11E70
  8
ALPHA
 10
66.228448
 20
153.580121
 30
0.0
  0
VERTEX
  5
11E71
  8
ALPHA
 10
66.269688
 20
153.098045
 30
0.0
  0
VERTEX
  5
11E72
  8
ALPHA
 10
66.635924
 20
152.804622
 30
0.0
  0
VERTEX
  5
11E73
  8
ALPHA
 10
66.716871
 20
152.775807
 30
0.0
  0
VERTEX
  5
11E74
  8
ALPHA
 10
66.487921
 20
152.694186
 30
0.0
  0
VERTEX
  5
11E75
  8
ALPHA
 10
66.212147
 20
152.313203
 30
0.0
  0
VERTEX
  5
11E76
  8
ALPHA
 10
66.299995
 20
151.839043
 30
0.0
  0
VERTEX
  5
11E77
  8
ALPHA
 10
66.694407
 20
151.581652
 30
0.0
  0
VERTEX
  5
11E78
  8
ALPHA
 10
66.657601
 20
151.554949
 30
0.0
  0
VERTEX
  5
11E79
  8
ALPHA
 10
66.439671
 20
151.45201
 30
0.0
  0
VERTEX
  5
11E7A
  8
ALPHA
 10
66.201512
 20
151.044931
 30
0.0
  0
VERTEX
  5
11E7B
  8
ALPHA
 10
66.334823
 20
150.583532
 30
0.0
  0
VERTEX
  5
11E7C
  8
ALPHA
 10
66.754895
 20
150.365124
 30
0.0
  0
VERTEX
  5
11E7D
  8
ALPHA
 10
66.394875
 20
150.206474
 30
0.0
  0
VERTEX
  5
11E7E
  8
ALPHA
 10
66.196847
 20
149.77488
 30
0.0
  0
VERTEX
  5
11E7F
  8
ALPHA
 10
66.373867
 20
149.332342
 30
0.0
  0
VERTEX
  5
11E80
  8
ALPHA
 10
66.785795
 20
149.15501
 30
0.0
  0
VERTEX
  5
11E81
  8
ALPHA
 10
66.353837
 20
148.957082
 30
0.0
  0
VERTEX
  5
11E82
  8
ALPHA
 10
66.198414
 20
148.504638
 30
0.0
  0
VERTEX
  5
11E83
  8
ALPHA
 10
66.416822
 20
148.084958
 30
0.0
  0
VERTEX
  5
11E84
  8
ALPHA
 10
66.724419
 20
147.942193
 30
0.0
  0
VERTEX
  5
11E85
  8
ALPHA
 10
66.316863
 20
147.704313
 30
0.0
  0
VERTEX
  5
11E86
  8
ALPHA
 10
66.206102
 20
147.236706
 30
0.0
  0
VERTEX
  5
11E87
  8
ALPHA
 10
66.463383
 20
146.843162
 30
0.0
  0
VERTEX
  5
11E88
  8
ALPHA
 10
66.686981
 20
146.751017
 30
0.0
  0
VERTEX
  5
11E89
  8
ALPHA
 10
66.664896
 20
146.72474
 30
0.0
  0
VERTEX
  5
11E8A
  8
ALPHA
 10
66.284257
 20
146.448967
 30
0.0
  0
VERTEX
  5
11E8B
  8
ALPHA
 10
66.219608
 20
145.970131
 30
0.0
  0
VERTEX
  5
11E8C
  8
ALPHA
 10
66.513245
 20
145.604816
 30
0.0
  0
VERTEX
  5
11E8D
  8
ALPHA
 10
66.747235
 20
145.534472
 30
0.0
  0
VERTEX
  5
11E8E
  8
ALPHA
 10
66.607529
 20
145.500431
 30
0.0
  0
VERTEX
  5
11E8F
  8
ALPHA
 10
66.256325
 20
145.190494
 30
0.0
  0
VERTEX
  5
11E90
  8
ALPHA
 10
66.238627
 20
144.707036
 30
0.0
  0
VERTEX
  5
11E91
  8
ALPHA
 10
66.566103
 20
144.371493
 30
0.0
  0
VERTEX
  5
11E92
  8
ALPHA
 10
66.793582
 20
144.323885
 30
0.0
  0
VERTEX
  5
11E93
  8
ALPHA
 10
66.552624
 20
144.270708
 30
0.0
  0
VERTEX
  5
11E94
  8
ALPHA
 10
66.233372
 20
143.928195
 30
0.0
  0
VERTEX
  5
11E95
  8
ALPHA
 10
66.262853
 20
143.446195
 30
0.0
  0
VERTEX
  5
11E96
  8
ALPHA
 10
66.621652
 20
143.144318
 30
0.0
  0
VERTEX
  5
11E97
  8
ALPHA
 10
66.731996
 20
143.113171
 30
0.0
  0
VERTEX
  5
11E98
  8
ALPHA
 10
66.500487
 20
143.036942
 30
0.0
  0
VERTEX
  5
11E99
  8
ALPHA
 10
66.215703
 20
142.663427
 30
0.0
  0
VERTEX
  5
11E9A
  8
ALPHA
 10
66.291982
 20
142.18791
 30
0.0
  0
VERTEX
  5
11E9B
  8
ALPHA
 10
66.679586
 20
141.922537
 30
0.0
  0
VERTEX
  5
11E9C
  8
ALPHA
 10
66.672225
 20
141.896448
 30
0.0
  0
VERTEX
  5
11E9D
  8
ALPHA
 10
66.451421
 20
141.79866
 30
0.0
  0
VERTEX
  5
11E9E
  8
ALPHA
 10
66.203623
 20
141.397597
 30
0.0
  0
VERTEX
  5
11E9F
  8
ALPHA
 10
66.325709
 20
140.932813
 30
0.0
  0
VERTEX
  5
11EA0
  8
ALPHA
 10
66.739602
 20
140.705259
 30
0.0
  0
VERTEX
  5
11EA1
  8
ALPHA
 10
66.405733
 20
140.554597
 30
0.0
  0
VERTEX
  5
11EA2
  8
ALPHA
 10
66.197437
 20
140.128504
 30
0.0
  0
VERTEX
  5
11EA3
  8
ALPHA
 10
66.363727
 20
139.6809
 30
0.0
  0
VERTEX
  5
11EA4
  8
ALPHA
 10
66.801392
 20
139.493997
 30
0.0
  0
SEQEND
  5
11EA5
  8
ALPHA
  0
POLYLINE
  5
119EE
  8
ALPHA
 66
     1
 10
0.0
 20
0.0
 30
0.0
 70
   128
  0
VERTEX
  5
11EA6
  8
ALPHA
 10
66.801392
 20
139.493997
 30
0.0
  0
VERTEX
  5
11EA7
  8
ALPHA
 10
67.078108
 20
139.523925
 30
0.0
  0
VERTEX
  5
11EA8
  8
ALPHA
 10
67.804192
 20
139.602455
 30
0.0
  0
VERTEX
  5
11EA9
  8
ALPHA
 10
69.980077
 20
139.837789
 30
0.0
  0
VERTEX
  5
11EAA
  8
ALPHA
 10
72.080279
 20
140.064938
 30
0.0
  0
VERTEX
  5
11EAB
  8
ALPHA
 10
72.711759
 20
140.133236
 30
0.0
  0
VERTEX
  5
11EAC
  8
ALPHA
 10
72.90529
 20
140.151592
 30
0.0
  0
VERTEX
  5
11EAD
  8
ALPHA
 10
73.331383
 20
140.35967
 30
0.0
  0
VERTEX
  5
11EAE
  8
ALPHA
 10
73.47581
 20
140.816004
 30
0.0
  0
VERTEX
  5
11EAF
  8
ALPHA
 10
73.247448
 20
141.229897
 30
0.0
  0
VERTEX
  5
11EB0
  8
ALPHA
 10
72.966231
 20
141.365897
 30
0.0
  0
VERTEX
  5
11EB1
  8
ALPHA
 10
73.367294
 20
141.612846
 30
0.0
  0
VERTEX
  5
11EB2
  8
ALPHA
 10
73.466641
 20
142.084113
 30
0.0
  0
VERTEX
  5
11EB3
  8
ALPHA
 10
73.200384
 20
142.470833
 30
0.0
  0
VERTEX
  5
11EB4
  8
ALPHA
 10
72.974687
 20
142.557644
 30
0.0
  0
VERTEX
  5
11EB5
  8
ALPHA
 10
73.026046
 20
142.584827
 30
0.0
  0
VERTEX
  5
11EB6
  8
ALPHA
 10
73.398807
 20
142.869611
 30
0.0
  0
VERTEX
  5
11EB7
  8
ALPHA
 10
73.451734
 20
143.350134
 30
0.0
  0
VERTEX
  5
11EB8
  8
ALPHA
 10
73.149857
 20
143.708004
 30
0.0
  0
VERTEX
  5
11EB9
  8
ALPHA
 10
72.914187
 20
143.772703
 30
0.0
  0
VERTEX
  5
11EBA
  8
ALPHA
 10
73.08266
 20
143.810485
 30
0.0
  0
VERTEX
  5
11EBB
  8
ALPHA
 10
73.4255
 20
144.128798
 30
0.0
  0
VERTEX
  5
11EBC
  8
ALPHA
 10
73.431397
 20
144.612623
 30
0.0
  0
VERTEX
  5
11EBD
  8
ALPHA
 10
73.096433
 20
144.940099
 30
0.0
  0
VERTEX
  5
11EBE
  8
ALPHA
 10
72.898795
 20
144.982519
 30
0.0
  0
VERTEX
  5
11EBF
  8
ALPHA
 10
73.136761
 20
145.041466
 30
0.0
  0
VERTEX
  5
11EC0
  8
ALPHA
 10
73.447147
 20
145.39109
 30
0.0
  0
VERTEX
  5
11EC1
  8
ALPHA
 10
73.405937
 20
145.873199
 30
0.0
  0
VERTEX
  5
11EC2
  8
ALPHA
 10
73.040418
 20
146.167263
 30
0.0
  0
VERTEX
  5
11EC3
  8
ALPHA
 10
72.959732
 20
146.196074
 30
0.0
  0
VERTEX
  5
11EC4
  8
ALPHA
 10
73.18804
 20
146.277527
 30
0.0
  0
VERTEX
  5
11EC5
  8
ALPHA
 10
73.46344
 20
146.65806
 30
0.0
  0
VERTEX
  5
11EC6
  8
ALPHA
 10
73.375659
 20
147.130964
 30
0.0
  0
VERTEX
  5
11EC7
  8
ALPHA
 10
72.98212
 20
147.387596
 30
0.0
  0
VERTEX
  5
11EC8
  8
ALPHA
 10
73.018807
 20
147.414196
 30
0.0
  0
VERTEX
  5
11EC9
  8
ALPHA
 10
73.236192
 20
147.516733
 30
0.0
  0
VERTEX
  5
11ECA
  8
ALPHA
 10
73.474073
 20
147.922982
 30
0.0
  0
VERTEX
  5
11ECB
  8
ALPHA
 10
73.340873
 20
148.384357
 30
0.0
  0
VERTEX
  5
11ECC
  8
ALPHA
 10
72.921845
 20
148.602765
 30
0.0
  0
VERTEX
  5
11ECD
  8
ALPHA
 10
73.280909
 20
148.761416
 30
0.0
  0
VERTEX
  5
11ECE
  8
ALPHA
 10
73.478737
 20
149.193009
 30
0.0
  0
VERTEX
  5
11ECF
  8
ALPHA
 10
73.301884
 20
149.635798
 30
0.0
  0
VERTEX
  5
11ED0
  8
ALPHA
 10
72.891062
 20
149.812879
 30
0.0
  0
VERTEX
  5
11ED1
  8
ALPHA
 10
73.321884
 20
150.010013
 30
0.0
  0
VERTEX
  5
11ED2
  8
ALPHA
 10
73.47717
 20
150.463256
 30
0.0
  0
VERTEX
  5
11ED3
  8
ALPHA
 10
73.258999
 20
150.883328
 30
0.0
  0
VERTEX
  5
11ED4
  8
ALPHA
 10
72.95221
 20
151.026353
 30
0.0
  0
VERTEX
  5
11ED5
  8
ALPHA
 10
73.358811
 20
151.264097
 30
0.0
  0
VERTEX
  5
11ED6
  8
ALPHA
 10
73.469483
 20
151.732759
 30
0.0
  0
VERTEX
  5
11ED7
  8
ALPHA
 10
73.212527
 20
152.127608
 30
0.0
  0
VERTEX
  5
11ED8
  8
ALPHA
 10
72.989522
 20
152.220158
 30
0.0
  0
VERTEX
  5
11ED9
  8
ALPHA
 10
73.011535
 20
152.246485
 30
0.0
  0
VERTEX
  5
11EDA
  8
ALPHA
 10
73.391381
 20
152.522072
 30
0.0
  0
VERTEX
  5
11EDB
  8
ALPHA
 10
73.455982
 20
153.000481
 30
0.0
  0
VERTEX
  5
11EDC
  8
ALPHA
 10
73.162772
 20
153.366256
 30
0.0
  0
VERTEX
  5
11EDD
  8
ALPHA
 10
72.929477
 20
153.436749
 30
0.0
  0
VERTEX
  5
11EDE
  8
ALPHA
 10
73.06873
 20
153.470939
 30
0.0
  0
VERTEX
  5
11EDF
  8
ALPHA
 10
73.419288
 20
153.78181
 30
0.0
  0
VERTEX
  5
11EE0
  8
ALPHA
 10
73.436974
 20
154.265709
 30
0.0
  0
VERTEX
  5
11EE1
  8
ALPHA
 10
73.110044
 20
154.6006
 30
0.0
  0
VERTEX
  5
11EE2
  8
ALPHA
 10
72.883306
 20
154.64801
 30
0.0
  0
VERTEX
  5
11EE3
  8
ALPHA
 10
73.123488
 20
154.701511
 30
0.0
  0
VERTEX
  5
11EE4
  8
ALPHA
 10
73.442225
 20
155.04482
 30
0.0
  0
VERTEX
  5
11EE5
  8
ALPHA
 10
73.412765
 20
155.527967
 30
0.0
  0
VERTEX
  5
11EE6
  8
ALPHA
 10
73.054648
 20
155.83029
 30
0.0
  0
VERTEX
  5
11EE7
  8
ALPHA
 10
72.94466
 20
155.861393
 30
0.0
  0
VERTEX
  5
11EE8
  8
ALPHA
 10
73.175502
 20
155.937551
 30
0.0
  0
VERTEX
  5
11EE9
  8
ALPHA
 10
73.459886
 20
156.309935
 30
0.0
  0
VERTEX
  5
11EEA
  8
ALPHA
 10
73.383663
 20
156.786029
 30
0.0
  0
VERTEX
  5
11EEB
  8
ALPHA
 10
72.996892
 20
157.052635
 30
0.0
  0
VERTEX
  5
11EEC
  8
ALPHA
 10
73.00423
 20
157.078752
 30
0.0
  0
VERTEX
  5
11EED
  8
ALPHA
 10
73.224464
 20
157.176346
 30
0.0
  0
VERTEX
  5
11EEE
  8
ALPHA
 10
73.471962
 20
157.576984
 30
0.0
  0
VERTEX
  5
11EEF
  8
ALPHA
 10
73.349975
 20
158.041495
 30
0.0
  0
VERTEX
  5
11EF0
  8
ALPHA
 10
72.937082
 20
158.268646
 30
0.0
  0
VERTEX
  5
11EF1
  8
ALPHA
 10
73.270069
 20
158.419811
 30
0.0
  0
VERTEX
  5
11EF2
  8
ALPHA
 10
73.478147
 20
158.846118
 30
0.0
  0
VERTEX
  5
11EF3
  8
ALPHA
 10
73.312008
 20
159.294301
 30
0.0
  0
VERTEX
  5
11EF4
  8
ALPHA
 10
72.875526
 20
159.481903
 30
0.0
  0
SEQEND
  5
11EF5
  8
ALPHA
  0
POLYLINE
  5
119EF
  8
ALPHA
 66
     1
 10
0.0
 20
0.0
 30
0.0
 70
   128
  0
VERTEX
  5
11EF6
  8
ALPHA
 10
66.801392
 20
139.493997
 30
0.0
  0
VERTEX
  5
11EF7
  8
ALPHA
 10
67.078108
 20
139.523925
 30
0.0
  0
VERTEX
  5
11EF8
  8
ALPHA
 10
67.804192
 20
139.602455
 30
0.0
  0
VERTEX
  5
11EF9
  8
ALPHA
 10
69.980077
 20
139.837789
 30
0.0
  0
VERTEX
  5
11EFA
  8
ALPHA
 10
72.080279
 20
140.064938
 30
0.0
  0
VERTEX
  5
11EFB
  8
ALPHA
 10
72.711759
 20
140.133236
 30
0.0
  0
VERTEX
  5
11EFC
  8
ALPHA
 10
72.90529
 20
140.151592
 30
0.0
  0
VERTEX
  5
11EFD
  8
ALPHA
 10
73.331383
 20
140.35967
 30
0.0
  0
VERTEX
  5
11EFE
  8
ALPHA
 10
73.47581
 20
140.816004
 30
0.0
  0
VERTEX
  5
11EFF
  8
ALPHA
 10
73.247448
 20
141.229897
 30
0.0
  0
VERTEX
  5
11F00
  8
ALPHA
 10
72.966231
 20
141.365897
 30
0.0
  0
VERTEX
  5
11F01
  8
ALPHA
 10
73.367294
 20
141.612846
 30
0.0
  0
VERTEX
  5
11F02
  8
ALPHA
 10
73.466641
 20
142.084113
 30
0.0
  0
VERTEX
  5
11F03
  8
ALPHA
 10
73.200384
 20
142.470833
 30
0.0
  0
VERTEX
  5
11F04
  8
ALPHA
 10
72.974687
 20
142.557644
 30
0.0
  0
VERTEX
  5
11F05
  8
ALPHA
 10
73.026046
 20
142.584827
 30
0.0
  0
VERTEX
  5
11F06
  8
ALPHA
 10
73.398807
 20
142.869611
 30
0.0
  0
VERTEX
  5
11F07
  8
ALPHA
 10
73.451734
 20
143.350134
 30
0.0
  0
VERTEX
  5
11F08
  8
ALPHA
 10
73.149857
 20
143.708004
 30
0.0
  0
VERTEX
  5
11F09
  8
ALPHA
 10
72.914187
 20
143.772703
 30
0.0
  0
VERTEX
  5
11F0A
  8
ALPHA
 10
73.08266
 20
143.810485
 30
0.0
  0
VERTEX
  5
11F0B
  8
ALPHA
 10
73.4255
 20
144.128798
 30
0.0
  0
VERTEX
  5
11F0C
  8
ALPHA
 10
73.431397
 20
144.612623
 30
0.0
  0
VERTEX
  5
11F0D
  8
ALPHA
 10
73.096433
 20
144.940099
 30
0.0
  0
VERTEX
  5
11F0E
  8
ALPHA
 10
72.898795
 20
144.982519
 30
0.0
  0
VERTEX
  5
11F0F
  8
ALPHA
 10
73.136761
 20
145.041466
 30
0.0
  0
VERTEX
  5
11F10
  8
ALPHA
 10
73.447147
 20
145.39109
 30
0.0
  0
VERTEX
  5
11F11
  8
ALPHA
 10
73.405937
 20
145.873199
 30
0.0
  0
VERTEX
  5
11F12
  8
ALPHA
 10
73.040418
 20
146.167263
 30
0.0
  0
VERTEX
  5
11F13
  8
ALPHA
 10
72.959732
 20
146.196074
 30
0.0
  0
VERTEX
  5
11F14
  8
ALPHA
 10
73.18804
 20
146.277527
 30
0.0
  0
VERTEX
  5
11F15
  8
ALPHA
 10
73.46344
 20
146.65806
 30
0.0
  0
VERTEX
  5
11F16
  8
ALPHA
 10
73.375659
 20
147.130964
 30
0.0
  0
VERTEX
  5
11F17
  8
ALPHA
 10
72.98212
 20
147.387596
 30
0.0
  0
VERTEX
  5
11F18
  8
ALPHA
 10
73.018807
 20
147.414196
 30
0.0
  0
VERTEX
  5
11F19
  8
ALPHA
 10
73.236192
 20
147.516733
 30
0.0
  0
VERTEX
  5
11F1A
  8
ALPHA
 10
73.474073
 20
147.922982
 30
0.0
  0
VERTEX
  5
11F1B
  8
ALPHA
 10
73.340873
 20
148.384357
 30
0.0
  0
VERTEX
  5
11F1C
  8
ALPHA
 10
72.921845
 20
148.602765
 30
0.0
  0
VERTEX
  5
11F1D
  8
ALPHA
 10
73.280909
 20
148.761416
 30
0.0
  0
VERTEX
  5
11F1E
  8
ALPHA
 10
73.478737
 20
149.193009
 30
0.0
  0
VERTEX
  5
11F1F
  8
ALPHA
 10
73.301884
 20
149.635798
 30
0.0
  0
VERTEX
  5
11F20
  8
ALPHA
 10
72.891062
 20
149.812879
 30
0.0
  0
VERTEX
  5
11F21
  8
ALPHA
 10
73.321884
 20
150.010013
 30
0.0
  0
VERTEX
  5
11F22
  8
ALPHA
 10
73.47717
 20
150.463256
 30
0.0
  0
VERTEX
  5
11F23
  8
ALPHA
 10
73.258999
 20
150.883328
 30
0.0
  0
VERTEX
  5
11F24
  8
ALPHA
 10
72.95221
 20
151.026353
 30
0.0
  0
VERTEX
  5
11F25
  8
ALPHA
 10
73.358811
 20
151.264097
 30
0.0
  0
VERTEX
  5
11F26
  8
ALPHA
 10
73.469483
 20
151.732759
 30
0.0
  0
VERTEX
  5
11F27
  8
ALPHA
 10
73.212527
 20
152.127608
 30
0.0
  0
VERTEX
  5
11F28
  8
ALPHA
 10
72.989522
 20
152.220158
 30
0.0
  0
VERTEX
  5
11F29
  8
ALPHA
 10
73.011535
 20
152.246485
 30
0.0
  0
VERTEX
  5
11F2A
  8
ALPHA
 10
73.391381
 20
152.522072
 30
0.0
  0
VERTEX
  5
11F2B
  8
ALPHA
 10
73.455982
 20
153.000481
 30
0.0
  0
VERTEX
  5
11F2C
  8
ALPHA
 10
73.162772
 20
153.366256
 30
0.0
  0
VERTEX
  5
11F2D
  8
ALPHA
 10
72.929477
 20
153.436749
 30
0.0
  0
VERTEX
  5
11F2E
  8
ALPHA
 10
73.06873
 20
153.470939
 30
0.0
  0
VERTEX
  5
11F2F
  8
ALPHA
 10
73.419288
 20
153.78181
 30
0.0
  0
VERTEX
  5
11F30
  8
ALPHA
 10
73.436974
 20
154.265709
 30
0.0
  0
VERTEX
  5
11F31
  8
ALPHA
 10
73.110044
 20
154.6006
 30
0.0
  0
VERTEX
  5
11F32
  8
ALPHA
 10
72.883306
 20
154.64801
 30
0.0
  0
VERTEX
  5
11F33
  8
ALPHA
 10
73.123488
 20
154.701511
 30
0.0
  0
VERTEX
  5
11F34
  8
ALPHA
 10
73.442225
 20
155.04482
 30
0.0
  0
VERTEX
  5
11F35
  8
ALPHA
 10
73.412765
 20
155.527967
 30
0.0
  0
VERTEX
  5
11F36
  8
ALPHA
 10
73.054648
 20
155.83029
 30
0.0
  0
VERTEX
  5
11F37
  8
ALPHA
 10
72.94466
 20
155.861393
 30
0.0
  0
VERTEX
  5
11F38
  8
ALPHA
 10
73.175502
 20
155.937551
 30
0.0
  0
VERTEX
  5
11F39
  8
ALPHA
 10
73.459886
 20
156.309935
 30
0.0
  0
VERTEX
  5
11F3A
  8
ALPHA
 10
73.383663
 20
156.786029
 30
0.0
  0
VERTEX
  5
11F3B
  8
ALPHA
 10
72.996892
 20
157.052635
 30
0.0
  0
VERTEX
  5
11F3C
  8
ALPHA
 10
73.00423
 20
157.078752
 30
0.0
  0
VERTEX
  5
11F3D
  8
ALPHA
 10
73.224464
 20
157.176346
 30
0.0
  0
VERTEX
  5
11F3E
  8
ALPHA
 10
73.471962
 20
157.576984
 30
0.0
  0
VERTEX
  5
11F3F
  8
ALPHA
 10
73.349975
 20
158.041495
 30
0.0
  0
VERTEX
  5
11F40
  8
ALPHA
 10
72.937082
 20
158.268646
 30
0.0
  0
VERTEX
  5
11F41
  8
ALPHA
 10
73.270069
 20
158.419811
 30
0.0
  0
VERTEX
  5
11F42
  8
ALPHA
 10
73.478147
 20
158.846118
 30
0.0
  0
VERTEX
  5
11F43
  8
ALPHA
 10
73.312008
 20
159.294301
 30
0.0
  0
VERTEX
  5
11F44
  8
ALPHA
 10
72.875526
 20
159.481903
 30
0.0
  0
SEQEND
  5
11F45
  8
ALPHA
  0
LINE
  5
119F0
  8
ALPHA
 10
62.087124
 20
117.732779
 30
0.0
 11
69.837124
 21
117.732779
 31
0.0
  0
LINE
  5
119F1
  8
ALPHA
 10
62.587124
 20
118.232779
 30
0.0
 11
69.837124
 21
118.232779
 31
0.0
  0
LINE
  5
119F2
  8
ALPHA
 10
63.596612
 20
122.258839
 30
0.0
 11
69.837124
 21
122.258839
 31
0.0
  0
POLYLINE
  5
119F3
  8
ALPHA
 66
     1
 10
0.0
 20
0.0
 30
0.0
 70
   128
  0
VERTEX
  5
11F46
  8
ALPHA
 10
69.837124
 20
119.007064
 30
0.0
  0
VERTEX
  5
11F47
  8
ALPHA
 10
67.544638
 20
119.007064
 30
0.0
  0
VERTEX
  5
11F48
  8
ALPHA
 10
65.546645
 20
119.007064
 30
0.0
  0
VERTEX
  5
11F49
  8
ALPHA
 10
64.134319
 20
119.007064
 30
0.0
  0
VERTEX
  5
11F4A
  8
ALPHA
 10
63.598837
 20
119.007064
 30
0.0
  0
SEQEND
  5
11F4B
  8
ALPHA
  0
POLYLINE
  5
119F4
  8
ALPHA
 66
     1
 10
0.0
 20
0.0
 30
0.0
 70
   128
  0
VERTEX
  5
11F4C
  8
ALPHA
 10
63.598837
 20
120.013857
 30
0.0
  0
VERTEX
  5
11F4D
  8
ALPHA
 10
64.134319
 20
120.013857
 30
0.0
  0
VERTEX
  5
11F4E
  8
ALPHA
 10
65.546645
 20
120.013857
 30
0.0
  0
VERTEX
  5
11F4F
  8
ALPHA
 10
67.544638
 20
120.013857
 30
0.0
  0
VERTEX
  5
11F50
  8
ALPHA
 10
69.837124
 20
120.013857
 30
0.0
  0
SEQEND
  5
11F51
  8
ALPHA
  0
POLYLINE
  5
119F5
  8
ALPHA
 66
     1
 10
0.0
 20
0.0
 30
0.0
 70
   128
  0
VERTEX
  5
11F52
  8
ALPHA
 10
73.343286
 20
135.765568
 30
0.0
  0
VERTEX
  5
11F53
  8
ALPHA
 10
73.168969
 20
135.765568
 30
0.0
  0
VERTEX
  5
11F54
  8
ALPHA
 10
72.692502
 20
135.765568
 30
0.0
  0
VERTEX
  5
11F55
  8
ALPHA
 10
71.112027
 20
135.765568
 30
0.0
  0
VERTEX
  5
11F56
  8
ALPHA
 10
67.393263
 20
135.765568
 30
0.0
  0
VERTEX
  5
11F57
  8
ALPHA
 10
66.370602
 20
135.765568
 30
0.0
  0
VERTEX
  5
11F58
  8
ALPHA
 10
66.129686
 20
135.65267
 30
0.0
  0
VERTEX
  5
11F59
  8
ALPHA
 10
65.662972
 20
135.282798
 30
0.0
  0
VERTEX
  5
11F5A
  8
ALPHA
 10
64.140614
 20
133.403404
 30
0.0
  0
VERTEX
  5
11F5B
  8
ALPHA
 10
63.352493
 20
131.067199
 30
0.0
  0
VERTEX
  5
11F5C
  8
ALPHA
 10
63.298786
 20
130.44037
 30
0.0
  0
VERTEX
  5
11F5D
  8
ALPHA
 10
63.295781
 20
130.135876
 30
0.0
  0
VERTEX
  5
11F5E
  8
ALPHA
 10
63.305463
 20
129.857938
 30
0.0
  0
VERTEX
  5
11F5F
  8
ALPHA
 10
63.455822
 20
128.777965
 30
0.0
  0
SEQEND
  5
11F60
  8
ALPHA
  0
POLYLINE
  5
119F6
  8
ALPHA
 66
     1
 10
0.0
 20
0.0
 30
0.0
 70
   128
  0
VERTEX
  5
11F61
  8
ALPHA
 10
73.343286
 20
135.765568
 30
0.0
  0
VERTEX
  5
11F62
  8
ALPHA
 10
73.168969
 20
135.765568
 30
0.0
  0
VERTEX
  5
11F63
  8
ALPHA
 10
72.692502
 20
135.765568
 30
0.0
  0
VERTEX
  5
11F64
  8
ALPHA
 10
71.112027
 20
135.765568
 30
0.0
  0
VERTEX
  5
11F65
  8
ALPHA
 10
67.393263
 20
135.765568
 30
0.0
  0
VERTEX
  5
11F66
  8
ALPHA
 10
66.370602
 20
135.765568
 30
0.0
  0
VERTEX
  5
11F67
  8
ALPHA
 10
66.129686
 20
135.65267
 30
0.0
  0
VERTEX
  5
11F68
  8
ALPHA
 10
65.662972
 20
135.282798
 30
0.0
  0
VERTEX
  5
11F69
  8
ALPHA
 10
64.140614
 20
133.403404
 30
0.0
  0
VERTEX
  5
11F6A
  8
ALPHA
 10
63.352493
 20
131.067199
 30
0.0
  0
VERTEX
  5
11F6B
  8
ALPHA
 10
63.298786
 20
130.44037
 30
0.0
  0
VERTEX
  5
11F6C
  8
ALPHA
 10
63.295781
 20
130.135876
 30
0.0
  0
VERTEX
  5
11F6D
  8
ALPHA
 10
63.305463
 20
129.857938
 30
0.0
  0
VERTEX
  5
11F6E
  8
ALPHA
 10
63.455822
 20
128.777965
 30
0.0
  0
SEQEND
  5
11F6F
  8
ALPHA
  0
LINE
  5
119F7
  8
ALPHA
 10
66.801391
 20
147.947056
 30
0.0
 11
72.875527
 21
148.604531
 31
0.0
  0
LINE
  5
119F8
  8
ALPHA
 10
66.801391
 20
145.532086
 30
0.0
 11
72.875527
 21
146.190228
 31
0.0
  0
LINE
  5
119F9
  8
ALPHA
 10
66.801391
 20
146.740238
 30
0.0
 11
72.875527
 21
147.397046
 31
0.0
  0
LINE
  5
119FA
  8
ALPHA
 10
67.585589
 20
138.939983
 30
0.0
 11
72.089893
 21
138.939983
 31
0.0
  0
LINE
  5
119FB
  8
ALPHA
 10
72.837725
 20
138.939983
 30
0.0
 11
66.835285
 21
138.939983
 31
0.0
  0
LINE
  5
119FC
  8
ALPHA
 10
72.837725
 20
138.939983
 30
0.0
 11
66.835285
 21
138.939983
 31
0.0
  0
LINE
  5
119FD
  8
ALPHA
 10
66.801391
 20
140.702151
 30
0.0
 11
72.87419
 21
141.358955
 31
0.0
  0
LINE
  5
119FE
  8
ALPHA
 10
66.801391
 20
143.117117
 30
0.0
 11
72.875527
 21
143.773925
 31
0.0
  0
LINE
  5
119FF
  8
ALPHA
 10
66.801391
 20
141.910302
 30
0.0
 11
72.875527
 21
142.565774
 31
0.0
  0
LINE
  5
11A00
  8
ALPHA
 10
66.801391
 20
144.323935
 30
0.0
 11
72.875527
 21
144.982077
 31
0.0
  0
POLYLINE
  5
11A01
  8
ALPHA
 66
     1
 10
0.0
 20
0.0
 30
0.0
 70
   128
  0
VERTEX
  5
11F70
  8
ALPHA
 10
66.801392
 20
160.03258
 30
0.0
  0
VERTEX
  5
11F71
  8
ALPHA
 10
67.107185
 20
160.067623
 30
0.0
  0
VERTEX
  5
11F72
  8
ALPHA
 10
67.779929
 20
160.144717
 30
0.0
  0
VERTEX
  5
11F73
  8
ALPHA
 10
68.452672
 20
160.221812
 30
0.0
  0
VERTEX
  5
11F74
  8
ALPHA
 10
68.758465
 20
160.256855
 30
0.0
  0
VERTEX
  5
11F75
  8
ALPHA
 10
69.501608
 20
160.445014
 30
0.0
  0
VERTEX
  5
11F76
  8
ALPHA
 10
69.924732
 20
160.80845
 30
0.0
  0
VERTEX
  5
11F77
  8
ALPHA
 10
70.158853
 20
161.960283
 30
0.0
  0
SEQEND
  5
11F78
  8
ALPHA
  0
POLYLINE
  5
11A02
  8
ALPHA
 66
     1
 10
0.0
 20
0.0
 30
0.0
 70
   128
  0
VERTEX
  5
11F79
  8
ALPHA
 10
66.801392
 20
160.03258
 30
0.0
  0
VERTEX
  5
11F7A
  8
ALPHA
 10
67.107185
 20
160.067623
 30
0.0
  0
VERTEX
  5
11F7B
  8
ALPHA
 10
67.779929
 20
160.144717
 30
0.0
  0
VERTEX
  5
11F7C
  8
ALPHA
 10
68.452672
 20
160.221812
 30
0.0
  0
VERTEX
  5
11F7D
  8
ALPHA
 10
68.758465
 20
160.256855
 30
0.0
  0
VERTEX
  5
11F7E
  8
ALPHA
 10
69.501608
 20
160.445014
 30
0.0
  0
VERTEX
  5
11F7F
  8
ALPHA
 10
69.924732
 20
160.80845
 30
0.0
  0
VERTEX
  5
11F80
  8
ALPHA
 10
70.158853
 20
161.960283
 30
0.0
  0
SEQEND
  5
11F81
  8
ALPHA
  0
POLYLINE
  5
11A03
  8
ALPHA
 66
     1
 10
0.0
 20
0.0
 30
0.0
 70
   128
  0
VERTEX
  5
11F82
  8
ALPHA
 10
71.35766
 20
173.561879
 30
0.0
  0
VERTEX
  5
11F83
  8
ALPHA
 10
71.35766
 20
173.066413
 30
0.0
  0
VERTEX
  5
11F84
  8
ALPHA
 10
71.35766
 20
171.760185
 30
0.0
  0
VERTEX
  5
11F85
  8
ALPHA
 10
71.35766
 20
169.913448
 30
0.0
  0
VERTEX
  5
11F86
  8
ALPHA
 10
71.35766
 20
167.796458
 30
0.0
  0
VERTEX
  5
11F87
  8
ALPHA
 10
71.35766
 20
165.679467
 30
0.0
  0
VERTEX
  5
11F88
  8
ALPHA
 10
71.35766
 20
163.83273
 30
0.0
  0
VERTEX
  5
11F89
  8
ALPHA
 10
71.35766
 20
162.526502
 30
0.0
  0
VERTEX
  5
11F8A
  8
ALPHA
 10
71.35766
 20
162.031036
 30
0.0
  0
VERTEX
  5
11F8B
  8
ALPHA
 10
71.207601
 20
160.725932
 30
0.0
  0
VERTEX
  5
11F8C
  8
ALPHA
 10
70.604735
 20
159.792785
 30
0.0
  0
VERTEX
  5
11F8D
  8
ALPHA
 10
69.73454
 20
159.232346
 30
0.0
  0
VERTEX
  5
11F8E
  8
ALPHA
 10
68.782495
 20
159.045366
 30
0.0
  0
SEQEND
  5
11F8F
  8
ALPHA
  0
POLYLINE
  5
11A04
  8
ALPHA
 66
     1
 10
0.0
 20
0.0
 30
0.0
 70
   128
  0
VERTEX
  5
11F90
  8
ALPHA
 10
71.35766
 20
173.561879
 30
0.0
  0
VERTEX
  5
11F91
  8
ALPHA
 10
71.35766
 20
173.066413
 30
0.0
  0
VERTEX
  5
11F92
  8
ALPHA
 10
71.35766
 20
171.760185
 30
0.0
  0
VERTEX
  5
11F93
  8
ALPHA
 10
71.35766
 20
169.913448
 30
0.0
  0
VERTEX
  5
11F94
  8
ALPHA
 10
71.35766
 20
167.796458
 30
0.0
  0
VERTEX
  5
11F95
  8
ALPHA
 10
71.35766
 20
165.679467
 30
0.0
  0
VERTEX
  5
11F96
  8
ALPHA
 10
71.35766
 20
163.83273
 30
0.0
  0
VERTEX
  5
11F97
  8
ALPHA
 10
71.35766
 20
162.526502
 30
0.0
  0
VERTEX
  5
11F98
  8
ALPHA
 10
71.35766
 20
162.031036
 30
0.0
  0
VERTEX
  5
11F99
  8
ALPHA
 10
71.207601
 20
160.725932
 30
0.0
  0
VERTEX
  5
11F9A
  8
ALPHA
 10
70.604735
 20
159.792785
 30
0.0
  0
VERTEX
  5
11F9B
  8
ALPHA
 10
69.73454
 20
159.232346
 30
0.0
  0
VERTEX
  5
11F9C
  8
ALPHA
 10
68.782495
 20
159.045366
 30
0.0
  0
SEQEND
  5
11F9D
  8
ALPHA
  0
LINE
  5
11A05
  8
ALPHA
 10
66.801391
 20
157.614274
 30
0.0
 11
72.875527
 21
158.271749
 31
0.0
  0
LINE
  5
11A06
  8
ALPHA
 10
66.801391
 20
151.572181
 30
0.0
 11
72.875527
 21
152.230989
 31
0.0
  0
LINE
  5
11A07
  8
ALPHA
 10
66.801391
 20
150.363359
 30
0.0
 11
72.875527
 21
151.0215
 31
0.0
  0
LINE
  5
11A08
  8
ALPHA
 10
66.801391
 20
149.155207
 30
0.0
 11
72.875527
 21
149.812683
 31
0.0
  0
LINE
  5
11A09
  8
ALPHA
 10
66.801391
 20
155.198638
 30
0.0
 11
72.875527
 21
155.857446
 31
0.0
  0
LINE
  5
11A0A
  8
ALPHA
 10
66.801391
 20
153.990487
 30
0.0
 11
72.875527
 21
154.647962
 31
0.0
  0
LINE
  5
11A0B
  8
ALPHA
 10
66.801391
 20
152.781665
 30
0.0
 11
72.875527
 21
153.43914
 31
0.0
  0
LINE
  5
11A0C
  8
ALPHA
 10
66.801391
 20
156.407456
 30
0.0
 11
72.875527
 21
157.064931
 31
0.0
  0
LINE
  5
11A0D
  8
ALPHA
 10
63.596612
 20
119.98827
 30
0.0
 11
63.596612
 21
122.258839
 31
0.0
  0
POLYLINE
  5
11A0E
  8
ALPHA
 66
     1
 10
0.0
 20
0.0
 30
0.0
 70
   128
210
0.0
220
0.0
230
-1.0
  0
VERTEX
  5
11F9E
  8
ALPHA
 10
-63.598837
 20
119.007064
 30
0.0
  0
VERTEX
  5
11F9F
  8
ALPHA
 10
-63.243122
 20
119.154189
 30
0.0
  0
VERTEX
  5
11FA0
  8
ALPHA
 10
-63.095997
 20
119.509904
 30
0.0
  0
VERTEX
  5
11FA1
  8
ALPHA
 10
-63.243122
 20
119.866176
 30
0.0
  0
VERTEX
  5
11FA2
  8
ALPHA
 10
-63.598837
 20
120.013857
 30
0.0
  0
SEQEND
  5
11FA3
  8
ALPHA
  0
LINE
  5
11A0F
  8
ALPHA
 10
62.087124
 20
117.732779
 30
0.0
 11
62.587124
 21
118.232779
 31
0.0
  0
LINE
  5
11A10
  8
ALPHA
 10
62.087124
 20
117.732779
 30
0.0
 11
62.087124
 21
116.289312
 31
0.0
  0
LINE
  5
11A11
  8
ALPHA
 10
63.596612
 20
119.03265
 30
0.0
 11
63.596612
 21
118.232779
 31
0.0
  0
POLYLINE
  5
11A12
  8
ALPHA
 66
     1
 10
0.0
 20
0.0
 30
0.0
 70
   128
  0
VERTEX
  5
11FA4
  8
ALPHA
 10
63.455822
 20
128.777965
 30
0.0
  0
VERTEX
  5
11FA5
  8
ALPHA
 10
63.557958
 20
128.497846
 30
0.0
  0
VERTEX
  5
11FA6
  8
ALPHA
 10
63.827227
 20
127.759352
 30
0.0
  0
VERTEX
  5
11FA7
  8
ALPHA
 10
64.64432
 20
125.518402
 30
0.0
  0
VERTEX
  5
11FA8
  8
ALPHA
 10
65.461412
 20
123.277453
 30
0.0
  0
VERTEX
  5
11FA9
  8
ALPHA
 10
65.730681
 20
122.538958
 30
0.0
  0
VERTEX
  5
11FAA
  8
ALPHA
 10
65.832818
 20
122.258839
 30
0.0
  0
SEQEND
  5
11FAB
  8
ALPHA
  0
POLYLINE
  5
11A13
  8
ALPHA
 66
     1
 10
0.0
 20
0.0
 30
0.0
 70
   128
  0
VERTEX
  5
11FAC
  8
ALPHA
 10
63.455822
 20
128.777965
 30
0.0
  0
VERTEX
  5
11FAD
  8
ALPHA
 10
63.557958
 20
128.497846
 30
0.0
  0
VERTEX
  5
11FAE
  8
ALPHA
 10
63.827227
 20
127.759352
 30
0.0
  0
VERTEX
  5
11FAF
  8
ALPHA
 10
64.64432
 20
125.518402
 30
0.0
  0
VERTEX
  5
11FB0
  8
ALPHA
 10
65.461412
 20
123.277453
 30
0.0
  0
VERTEX
  5
11FB1
  8
ALPHA
 10
65.730681
 20
122.538958
 30
0.0
  0
VERTEX
  5
11FB2
  8
ALPHA
 10
65.832818
 20
122.258839
 30
0.0
  0
SEQEND
  5
11FB3
  8
ALPHA
  0
LINE
  5
11A14
  8
ALPHA
 10
66.835285
 20
138.939983
 30
0.0
 11
66.311184
 21
135.765568
 31
0.0
  0
LINE
  5
11A15
  8
ALPHA
 10
67.406135
 20
139.560746
 30
0.0
 11
67.406135
 21
138.939983
 31
0.0
  0
LINE
  5
11A16
  8
ALPHA
 10
67.406135
 20
139.560746
 30
0.0
 11
67.406135
 21
138.939983
 31
0.0
  0
POLYLINE
  5
11A17
  8
ALPHA
 66
     1
 10
0.0
 20
0.0
 30
0.0
 70
   128
  0
VERTEX
  5
11FB4
  8
ALPHA
 10
68.782495
 20
159.045366
 30
0.0
  0
VERTEX
  5
11FB5
  8
ALPHA
 10
68.155661
 20
158.97546
 30
0.0
  0
VERTEX
  5
11FB6
  8
ALPHA
 10
67.11094
 20
158.858949
 30
0.0
  0
VERTEX
  5
11FB7
  8
ALPHA
 10
66.373867
 20
159.001312
 30
0.0
  0
VERTEX
  5
11FB8
  8
ALPHA
 10
66.244207
 20
159.663407
 30
0.0
  0
VERTEX
  5
11FB9
  8
ALPHA
 10
66.801392
 20
160.03258
 30
0.0
  0
SEQEND
  5
11FBA
  8
ALPHA
  0
POLYLINE
  5
11A18
  8
ALPHA
 66
     1
 10
0.0
 20
0.0
 30
0.0
 70
   128
  0
VERTEX
  5
11FBB
  8
ALPHA
 10
68.782495
 20
159.045366
 30
0.0
  0
VERTEX
  5
11FBC
  8
ALPHA
 10
68.155661
 20
158.97546
 30
0.0
  0
VERTEX
  5
11FBD
  8
ALPHA
 10
67.11094
 20
158.858949
 30
0.0
  0
VERTEX
  5
11FBE
  8
ALPHA
 10
66.373867
 20
159.001312
 30
0.0
  0
VERTEX
  5
11FBF
  8
ALPHA
 10
66.244207
 20
159.663407
 30
0.0
  0
VERTEX
  5
11FC0
  8
ALPHA
 10
66.801392
 20
160.03258
 30
0.0
  0
SEQEND
  5
11FC1
  8
ALPHA
  0
LINE
  5
11A19
  8
ALPHA
 10
76.077636
 20
119.98827
 30
0.0
 11
76.077636
 21
122.258839
 31
0.0
  0
LINE
  5
11A1A
  8
ALPHA
 10
77.587124
 20
117.732779
 30
0.0
 11
69.837124
 21
117.732779
 31
0.0
  0
LINE
  5
11A1B
  8
ALPHA
 10
77.587124
 20
117.732779
 30
0.0
 11
77.087124
 21
118.232779
 31
0.0
  0
POLYLINE
  5
11A1C
  8
ALPHA
 66
     1
 10
0.0
 20
0.0
 30
0.0
 70
   128
  0
VERTEX
  5
11FC2
  8
ALPHA
 10
69.837124
 20
119.007064
 30
0.0
  0
VERTEX
  5
11FC3
  8
ALPHA
 10
72.129609
 20
119.007064
 30
0.0
  0
VERTEX
  5
11FC4
  8
ALPHA
 10
74.127603
 20
119.007064
 30
0.0
  0
VERTEX
  5
11FC5
  8
ALPHA
 10
75.539929
 20
119.007064
 30
0.0
  0
VERTEX
  5
11FC6
  8
ALPHA
 10
76.07541
 20
119.007064
 30
0.0
  0
SEQEND
  5
11FC7
  8
ALPHA
  0
POLYLINE
  5
11A1D
  8
ALPHA
 66
     1
 10
0.0
 20
0.0
 30
0.0
 70
   128
  0
VERTEX
  5
11FC8
  8
ALPHA
 10
76.07541
 20
120.013857
 30
0.0
  0
VERTEX
  5
11FC9
  8
ALPHA
 10
75.539929
 20
120.013857
 30
0.0
  0
VERTEX
  5
11FCA
  8
ALPHA
 10
74.127603
 20
120.013857
 30
0.0
  0
VERTEX
  5
11FCB
  8
ALPHA
 10
72.129609
 20
120.013857
 30
0.0
  0
VERTEX
  5
11FCC
  8
ALPHA
 10
69.837124
 20
120.013857
 30
0.0
  0
SEQEND
  5
11FCD
  8
ALPHA
  0
POLYLINE
  5
11A1E
  8
ALPHA
 66
     1
 10
0.0
 20
0.0
 30
0.0
 70
   128
  0
VERTEX
  5
11FCE
  8
ALPHA
 10
76.07541
 20
119.007064
 30
0.0
  0
VERTEX
  5
11FCF
  8
ALPHA
 10
76.431125
 20
119.154189
 30
0.0
  0
VERTEX
  5
11FD0
  8
ALPHA
 10
76.57825
 20
119.509904
 30
0.0
  0
VERTEX
  5
11FD1
  8
ALPHA
 10
76.431125
 20
119.866176
 30
0.0
  0
VERTEX
  5
11FD2
  8
ALPHA
 10
76.07541
 20
120.013857
 30
0.0
  0
SEQEND
  5
11FD3
  8
ALPHA
  0
LINE
  5
11A1F
  8
ALPHA
 10
77.087124
 20
118.232779
 30
0.0
 11
69.837124
 21
118.232779
 31
0.0
  0
LINE
  5
11A20
  8
ALPHA
 10
76.077636
 20
119.03265
 30
0.0
 11
76.077636
 21
118.232779
 31
0.0
  0
LINE
  5
11A21
  8
ALPHA
 10
77.587124
 20
117.732779
 30
0.0
 11
77.587124
 21
116.322196
 31
0.0
  0
POLYLINE
  5
11A22
  8
ALPHA
 66
     1
 10
0.0
 20
0.0
 30
0.0
 70
   128
  0
VERTEX
  5
11FD4
  8
ALPHA
 10
70.158853
 20
161.960283
 30
0.0
  0
VERTEX
  5
11FD5
  8
ALPHA
 10
70.158853
 20
162.438339
 30
0.0
  0
VERTEX
  5
11FD6
  8
ALPHA
 10
70.158853
 20
163.69867
 30
0.0
  0
VERTEX
  5
11FD7
  8
ALPHA
 10
70.158853
 20
167.523121
 30
0.0
  0
VERTEX
  5
11FD8
  8
ALPHA
 10
70.158853
 20
171.347573
 30
0.0
  0
VERTEX
  5
11FD9
  8
ALPHA
 10
70.158853
 20
172.607904
 30
0.0
  0
VERTEX
  5
11FDA
  8
ALPHA
 10
70.158853
 20
173.08596
 30
0.0
  0
SEQEND
  5
11FDB
  8
ALPHA
  0
POLYLINE
  5
11A23
  8
ALPHA
 66
     1
 10
0.0
 20
0.0
 30
0.0
 70
   128
  0
VERTEX
  5
11FDC
  8
ALPHA
 10
70.158853
 20
161.960283
 30
0.0
  0
VERTEX
  5
11FDD
  8
ALPHA
 10
70.158853
 20
162.438339
 30
0.0
  0
VERTEX
  5
11FDE
  8
ALPHA
 10
70.158853
 20
163.69867
 30
0.0
  0
VERTEX
  5
11FDF
  8
ALPHA
 10
70.158853
 20
167.523121
 30
0.0
  0
VERTEX
  5
11FE0
  8
ALPHA
 10
70.158853
 20
171.347573
 30
0.0
  0
VERTEX
  5
11FE1
  8
ALPHA
 10
70.158853
 20
172.607904
 30
0.0
  0
VERTEX
  5
11FE2
  8
ALPHA
 10
70.158853
 20
173.08596
 30
0.0
  0
SEQEND
  5
11FE3
  8
ALPHA
  0
POLYLINE
  5
11A24
  8
ALPHA
 66
     1
 10
0.0
 20
0.0
 30
0.0
 70
   128
  0
VERTEX
  5
11FE4
  8
ALPHA
 10
73.841429
 20
122.258839
 30
0.0
  0
VERTEX
  5
11FE5
  8
ALPHA
 10
73.900125
 20
122.419957
 30
0.0
  0
VERTEX
  5
11FE6
  8
ALPHA
 10
74.060562
 20
122.860344
 30
0.0
  0
VERTEX
  5
11FE7
  8
ALPHA
 10
74.592743
 20
124.32114
 30
0.0
  0
VERTEX
  5
11FE8
  8
ALPHA
 10
75.844934
 20
127.758309
 30
0.0
  0
VERTEX
  5
11FE9
  8
ALPHA
 10
76.189286
 20
128.70353
 30
0.0
  0
VERTEX
  5
11FEA
  8
ALPHA
 10
76.253786
 20
128.952449
 30
0.0
  0
VERTEX
  5
11FEB
  8
ALPHA
 10
76.337244
 20
129.490415
 30
0.0
  0
VERTEX
  5
11FEC
  8
ALPHA
 10
76.375333
 20
130.042461
 30
0.0
  0
VERTEX
  5
11FED
  8
ALPHA
 10
76.377721
 20
130.182351
 30
0.0
  0
VERTEX
  5
11FEE
  8
ALPHA
 10
76.363967
 20
130.66275
 30
0.0
  0
VERTEX
  5
11FEF
  8
ALPHA
 10
76.161855
 20
131.914653
 30
0.0
  0
VERTEX
  5
11FF0
  8
ALPHA
 10
75.110106
 20
134.118969
 30
0.0
  0
VERTEX
  5
11FF1
  8
ALPHA
 10
73.343286
 20
135.765568
 30
0.0
  0
SEQEND
  5
11FF2
  8
ALPHA
  0
POLYLINE
  5
11A25
  8
ALPHA
 66
     1
 10
0.0
 20
0.0
 30
0.0
 70
   128
  0
VERTEX
  5
11FF3
  8
ALPHA
 10
73.841429
 20
122.258839
 30
0.0
  0
VERTEX
  5
11FF4
  8
ALPHA
 10
73.900125
 20
122.419957
 30
0.0
  0
VERTEX
  5
11FF5
  8
ALPHA
 10
74.060562
 20
122.860344
 30
0.0
  0
VERTEX
  5
11FF6
  8
ALPHA
 10
74.592743
 20
124.32114
 30
0.0
  0
VERTEX
  5
11FF7
  8
ALPHA
 10
75.844934
 20
127.758309
 30
0.0
  0
VERTEX
  5
11FF8
  8
ALPHA
 10
76.189286
 20
128.70353
 30
0.0
  0
VERTEX
  5
11FF9
  8
ALPHA
 10
76.253786
 20
128.952449
 30
0.0
  0
VERTEX
  5
11FFA
  8
ALPHA
 10
76.337244
 20
129.490415
 30
0.0
  0
VERTEX
  5
11FFB
  8
ALPHA
 10
76.375333
 20
130.042461
 30
0.0
  0
VERTEX
  5
11FFC
  8
ALPHA
 10
76.377721
 20
130.182351
 30
0.0
  0
VERTEX
  5
11FFD
  8
ALPHA
 10
76.363967
 20
130.66275
 30
0.0
  0
VERTEX
  5
11FFE
  8
ALPHA
 10
76.161855
 20
131.914653
 30
0.0
  0
VERTEX
  5
11FFF
  8
ALPHA
 10
75.110106
 20
134.118969
 30
0.0
  0
VERTEX
  5
12000
  8
ALPHA
 10
73.343286
 20
135.765568
 30
0.0
  0
SEQEND
  5
12001
  8
ALPHA
  0
LINE
  5
11A26
  8
ALPHA
 10
76.077636
 20
122.258839
 30
0.0
 11
69.837124
 21
122.258839
 31
0.0
  0
LINE
  5
11A27
  8
ALPHA
 10
73.363063
 20
135.765568
 30
0.0
 11
72.837725
 21
138.939983
 31
0.0
  0
LINE
  5
11A28
  8
ALPHA
 10
72.270783
 20
138.939983
 30
0.0
 11
72.270783
 21
140.086727
 31
0.0
  0
LINE
  5
11A29
  8
ALPHA
 10
72.270783
 20
140.086727
 30
0.0
 11
72.270783
 21
138.939983
 31
0.0
  0
CIRCLE
  5
11A2A
  8
ALPHA
 10
72.94361
 20
139.542057
 30
0.0
 40
0.603407
  0
CIRCLE
  5
11A2B
  8
ALPHA
 10
72.94361
 20
139.542057
 30
0.0
 40
0.603407
  0
LINE
  5
11A2C
  8
ALPHA
 10
72.875527
 20
159.481904
 30
0.0
 11
70.499272
 21
159.697501
 31
0.0
  0
LINE
  5
11A2D
  8
ALPHA
 10
70.499272
 20
159.697501
 30
0.0
 11
72.875527
 21
159.481904
 31
0.0
  0
DIMENSION
  5
11B4C
  8
COTATION1
  2
*D14
 10
124.957455
 20
66.832779
 30
0.0
 11
124.957455
 21
91.832779
 31
0.0
 13
69.837124
 23
116.832779
 33
0.0
 14
103.957455
 24
66.832779
 34
0.0
 50
90.0
  0
VIEWPORT
  5
494D
 67
     1
  8
0
 10
4.995325
 20
6.556512
 30
0.0
 40
22.70986
 41
13.988421
 68
    -1
 69
     1
1001
ACAD
1000
MVIEW
1002
{
1070
    16
1010
0.0
1020
0.0
1030
0.0
1010
0.0
1020
0.0
1030
1.0
1040
0.0
1040
13.988421
1040
4.995325
1040
6.556512
1040
50.0
1040
0.0
1040
0.0
1070
     0
1070
   100
1070
     1
1070
     1
1070
     0
1070
     0
1070
     0
1070
     0
1040
0.0
1040
0.0
1040
0.0
1040
10.0
1040
10.0
1040
10.0
1040
10.0
1070
     0
1002
{
1002
}
1002
}
  0
ENDSEC
  0
EOF
