  0
SECTION
  2
HEADER
  9
$ACADVER
  1
AC1009
  9
$INSBASE
 10
402.590624
 20
-1.041018
 30
0.0
  9
$EXTMIN
 10
-9.003435
 20
2.42018
 30
0.0
  9
$EXTMAX
 10
50.748497
 20
99.556334
 30
0.0
  9
$LIMMIN
 10
-407.970438
 20
-367.832444
  9
$LIMMAX
 10
429.804077
 20
234.370848
  9
$ORTHOMODE
 70
     1
  9
$REGENMODE
 70
     1
  9
$FILLMODE
 70
     1
  9
$QTEXTMODE
 70
     0
  9
$MIRRTEXT
 70
     1
  9
$DRAGMODE
 70
     2
  9
$LTSCALE
 40
10.0
  9
$OSMODE
 70
    35
  9
$ATTMODE
 70
     1
  9
$TEXTSIZE
 40
6.0
  9
$TRACEWID
 40
1.0
  9
$TEXTSTYLE
  7
ROMANS
  9
$CLAYER
  8
ALPHA
  9
$CELTYPE
  6
BYLAYER
  9
$CECOLOR
 62
   256
  9
$DIMSCALE
 40
1.0
  9
$DIMASZ
 40
5.0
  9
$DIMEXO
 40
2.0
  9
$DIMDLI
 40
0.38
  9
$DIMRND
 40
0.0
  9
$DIMDLE
 40
0.0
  9
$DIMEXE
 40
2.5
  9
$DIMTP
 40
0.0
  9
$DIMTM
 40
0.0
  9
$DIMTXT
 40
2.5
  9
$DIMCEN
 40
0.0
  9
$DIMTSZ
 40
0.0
  9
$DIMTOL
 70
     0
  9
$DIMLIM
 70
     0
  9
$DIMTIH
 70
     1
  9
$DIMTOH
 70
     1
  9
$DIMSE1
 70
     0
  9
$DIMSE2
 70
     0
  9
$DIMTAD
 70
     1
  9
$DIMZIN
 70
    12
  9
$DIMBLK
  1
OPEN30
  9
$DIMASO
 70
     1
  9
$DIMSHO
 70
     1
  9
$DIMPOST
  1

  9
$DIMAPOST
  1

  9
$DIMALT
 70
     0
  9
$DIMALTD
 70
     2
  9
$DIMALTF
 40
25.4
  9
$DIMLFAC
 40
1.0
  9
$DIMTOFL
 70
     0
  9
$DIMTVP
 40
0.0
  9
$DIMTIX
 70
     0
  9
$DIMSOXD
 70
     0
  9
$DIMSAH
 70
     0
  9
$DIMBLK1
  1

  9
$DIMBLK2
  1

  9
$DIMSTYLE
  2
SC_DEFAUT
  9
$DIMCLRD
 70
     0
  9
$DIMCLRE
 70
     0
  9
$DIMCLRT
 70
     0
  9
$DIMTFAC
 40
1.0
  9
$DIMGAP
 40
2.0
  9
$LUNITS
 70
     2
  9
$LUPREC
 70
     1
  9
$SKETCHINC
 40
0.1
  9
$FILLETRAD
 40
0.0
  9
$AUNITS
 70
     0
  9
$AUPREC
 70
     0
  9
$MENU
  1
acad
  9
$ELEVATION
 40
0.0
  9
$PELEVATION
 40
0.0
  9
$THICKNESS
 40
0.0
  9
$LIMCHECK
 70
     0
  9
$BLIPMODE
 70
     0
  9
$CHAMFERA
 40
0.0
  9
$CHAMFERB
 40
0.0
  9
$SKPOLY
 70
     0
  9
$TDCREATE
 40
2450373.687919
  9
$TDUPDATE
 40
2453041.664528
  9
$TDINDWG
 40
1.102634
  9
$TDUSRTIMER
 40
1.102634
  9
$USRTIMER
 70
     1
  9
$ANGBASE
 50
0.0
  9
$ANGDIR
 70
     0
  9
$PDMODE
 70
    32
  9
$PDSIZE
 40
0.0
  9
$PLINEWID
 40
0.0
  9
$COORDS
 70
     1
  9
$SPLFRAME
 70
     0
  9
$SPLINETYPE
 70
     6
  9
$SPLINESEGS
 70
     8
  9
$ATTDIA
 70
     0
  9
$ATTREQ
 70
     1
  9
$HANDLING
 70
     1
  9
$HANDSEED
  5
CE1F
  9
$SURFTAB1
 70
     6
  9
$SURFTAB2
 70
     6
  9
$SURFTYPE
 70
     6
  9
$SURFU
 70
     6
  9
$SURFV
 70
     6
  9
$UCSNAME
  2

  9
$UCSORG
 10
0.0
 20
0.0
 30
0.0
  9
$UCSXDIR
 10
1.0
 20
0.0
 30
0.0
  9
$UCSYDIR
 10
0.0
 20
1.0
 30
0.0
  9
$PUCSNAME
  2

  9
$PUCSORG
 10
0.0
 20
0.0
 30
0.0
  9
$PUCSXDIR
 10
1.0
 20
0.0
 30
0.0
  9
$PUCSYDIR
 10
0.0
 20
1.0
 30
0.0
  9
$USERI1
 70
     0
  9
$USERI2
 70
     0
  9
$USERI3
 70
     0
  9
$USERI4
 70
     0
  9
$USERI5
 70
     0
  9
$USERR1
 40
0.0
  9
$USERR2
 40
0.0
  9
$USERR3
 40
0.0
  9
$USERR4
 40
0.0
  9
$USERR5
 40
0.0
  9
$WORLDVIEW
 70
     1
  9
$SHADEDGE
 70
     3
  9
$SHADEDIF
 70
    70
  9
$TILEMODE
 70
     1
  9
$MAXACTVP
 70
    16
  9
$PLIMCHECK
 70
     0
  9
$PEXTMIN
 10
-1.452248
 20
-0.437698
 30
0.0
  9
$PEXTMAX
 10
12.749749
 20
8.310198
 30
0.0
  9
$PLIMMIN
 10
0.0
 20
0.0
  9
$PLIMMAX
 10
12.0
 20
9.0
  9
$UNITMODE
 70
     0
  9
$VISRETAIN
 70
     0
  9
$PLINEGEN
 70
     0
  9
$PSLTSCALE
 70
     0
  0
ENDSEC
  0
SECTION
  2
TABLES
  0
TABLE
  2
VPORT
 70
     2
  0
VPORT
  2
*ACTIVE
 70
     0
 10
0.0
 20
0.0
 11
1.0
 21
1.0
 12
20.887893
 22
51.001895
 13
0.0
 23
0.0
 14
1.0
 24
1.0
 15
10.0
 25
10.0
 16
0.0
 26
0.0
 36
1.0
 17
0.0
 27
0.0
 37
0.0
 40
97.872465
 41
1.466346
 42
50.0
 43
0.0
 44
0.0
 50
0.0
 51
0.0
 71
     0
 72
   100
 73
     1
 74
     0
 75
     0
 76
     0
 77
     0
 78
     0
  0
ENDTAB
  0
TABLE
  2
LTYPE
 70
     2
  0
LTYPE
  2
CONTINUOUS
 70
     0
  3
Solid line
 72
    65
 73
     0
 40
0.0
  0
LTYPE
  2
AXES2
 70
     0
  3
___ _ ___ _ ___ _ ___ _ ___ _ ___ _ ___ _ ___ _
 72
    65
 73
     4
 40
1.125
 49
0.75
 49
-0.125
 49
0.125
 49
-0.125
  0
ENDTAB
  0
TABLE
  2
LAYER
 70
     5
  0
LAYER
  2
0
 70
     0
 62
   255
  6
CONTINUOUS
  0
LAYER
  2
COTATION1
 70
     0
 62
     2
  6
CONTINUOUS
  0
LAYER
  2
AXE
 70
     0
 62
    80
  6
AXES2
  0
LAYER
  2
DEFPOINTS
 70
     0
 62
     7
  6
CONTINUOUS
  0
LAYER
  2
ALPHA
 70
     0
 62
   254
  6
CONTINUOUS
  0
ENDTAB
  0
TABLE
  2
STYLE
 70
     2
  0
STYLE
  2
ROMANS
 70
     0
 40
0.0
 41
1.0
 50
0.0
 71
     0
 42
6.0
  3
romans
  4

  0
STYLE
  2
STANDARD
 70
     0
 40
0.0
 41
1.0
 50
0.0
 71
     0
 42
0.2
  3
txt
  4

  0
ENDTAB
  0
TABLE
  2
VIEW
 70
     0
  0
ENDTAB
  0
TABLE
  2
UCS
 70
     0
  0
ENDTAB
  0
TABLE
  2
APPID
 70
     1
  0
APPID
  2
ACAD
 70
     0
  0
ENDTAB
  0
TABLE
  2
DIMSTYLE
 70
     2
  0
DIMSTYLE
  2
SC_DEFAUT
 70
     0
  3

  4

  5
OPEN30
  6

  7

 40
1.0
 41
5.0
 42
2.0
 43
0.38
 44
2.5
 45
0.0
 46
0.0
 47
0.0
 48
0.0
140
2.5
141
0.0
142
0.0
143
25.4
144
1.0
145
0.0
146
1.0
147
2.0
 71
     0
 72
     0
 73
     1
 74
     1
 75
     0
 76
     0
 77
     1
 78
    12
170
     0
171
     2
172
     0
173
     0
174
     0
175
     0
176
     0
177
     0
178
     0
  0
DIMSTYLE
  2
STANDARD
 70
     0
  3

  4

  5

  6

  7

 40
1.0
 41
3.0
 42
0.0625
 43
0.38
 44
0.18
 45
0.0
 46
0.0
 47
0.01
 48
0.01
140
3.5
141
0.09
142
0.0
143
25.4
144
1.0
145
0.0
146
1.0
147
0.09
 71
     1
 72
     0
 73
     0
 74
     0
 75
     0
 76
     0
 77
     1
 78
     8
170
     0
171
     2
172
     0
173
     0
174
     0
175
     0
176
     0
177
     0
178
     0
  0
ENDTAB
  0
ENDSEC
  0
SECTION
  2
BLOCKS
  0
BLOCK
  8
0
  2
$MODEL_SPACE
 70
     0
 10
0.0
 20
0.0
 30
0.0
  3
$MODEL_SPACE
  1

  0
ENDBLK
  5
CDB2
  8
0
  0
BLOCK
 67
     1
  8
0
  2
$PAPER_SPACE
 70
     0
 10
0.0
 20
0.0
 30
0.0
  3
$PAPER_SPACE
  1

  0
ENDBLK
  5
CDB0
 67
     1
  8
0
  0
BLOCK
  8
0
  2
COTE
 70
     0
 10
0.0
 20
0.0
 30
0.0
  3
COTE
  1

  0
ENDBLK
  5
F
  8
0
  0
BLOCK
  8
0
  2
FOND
 70
     0
 10
0.0
 20
0.0
 30
0.0
  3
FOND
  1

  0
ENDBLK
  5
75
  8
0
  0
BLOCK
  8
0
  2
_OPEN30
 70
     0
 10
0.0
 20
0.0
 30
0.0
  3
_OPEN30
  1

  0
LINE
  5
4B05
  8
COTATION1
 62
     0
 10
-1.0
 20
0.267949
 30
0.0
 11
0.0
 21
0.0
 31
0.0
1001
ACAD
1000
RTLwPs
1070
   158
  0
LINE
  5
4B06
  8
COTATION1
 62
     0
 10
0.0
 20
0.0
 30
0.0
 11
-1.0
 21
-0.267949
 31
0.0
1001
ACAD
1000
RTLwPs
1070
   158
  0
LINE
  5
4B07
  8
COTATION1
 62
     0
 10
0.0
 20
0.0
 30
0.0
 11
-1.0
 21
0.0
 31
0.0
1001
ACAD
1000
RTLwPs
1070
   158
  0
ENDBLK
  5
4B09
  8
0
  0
BLOCK
  8
0
  2
*D3
 70
     1
 10
0.0
 20
0.0
 30
0.0
  3
*D3
  1

  0
LINE
  5
CCAB
  8
COTATION1
 62
     0
 10
9.746565
 20
25.256334
 30
0.0
 11
9.746565
 21
2.42018
 31
0.0
1001
ACAD
1000
RTLwPs
1070
   158
  0
LINE
  5
CCAC
  8
COTATION1
 62
     0
 10
39.746565
 20
28.556334
 30
0.0
 11
39.746565
 21
2.42018
 31
0.0
1001
ACAD
1000
RTLwPs
1070
   158
  0
LINE
  5
CCAD
  8
COTATION1
 62
     0
 10
14.746565
 20
4.92018
 30
0.0
 11
34.746565
 21
4.92018
 31
0.0
1001
ACAD
1000
RTLwPs
1070
   158
  0
INSERT
  5
CCAE
  8
COTATION1
 62
     0
  2
_OPEN30
 10
9.746565
 20
4.92018
 30
0.0
 41
5.0
 42
5.0
 43
5.0
 50
180.0
1001
ACAD
1000
RTLwPs
1070
   158
  0
INSERT
  5
CCAF
  8
COTATION1
 62
     0
  2
_OPEN30
 10
39.746565
 20
4.92018
 30
0.0
 41
5.0
 42
5.0
 43
5.0
1001
ACAD
1000
RTLwPs
1070
   158
  0
TEXT
  5
CCB0
  8
COTATION1
 62
     0
 10
22.365613
 20
6.92018
 30
0.0
 40
2.5
  1
30
1001
ACAD
1000
MTEXTBEGIN
1070
    73
1070
     1
1070
    44
1040
1.0
1070
    74
1070
     0
1000
MTEXTEND
  0
POINT
  5
CCB1
  8
DEFPOINTS
 62
     0
 10
9.746565
 20
27.256334
 30
0.0
  0
POINT
  5
CCB2
  8
DEFPOINTS
 62
     0
 10
39.746565
 20
30.556334
 30
0.0
  0
POINT
  5
CCB3
  8
DEFPOINTS
 62
     0
 10
39.746565
 20
4.92018
 30
0.0
  0
ENDBLK
  5
C9D1
  8
0
  0
BLOCK
  8
0
  2
*D4
 70
     1
 10
0.0
 20
0.0
 30
0.0
  3
*D4
  1

  0
LINE
  5
CCD3
  8
COTATION1
 62
     0
 10
22.746566
 20
94.556334
 30
0.0
 11
-7.753435
 21
94.556334
 31
0.0
1001
ACAD
1000
RTLwPs
1070
   158
  0
LINE
  5
CCD4
  8
COTATION1
 62
     0
 10
8.946565
 20
26.056334
 30
0.0
 11
-7.753435
 21
26.056334
 31
0.0
1001
ACAD
1000
RTLwPs
1070
   158
  0
LINE
  5
CCD5
  8
COTATION1
 62
     0
 10
-5.253435
 20
89.556334
 30
0.0
 11
-5.253435
 21
63.556334
 31
0.0
1001
ACAD
1000
RTLwPs
1070
   158
  0
LINE
  5
CCD6
  8
COTATION1
 62
     0
 10
-5.253435
 20
31.056334
 30
0.0
 11
-5.253435
 21
57.056334
 31
0.0
1001
ACAD
1000
RTLwPs
1070
   158
  0
INSERT
  5
CCD7
  8
COTATION1
 62
     0
  2
_OPEN30
 10
-5.253435
 20
94.556334
 30
0.0
 41
5.0
 42
5.0
 43
5.0
 50
90.0
1001
ACAD
1000
RTLwPs
1070
   158
  0
INSERT
  5
CCD8
  8
COTATION1
 62
     0
  2
_OPEN30
 10
-5.253435
 20
26.056334
 30
0.0
 41
5.0
 42
5.0
 43
5.0
 50
270.0
1001
ACAD
1000
RTLwPs
1070
   158
  0
TEXT
  5
CCD9
  8
COTATION1
 62
     0
 10
-9.479625
 20
59.056334
 30
0.0
 40
2.5
  1
68.5
1001
ACAD
1000
MTEXTBEGIN
1070
    73
1070
     1
1070
    44
1040
1.0
1070
    74
1070
     0
1000
MTEXTEND
  0
POINT
  5
CCDA
  8
DEFPOINTS
 62
     0
 10
24.746566
 20
94.556334
 30
0.0
  0
POINT
  5
CCDB
  8
DEFPOINTS
 62
     0
 10
10.946565
 20
26.056334
 30
0.0
  0
POINT
  5
CCDC
  8
DEFPOINTS
 62
     0
 10
-5.253435
 20
26.056334
 30
0.0
  0
ENDBLK
  5
CC9F
  8
0
  0
ENDSEC
  0
SECTION
  2
ENTITIES
  0
INSERT
  5
A
  8
0
  2
COTE
 10
0.0
 20
0.0
 30
0.0
  0
INSERT
  5
17
  8
0
  2
COTE
 10
284.010391
 20
6.373258
 30
0.0
  0
INSERT
  5
72
  8
0
  2
FOND
 10
0.0
 20
0.0
 30
0.0
  0
DIMENSION
  5
A0DA
  8
COTATION1
  2
*D4
 10
-5.253435
 20
26.056334
 30
0.0
 11
-5.253435
 21
60.306334
 31
0.0
 13
24.746566
 23
94.556334
 33
0.0
 14
10.946565
 24
26.056334
 34
0.0
 50
90.0
  0
LINE
  5
A145
  8
AXE
 10
7.671565
 20
66.056334
 30
0.0
 11
21.821565
 21
66.056334
 31
0.0
  0
LINE
  5
A146
  8
AXE
 10
14.746565
 20
58.981334
 30
0.0
 11
14.746565
 21
73.131334
 31
0.0
  0
LINE
  5
A147
  8
AXE
 10
27.671565
 20
66.056334
 30
0.0
 11
41.821565
 21
66.056334
 31
0.0
  0
LINE
  5
A148
  8
AXE
 10
34.746565
 20
58.981334
 30
0.0
 11
34.746565
 21
73.131334
 31
0.0
  0
ARC
  5
AF20
  8
ALPHA
 10
45.288949
 20
41.727153
 30
0.0
 40
11.3
 50
240.588561
 51
288.29927
  0
ARC
  5
AF21
  8
ALPHA
 10
45.288949
 20
41.727153
 30
0.0
 40
18.7
 50
236.913137
 51
286.975
  0
LINE
  5
AF66
  8
ALPHA
 10
39.746565
 20
73.852216
 30
0.0
 11
39.746565
 21
30.556334
 31
0.0
  0
LINE
  5
AF67
  8
ALPHA
 10
39.046565
 20
65.249721
 30
0.0
 11
39.046565
 21
30.121311
 31
0.0
  0
LINE
  5
AF68
  8
ALPHA
 10
10.446565
 20
26.576345
 30
0.0
 11
10.446565
 21
65.249721
 31
0.0
  0
LINE
  5
AF69
  8
ALPHA
 10
9.746565
 20
27.256334
 30
0.0
 11
9.746565
 21
73.852216
 31
0.0
  0
LINE
  5
AF6A
  8
ALPHA
 10
10.946565
 20
26.356334
 30
0.0
 11
34.746565
 21
26.356334
 31
0.0
  0
LINE
  5
AF6B
  8
ALPHA
 10
10.946565
 20
26.056334
 30
0.0
 11
34.746565
 21
26.056334
 31
0.0
  0
ARC
  5
AF92
  8
ALPHA
 10
10.946565
 20
27.256334
 30
0.0
 40
1.2
 50
180.0
 51
270.0
  0
LINE
  5
AF93
  8
ALPHA
 10
10.579253
 20
26.454954
 30
0.0
 11
10.446566
 21
26.165463
 31
0.0
  0
LINE
  5
AF94
  8
ALPHA
 10
10.579253
 20
26.454954
 30
0.0
 11
10.946565
 21
26.356334
 31
0.0
  0
LINE
  5
AF95
  8
ALPHA
 10
10.446565
 20
26.576345
 30
0.0
 11
10.23569
 21
26.289558
 31
0.0
  0
LINE
  5
AF96
  8
ALPHA
 10
10.446565
 20
26.576345
 30
0.0
 11
10.579253
 21
26.454954
 31
0.0
  0
POLYLINE
  5
AF97
  8
ALPHA
 66
     1
 10
0.0
 20
0.0
 30
0.0
 70
   128
  0
VERTEX
  5
CDB8
  8
ALPHA
 10
9.746565
 20
27.256334
 30
0.0
  0
VERTEX
  5
CDB9
  8
ALPHA
 10
10.04911
 20
26.873012
 30
0.0
  0
VERTEX
  5
CDBA
  8
ALPHA
 10
10.446565
 20
26.576345
 30
0.0
  0
SEQEND
  5
CDBB
  8
ALPHA
  0
LINE
  5
AF98
  8
ALPHA
 10
10.946565
 20
26.356334
 30
0.0
 11
10.946565
 21
26.056334
 31
0.0
  0
POLYLINE
  5
AF99
  8
ALPHA
 66
     1
 10
0.0
 20
0.0
 30
0.0
 70
   128
  0
VERTEX
  5
CDBC
  8
ALPHA
 10
28.243018
 20
28.847089
 30
0.0
  0
VERTEX
  5
CDBD
  8
ALPHA
 10
28.086766
 20
29.008893
 30
0.0
  0
VERTEX
  5
CDBE
  8
ALPHA
 10
27.844715
 20
29.031027
 30
0.0
  0
VERTEX
  5
CDBF
  8
ALPHA
 10
27.603059
 20
29.005743
 30
0.0
  0
VERTEX
  5
CDC0
  8
ALPHA
 10
27.458555
 20
28.834559
 30
0.0
  0
SEQEND
  5
CDC1
  8
ALPHA
  0
ARC
  5
AF9A
  8
ALPHA
 10
27.946565
 20
28.756334
 30
0.0
 40
0.9
 50
270.0
 51
90.0
  0
LINE
  5
AF9B
  8
ALPHA
 10
28.629579
 20
29.341275
 30
0.0
 11
26.8952
 21
29.056334
 31
0.0
  0
LINE
  5
AF9C
  8
ALPHA
 10
28.609909
 20
29.360303
 30
0.0
 11
20.747733
 21
29.360303
 31
0.0
  0
LINE
  5
AF9D
  8
ALPHA
 10
20.556209
 20
29.056334
 30
0.0
 11
28.786921
 21
29.056334
 31
0.0
  0
LINE
  5
AF9E
  8
ALPHA
 10
24.374936
 20
28.756334
 30
0.0
 11
21.152474
 21
28.613501
 31
0.0
  0
LINE
  5
AF9F
  8
ALPHA
 10
27.946565
 20
29.656334
 30
0.0
 11
21.396565
 21
29.656334
 31
0.0
  0
LINE
  5
AFA0
  8
ALPHA
 10
20.742823
 20
28.144047
 30
0.0
 11
24.454905
 21
28.144047
 31
0.0
  0
LINE
  5
AFA1
  8
ALPHA
 10
21.396565
 20
27.856334
 30
0.0
 11
24.522958
 21
27.856334
 31
0.0
  0
LINE
  5
AFA2
  8
ALPHA
 10
20.747733
 20
29.360303
 30
0.0
 11
22.59793
 21
29.056334
 31
0.0
  0
LINE
  5
AFA3
  8
ALPHA
 10
21.163601
 20
28.654992
 30
0.0
 11
21.152474
 21
28.613501
 31
0.0
  0
LINE
  5
AFA4
  8
ALPHA
 10
21.101834
 20
28.65186
 30
0.0
 11
21.163601
 21
28.654992
 31
0.0
  0
LINE
  5
AFA5
  8
ALPHA
 10
21.152474
 20
28.613501
 30
0.0
 11
21.113473
 21
28.492922
 31
0.0
  0
LINE
  5
AFA6
  8
ALPHA
 10
21.026163
 20
28.144047
 30
0.0
 11
21.11383
 21
28.494023
 31
0.0
  0
LINE
  5
AFA7
  8
ALPHA
 10
21.11383
 20
28.494023
 30
0.0
 11
20.563341
 21
28.433646
 31
0.0
  0
LINE
  5
AFA8
  8
ALPHA
 10
20.510425
 20
28.612383
 30
0.0
 11
20.962489
 21
28.644146
 31
0.0
  0
POLYLINE
  5
AFA9
  8
ALPHA
 66
     1
 10
0.0
 20
0.0
 30
0.0
 70
   128
210
0.0
220
0.0
230
-1.0
  0
VERTEX
  5
CDC2
  8
ALPHA
 10
-20.836774
 20
29.056334
 30
0.0
  0
VERTEX
  5
CDC3
  8
ALPHA
 10
-21.052828
 20
28.913921
 30
0.0
  0
VERTEX
  5
CDC4
  8
ALPHA
 10
-21.101834
 20
28.65186
 30
0.0
  0
SEQEND
  5
CDC5
  8
ALPHA
  0
LINE
  5
AFAA
  8
ALPHA
 10
20.962489
 20
28.644146
 30
0.0
 11
21.101834
 21
28.65186
 31
0.0
  0
LINE
  5
AFAB
  8
ALPHA
 10
20.518943
 20
28.584695
 30
0.0
 11
21.112362
 21
28.649966
 31
0.0
  0
ARC
  5
AFAC
  8
ALPHA
 10
21.546565
 20
28.756334
 30
0.0
 40
0.9
 50
142.059182
 51
160.353821
  0
ARC
  5
AFAD
  8
ALPHA
 10
21.396565
 20
28.756334
 30
0.0
 40
0.9
 50
90.0
 51
270.0
  0
LINE
  5
AFAE
  8
ALPHA
 10
20.750142
 20
29.374962
 30
0.0
 11
20.747733
 21
29.360303
 31
0.0
  0
LINE
  5
AFAF
  8
ALPHA
 10
21.113473
 20
28.492922
 30
0.0
 11
21.112362
 21
28.649966
 31
0.0
  0
LINE
  5
AFB0
  8
ALPHA
 10
20.691093
 20
29.306334
 30
0.0
 11
21.076229
 21
29.306334
 31
0.0
  0
LINE
  5
AFB1
  8
ALPHA
 10
24.970172
 20
27.856334
 30
0.0
 11
27.946565
 21
27.856334
 31
0.0
  0
LINE
  5
AFB2
  8
ALPHA
 10
25.120557
 20
27.942897
 30
0.0
 11
25.162984
 21
27.856334
 31
0.0
  0
POLYLINE
  5
AFB3
  8
ALPHA
 66
     1
 10
0.0
 20
0.0
 30
0.0
 70
   128
210
0.0
220
0.0
230
-1.0
  0
VERTEX
  5
CDC6
  8
ALPHA
 10
-24.372574
 20
27.942897
 30
0.0
  0
VERTEX
  5
CDC7
  8
ALPHA
 10
-24.746565
 20
28.148716
 30
0.0
  0
VERTEX
  5
CDC8
  8
ALPHA
 10
-25.120557
 20
27.942897
 30
0.0
  0
SEQEND
  5
CDC9
  8
ALPHA
  0
LINE
  5
AFB4
  8
ALPHA
 10
24.330146
 20
27.856334
 30
0.0
 11
24.372574
 21
27.942897
 31
0.0
  0
LINE
  5
AFB5
  8
ALPHA
 10
24.351465
 20
29.056334
 30
0.0
 11
24.374936
 21
28.756334
 31
0.0
  0
LINE
  5
AFB6
  8
ALPHA
 10
24.737576
 20
29.056334
 30
0.0
 11
24.374936
 21
28.756334
 31
0.0
  0
ARC
  5
AFB7
  8
ALPHA
 10
24.746565
 20
27.656334
 30
0.0
 40
0.3
 50
41.810315
 51
138.189685
  0
LINE
  5
AFB8
  8
ALPHA
 10
25.527167
 20
27.856334
 30
0.0
 11
25.527167
 21
29.056334
 31
0.0
  0
LINE
  5
AFB9
  8
ALPHA
 10
24.743018
 20
28.1418
 30
0.0
 11
24.743018
 21
29.056334
 31
0.0
  0
LINE
  5
AFBA
  8
ALPHA
 10
24.454905
 20
28.144047
 30
0.0
 11
24.454905
 21
28.03024
 31
0.0
  0
LINE
  5
AFBB
  8
ALPHA
 10
24.374936
 20
28.753261
 30
0.0
 11
24.374936
 21
28.756334
 31
0.0
  0
LINE
  5
AFBC
  8
ALPHA
 10
24.374936
 20
28.144047
 30
0.0
 11
24.374936
 21
28.753261
 31
0.0
  0
LINE
  5
AFBD
  8
ALPHA
 10
27.458555
 20
27.856334
 30
0.0
 11
27.458555
 21
29.056334
 31
0.0
  0
POLYLINE
  5
AFBE
  8
ALPHA
 66
     1
 10
0.0
 20
0.0
 30
0.0
 70
   128
  0
VERTEX
  5
CDCA
  8
ALPHA
 10
34.746565
 20
26.356334
 30
0.0
  0
VERTEX
  5
CDCB
  8
ALPHA
 10
35.938257
 20
26.515057
 30
0.0
  0
VERTEX
  5
CDCC
  8
ALPHA
 10
37.043813
 20
26.986717
 30
0.0
  0
VERTEX
  5
CDCD
  8
ALPHA
 10
37.975028
 20
27.746204
 30
0.0
  0
VERTEX
  5
CDCE
  8
ALPHA
 10
38.646658
 20
28.742155
 30
0.0
  0
SEQEND
  5
CDCF
  8
ALPHA
  0
ARC
  5
AFBF
  8
ALPHA
 10
34.746565
 20
31.056334
 30
0.0
 40
5.0
 50
270.0
 51
0.000411
  0
LINE
  5
AFC0
  8
ALPHA
 10
28.610331
 20
28.15278
 30
0.0
 11
28.243018
 21
28.847089
 31
0.0
  0
LINE
  5
AFC1
  8
ALPHA
 10
28.64051
 20
29.056334
 30
0.0
 11
28.64051
 21
28.188399
 31
0.0
  0
LINE
  5
AFC2
  8
ALPHA
 10
28.243018
 20
27.912384
 30
0.0
 11
28.243018
 21
28.847089
 31
0.0
  0
LINE
  5
AFC3
  8
ALPHA
 10
28.416901
 20
29.306334
 30
0.0
 11
28.652037
 21
29.306334
 31
0.0
  0
LINE
  5
AFC4
  8
ALPHA
 10
34.746565
 20
26.356334
 30
0.0
 11
34.746565
 21
26.056334
 31
0.0
  0
LINE
  5
AFC5
  8
ALPHA
 10
39.046565
 20
30.121311
 30
0.0
 11
39.63239
 21
29.993925
 31
0.0
  0
LINE
  5
AFC6
  8
ALPHA
 10
39.046565
 20
30.121311
 30
0.0
 11
39.746565
 21
31.056334
 31
0.0
  0
LINE
  5
AFC7
  8
ALPHA
 10
38.646658
 20
28.742155
 30
0.0
 11
39.046565
 21
28.504864
 31
0.0
  0
LINE
  5
AFC8
  8
ALPHA
 10
38.646658
 20
28.742155
 30
0.0
 11
39.046565
 21
30.121311
 31
0.0
  0
LINE
  5
AFC9
  8
ALPHA
 10
39.746565
 20
30.556334
 30
0.0
 11
39.721342
 21
30.556334
 31
0.0
  0
ARC
  5
AFCA
  8
ALPHA
 10
14.746565
 20
66.056334
 30
0.0
 40
4.375
 50
190.624332
 51
47.807538
  0
ARC
  5
AFCB
  8
ALPHA
 10
11.781301
 20
73.888982
 30
0.0
 40
0.4
 50
190.0
 51
281.953211
  0
ARC
  5
AFCC
  8
ALPHA
 10
14.746565
 20
66.056334
 30
0.0
 40
4.375
 50
128.467
 51
169.375668
  0
ARC
  5
AFCD
  8
ALPHA
 10
14.746565
 20
66.056334
 30
0.0
 40
4.075
 50
128.467
 51
47.807538
  0
ARC
  5
AFCE
  8
ALPHA
 10
24.746565
 20
12.646334
 30
0.0
 40
63.4
 50
91.961682
 51
103.327962
  0
ARC
  5
AFCF
  8
ALPHA
 10
11.781301
 20
73.888982
 30
0.0
 40
0.2
 50
190.0
 51
281.953211
  0
ARC
  5
AFD0
  8
ALPHA
 10
14.746565
 20
66.056334
 30
0.0
 40
4.0
 50
99.746525
 51
177.897255
  0
ARC
  5
AFD1
  8
ALPHA
 10
14.746565
 20
66.056334
 30
0.0
 40
4.0
 50
180.0
 51
358.041398
  0
LINE
  5
AFD2
  8
ALPHA
 10
11.584339
 20
73.854252
 30
0.0
 11
11.387378
 21
73.819523
 31
0.0
  0
LINE
  5
AFD3
  8
ALPHA
 10
11.939063
 20
66.244982
 30
0.0
 11
10.753579
 21
66.293101
 31
0.0
  0
LINE
  5
AFD4
  8
ALPHA
 10
10.746565
 20
66.056334
 30
0.0
 11
11.932733
 21
66.056334
 31
0.0
  0
LINE
  5
AFD5
  8
ALPHA
 10
11.93451
 20
66.156334
 30
0.0
 11
10.749259
 21
66.2031
 31
0.0
  0
LINE
  5
AFD6
  8
ALPHA
 10
12.217517
 20
67.289854
 30
0.0
 11
11.142369
 21
67.791204
 31
0.0
  0
LINE
  5
AFD7
  8
ALPHA
 10
12.177038
 20
67.20315
 30
0.0
 11
11.101902
 21
67.704494
 31
0.0
  0
LINE
  5
AFD8
  8
ALPHA
 10
11.584339
 20
73.854252
 30
0.0
 11
11.482657
 21
74.430922
 31
0.0
  0
LINE
  5
AFED
  8
ALPHA
 10
10.446565
 20
74.104613
 30
0.0
 11
10.446565
 21
66.862947
 31
0.0
  0
LINE
  5
AFEE
  8
ALPHA
 10
10.446565
 20
65.249721
 30
0.0
 11
10.315315
 21
66.056334
 31
0.0
  0
LINE
  5
AFEF
  8
ALPHA
 10
10.446565
 20
65.249721
 30
0.0
 11
10.741422
 21
65.305031
 31
0.0
  0
LINE
  5
AFF0
  8
ALPHA
 10
10.315315
 20
66.056334
 30
0.0
 11
10.446565
 21
66.862947
 31
0.0
  0
LINE
  5
AFF1
  8
ALPHA
 10
10.446565
 20
66.862947
 30
0.0
 11
10.741422
 21
66.807637
 31
0.0
  0
LINE
  5
AFF2
  8
ALPHA
 10
11.303074
 20
74.297632
 30
0.0
 11
11.243098
 21
74.591603
 31
0.0
  0
LINE
  5
AFF3
  8
ALPHA
 10
10.015882
 20
74.046829
 30
0.0
 11
10.131303
 21
74.338749
 31
0.0
  0
LINE
  5
AFF4
  8
ALPHA
 10
10.015882
 20
74.046829
 30
0.0
 11
9.746565
 21
73.852216
 31
0.0
  0
LINE
  5
AFF5
  8
ALPHA
 10
10.446565
 20
74.104613
 30
0.0
 11
10.015882
 21
74.046829
 31
0.0
  0
LINE
  5
AFF6
  8
ALPHA
 10
11.500038
 20
74.332361
 30
0.0
 11
11.483427
 21
74.426552
 31
0.0
  0
LINE
  5
AFF7
  8
ALPHA
 10
11.483427
 20
74.426552
 30
0.0
 11
11.482869
 21
74.429637
 31
0.0
  0
ARC
  5
AFF8
  8
ALPHA
 10
24.746565
 20
12.646334
 30
0.0
 40
63.1
 50
102.301184
 51
103.098417
  0
ARC
  5
AFF9
  8
ALPHA
 10
11.285695
 20
74.396192
 30
0.0
 40
0.2
 50
10.0
 51
102.297541
  0
ARC
  5
AFFA
  8
ALPHA
 10
10.246565
 20
73.852216
 30
0.0
 40
0.5
 50
103.327962
 51
180.0
  0
LINE
  5
AFFB
  8
ALPHA
 10
11.303074
 20
74.297632
 30
0.0
 11
11.500036
 21
74.332362
 31
0.0
  0
LINE
  5
AFFC
  8
ALPHA
 10
11.243098
 20
74.591603
 30
0.0
 11
10.378578
 21
74.396807
 31
0.0
  0
LINE
  5
AFFD
  8
ALPHA
 10
11.303074
 20
74.297632
 30
0.0
 11
11.387378
 21
73.819523
 31
0.0
  0
LINE
  5
AFFE
  8
ALPHA
 10
10.446565
 20
74.104613
 30
0.0
 11
10.378578
 21
74.396807
 31
0.0
  0
POLYLINE
  5
AFFF
  8
ALPHA
 66
     1
 10
0.0
 20
0.0
 30
0.0
 70
   128
210
0.0
220
0.0
230
-1.0
  0
VERTEX
  5
CDD0
  8
ALPHA
 10
-28.717073
 20
68.074764
 30
0.0
  0
VERTEX
  5
CDD1
  8
ALPHA
 10
-28.370618
 20
66.413423
 30
0.0
  0
VERTEX
  5
CDD2
  8
ALPHA
 10
-28.032773
 20
65.566856
 30
0.0
  0
VERTEX
  5
CDD3
  8
ALPHA
 10
-27.550405
 20
64.738671
 30
0.0
  0
VERTEX
  5
CDD4
  8
ALPHA
 10
-26.951445
 20
63.988768
 30
0.0
  0
VERTEX
  5
CDD5
  8
ALPHA
 10
-26.265044
 20
63.377905
 30
0.0
  0
VERTEX
  5
CDD6
  8
ALPHA
 10
-25.520348
 20
62.966841
 30
0.0
  0
VERTEX
  5
CDD7
  8
ALPHA
 10
-24.746506
 20
62.816334
 30
0.0
  0
VERTEX
  5
CDD8
  8
ALPHA
 10
-23.972666
 20
62.966885
 30
0.0
  0
VERTEX
  5
CDD9
  8
ALPHA
 10
-23.227977
 20
63.377983
 30
0.0
  0
VERTEX
  5
CDDA
  8
ALPHA
 10
-22.541587
 20
63.988872
 30
0.0
  0
VERTEX
  5
CDDB
  8
ALPHA
 10
-21.942643
 20
64.738791
 30
0.0
  0
VERTEX
  5
CDDC
  8
ALPHA
 10
-21.460295
 20
65.566984
 30
0.0
  0
VERTEX
  5
CDDD
  8
ALPHA
 10
-21.122472
 20
66.413552
 30
0.0
  0
VERTEX
  5
CDDE
  8
ALPHA
 10
-20.776045
 20
68.074895
 30
0.0
  0
SEQEND
  5
CDDF
  8
ALPHA
  0
POLYLINE
  5
B000
  8
ALPHA
 66
     1
 10
0.0
 20
0.0
 30
0.0
 70
   128
210
0.0
220
0.0
230
-1.0
  0
VERTEX
  5
CDE0
  8
ALPHA
 10
-28.306632
 20
69.758758
 30
0.0
  0
VERTEX
  5
CDE1
  8
ALPHA
 10
-28.079803
 20
68.933223
 30
0.0
  0
VERTEX
  5
CDE2
  8
ALPHA
 10
-27.956599
 20
68.523293
 30
0.0
  0
VERTEX
  5
CDE3
  8
ALPHA
 10
-27.882318
 20
68.322652
 30
0.0
  0
VERTEX
  5
CDE4
  8
ALPHA
 10
-27.827185
 20
68.231479
 30
0.0
  0
VERTEX
  5
CDE5
  8
ALPHA
 10
-27.746565
 20
68.267623
 30
0.0
  0
SEQEND
  5
CDE6
  8
ALPHA
  0
LINE
  5
B001
  8
ALPHA
 10
34.121565
 20
73.751676
 30
0.0
 11
24.746565
 21
74.398274
 31
0.0
  0
ARC
  5
B002
  8
ALPHA
 10
24.746565
 20
12.646334
 30
0.0
 40
63.1
 50
76.901583
 51
95.730045
  0
ARC
  5
B003
  8
ALPHA
 10
24.746565
 20
12.646334
 30
0.0
 40
63.4
 50
76.672038
 51
88.038318
  0
LINE
  5
B004
  8
ALPHA
 10
32.746565
 20
76.056334
 30
0.0
 11
16.746565
 21
76.056334
 31
0.0
  0
LINE
  5
B005
  8
ALPHA
 10
17.998516
 20
73.556334
 30
0.0
 11
34.121565
 21
73.556334
 31
0.0
  0
LINE
  5
B006
  8
ALPHA
 10
25.246565
 20
72.356334
 30
0.0
 11
33.996565
 21
72.356334
 31
0.0
  0
LINE
  5
B007
  8
ALPHA
 10
25.246565
 20
71.556334
 30
0.0
 11
33.996565
 21
71.556334
 31
0.0
  0
LINE
  5
B008
  8
ALPHA
 10
25.146565
 20
71.336334
 30
0.0
 11
28.671081
 21
71.336334
 31
0.0
  0
LINE
  5
B009
  8
ALPHA
 10
25.19061
 20
71.258688
 30
0.0
 11
28.787404
 21
71.258688
 31
0.0
  0
LINE
  5
B00A
  8
ALPHA
 10
17.281499
 20
70.873974
 30
0.0
 11
20.754576
 21
70.581314
 31
0.0
  0
LINE
  5
B00B
  8
ALPHA
 10
24.746565
 20
74.398274
 30
0.0
 11
18.135432
 21
74.077178
 31
0.0
  0
LINE
  5
B00C
  8
ALPHA
 10
17.676977
 20
72.356334
 30
0.0
 11
24.246565
 21
72.356334
 31
0.0
  0
LINE
  5
B00D
  8
ALPHA
 10
17.462617
 20
71.556334
 30
0.0
 11
24.246565
 21
71.556334
 31
0.0
  0
LINE
  5
B00E
  8
ALPHA
 10
17.39563
 20
71.306334
 30
0.0
 11
20.697008
 21
71.306334
 31
0.0
  0
LINE
  5
B00F
  8
ALPHA
 10
16.91507
 20
69.512862
 30
0.0
 11
18.176929
 21
74.222183
 31
0.0
  0
LINE
  5
B010
  8
ALPHA
 10
14.308397
 20
70.216624
 30
0.0
 11
15.551765
 21
74.856935
 31
0.0
  0
CIRCLE
  5
B011
  8
ALPHA
 10
14.746565
 20
66.056334
 30
0.0
 40
2.125
  0
CIRCLE
  5
B012
  8
ALPHA
 10
14.746565
 20
66.056334
 30
0.0
 40
2.25
  0
LINE
  5
B013
  8
ALPHA
 10
14.43648
 20
70.694636
 30
0.0
 11
17.04448
 21
69.995825
 31
0.0
  0
LINE
  5
B014
  8
ALPHA
 10
14.332953
 20
70.308266
 30
0.0
 11
16.940952
 21
69.609455
 31
0.0
  0
LINE
  5
B015
  8
ALPHA
 10
14.307028
 20
70.211685
 30
0.0
 11
16.91507
 21
69.512862
 31
0.0
  0
ARC
  5
B016
  8
ALPHA
 10
14.746565
 20
66.056334
 30
0.0
 40
4.975
 50
92.624102
 51
119.709398
  0
ARC
  5
B017
  8
ALPHA
 10
14.746565
 20
66.056334
 30
0.0
 40
4.675
 50
93.822521
 51
119.709398
  0
ARC
  5
B018
  8
ALPHA
 10
12.57831
 20
69.856241
 30
0.0
 40
0.6
 50
119.709398
 51
188.0
  0
ARC
  5
B019
  8
ALPHA
 10
12.57831
 20
69.856241
 30
0.0
 40
0.3
 50
119.709398
 51
188.0
  0
ARC
  5
B01A
  8
ALPHA
 10
12.025036
 20
69.481813
 30
0.0
 40
0.3
 50
308.467
 51
8.0
  0
ARC
  5
B01B
  8
ALPHA
 10
14.746565
 20
66.056334
 30
0.0
 40
2.813833
 50
153.999619
 51
180.0
  0
LINE
  5
B01C
  8
ALPHA
 10
11.984149
 20
69.772737
 30
0.0
 11
12.28123
 21
69.814489
 31
0.0
  0
LINE
  5
B01D
  8
ALPHA
 10
12.025036
 20
69.481813
 30
0.0
 11
12.322117
 21
69.523565
 31
0.0
  0
LINE
  5
B01E
  8
ALPHA
 10
12.211655
 20
69.246923
 30
0.0
 11
12.025036
 21
69.481813
 31
0.0
  0
LINE
  5
B01F
  8
ALPHA
 10
12.42963
 20
70.116806
 30
0.0
 11
12.28095
 21
70.377371
 31
0.0
  0
LINE
  5
B020
  8
ALPHA
 10
12.28123
 20
69.814489
 30
0.0
 11
12.322117
 21
69.523565
 31
0.0
  0
LINE
  5
B021
  8
ALPHA
 10
11.984149
 20
69.772737
 30
0.0
 11
12.025036
 21
69.481813
 31
0.0
  0
ARC
  5
B022
  8
ALPHA
 10
14.018619
 20
70.294269
 30
0.0
 40
0.3
 50
279.746525
 51
345.0
  0
ARC
  5
B023
  8
ALPHA
 10
14.746565
 20
66.056334
 30
0.0
 40
2.813833
 50
333.999619
 51
0.0
  0
LINE
  5
B024
  8
ALPHA
 10
17.558871
 20
65.963647
 30
0.0
 11
18.744228
 21
65.919624
 31
0.0
  0
LINE
  5
B025
  8
ALPHA
 10
17.554538
 20
65.874826
 30
0.0
 11
18.740125
 21
65.829443
 31
0.0
  0
LINE
  5
B026
  8
ALPHA
 10
17.316095
 20
64.909517
 30
0.0
 11
18.391228
 21
64.408174
 31
0.0
  0
LINE
  5
B027
  8
ALPHA
 10
17.275613
 20
64.822814
 30
0.0
 11
18.350761
 21
64.321464
 31
0.0
  0
ARC
  5
B028
  8
ALPHA
 10
17.171031
 20
69.698118
 30
0.0
 40
0.6
 50
345.0
 51
56.346868
  0
ARC
  5
B029
  8
ALPHA
 10
14.746565
 20
66.056334
 30
0.0
 40
4.0
 50
0.0
 51
54.58379
  0
LINE
  5
B02A
  8
ALPHA
 10
17.460809
 20
69.620472
 30
0.0
 11
17.750587
 21
69.542826
 31
0.0
  0
LINE
  5
B02B
  8
ALPHA
 10
18.746565
 20
66.056334
 30
0.0
 11
17.560398
 21
66.056334
 31
0.0
  0
LINE
  5
B02C
  8
ALPHA
 10
17.684916
 20
69.297741
 30
0.0
 11
17.750587
 21
69.542826
 31
0.0
  0
ARC
  5
B02D
  8
ALPHA
 10
14.746565
 20
66.056334
 30
0.0
 40
4.975
 50
56.346868
 51
61.007152
  0
ARC
  5
B02E
  8
ALPHA
 10
17.684916
 20
69.297741
 30
0.0
 40
0.3
 50
165.0
 51
227.807538
  0
ARC
  5
B02F
  8
ALPHA
 10
17.171031
 20
69.698118
 30
0.0
 40
0.3
 50
345.0
 51
56.346868
  0
ARC
  5
B030
  8
ALPHA
 10
14.746565
 20
66.056334
 30
0.0
 40
4.675
 50
56.346868
 51
60.071418
  0
ARC
  5
B031
  8
ALPHA
 10
17.238466
 20
69.560679
 30
0.0
 40
0.3
 50
173.697974
 51
234.58379
  0
LINE
  5
B032
  8
ALPHA
 10
17.684916
 20
69.297741
 30
0.0
 11
17.395139
 21
69.375386
 31
0.0
  0
LINE
  5
B033
  8
ALPHA
 10
17.395139
 20
69.375386
 30
0.0
 11
17.460809
 21
69.620472
 31
0.0
  0
LINE
  5
B034
  8
ALPHA
 10
17.483429
 20
69.075473
 30
0.0
 11
17.684916
 21
69.297741
 31
0.0
  0
LINE
  5
B035
  8
ALPHA
 10
17.50353
 20
70.197562
 30
0.0
 11
17.337281
 21
69.94784
 31
0.0
  0
LINE
  5
B036
  8
ALPHA
 10
18.193966
 20
75.181357
 30
0.0
 11
15.551765
 21
74.856935
 31
0.0
  0
LINE
  5
B037
  8
ALPHA
 10
18.193966
 20
74.778353
 30
0.0
 11
15.440107
 21
74.440222
 31
0.0
  0
ARC
  5
B038
  8
ALPHA
 10
24.746565
 20
12.646334
 30
0.0
 40
62.2
 50
98.685111
 51
101.953211
  0
ARC
  5
B039
  8
ALPHA
 10
24.746565
 20
12.646334
 30
0.0
 40
62.4
 50
98.605056
 51
101.953211
  0
LINE
  5
B03A
  8
ALPHA
 10
11.864146
 20
73.497655
 30
0.0
 11
11.822723
 21
73.693319
 31
0.0
  0
LINE
  5
B03B
  8
ALPHA
 10
16.746565
 20
76.056334
 30
0.0
 11
16.746565
 21
75.539577
 31
0.0
  0
LINE
  5
B03C
  8
ALPHA
 10
18.426629
 20
75.730551
 30
0.0
 11
18.446565
 21
75.431046
 31
0.0
  0
ARC
  5
B03D
  8
ALPHA
 10
18.046565
 20
74.886755
 30
0.0
 40
0.4
 50
291.975285
 51
0.0
  0
ARC
  5
B03E
  8
ALPHA
 10
18.046565
 20
74.886755
 30
0.0
 40
0.2
 50
318.072032
 51
0.0
  0
ARC
  5
B03F
  8
ALPHA
 10
18.446565
 20
75.531547
 30
0.0
 40
0.2
 50
95.720948
 51
175.373269
  0
ARC
  5
B040
  8
ALPHA
 10
17.693966
 20
74.351592
 30
0.0
 40
0.5
 50
345.0
 51
0.0
  0
LINE
  5
B041
  8
ALPHA
 10
18.446565
 20
75.431046
 30
0.0
 11
18.246565
 21
75.431046
 31
0.0
  0
LINE
  5
B042
  8
ALPHA
 10
18.446565
 20
74.886755
 30
0.0
 11
18.246565
 21
74.886755
 31
0.0
  0
LINE
  5
B043
  8
ALPHA
 10
18.246565
 20
75.531547
 30
0.0
 11
18.247217
 21
75.54768
 31
0.0
  0
LINE
  5
B044
  8
ALPHA
 10
18.446565
 20
74.886755
 30
0.0
 11
18.446565
 21
75.431046
 31
0.0
  0
LINE
  5
B045
  8
ALPHA
 10
18.246565
 20
74.886755
 30
0.0
 11
18.246565
 21
75.531547
 31
0.0
  0
LINE
  5
B046
  8
ALPHA
 10
18.193966
 20
74.351592
 30
0.0
 11
18.193966
 21
75.181357
 31
0.0
  0
LINE
  5
B047
  8
ALPHA
 10
25.246565
 20
72.356334
 30
0.0
 11
25.246565
 21
71.556334
 31
0.0
  0
LINE
  5
B048
  8
ALPHA
 10
24.246565
 20
72.356334
 30
0.0
 11
24.246565
 21
71.556334
 31
0.0
  0
POLYLINE
  5
B049
  8
ALPHA
 66
     1
 10
0.0
 20
0.0
 30
0.0
 70
   128
  0
VERTEX
  5
CDE7
  8
ALPHA
 10
24.248422
 20
70.178783
 30
0.0
  0
VERTEX
  5
CDE8
  8
ALPHA
 10
23.45349
 20
69.974241
 30
0.0
  0
VERTEX
  5
CDE9
  8
ALPHA
 10
22.744468
 20
69.562208
 30
0.0
  0
VERTEX
  5
CDEA
  8
ALPHA
 10
22.179648
 20
68.966245
 30
0.0
  0
VERTEX
  5
CDEB
  8
ALPHA
 10
21.746565
 20
68.267623
 30
0.0
  0
SEQEND
  5
CDEC
  8
ALPHA
  0
LINE
  5
B04A
  8
ALPHA
 10
20.82205
 20
71.336334
 30
0.0
 11
24.346565
 21
71.336334
 31
0.0
  0
LINE
  5
B04B
  8
ALPHA
 10
24.30252
 20
71.258688
 30
0.0
 11
20.705727
 21
71.258688
 31
0.0
  0
LINE
  5
B04C
  8
ALPHA
 10
20.776045
 20
68.074895
 30
0.0
 11
20.754576
 21
70.581314
 31
0.0
  0
LINE
  5
B04D
  8
ALPHA
 10
20.82376
 20
71.306334
 30
0.0
 11
20.82205
 21
71.336334
 31
0.0
  0
POLYLINE
  5
B04E
  8
ALPHA
 66
     1
 10
0.0
 20
0.0
 30
0.0
 70
   128
210
0.0
220
0.0
230
-1.0
  0
VERTEX
  5
CDED
  8
ALPHA
 10
-21.746565
 20
68.267623
 30
0.0
  0
VERTEX
  5
CDEE
  8
ALPHA
 10
-21.66593
 20
68.231487
 30
0.0
  0
VERTEX
  5
CDEF
  8
ALPHA
 10
-21.610814
 20
68.32265
 30
0.0
  0
VERTEX
  5
CDF0
  8
ALPHA
 10
-21.536532
 20
68.523291
 30
0.0
  0
VERTEX
  5
CDF1
  8
ALPHA
 10
-21.413328
 20
68.933221
 30
0.0
  0
VERTEX
  5
CDF2
  8
ALPHA
 10
-21.186498
 20
69.758758
 30
0.0
  0
SEQEND
  5
CDF3
  8
ALPHA
  0
LINE
  5
B04F
  8
ALPHA
 10
21.186498
 20
69.758758
 30
0.0
 11
20.786133
 21
70.958608
 31
0.0
  0
LINE
  5
B050
  8
ALPHA
 10
20.769382
 20
70.959141
 30
0.0
 11
20.770928
 21
71.015354
 31
0.0
  0
LINE
  5
B051
  8
ALPHA
 10
20.754576
 20
70.581314
 30
0.0
 11
20.769382
 21
70.959141
 31
0.0
  0
ARC
  5
B052
  8
ALPHA
 10
20.995504
 20
71.336334
 30
0.0
 40
0.3
 50
185.73917
 51
195.0
  0
LINE
  5
B053
  8
ALPHA
 10
20.82376
 20
71.306334
 30
0.0
 11
20.705727
 21
71.306334
 31
0.0
  0
LINE
  5
B054
  8
ALPHA
 10
20.786133
 20
70.958608
 30
0.0
 11
20.705727
 21
71.258688
 31
0.0
  0
LINE
  5
B055
  8
ALPHA
 10
21.746565
 20
71.556334
 30
0.0
 11
21.746565
 21
68.267623
 31
0.0
  0
LINE
  5
B056
  8
ALPHA
 10
20.82205
 20
71.336334
 30
0.0
 11
20.82205
 21
71.556334
 31
0.0
  0
LINE
  5
B057
  8
ALPHA
 10
20.776041
 20
68.074932
 30
0.0
 11
21.186498
 21
69.758758
 31
0.0
  0
POLYLINE
  5
B058
  8
ALPHA
 66
     1
 10
0.0
 20
0.0
 30
0.0
 70
   128
  0
VERTEX
  5
CDF4
  8
ALPHA
 10
27.746565
 20
68.267623
 30
0.0
  0
VERTEX
  5
CDF5
  8
ALPHA
 10
27.313483
 20
68.966245
 30
0.0
  0
VERTEX
  5
CDF6
  8
ALPHA
 10
26.748663
 20
69.562208
 30
0.0
  0
VERTEX
  5
CDF7
  8
ALPHA
 10
26.03964
 20
69.974241
 30
0.0
  0
VERTEX
  5
CDF8
  8
ALPHA
 10
25.244709
 20
70.178783
 30
0.0
  0
SEQEND
  5
CDF9
  8
ALPHA
  0
LINE
  5
B059
  8
ALPHA
 10
24.30252
 20
71.258688
 30
0.0
 11
24.346565
 21
71.336334
 31
0.0
  0
LINE
  5
B05A
  8
ALPHA
 10
24.247623
 20
70.196791
 30
0.0
 11
24.246595
 21
70.241819
 31
0.0
  0
LINE
  5
B05B
  8
ALPHA
 10
24.302473
 20
69.894335
 30
0.0
 11
24.248427
 21
70.178679
 31
0.0
  0
LINE
  5
B05C
  8
ALPHA
 10
24.248422
 20
70.178783
 30
0.0
 11
24.247623
 21
70.196791
 31
0.0
  0
LINE
  5
B05D
  8
ALPHA
 10
25.246565
 20
70.563129
 30
0.0
 11
25.172447
 21
70.537247
 31
0.0
  0
LINE
  5
B05E
  8
ALPHA
 10
24.346565
 20
69.808547
 30
0.0
 11
24.302473
 21
69.894335
 31
0.0
  0
LINE
  5
B05F
  8
ALPHA
 10
25.146565
 20
69.808547
 30
0.0
 11
24.346565
 21
69.808547
 31
0.0
  0
LINE
  5
B060
  8
ALPHA
 10
24.246565
 20
70.923633
 30
0.0
 11
24.30252
 21
71.258688
 31
0.0
  0
LINE
  5
B061
  8
ALPHA
 10
25.146565
 20
71.336334
 30
0.0
 11
25.19061
 21
71.258688
 31
0.0
  0
LINE
  5
B062
  8
ALPHA
 10
25.19061
 20
71.258688
 30
0.0
 11
25.246565
 21
70.923633
 31
0.0
  0
LINE
  5
B063
  8
ALPHA
 10
24.246565
 20
70.563129
 30
0.0
 11
24.320683
 21
70.537247
 31
0.0
  0
LINE
  5
B064
  8
ALPHA
 10
25.245508
 20
70.196791
 30
0.0
 11
25.244709
 21
70.178783
 31
0.0
  0
LINE
  5
B065
  8
ALPHA
 10
25.244704
 20
70.178679
 30
0.0
 11
25.190658
 21
69.894335
 31
0.0
  0
LINE
  5
B066
  8
ALPHA
 10
25.190658
 20
69.894335
 30
0.0
 11
25.146565
 21
69.808547
 31
0.0
  0
LINE
  5
B067
  8
ALPHA
 10
25.246535
 20
70.241819
 30
0.0
 11
25.245508
 21
70.196791
 31
0.0
  0
LINE
  5
B068
  8
ALPHA
 10
25.146565
 20
70.563129
 30
0.0
 11
25.172447
 21
70.537247
 31
0.0
  0
LINE
  5
B069
  8
ALPHA
 10
25.172447
 20
70.537247
 30
0.0
 11
25.146565
 21
70.513129
 31
0.0
  0
LINE
  5
B06A
  8
ALPHA
 10
24.346565
 20
70.513129
 30
0.0
 11
24.320683
 21
70.537247
 31
0.0
  0
LINE
  5
B06B
  8
ALPHA
 10
24.320683
 20
70.537247
 30
0.0
 11
24.346565
 21
70.563129
 31
0.0
  0
LINE
  5
B06C
  8
ALPHA
 10
25.146565
 20
70.563129
 30
0.0
 11
24.346563
 21
70.563129
 31
0.0
  0
LINE
  5
B06D
  8
ALPHA
 10
25.146565
 20
70.513129
 30
0.0
 11
24.346563
 21
70.513129
 31
0.0
  0
LINE
  5
B06E
  8
ALPHA
 10
25.146565
 20
70.154043
 30
0.0
 11
24.346565
 21
70.154043
 31
0.0
  0
POLYLINE
  5
B06F
  8
ALPHA
 66
     1
 10
0.0
 20
0.0
 30
0.0
  0
VERTEX
  5
CDFA
  8
ALPHA
 10
25.190658
 20
69.894335
 30
0.0
  0
VERTEX
  5
CDFB
  8
ALPHA
 10
25.176539
 20
69.892992
 30
0.0
  0
VERTEX
  5
CDFC
  8
ALPHA
 10
25.161728
 20
69.892173
 30
0.0
  0
VERTEX
  5
CDFD
  8
ALPHA
 10
25.146565
 20
69.891898
 30
0.0
  0
SEQEND
  5
CDFE
  8
ALPHA
  0
POLYLINE
  5
B070
  8
ALPHA
 66
     1
 10
0.0
 20
0.0
 30
0.0
  0
VERTEX
  5
CDFF
  8
ALPHA
 10
24.302473
 20
69.894335
 30
0.0
  0
VERTEX
  5
CE00
  8
ALPHA
 10
24.316591
 20
69.892992
 30
0.0
  0
VERTEX
  5
CE01
  8
ALPHA
 10
24.331403
 20
69.892173
 30
0.0
  0
VERTEX
  5
CE02
  8
ALPHA
 10
24.346565
 20
69.891898
 30
0.0
  0
SEQEND
  5
CE03
  8
ALPHA
  0
LINE
  5
B071
  8
ALPHA
 10
25.146565
 20
69.891898
 30
0.0
 11
24.346565
 21
69.891898
 31
0.0
  0
POLYLINE
  5
B072
  8
ALPHA
 66
     1
 10
0.0
 20
0.0
 30
0.0
  0
VERTEX
  5
CE04
  8
ALPHA
 10
24.247623
 20
70.196791
 30
0.0
  0
VERTEX
  5
CE05
  8
ALPHA
 10
24.265215
 20
70.174965
 30
0.0
  0
VERTEX
  5
CE06
  8
ALPHA
 10
24.300824
 20
70.15958
 30
0.0
  0
VERTEX
  5
CE07
  8
ALPHA
 10
24.346565
 20
70.154043
 30
0.0
  0
SEQEND
  5
CE08
  8
ALPHA
  0
LINE
  5
B073
  8
ALPHA
 10
25.246565
 20
70.923633
 30
0.0
 11
25.246535
 21
70.241819
 31
0.0
  0
LINE
  5
B074
  8
ALPHA
 10
25.146565
 20
70.563129
 30
0.0
 11
25.146565
 21
71.336334
 31
0.0
  0
LINE
  5
B075
  8
ALPHA
 10
25.146565
 20
69.808547
 30
0.0
 11
25.146565
 21
70.513129
 31
0.0
  0
LINE
  5
B076
  8
ALPHA
 10
24.346563
 20
70.513129
 30
0.0
 11
24.346565
 21
69.808547
 31
0.0
  0
LINE
  5
B077
  8
ALPHA
 10
24.346565
 20
71.336334
 30
0.0
 11
24.346563
 21
70.563129
 31
0.0
  0
LINE
  5
B078
  8
ALPHA
 10
24.246565
 20
70.923633
 30
0.0
 11
24.246595
 21
70.241819
 31
0.0
  0
POLYLINE
  5
B079
  8
ALPHA
 66
     1
 10
0.0
 20
0.0
 30
0.0
  0
VERTEX
  5
CE09
  8
ALPHA
 10
25.245508
 20
70.196791
 30
0.0
  0
VERTEX
  5
CE0A
  8
ALPHA
 10
25.227916
 20
70.174965
 30
0.0
  0
VERTEX
  5
CE0B
  8
ALPHA
 10
25.192306
 20
70.15958
 30
0.0
  0
VERTEX
  5
CE0C
  8
ALPHA
 10
25.146565
 20
70.154043
 30
0.0
  0
SEQEND
  5
CE0D
  8
ALPHA
  0
LINE
  5
B07A
  8
ALPHA
 10
27.746565
 20
71.556334
 30
0.0
 11
27.746565
 21
68.267623
 31
0.0
  0
LINE
  5
B07B
  8
ALPHA
 10
24.746565
 20
75.746334
 30
0.0
 11
22.576312
 21
76.009178
 31
0.0
  0
LINE
  5
B07C
  8
ALPHA
 10
24.746565
 20
75.746334
 30
0.0
 11
26.916819
 21
76.009178
 31
0.0
  0
LINE
  5
B07D
  8
ALPHA
 10
24.246565
 20
72.356334
 30
0.0
 11
25.246565
 21
72.356334
 31
0.0
  0
LINE
  5
B07E
  8
ALPHA
 10
24.746565
 20
73.556334
 30
0.0
 11
24.746565
 21
74.398274
 31
0.0
  0
ARC
  5
B07F
  8
ALPHA
 10
34.746565
 20
66.056334
 30
0.0
 40
4.375
 50
10.624332
 51
349.375668
  0
CIRCLE
  5
B080
  8
ALPHA
 10
34.746565
 20
66.056334
 30
0.0
 40
4.075
  0
CIRCLE
  5
B081
  8
ALPHA
 10
34.746565
 20
66.056334
 30
0.0
 40
2.125
  0
LINE
  5
B082
  8
ALPHA
 10
34.121565
 20
73.751676
 30
0.0
 11
34.121565
 21
71.110993
 31
0.0
  0
LINE
  5
B083
  8
ALPHA
 10
33.996565
 20
71.556334
 30
0.0
 11
33.996565
 21
73.556334
 31
0.0
  0
LINE
  5
B084
  8
ALPHA
 10
28.738554
 20
70.581314
 30
0.0
 11
34.121565
 21
71.110993
 31
0.0
  0
LINE
  5
B085
  8
ALPHA
 10
28.796122
 20
71.306334
 30
0.0
 11
34.121565
 21
71.306334
 31
0.0
  0
LINE
  5
B086
  8
ALPHA
 10
28.738554
 20
70.581314
 30
0.0
 11
28.717073
 21
68.074764
 31
0.0
  0
LINE
  5
B087
  8
ALPHA
 10
28.671081
 20
71.336334
 30
0.0
 11
28.669371
 21
71.306334
 31
0.0
  0
LINE
  5
B088
  8
ALPHA
 10
28.706998
 20
70.958608
 30
0.0
 11
28.306632
 21
69.758758
 31
0.0
  0
LINE
  5
B089
  8
ALPHA
 10
28.723748
 20
70.959141
 30
0.0
 11
28.738554
 21
70.581314
 31
0.0
  0
LINE
  5
B08A
  8
ALPHA
 10
28.722203
 20
71.015354
 30
0.0
 11
28.723748
 21
70.959141
 31
0.0
  0
ARC
  5
B08B
  8
ALPHA
 10
28.497626
 20
71.336334
 30
0.0
 40
0.3
 50
345.0
 51
354.26083
  0
LINE
  5
B08C
  8
ALPHA
 10
28.669371
 20
71.306334
 30
0.0
 11
28.787404
 21
71.306334
 31
0.0
  0
LINE
  5
B08D
  8
ALPHA
 10
28.717089
 20
68.074932
 30
0.0
 11
28.306632
 21
69.758758
 31
0.0
  0
LINE
  5
B08E
  8
ALPHA
 10
28.671081
 20
71.556334
 30
0.0
 11
28.671081
 21
71.336334
 31
0.0
  0
LINE
  5
B08F
  8
ALPHA
 10
28.787404
 20
71.258688
 30
0.0
 11
28.706998
 21
70.958608
 31
0.0
  0
LINE
  5
B090
  8
ALPHA
 10
33.996565
 20
72.406334
 30
0.0
 11
34.121565
 21
72.406334
 31
0.0
  0
LINE
  5
B091
  8
ALPHA
 10
33.996565
 20
72.056334
 30
0.0
 11
34.121565
 21
72.056334
 31
0.0
  0
LINE
  5
B092
  8
ALPHA
 10
32.746565
 20
76.056334
 30
0.0
 11
32.746565
 21
75.539577
 31
0.0
  0
LINE
  5
B093
  8
ALPHA
 10
39.046565
 20
66.862947
 30
0.0
 11
39.046565
 21
74.104613
 31
0.0
  0
LINE
  5
B094
  8
ALPHA
 10
39.177815
 20
66.056334
 30
0.0
 11
39.046565
 21
65.249721
 31
0.0
  0
LINE
  5
B095
  8
ALPHA
 10
39.046565
 20
65.249721
 30
0.0
 11
38.751708
 21
65.305031
 31
0.0
  0
LINE
  5
B096
  8
ALPHA
 10
39.046565
 20
66.862947
 30
0.0
 11
39.177815
 21
66.056334
 31
0.0
  0
LINE
  5
B097
  8
ALPHA
 10
39.046565
 20
66.862947
 30
0.0
 11
38.751708
 21
66.807637
 31
0.0
  0
LINE
  5
B098
  8
ALPHA
 10
39.477249
 20
74.046829
 30
0.0
 11
39.361828
 21
74.338749
 31
0.0
  0
LINE
  5
B099
  8
ALPHA
 10
39.746565
 20
73.852216
 30
0.0
 11
39.477249
 21
74.046829
 31
0.0
  0
LINE
  5
B09A
  8
ALPHA
 10
39.046565
 20
74.104613
 30
0.0
 11
39.477249
 21
74.046829
 31
0.0
  0
ARC
  5
B09B
  8
ALPHA
 10
39.246565
 20
73.852216
 30
0.0
 40
0.5
 50
0.0
 51
76.672038
  0
LINE
  5
B09C
  8
ALPHA
 10
39.046565
 20
74.104613
 30
0.0
 11
39.114553
 21
74.396807
 31
0.0
  0
LINE
  5
B09D
  8
ALPHA
 10
50.748497
 20
23.841871
 30
0.0
 11
48.836928
 21
30.9986
 31
0.0
  0
LINE
  5
C9C3
  8
AXE
 10
24.746565
 20
14.92018
 30
0.0
 11
24.746565
 21
99.556334
 31
0.0
  0
TEXT
  5
C9C4
  8
AXE
 10
19.698946
 20
14.92018
 30
0.0
 40
5.0
  1
Y
 72
     2
 11
23.746565
 21
14.92018
 31
0.0
  0
DIMENSION
  5
C9C5
  8
COTATION1
  2
*D3
 10
39.746565
 20
4.92018
 30
0.0
 11
24.746565
 21
8.17018
 31
0.0
 13
9.746565
 23
27.256334
 33
0.0
 14
39.746565
 24
30.556334
 34
0.0
  0
LINE
  5
CA2B
  8
AXE
 10
3.848136
 20
52.454293
 30
0.0
 11
49.648136
 21
52.454293
 31
0.0
  0
TEXT
  5
CA2C
  8
AXE
 10
45.600517
 20
53.454293
 30
0.0
 40
5.0
  1
X
 72
     2
 11
49.648136
 21
53.454293
 31
0.0
  0
LINE
  5
CA2D
  8
ALPHA
 10
16.746523
 20
76.056334
 30
0.0
 11
32.746609
 21
76.056334
 31
0.0
  0
ARC
  5
CA2E
  8
ALPHA
 10
24.746566
 20
85.556334
 30
0.0
 40
9.0
 50
211.002719
 51
328.997281
  0
LINE
  5
CA2F
  8
ALPHA
 10
32.746547
 20
76.056334
 30
0.0
 11
16.746583
 21
76.056334
 31
0.0
  0
CIRCLE
  5
CA30
  8
ALPHA
 10
24.746566
 20
85.556334
 30
0.0
 40
7.899999
  0
CIRCLE
  5
CA31
  8
ALPHA
 10
24.746566
 20
85.556334
 30
0.0
 40
7.5
  0
CIRCLE
  5
CA32
  8
ALPHA
 10
24.746566
 20
85.556334
 30
0.0
 40
6.85
  0
CIRCLE
  5
CA33
  8
ALPHA
 10
24.746566
 20
85.556334
 30
0.0
 40
6.254728
  0
CIRCLE
  5
CA34
  8
ALPHA
 10
24.746566
 20
85.556334
 30
0.0
 40
6.547181
  0
CIRCLE
  5
CA35
  8
ALPHA
 10
24.746566
 20
85.556334
 30
0.0
 40
6.6
  0
CIRCLE
  5
CA36
  8
ALPHA
 10
24.746566
 20
85.556334
 30
0.0
 40
6.050671
  0
CIRCLE
  5
CA37
  8
ALPHA
 10
24.746566
 20
85.556334
 30
0.0
 40
5.5
  0
ARC
  5
CA38
  8
ALPHA
 10
24.746566
 20
85.556334
 30
0.0
 40
7.15
 50
105.0
 51
135.0
  0
ARC
  5
CA39
  8
ALPHA
 10
24.746566
 20
85.556334
 30
0.0
 40
7.4
 50
105.0
 51
135.0
  0
ARC
  5
CA3A
  8
ALPHA
 10
22.480459
 20
89.327906
 30
0.0
 40
0.399993
 50
223.0
 51
300.999089
  0
LINE
  5
CA3B
  8
ALPHA
 10
22.014692
 20
89.534124
 30
0.0
 11
22.334188
 21
89.191507
 31
0.0
  0
LINE
  5
CA3C
  8
ALPHA
 10
22.334188
 20
89.191507
 30
0.0
 11
22.187917
 21
89.055107
 31
0.0
  0
ARC
  5
CA3D
  8
ALPHA
 10
24.746566
 20
62.856334
 30
0.0
 40
31.7
 50
78.34488
 51
101.65512
  0
ARC
  5
CA3E
  8
ALPHA
 10
24.746566
 20
85.556334
 30
0.0
 40
7.15
 50
225.0
 51
255.0
  0
ARC
  5
CA3F
  8
ALPHA
 10
24.746566
 20
85.556334
 30
0.0
 40
7.4
 50
225.0
 51
255.0
  0
ARC
  5
CA40
  8
ALPHA
 10
22.480459
 20
81.784762
 30
0.0
 40
0.399993
 50
59.000911
 51
137.0
  0
LINE
  5
CA41
  8
ALPHA
 10
22.334188
 20
81.921162
 30
0.0
 11
22.187917
 21
82.057561
 31
0.0
  0
LINE
  5
CA42
  8
ALPHA
 10
22.334188
 20
81.921162
 30
0.0
 11
22.014692
 21
81.578544
 31
0.0
  0
ARC
  5
CA43
  8
ALPHA
 10
24.746566
 20
85.556334
 30
0.0
 40
6.935285
 50
195.0
 51
225.0
  0
LINE
  5
CA44
  8
ALPHA
 10
17.514564
 20
83.618525
 30
0.0
 11
18.129974
 21
83.783424
 31
0.0
  0
ARC
  5
CA45
  8
ALPHA
 10
20.898274
 20
83.423111
 30
0.0
 40
0.399993
 50
29.000911
 51
107.0
  0
LINE
  5
CA46
  8
ALPHA
 10
20.839799
 20
83.614371
 30
0.0
 11
20.781325
 21
83.805632
 31
0.0
  0
LINE
  5
CA47
  8
ALPHA
 10
16.746566
 20
76.056334
 30
0.0
 11
16.746566
 21
91.94396
 31
0.0
  0
ARC
  5
CA48
  8
ALPHA
 10
24.746566
 20
85.556334
 30
0.0
 40
7.4
 50
165.0
 51
195.0
  0
ARC
  5
CA49
  8
ALPHA
 10
24.746566
 20
85.556334
 30
0.0
 40
5.0
 50
201.842227
 51
203.157773
  0
LINE
  5
CA4A
  8
ALPHA
 10
20.391799
 20
83.477404
 30
0.0
 11
20.333324
 21
83.668665
 31
0.0
  0
LINE
  5
CA4B
  8
ALPHA
 10
20.149439
 20
83.590012
 30
0.0
 11
20.333324
 21
83.668665
 31
0.0
  0
LINE
  5
CA4C
  8
ALPHA
 10
21.073196
 20
83.520075
 30
0.0
 11
21.248118
 21
83.61704
 31
0.0
  0
LINE
  5
CA4D
  8
ALPHA
 10
21.146429
 20
83.393231
 30
0.0
 11
21.317864
 21
83.496236
 31
0.0
  0
LINE
  5
CA4E
  8
ALPHA
 10
21.611377
 20
81.888018
 30
0.0
 11
21.859629
 21
82.285304
 31
0.0
  0
LINE
  5
CA4F
  8
ALPHA
 10
21.611377
 20
81.888018
 30
0.0
 11
21.780987
 21
81.782034
 31
0.0
  0
ARC
  5
CA50
  8
ALPHA
 10
21.780987
 20
81.782034
 30
0.0
 40
0.2
 50
148.0
 51
231.842227
  0
ARC
  5
CA51
  8
ALPHA
 10
21.58152
 20
82.499787
 30
0.0
 40
0.399993
 50
44.000911
 51
122.0
  0
ARC
  5
CA52
  8
ALPHA
 10
21.58152
 20
82.499787
 30
0.0
 40
0.2
 50
44.000911
 51
122.0
  0
LINE
  5
CA53
  8
ALPHA
 10
21.780987
 20
81.782034
 30
0.0
 11
22.029238
 21
82.17932
 31
0.0
  0
ARC
  5
CA54
  8
ALPHA
 10
24.746566
 20
85.556334
 30
0.0
 40
5.0
 50
231.842227
 51
233.157773
  0
LINE
  5
CA55
  8
ALPHA
 10
21.780987
 20
81.782034
 30
0.0
 11
21.657421
 21
81.624772
 31
0.0
  0
ARC
  5
CA56
  8
ALPHA
 10
24.746566
 20
85.556334
 30
0.0
 40
4.8
 50
231.842227
 51
233.157773
  0
ARC
  5
CA57
  8
ALPHA
 10
21.868421
 20
81.714944
 30
0.0
 40
0.2
 50
233.157773
 51
317.0
  0
LINE
  5
CA58
  8
ALPHA
 10
22.014692
 20
81.578544
 30
0.0
 11
21.868421
 21
81.714944
 31
0.0
  0
LINE
  5
CA59
  8
ALPHA
 10
22.187917
 20
82.057561
 30
0.0
 11
21.868421
 21
81.714944
 31
0.0
  0
LINE
  5
CA5A
  8
ALPHA
 10
21.748498
 20
81.554886
 30
0.0
 11
21.868421
 21
81.714944
 31
0.0
  0
ARC
  5
CA5B
  8
ALPHA
 10
24.746566
 20
85.556334
 30
0.0
 40
4.2
 50
224.000911
 51
225.999089
  0
LINE
  5
CA5C
  8
ALPHA
 10
21.725386
 20
82.638721
 30
0.0
 11
21.828953
 21
82.535153
 31
0.0
  0
LINE
  5
CA5D
  8
ALPHA
 10
21.725386
 20
82.638721
 30
0.0
 11
21.869251
 21
82.777655
 31
0.0
  0
ARC
  5
CA5E
  8
ALPHA
 10
24.746566
 20
85.556334
 30
0.0
 40
3.999989
 50
224.000911
 51
225.999089
  0
ARC
  5
CA5F
  8
ALPHA
 10
21.690019
 20
82.391288
 30
0.0
 40
0.399993
 50
328.0
 51
45.999089
  0
ARC
  5
CA60
  8
ALPHA
 10
21.690019
 20
82.391288
 30
0.0
 40
0.2
 50
328.0
 51
45.999089
  0
LINE
  5
CA61
  8
ALPHA
 10
21.859629
 20
82.285304
 30
0.0
 11
22.029238
 21
82.17932
 31
0.0
  0
LINE
  5
CA62
  8
ALPHA
 10
21.828953
 20
82.535153
 30
0.0
 11
21.967887
 21
82.679019
 31
0.0
  0
LINE
  5
CA63
  8
ALPHA
 10
19.459926
 20
80.269694
 30
0.0
 11
19.902885
 21
80.712653
 31
0.0
  0
ARC
  5
CA64
  8
ALPHA
 10
18.746566
 20
81.950783
 30
0.0
 40
2.0
 50
180.0
 51
211.002719
  0
ARC
  5
CA65
  8
ALPHA
 10
24.746566
 20
85.556334
 30
0.0
 40
4.0
 50
209.000911
 51
210.999089
  0
ARC
  5
CA66
  8
ALPHA
 10
20.974994
 20
83.290227
 30
0.0
 40
0.399993
 50
313.0
 51
30.999089
  0
ARC
  5
CA67
  8
ALPHA
 10
24.746566
 20
85.556334
 30
0.0
 40
4.8
 50
216.842227
 51
218.157773
  0
ARC
  5
CA68
  8
ALPHA
 10
20.972267
 20
82.590755
 30
0.0
 40
0.2
 50
218.157773
 51
302.0
  0
ARC
  5
CA69
  8
ALPHA
 10
20.333324
 20
83.668665
 30
0.0
 40
0.2
 50
203.157773
 51
287.0
  0
ARC
  5
CA6A
  8
ALPHA
 10
20.898274
 20
83.423111
 30
0.0
 40
0.2
 50
29.000911
 51
107.0
  0
ARC
  5
CA6B
  8
ALPHA
 10
24.746566
 20
85.556334
 30
0.0
 40
4.2
 50
209.000911
 51
210.999089
  0
ARC
  5
CA6C
  8
ALPHA
 10
20.974994
 20
83.290227
 30
0.0
 40
0.2
 50
313.0
 51
30.999089
  0
ARC
  5
CA6D
  8
ALPHA
 10
20.905176
 20
82.678189
 30
0.0
 40
0.2
 50
133.0
 51
216.842227
  0
ARC
  5
CA6E
  8
ALPHA
 10
24.746566
 20
85.556334
 30
0.0
 40
5.0
 50
216.842227
 51
218.157773
  0
LINE
  5
CA6F
  8
ALPHA
 10
21.111394
 20
83.143956
 30
0.0
 11
21.247793
 21
82.997685
 31
0.0
  0
LINE
  5
CA70
  8
ALPHA
 10
21.073196
 20
83.520075
 30
0.0
 11
21.146429
 21
83.393231
 31
0.0
  0
LINE
  5
CA71
  8
ALPHA
 10
21.475536
 20
82.669397
 30
0.0
 11
21.369552
 21
82.839006
 31
0.0
  0
LINE
  5
CA72
  8
ALPHA
 10
20.768776
 20
82.82446
 30
0.0
 11
20.905176
 21
82.678189
 31
0.0
  0
LINE
  5
CA73
  8
ALPHA
 10
21.07825
 20
82.421145
 30
0.0
 11
20.972267
 21
82.590755
 31
0.0
  0
LINE
  5
CA74
  8
ALPHA
 10
21.475536
 20
82.669397
 30
0.0
 11
21.07825
 21
82.421145
 31
0.0
  0
LINE
  5
CA75
  8
ALPHA
 10
21.369552
 20
82.839006
 30
0.0
 11
20.972267
 21
82.590755
 31
0.0
  0
LINE
  5
CA76
  8
ALPHA
 10
20.905176
 20
82.678189
 30
0.0
 11
20.745118
 21
82.558266
 31
0.0
  0
LINE
  5
CA77
  8
ALPHA
 10
20.815004
 20
82.467189
 30
0.0
 11
20.972267
 21
82.590755
 31
0.0
  0
LINE
  5
CA78
  8
ALPHA
 10
20.905176
 20
82.678189
 30
0.0
 11
21.247793
 21
82.997685
 31
0.0
  0
LINE
  5
CA79
  8
ALPHA
 10
20.768776
 20
82.82446
 30
0.0
 11
21.111394
 21
83.143956
 31
0.0
  0
LINE
  5
CA7A
  8
ALPHA
 10
20.839799
 20
83.614371
 30
0.0
 11
20.391799
 21
83.477404
 31
0.0
  0
ARC
  5
CA7B
  8
ALPHA
 10
24.746566
 20
85.556334
 30
0.0
 40
4.8
 50
201.842227
 51
203.157773
  0
ARC
  5
CA7C
  8
ALPHA
 10
20.291149
 20
83.770484
 30
0.0
 40
0.2
 50
118.0
 51
201.842227
  0
LINE
  5
CA7D
  8
ALPHA
 10
20.781325
 20
83.805632
 30
0.0
 11
20.333324
 21
83.668665
 31
0.0
  0
LINE
  5
CA7E
  8
ALPHA
 10
20.291149
 20
83.770484
 30
0.0
 11
20.105507
 21
83.696074
 31
0.0
  0
ARC
  5
CA7F
  8
ALPHA
 10
20.477282
 20
84.49181
 30
0.0
 40
0.399993
 50
14.000911
 51
92.0
  0
ARC
  5
CA80
  8
ALPHA
 10
24.746566
 20
85.556334
 30
0.0
 40
3.999989
 50
194.000911
 51
195.999089
  0
ARC
  5
CA81
  8
ALPHA
 10
24.746566
 20
85.556334
 30
0.0
 40
4.8
 50
186.842227
 51
188.157773
  0
ARC
  5
CA82
  8
ALPHA
 10
19.980752
 20
84.984483
 30
0.0
 40
0.2
 50
103.0
 51
186.842227
  0
ARC
  5
CA83
  8
ALPHA
 10
19.995137
 20
84.875217
 30
0.0
 40
0.2
 50
188.157773
 51
272.0
  0
ARC
  5
CA84
  8
ALPHA
 10
20.477282
 20
84.49181
 30
0.0
 40
0.2
 50
14.000911
 51
92.0
  0
ARC
  5
CA85
  8
ALPHA
 10
24.746566
 20
85.556334
 30
0.0
 40
4.2
 50
194.000911
 51
195.999089
  0
ARC
  5
CA86
  8
ALPHA
 10
24.746566
 20
85.556334
 30
0.0
 40
5.0
 50
186.842227
 51
188.157773
  0
LINE
  5
CA87
  8
ALPHA
 10
20.463322
 20
84.891566
 30
0.0
 11
19.995137
 21
84.875217
 31
0.0
  0
LINE
  5
CA88
  8
ALPHA
 10
20.470302
 20
84.691688
 30
0.0
 11
20.002117
 21
84.675339
 31
0.0
  0
LINE
  5
CA89
  8
ALPHA
 10
19.980752
 20
84.984483
 30
0.0
 11
19.782176
 21
84.960655
 31
0.0
  0
LINE
  5
CA8A
  8
ALPHA
 10
19.797161
 20
84.846837
 30
0.0
 11
19.995137
 21
84.875217
 31
0.0
  0
LINE
  5
CA8B
  8
ALPHA
 10
19.980752
 20
84.984483
 30
0.0
 11
20.437216
 21
85.089865
 31
0.0
  0
LINE
  5
CA8C
  8
ALPHA
 10
20.67134
 20
84.540197
 30
0.0
 11
20.865399
 21
84.588585
 31
0.0
  0
LINE
  5
CA8D
  8
ALPHA
 10
19.935762
 20
85.179357
 30
0.0
 11
19.980752
 21
84.984483
 31
0.0
  0
LINE
  5
CA8E
  8
ALPHA
 10
20.67134
 20
84.540197
 30
0.0
 11
20.709249
 21
84.398721
 31
0.0
  0
LINE
  5
CA8F
  8
ALPHA
 10
20.470302
 20
84.691688
 30
0.0
 11
20.463322
 21
84.891566
 31
0.0
  0
LINE
  5
CA90
  8
ALPHA
 10
20.002117
 20
84.675339
 30
0.0
 11
19.995137
 21
84.875217
 31
0.0
  0
LINE
  5
CA91
  8
ALPHA
 10
20.709249
 20
84.398721
 30
0.0
 11
20.901502
 21
84.453846
 31
0.0
  0
ARC
  5
CA92
  8
ALPHA
 10
24.746566
 20
85.556334
 30
0.0
 40
7.15
 50
165.0
 51
195.0
  0
ARC
  5
CA93
  8
ALPHA
 10
20.347235
 20
85.479613
 30
0.0
 40
0.399993
 50
283.0
 51
0.999089
  0
ARC
  5
CA94
  8
ALPHA
 10
20.347235
 20
85.479613
 30
0.0
 40
0.2
 50
283.0
 51
0.999089
  0
LINE
  5
CA95
  8
ALPHA
 10
19.935762
 20
85.179357
 30
0.0
 11
20.392225
 21
85.284739
 31
0.0
  0
LINE
  5
CA96
  8
ALPHA
 10
20.392225
 20
85.284739
 30
0.0
 11
20.437216
 21
85.089865
 31
0.0
  0
ARC
  5
CA97
  8
ALPHA
 10
24.746566
 20
85.556334
 30
0.0
 40
4.2
 50
134.000911
 51
135.999089
  0
ARC
  5
CA98
  8
ALPHA
 10
24.746566
 20
85.556334
 30
0.0
 40
5.0
 50
126.842227
 51
128.157773
  0
LINE
  5
CA99
  8
ALPHA
 10
21.725386
 20
88.473947
 30
0.0
 11
21.869251
 21
88.335013
 31
0.0
  0
LINE
  5
CA9A
  8
ALPHA
 10
21.657421
 20
89.487896
 30
0.0
 11
21.780987
 21
89.330634
 31
0.0
  0
LINE
  5
CA9B
  8
ALPHA
 10
21.828953
 20
88.577515
 30
0.0
 11
21.725386
 21
88.473947
 31
0.0
  0
ARC
  5
CA9C
  8
ALPHA
 10
21.690019
 20
88.721381
 30
0.0
 40
0.399993
 50
314.000911
 51
32.0
  0
ARC
  5
CA9D
  8
ALPHA
 10
24.746566
 20
85.556334
 30
0.0
 40
3.999991
 50
134.000911
 51
135.999089
  0
ARC
  5
CA9E
  8
ALPHA
 10
24.746566
 20
85.556334
 30
0.0
 40
4.8
 50
126.842227
 51
128.157773
  0
ARC
  5
CA9F
  8
ALPHA
 10
21.868421
 20
89.397725
 30
0.0
 40
0.2
 50
43.0
 51
126.842227
  0
ARC
  5
CAA0
  8
ALPHA
 10
21.690019
 20
88.721381
 30
0.0
 40
0.2
 50
314.000911
 51
32.0
  0
LINE
  5
CAA1
  8
ALPHA
 10
21.868421
 20
89.397725
 30
0.0
 11
22.187917
 21
89.055107
 31
0.0
  0
LINE
  5
CAA2
  8
ALPHA
 10
21.868421
 20
89.397725
 30
0.0
 11
21.748498
 21
89.557782
 31
0.0
  0
LINE
  5
CAA3
  8
ALPHA
 10
21.828953
 20
88.577515
 30
0.0
 11
21.967887
 21
88.433649
 31
0.0
  0
LINE
  5
CAA4
  8
ALPHA
 10
22.029238
 20
88.933348
 30
0.0
 11
21.780987
 21
89.330634
 31
0.0
  0
LINE
  5
CAA5
  8
ALPHA
 10
21.859629
 20
88.827364
 30
0.0
 11
22.029238
 21
88.933348
 31
0.0
  0
LINE
  5
CAA6
  8
ALPHA
 10
22.014692
 20
89.534124
 30
0.0
 11
21.868421
 21
89.397725
 31
0.0
  0
ARC
  5
CAA7
  8
ALPHA
 10
18.746566
 20
91.94396
 30
0.0
 40
2.0
 50
101.65512
 51
180.0
  0
ARC
  5
CAA8
  8
ALPHA
 10
24.746566
 20
85.556334
 30
0.0
 40
6.935285
 50
135.0
 51
165.0
  0
LINE
  5
CAA9
  8
ALPHA
 10
19.459669
 20
90.843231
 30
0.0
 11
19.902885
 21
90.400016
 31
0.0
  0
LINE
  5
CAAA
  8
ALPHA
 10
17.512829
 20
87.494608
 30
0.0
 11
18.129974
 21
87.329245
 31
0.0
  0
ARC
  5
CAAB
  8
ALPHA
 10
20.974994
 20
87.822442
 30
0.0
 40
0.399993
 50
329.000911
 51
47.0
  0
ARC
  5
CAAC
  8
ALPHA
 10
20.974994
 20
87.822442
 30
0.0
 40
0.2
 50
329.000911
 51
47.0
  0
ARC
  5
CAAD
  8
ALPHA
 10
24.746566
 20
85.556334
 30
0.0
 40
3.999998
 50
149.000911
 51
150.999089
  0
ARC
  5
CAAE
  8
ALPHA
 10
20.898274
 20
87.689558
 30
0.0
 40
0.399993
 50
253.0
 51
330.999089
  0
ARC
  5
CAAF
  8
ALPHA
 10
20.516996
 20
86.769071
 30
0.0
 40
0.399993
 50
344.000911
 51
62.0
  0
ARC
  5
CAB0
  8
ALPHA
 10
24.746566
 20
85.556334
 30
0.0
 40
3.99999
 50
164.000911
 51
165.999089
  0
ARC
  5
CAB1
  8
ALPHA
 10
20.477282
 20
86.620858
 30
0.0
 40
0.399993
 50
268.0
 51
345.999089
  0
ARC
  5
CAB2
  8
ALPHA
 10
20.347235
 20
85.633055
 30
0.0
 40
0.399993
 50
359.000911
 51
77.0
  0
ARC
  5
CAB3
  8
ALPHA
 10
24.746566
 20
85.556334
 30
0.0
 40
4.0
 50
179.000911
 51
180.999089
  0
ARC
  5
CAB4
  8
ALPHA
 10
24.746566
 20
85.556334
 30
0.0
 40
4.8
 50
156.842227
 51
158.157773
  0
ARC
  5
CAB5
  8
ALPHA
 10
24.746566
 20
85.556334
 30
0.0
 40
4.8
 50
171.842227
 51
173.157773
  0
ARC
  5
CAB6
  8
ALPHA
 10
24.746566
 20
85.556334
 30
0.0
 40
4.2
 50
149.000911
 51
150.999089
  0
ARC
  5
CAB7
  8
ALPHA
 10
20.898274
 20
87.689558
 30
0.0
 40
0.2
 50
253.0
 51
330.999089
  0
ARC
  5
CAB8
  8
ALPHA
 10
20.333324
 20
87.444003
 30
0.0
 40
0.2
 50
73.0
 51
156.842227
  0
ARC
  5
CAB9
  8
ALPHA
 10
20.291149
 20
87.342184
 30
0.0
 40
0.2
 50
158.157773
 51
242.0
  0
ARC
  5
CABA
  8
ALPHA
 10
20.516996
 20
86.769071
 30
0.0
 40
0.2
 50
344.000911
 51
62.0
  0
ARC
  5
CABB
  8
ALPHA
 10
24.746566
 20
85.556334
 30
0.0
 40
4.2
 50
164.000911
 51
165.999089
  0
ARC
  5
CABC
  8
ALPHA
 10
20.477282
 20
86.620858
 30
0.0
 40
0.2
 50
268.0
 51
345.999089
  0
ARC
  5
CABD
  8
ALPHA
 10
19.995137
 20
86.237451
 30
0.0
 40
0.2
 50
88.0
 51
171.842227
  0
ARC
  5
CABE
  8
ALPHA
 10
19.980752
 20
86.128186
 30
0.0
 40
0.2
 50
173.157773
 51
257.0
  0
ARC
  5
CABF
  8
ALPHA
 10
20.347235
 20
85.633055
 30
0.0
 40
0.2
 50
359.000911
 51
77.0
  0
ARC
  5
CAC0
  8
ALPHA
 10
24.746566
 20
85.556334
 30
0.0
 40
4.2
 50
179.000911
 51
180.999089
  0
ARC
  5
CAC1
  8
ALPHA
 10
24.746566
 20
85.556334
 30
0.0
 40
5.0
 50
156.842227
 51
158.157773
  0
ARC
  5
CAC2
  8
ALPHA
 10
24.746566
 20
85.556334
 30
0.0
 40
5.0
 50
171.842227
 51
173.157773
  0
LINE
  5
CAC3
  8
ALPHA
 10
20.391799
 20
87.635264
 30
0.0
 11
20.839799
 21
87.498297
 31
0.0
  0
LINE
  5
CAC4
  8
ALPHA
 10
20.002117
 20
86.43733
 30
0.0
 11
20.470302
 21
86.42098
 31
0.0
  0
LINE
  5
CAC5
  8
ALPHA
 10
19.995137
 20
86.237451
 30
0.0
 11
20.463322
 21
86.221102
 31
0.0
  0
LINE
  5
CAC6
  8
ALPHA
 10
20.333324
 20
87.444003
 30
0.0
 11
20.149439
 21
87.522656
 31
0.0
  0
LINE
  5
CAC7
  8
ALPHA
 10
20.105507
 20
87.416594
 30
0.0
 11
20.291149
 21
87.342184
 31
0.0
  0
LINE
  5
CAC8
  8
ALPHA
 10
20.333324
 20
87.444003
 30
0.0
 11
20.781325
 21
87.307036
 31
0.0
  0
LINE
  5
CAC9
  8
ALPHA
 10
20.709249
 20
86.713947
 30
0.0
 11
20.901502
 21
86.658822
 31
0.0
  0
LINE
  5
CACA
  8
ALPHA
 10
20.67134
 20
86.572471
 30
0.0
 11
20.865399
 21
86.524083
 31
0.0
  0
LINE
  5
CACB
  8
ALPHA
 10
20.437216
 20
86.022803
 30
0.0
 11
19.980752
 21
86.128186
 31
0.0
  0
LINE
  5
CACC
  8
ALPHA
 10
19.995137
 20
86.237451
 30
0.0
 11
19.797161
 21
86.265831
 31
0.0
  0
LINE
  5
CACD
  8
ALPHA
 10
19.782176
 20
86.152013
 30
0.0
 11
19.980752
 21
86.128186
 31
0.0
  0
LINE
  5
CACE
  8
ALPHA
 10
20.547205
 20
85.629567
 30
0.0
 11
20.747174
 21
85.62608
 31
0.0
  0
LINE
  5
CACF
  8
ALPHA
 10
20.547205
 20
85.483101
 30
0.0
 11
20.747174
 21
85.486588
 31
0.0
  0
LINE
  5
CAD0
  8
ALPHA
 10
21.146429
 20
87.719437
 30
0.0
 11
21.317864
 21
87.616432
 31
0.0
  0
LINE
  5
CAD1
  8
ALPHA
 10
21.073196
 20
87.592593
 30
0.0
 11
21.248118
 21
87.495628
 31
0.0
  0
LINE
  5
CAD2
  8
ALPHA
 10
20.704784
 20
87.12225
 30
0.0
 11
20.291149
 21
87.342184
 31
0.0
  0
LINE
  5
CAD3
  8
ALPHA
 10
20.61089
 20
86.945661
 30
0.0
 11
20.197255
 21
87.165594
 31
0.0
  0
LINE
  5
CAD4
  8
ALPHA
 10
20.392225
 20
85.827929
 30
0.0
 11
19.935762
 21
85.933312
 31
0.0
  0
LINE
  5
CAD5
  8
ALPHA
 10
20.470302
 20
86.42098
 30
0.0
 11
20.463322
 21
86.221102
 31
0.0
  0
LINE
  5
CAD6
  8
ALPHA
 10
20.547205
 20
85.629567
 30
0.0
 11
20.547205
 21
85.483101
 31
0.0
  0
LINE
  5
CAD7
  8
ALPHA
 10
20.002117
 20
86.43733
 30
0.0
 11
19.995137
 21
86.237451
 31
0.0
  0
LINE
  5
CAD8
  8
ALPHA
 10
20.839799
 20
87.498297
 30
0.0
 11
20.781325
 21
87.307036
 31
0.0
  0
LINE
  5
CAD9
  8
ALPHA
 10
20.391799
 20
87.635264
 30
0.0
 11
20.333324
 21
87.444003
 31
0.0
  0
LINE
  5
CADA
  8
ALPHA
 10
20.709249
 20
86.713947
 30
0.0
 11
20.67134
 21
86.572471
 31
0.0
  0
LINE
  5
CADB
  8
ALPHA
 10
20.392225
 20
85.827929
 30
0.0
 11
20.437216
 21
86.022803
 31
0.0
  0
LINE
  5
CADC
  8
ALPHA
 10
19.935762
 20
85.933312
 30
0.0
 11
19.980752
 21
86.128186
 31
0.0
  0
LINE
  5
CADD
  8
ALPHA
 10
21.146429
 20
87.719437
 30
0.0
 11
21.073196
 21
87.592593
 31
0.0
  0
LINE
  5
CADE
  8
ALPHA
 10
20.61089
 20
86.945661
 30
0.0
 11
20.704784
 21
87.12225
 31
0.0
  0
LINE
  5
CADF
  8
ALPHA
 10
20.197255
 20
87.165594
 30
0.0
 11
20.291149
 21
87.342184
 31
0.0
  0
ARC
  5
CAE0
  8
ALPHA
 10
24.746566
 20
85.556334
 30
0.0
 40
4.8
 50
141.842227
 51
143.157773
  0
ARC
  5
CAE1
  8
ALPHA
 10
20.972267
 20
88.521914
 30
0.0
 40
0.2
 50
58.0
 51
141.842227
  0
ARC
  5
CAE2
  8
ALPHA
 10
20.905176
 20
88.434479
 30
0.0
 40
0.2
 50
143.157773
 51
227.0
  0
ARC
  5
CAE3
  8
ALPHA
 10
24.746566
 20
85.556334
 30
0.0
 40
5.0
 50
141.842227
 51
143.157773
  0
LINE
  5
CAE4
  8
ALPHA
 10
21.07825
 20
88.691523
 30
0.0
 11
21.475536
 21
88.443272
 31
0.0
  0
LINE
  5
CAE5
  8
ALPHA
 10
20.972267
 20
88.521914
 30
0.0
 11
21.369552
 21
88.273662
 31
0.0
  0
LINE
  5
CAE6
  8
ALPHA
 10
20.972267
 20
88.521914
 30
0.0
 11
20.815004
 21
88.645479
 31
0.0
  0
LINE
  5
CAE7
  8
ALPHA
 10
20.745118
 20
88.554402
 30
0.0
 11
20.905176
 21
88.434479
 31
0.0
  0
LINE
  5
CAE8
  8
ALPHA
 10
21.247793
 20
88.114983
 30
0.0
 11
20.905176
 21
88.434479
 31
0.0
  0
LINE
  5
CAE9
  8
ALPHA
 10
21.111394
 20
87.968712
 30
0.0
 11
20.768776
 21
88.288208
 31
0.0
  0
LINE
  5
CAEA
  8
ALPHA
 10
21.475536
 20
88.443272
 30
0.0
 11
21.369552
 21
88.273662
 31
0.0
  0
LINE
  5
CAEB
  8
ALPHA
 10
21.111394
 20
87.968712
 30
0.0
 11
21.247793
 21
88.114983
 31
0.0
  0
LINE
  5
CAEC
  8
ALPHA
 10
21.07825
 20
88.691523
 30
0.0
 11
20.972267
 21
88.521914
 31
0.0
  0
LINE
  5
CAED
  8
ALPHA
 10
20.768776
 20
88.288208
 30
0.0
 11
20.905176
 21
88.434479
 31
0.0
  0
ARC
  5
CAEE
  8
ALPHA
 10
21.58152
 20
88.612881
 30
0.0
 40
0.399993
 50
238.0
 51
315.999089
  0
ARC
  5
CAEF
  8
ALPHA
 10
21.58152
 20
88.612881
 30
0.0
 40
0.2
 50
238.0
 51
315.999089
  0
LINE
  5
CAF0
  8
ALPHA
 10
21.859629
 20
88.827364
 30
0.0
 11
21.611377
 21
89.22465
 31
0.0
  0
LINE
  5
CAF1
  8
ALPHA
 10
21.611377
 20
89.22465
 30
0.0
 11
21.780987
 21
89.330634
 31
0.0
  0
ARC
  5
CAF2
  8
ALPHA
 10
21.780987
 20
89.330634
 30
0.0
 40
0.2
 50
128.157773
 51
212.0
  0
ARC
  5
CAF3
  8
ALPHA
 10
20.516996
 20
84.343597
 30
0.0
 40
0.399993
 50
298.0
 51
15.999089
  0
ARC
  5
CAF4
  8
ALPHA
 10
20.516996
 20
84.343597
 30
0.0
 40
0.2
 50
298.0
 51
15.999089
  0
LINE
  5
CAF5
  8
ALPHA
 10
20.61089
 20
84.167007
 30
0.0
 11
20.704784
 21
83.990418
 31
0.0
  0
LINE
  5
CAF6
  8
ALPHA
 10
20.197255
 20
83.947074
 30
0.0
 11
20.291149
 21
83.770484
 31
0.0
  0
LINE
  5
CAF7
  8
ALPHA
 10
20.291149
 20
83.770484
 30
0.0
 11
20.704784
 21
83.990418
 31
0.0
  0
LINE
  5
CAF8
  8
ALPHA
 10
20.197255
 20
83.947074
 30
0.0
 11
20.61089
 21
84.167007
 31
0.0
  0
CIRCLE
  5
CAF9
  8
ALPHA
 10
24.746566
 20
85.556334
 30
0.0
 40
2.1
  0
ARC
  5
CAFA
  8
ALPHA
 10
24.746566
 20
85.556334
 30
0.0
 40
2.0
 50
255.0
 51
195.0
  0
ARC
  5
CAFB
  8
ALPHA
 10
24.746566
 20
85.556334
 30
0.0
 40
7.4
 50
345.0
 51
15.0
  0
LINE
  5
CAFC
  8
ALPHA
 10
32.746566
 20
76.056334
 30
0.0
 11
32.746566
 21
91.94396
 31
0.0
  0
ARC
  5
CAFD
  8
ALPHA
 10
24.746566
 20
85.556334
 30
0.0
 40
6.935285
 50
315.0
 51
345.0
  0
LINE
  5
CAFE
  8
ALPHA
 10
24.23164
 20
83.634121
 30
0.0
 11
24.047338
 21
83.693224
 31
0.0
  0
POLYLINE
  5
CAFF
  8
ALPHA
 66
     1
 10
0.0
 20
0.0
 30
0.0
 70
   128
210
0.0
220
0.0
230
-1.0
  0
VERTEX
  5
CE0E
  8
ALPHA
 10
-25.44581
 20
83.69323
 30
0.0
  0
VERTEX
  5
CE0F
  8
ALPHA
 10
-24.843464
 20
83.568408
 30
0.0
  0
VERTEX
  5
CE10
  8
ALPHA
 10
-24.23164
 20
83.634121
 30
0.0
  0
SEQEND
  5
CE11
  8
ALPHA
  0
ARC
  5
CB00
  8
ALPHA
 10
24.746566
 20
85.556334
 30
0.0
 40
5.0
 50
336.842227
 51
338.157773
  0
LINE
  5
CB01
  8
ALPHA
 10
29.159808
 20
83.668665
 30
0.0
 11
29.343693
 21
83.590012
 31
0.0
  0
LINE
  5
CB02
  8
ALPHA
 10
29.101334
 20
83.477404
 30
0.0
 11
29.159808
 21
83.668665
 31
0.0
  0
ARC
  5
CB03
  8
ALPHA
 10
28.594859
 20
83.423111
 30
0.0
 40
0.399993
 50
73.0
 51
150.999089
  0
LINE
  5
CB04
  8
ALPHA
 10
28.653333
 20
83.614371
 30
0.0
 11
28.711808
 21
83.805632
 31
0.0
  0
LINE
  5
CB05
  8
ALPHA
 10
31.980304
 20
83.61806
 30
0.0
 11
31.363158
 21
83.783424
 31
0.0
  0
ARC
  5
CB06
  8
ALPHA
 10
24.746566
 20
85.556334
 30
0.0
 40
3.999998
 50
254.000911
 51
255.999089
  0
ARC
  5
CB07
  8
ALPHA
 10
23.682042
 20
81.28705
 30
0.0
 40
0.2
 50
358.0
 51
75.999089
  0
LINE
  5
CB08
  8
ALPHA
 10
23.73043
 20
81.481108
 30
0.0
 11
23.778817
 21
81.675167
 31
0.0
  0
ARC
  5
CB09
  8
ALPHA
 10
22.613343
 20
81.708041
 30
0.0
 40
0.399993
 50
343.0
 51
60.999089
  0
ARC
  5
CB0A
  8
ALPHA
 10
23.533829
 20
81.326763
 30
0.0
 40
0.399993
 50
74.000911
 51
152.0
  0
ARC
  5
CB0B
  8
ALPHA
 10
24.746566
 20
85.556334
 30
0.0
 40
4.8
 50
246.842227
 51
248.157773
  0
ARC
  5
CB0C
  8
ALPHA
 10
24.746566
 20
85.556334
 30
0.0
 40
4.2
 50
254.000911
 51
255.999089
  0
ARC
  5
CB0D
  8
ALPHA
 10
23.533829
 20
81.326763
 30
0.0
 40
0.2
 50
74.000911
 51
152.0
  0
ARC
  5
CB0E
  8
ALPHA
 10
22.613343
 20
81.708041
 30
0.0
 40
0.2
 50
343.0
 51
60.999089
  0
ARC
  5
CB0F
  8
ALPHA
 10
22.960717
 20
81.100917
 30
0.0
 40
0.2
 50
248.157773
 51
332.0
  0
ARC
  5
CB10
  8
ALPHA
 10
24.746566
 20
85.556334
 30
0.0
 40
5.0
 50
246.842227
 51
248.157773
  0
LINE
  5
CB11
  8
ALPHA
 10
23.35724
 20
81.420658
 30
0.0
 11
23.18065
 21
81.514552
 31
0.0
  0
LINE
  5
CB12
  8
ALPHA
 10
23.137306
 20
81.007023
 30
0.0
 11
22.960717
 21
81.100917
 31
0.0
  0
LINE
  5
CB13
  8
ALPHA
 10
22.804604
 20
81.649567
 30
0.0
 11
22.995865
 21
81.591093
 31
0.0
  0
LINE
  5
CB14
  8
ALPHA
 10
23.588954
 20
81.519017
 30
0.0
 11
23.644078
 21
81.71127
 31
0.0
  0
LINE
  5
CB15
  8
ALPHA
 10
22.807607
 20
78.320039
 30
0.0
 11
22.973656
 21
78.939742
 31
0.0
  0
LINE
  5
CB16
  8
ALPHA
 10
22.710307
 20
81.882964
 30
0.0
 11
22.807272
 21
82.057886
 31
0.0
  0
LINE
  5
CB17
  8
ALPHA
 10
23.35724
 20
81.420658
 30
0.0
 11
23.137306
 21
81.007023
 31
0.0
  0
LINE
  5
CB18
  8
ALPHA
 10
23.18065
 20
81.514552
 30
0.0
 11
22.960717
 21
81.100917
 31
0.0
  0
LINE
  5
CB19
  8
ALPHA
 10
22.858897
 20
81.143092
 30
0.0
 11
22.780244
 21
80.959207
 31
0.0
  0
LINE
  5
CB1A
  8
ALPHA
 10
22.886306
 20
80.915275
 30
0.0
 11
22.960717
 21
81.100917
 31
0.0
  0
LINE
  5
CB1B
  8
ALPHA
 10
22.858897
 20
81.143092
 30
0.0
 11
22.995865
 21
81.591093
 31
0.0
  0
LINE
  5
CB1C
  8
ALPHA
 10
23.865571
 20
80.811885
 30
0.0
 11
23.88192
 21
81.28007
 31
0.0
  0
ARC
  5
CB1D
  8
ALPHA
 10
24.746566
 20
85.556334
 30
0.0
 40
6.935285
 50
255.0
 51
285.0
  0
ARC
  5
CB1E
  8
ALPHA
 10
23.682042
 20
81.28705
 30
0.0
 40
0.399993
 50
358.0
 51
75.999089
  0
ARC
  5
CB1F
  8
ALPHA
 10
24.065449
 20
80.804905
 30
0.0
 40
0.2
 50
178.0
 51
261.842227
  0
LINE
  5
CB20
  8
ALPHA
 10
23.88192
 20
81.28007
 30
0.0
 11
24.081798
 21
81.27309
 31
0.0
  0
LINE
  5
CB21
  8
ALPHA
 10
23.865571
 20
80.811885
 30
0.0
 11
24.065449
 21
80.804905
 31
0.0
  0
ARC
  5
CB22
  8
ALPHA
 10
27.012674
 20
81.784762
 30
0.0
 40
0.399993
 50
43.0
 51
120.999089
  0
ARC
  5
CB23
  8
ALPHA
 10
24.746566
 20
85.556334
 30
0.0
 40
3.999998
 50
299.000911
 51
300.999089
  0
ARC
  5
CB24
  8
ALPHA
 10
26.87979
 20
81.708041
 30
0.0
 40
0.399993
 50
119.000911
 51
197.0
  0
LINE
  5
CB25
  8
ALPHA
 10
27.633504
 20
82.285304
 30
0.0
 11
27.881755
 21
81.888018
 31
0.0
  0
LINE
  5
CB26
  8
ALPHA
 10
27.463894
 20
82.17932
 30
0.0
 11
27.712146
 21
81.782034
 31
0.0
  0
LINE
  5
CB27
  8
ALPHA
 10
26.909669
 20
81.956197
 30
0.0
 11
26.806664
 21
82.127632
 31
0.0
  0
ARC
  5
CB28
  8
ALPHA
 10
27.712146
 20
81.782034
 30
0.0
 40
0.2
 50
308.157773
 51
32.0
  0
LINE
  5
CB29
  8
ALPHA
 10
27.881755
 20
81.888018
 30
0.0
 11
27.712146
 21
81.782034
 31
0.0
  0
ARC
  5
CB2A
  8
ALPHA
 10
24.746566
 20
85.556334
 30
0.0
 40
3.99999
 50
284.000911
 51
285.999089
  0
ARC
  5
CB2B
  8
ALPHA
 10
24.746566
 20
85.556334
 30
0.0
 40
4.2
 50
284.000911
 51
285.999089
  0
LINE
  5
CB2C
  8
ALPHA
 10
25.762703
 20
81.481108
 30
0.0
 11
25.904179
 21
81.519017
 31
0.0
  0
ARC
  5
CB2D
  8
ALPHA
 10
24.823287
 20
81.157003
 30
0.0
 40
0.399993
 50
13.0
 51
90.999089
  0
ARC
  5
CB2E
  8
ALPHA
 10
24.746566
 20
85.556334
 30
0.0
 40
3.999991
 50
269.000911
 51
270.999089
  0
ARC
  5
CB2F
  8
ALPHA
 10
24.669846
 20
81.157003
 30
0.0
 40
0.399993
 50
89.000911
 51
167.0
  0
ARC
  5
CB30
  8
ALPHA
 10
25.811091
 20
81.28705
 30
0.0
 40
0.399993
 50
104.000911
 51
182.0
  0
ARC
  5
CB31
  8
ALPHA
 10
24.746566
 20
85.556334
 30
0.0
 40
4.8
 50
261.842227
 51
263.157773
  0
ARC
  5
CB32
  8
ALPHA
 10
24.746566
 20
85.556334
 30
0.0
 40
4.8
 50
276.842227
 51
278.157773
  0
ARC
  5
CB33
  8
ALPHA
 10
25.318418
 20
80.79052
 30
0.0
 40
0.2
 50
193.0
 51
276.842227
  0
ARC
  5
CB34
  8
ALPHA
 10
24.823287
 20
81.157003
 30
0.0
 40
0.2
 50
13.0
 51
90.999089
  0
ARC
  5
CB35
  8
ALPHA
 10
24.746566
 20
85.556334
 30
0.0
 40
4.2
 50
269.000911
 51
270.999089
  0
ARC
  5
CB36
  8
ALPHA
 10
24.669846
 20
81.157003
 30
0.0
 40
0.2
 50
89.000911
 51
167.0
  0
ARC
  5
CB37
  8
ALPHA
 10
24.174715
 20
80.79052
 30
0.0
 40
0.2
 50
263.157773
 51
347.0
  0
ARC
  5
CB38
  8
ALPHA
 10
25.811091
 20
81.28705
 30
0.0
 40
0.2
 50
104.000911
 51
182.0
  0
ARC
  5
CB39
  8
ALPHA
 10
25.427684
 20
80.804905
 30
0.0
 40
0.2
 50
278.157773
 51
2.0
  0
ARC
  5
CB3A
  8
ALPHA
 10
24.746566
 20
85.556334
 30
0.0
 40
5.0
 50
261.842227
 51
263.157773
  0
ARC
  5
CB3B
  8
ALPHA
 10
24.746566
 20
85.556334
 30
0.0
 40
5.0
 50
276.842227
 51
278.157773
  0
LINE
  5
CB3C
  8
ALPHA
 10
24.673333
 20
81.356973
 30
0.0
 11
24.8198
 21
81.356973
 31
0.0
  0
LINE
  5
CB3D
  8
ALPHA
 10
25.611212
 20
81.28007
 30
0.0
 11
25.411334
 21
81.27309
 31
0.0
  0
LINE
  5
CB3E
  8
ALPHA
 10
25.762703
 20
81.481108
 30
0.0
 11
25.714316
 21
81.675167
 31
0.0
  0
LINE
  5
CB3F
  8
ALPHA
 10
24.474972
 20
81.201993
 30
0.0
 11
24.280098
 21
81.246983
 31
0.0
  0
LINE
  5
CB40
  8
ALPHA
 10
24.369589
 20
80.74553
 30
0.0
 11
24.174715
 21
80.79052
 31
0.0
  0
LINE
  5
CB41
  8
ALPHA
 10
25.627562
 20
80.811885
 30
0.0
 11
25.427684
 21
80.804905
 31
0.0
  0
LINE
  5
CB42
  8
ALPHA
 10
25.018161
 20
81.201993
 30
0.0
 11
25.213035
 21
81.246983
 31
0.0
  0
LINE
  5
CB43
  8
ALPHA
 10
25.123544
 20
80.74553
 30
0.0
 11
25.318418
 21
80.79052
 31
0.0
  0
LINE
  5
CB44
  8
ALPHA
 10
25.318418
 20
80.79052
 30
0.0
 11
25.342245
 21
80.591944
 31
0.0
  0
LINE
  5
CB45
  8
ALPHA
 10
25.456063
 20
80.606929
 30
0.0
 11
25.427684
 21
80.804905
 31
0.0
  0
LINE
  5
CB46
  8
ALPHA
 10
25.318418
 20
80.79052
 30
0.0
 11
25.213035
 21
81.246983
 31
0.0
  0
LINE
  5
CB47
  8
ALPHA
 10
25.123544
 20
80.74553
 30
0.0
 11
25.018161
 21
81.201993
 31
0.0
  0
LINE
  5
CB48
  8
ALPHA
 10
25.611212
 20
81.28007
 30
0.0
 11
25.627562
 21
80.811885
 31
0.0
  0
LINE
  5
CB49
  8
ALPHA
 10
25.411334
 20
81.27309
 30
0.0
 11
25.427684
 21
80.804905
 31
0.0
  0
LINE
  5
CB4A
  8
ALPHA
 10
24.474972
 20
81.201993
 30
0.0
 11
24.369589
 21
80.74553
 31
0.0
  0
LINE
  5
CB4B
  8
ALPHA
 10
24.065449
 20
80.804905
 30
0.0
 11
24.037069
 21
80.606929
 31
0.0
  0
LINE
  5
CB4C
  8
ALPHA
 10
24.150888
 20
80.591944
 30
0.0
 11
24.174715
 21
80.79052
 31
0.0
  0
LINE
  5
CB4D
  8
ALPHA
 10
24.065449
 20
80.804905
 30
0.0
 11
24.081798
 21
81.27309
 31
0.0
  0
LINE
  5
CB4E
  8
ALPHA
 10
24.673333
 20
81.356973
 30
0.0
 11
24.67682
 21
81.556942
 31
0.0
  0
LINE
  5
CB4F
  8
ALPHA
 10
24.8198
 20
81.356973
 30
0.0
 11
24.816312
 21
81.556942
 31
0.0
  0
LINE
  5
CB50
  8
ALPHA
 10
24.280098
 20
81.246983
 30
0.0
 11
24.174715
 21
80.79052
 31
0.0
  0
ARC
  5
CB51
  8
ALPHA
 10
25.959303
 20
81.326763
 30
0.0
 40
0.399993
 50
28.0
 51
105.999089
  0
ARC
  5
CB52
  8
ALPHA
 10
24.746566
 20
85.556334
 30
0.0
 40
4.8
 50
291.842227
 51
293.157773
  0
ARC
  5
CB53
  8
ALPHA
 10
24.746566
 20
85.556334
 30
0.0
 40
4.8
 50
306.842227
 51
308.157773
  0
ARC
  5
CB54
  8
ALPHA
 10
26.532416
 20
81.100917
 30
0.0
 40
0.2
 50
208.0
 51
291.842227
  0
ARC
  5
CB55
  8
ALPHA
 10
25.959303
 20
81.326763
 30
0.0
 40
0.2
 50
28.0
 51
105.999089
  0
ARC
  5
CB56
  8
ALPHA
 10
27.624711
 20
81.714944
 30
0.0
 40
0.2
 50
223.0
 51
306.842227
  0
ARC
  5
CB57
  8
ALPHA
 10
27.012674
 20
81.784762
 30
0.0
 40
0.2
 50
43.0
 51
120.999089
  0
ARC
  5
CB58
  8
ALPHA
 10
24.746566
 20
85.556334
 30
0.0
 40
4.2
 50
299.000911
 51
300.999089
  0
ARC
  5
CB59
  8
ALPHA
 10
26.87979
 20
81.708041
 30
0.0
 40
0.2
 50
119.000911
 51
197.0
  0
ARC
  5
CB5A
  8
ALPHA
 10
26.634235
 20
81.143092
 30
0.0
 40
0.2
 50
293.157773
 51
17.0
  0
ARC
  5
CB5B
  8
ALPHA
 10
24.746566
 20
85.556334
 30
0.0
 40
5.0
 50
291.842227
 51
293.157773
  0
ARC
  5
CB5C
  8
ALPHA
 10
24.746566
 20
85.556334
 30
0.0
 40
5.0
 50
306.842227
 51
308.157773
  0
LINE
  5
CB5D
  8
ALPHA
 10
27.624711
 20
81.714944
 30
0.0
 11
27.744634
 21
81.554886
 31
0.0
  0
LINE
  5
CB5E
  8
ALPHA
 10
27.835712
 20
81.624772
 30
0.0
 11
27.712146
 21
81.782034
 31
0.0
  0
LINE
  5
CB5F
  8
ALPHA
 10
27.624711
 20
81.714944
 30
0.0
 11
27.305215
 21
82.057561
 31
0.0
  0
LINE
  5
CB60
  8
ALPHA
 10
27.478441
 20
81.578544
 30
0.0
 11
27.158945
 21
81.921162
 31
0.0
  0
LINE
  5
CB61
  8
ALPHA
 10
26.688529
 20
81.649567
 30
0.0
 11
26.825496
 21
81.201566
 31
0.0
  0
LINE
  5
CB62
  8
ALPHA
 10
26.532416
 20
81.100917
 30
0.0
 11
26.606826
 21
80.915275
 31
0.0
  0
LINE
  5
CB63
  8
ALPHA
 10
26.712888
 20
80.959207
 30
0.0
 11
26.634235
 21
81.143092
 31
0.0
  0
LINE
  5
CB64
  8
ALPHA
 10
26.532416
 20
81.100917
 30
0.0
 11
26.312482
 21
81.514552
 31
0.0
  0
LINE
  5
CB65
  8
ALPHA
 10
26.782825
 20
81.882964
 30
0.0
 11
26.68586
 21
82.057886
 31
0.0
  0
LINE
  5
CB66
  8
ALPHA
 10
26.68566
 20
78.319536
 30
0.0
 11
26.519477
 21
78.939742
 31
0.0
  0
LINE
  5
CB67
  8
ALPHA
 10
25.904179
 20
81.519017
 30
0.0
 11
25.849055
 21
81.71127
 31
0.0
  0
LINE
  5
CB68
  8
ALPHA
 10
26.497268
 20
81.591093
 30
0.0
 11
26.634235
 21
81.143092
 31
0.0
  0
LINE
  5
CB69
  8
ALPHA
 10
26.355826
 20
81.007023
 30
0.0
 11
26.135893
 21
81.420658
 31
0.0
  0
LINE
  5
CB6A
  8
ALPHA
 10
27.478441
 20
81.578544
 30
0.0
 11
27.624711
 21
81.714944
 31
0.0
  0
LINE
  5
CB6B
  8
ALPHA
 10
27.158945
 20
81.921162
 30
0.0
 11
27.305215
 21
82.057561
 31
0.0
  0
LINE
  5
CB6C
  8
ALPHA
 10
26.825496
 20
81.201566
 30
0.0
 11
26.634235
 21
81.143092
 31
0.0
  0
LINE
  5
CB6D
  8
ALPHA
 10
26.355826
 20
81.007023
 30
0.0
 11
26.532416
 21
81.100917
 31
0.0
  0
LINE
  5
CB6E
  8
ALPHA
 10
26.135893
 20
81.420658
 30
0.0
 11
26.312482
 21
81.514552
 31
0.0
  0
LINE
  5
CB6F
  8
ALPHA
 10
26.688529
 20
81.649567
 30
0.0
 11
26.497268
 21
81.591093
 31
0.0
  0
ARC
  5
CB70
  8
ALPHA
 10
27.911613
 20
82.499787
 30
0.0
 40
0.399993
 50
58.0
 51
135.999089
  0
ARC
  5
CB71
  8
ALPHA
 10
27.911613
 20
82.499787
 30
0.0
 40
0.2
 50
58.0
 51
135.999089
  0
ARC
  5
CB72
  8
ALPHA
 10
24.746566
 20
85.556334
 30
0.0
 40
3.999999
 50
314.000911
 51
315.999089
  0
ARC
  5
CB73
  8
ALPHA
 10
27.803113
 20
82.391288
 30
0.0
 40
0.399993
 50
134.000911
 51
212.0
  0
ARC
  5
CB74
  8
ALPHA
 10
24.746566
 20
85.556334
 30
0.0
 40
4.2
 50
314.000911
 51
315.999089
  0
ARC
  5
CB75
  8
ALPHA
 10
27.803113
 20
82.391288
 30
0.0
 40
0.2
 50
134.000911
 51
212.0
  0
LINE
  5
CB76
  8
ALPHA
 10
27.767747
 20
82.638721
 30
0.0
 11
27.623881
 21
82.777655
 31
0.0
  0
LINE
  5
CB77
  8
ALPHA
 10
27.664179
 20
82.535153
 30
0.0
 11
27.525246
 21
82.679019
 31
0.0
  0
LINE
  5
CB78
  8
ALPHA
 10
27.664179
 20
82.535153
 30
0.0
 11
27.767747
 21
82.638721
 31
0.0
  0
LINE
  5
CB79
  8
ALPHA
 10
27.633504
 20
82.285304
 30
0.0
 11
27.463894
 21
82.17932
 31
0.0
  0
ARC
  5
CB7A
  8
ALPHA
 10
24.746566
 20
85.556334
 30
0.0
 40
3.999989
 50
329.000911
 51
330.999089
  0
ARC
  5
CB7B
  8
ALPHA
 10
28.518138
 20
83.290227
 30
0.0
 40
0.399993
 50
149.000911
 51
227.0
  0
ARC
  5
CB7C
  8
ALPHA
 10
24.746566
 20
85.556334
 30
0.0
 40
4.8
 50
321.842227
 51
323.157773
  0
ARC
  5
CB7D
  8
ALPHA
 10
28.520866
 20
82.590755
 30
0.0
 40
0.2
 50
238.0
 51
321.842227
  0
ARC
  5
CB7E
  8
ALPHA
 10
29.159808
 20
83.668665
 30
0.0
 40
0.2
 50
253.0
 51
336.842227
  0
ARC
  5
CB7F
  8
ALPHA
 10
28.594859
 20
83.423111
 30
0.0
 40
0.2
 50
73.0
 51
150.999089
  0
ARC
  5
CB80
  8
ALPHA
 10
24.746566
 20
85.556334
 30
0.0
 40
4.2
 50
329.000911
 51
330.999089
  0
ARC
  5
CB81
  8
ALPHA
 10
28.518138
 20
83.290227
 30
0.0
 40
0.2
 50
149.000911
 51
227.0
  0
ARC
  5
CB82
  8
ALPHA
 10
28.587957
 20
82.678189
 30
0.0
 40
0.2
 50
323.157773
 51
47.0
  0
ARC
  5
CB83
  8
ALPHA
 10
24.746566
 20
85.556334
 30
0.0
 40
5.0
 50
321.842227
 51
323.157773
  0
LINE
  5
CB84
  8
ALPHA
 10
28.381739
 20
83.143956
 30
0.0
 11
28.724356
 21
82.82446
 31
0.0
  0
LINE
  5
CB85
  8
ALPHA
 10
28.245339
 20
82.997685
 30
0.0
 11
28.587957
 21
82.678189
 31
0.0
  0
LINE
  5
CB86
  8
ALPHA
 10
28.520866
 20
82.590755
 30
0.0
 11
28.678128
 21
82.467189
 31
0.0
  0
LINE
  5
CB87
  8
ALPHA
 10
28.748015
 20
82.558266
 30
0.0
 11
28.587957
 21
82.678189
 31
0.0
  0
LINE
  5
CB88
  8
ALPHA
 10
28.520866
 20
82.590755
 30
0.0
 11
28.12358
 21
82.839006
 31
0.0
  0
LINE
  5
CB89
  8
ALPHA
 10
28.414882
 20
82.421145
 30
0.0
 11
28.017597
 21
82.669397
 31
0.0
  0
LINE
  5
CB8A
  8
ALPHA
 10
28.346703
 20
83.393231
 30
0.0
 11
28.175268
 21
83.496236
 31
0.0
  0
LINE
  5
CB8B
  8
ALPHA
 10
28.419937
 20
83.520075
 30
0.0
 11
28.245014
 21
83.61704
 31
0.0
  0
LINE
  5
CB8C
  8
ALPHA
 10
29.101334
 20
83.477404
 30
0.0
 11
28.653333
 21
83.614371
 31
0.0
  0
LINE
  5
CB8D
  8
ALPHA
 10
28.414882
 20
82.421145
 30
0.0
 11
28.520866
 21
82.590755
 31
0.0
  0
LINE
  5
CB8E
  8
ALPHA
 10
28.017597
 20
82.669397
 30
0.0
 11
28.12358
 21
82.839006
 31
0.0
  0
LINE
  5
CB8F
  8
ALPHA
 10
28.346703
 20
83.393231
 30
0.0
 11
28.419937
 21
83.520075
 31
0.0
  0
LINE
  5
CB90
  8
ALPHA
 10
28.724356
 20
82.82446
 30
0.0
 11
28.587957
 21
82.678189
 31
0.0
  0
LINE
  5
CB91
  8
ALPHA
 10
28.381739
 20
83.143956
 30
0.0
 11
28.245339
 21
82.997685
 31
0.0
  0
ARC
  5
CB92
  8
ALPHA
 10
24.746566
 20
85.556334
 30
0.0
 40
7.15
 50
285.0
 51
315.0
  0
ARC
  5
CB93
  8
ALPHA
 10
24.746566
 20
85.556334
 30
0.0
 40
7.4
 50
285.0
 51
315.0
  0
LINE
  5
CB94
  8
ALPHA
 10
30.033464
 20
80.269437
 30
0.0
 11
29.590248
 21
80.712653
 31
0.0
  0
ARC
  5
CB95
  8
ALPHA
 10
24.746566
 20
85.556334
 30
0.0
 40
3.999999
 50
239.000911
 51
240.999089
  0
ARC
  5
CB96
  8
ALPHA
 10
24.746566
 20
85.556334
 30
0.0
 40
4.2
 50
239.000911
 51
240.999089
  0
ARC
  5
CB97
  8
ALPHA
 10
22.858897
 20
81.143092
 30
0.0
 40
0.2
 50
163.0
 51
246.842227
  0
LINE
  5
CB98
  8
ALPHA
 10
22.583464
 20
81.956197
 30
0.0
 11
22.710307
 21
81.882964
 31
0.0
  0
LINE
  5
CB99
  8
ALPHA
 10
22.667636
 20
81.201566
 30
0.0
 11
22.858897
 21
81.143092
 31
0.0
  0
LINE
  5
CB9A
  8
ALPHA
 10
22.667636
 20
81.201566
 30
0.0
 11
22.804604
 21
81.649567
 31
0.0
  0
LINE
  5
CB9B
  8
ALPHA
 10
22.583464
 20
81.956197
 30
0.0
 11
22.686469
 21
82.127632
 31
0.0
  0
ARC
  5
CB9C
  8
ALPHA
 10
22.480459
 20
81.784762
 30
0.0
 40
0.2
 50
59.000911
 51
137.0
  0
ARC
  5
CB9D
  8
ALPHA
 10
30.746566
 20
81.950783
 30
0.0
 40
2.0
 50
328.997281
 51
0.0
  0
ARC
  5
CB9E
  8
ALPHA
 10
24.746566
 20
85.556334
 30
0.0
 40
6.935285
 50
15.0
 51
45.0
  0
LINE
  5
CB9F
  8
ALPHA
 10
24.047338
 20
83.693224
 30
0.0
 11
23.927552
 21
83.742704
 31
0.0
  0
LINE
  5
CBA0
  8
ALPHA
 10
24.047338
 20
83.693224
 30
0.0
 11
23.992152
 21
83.721355
 31
0.0
  0
POLYLINE
  5
CBA1
  8
ALPHA
 66
     1
 10
0.0
 20
0.0
 30
0.0
 70
   128
210
0.0
220
0.0
230
-1.0
  0
VERTEX
  5
CE12
  8
ALPHA
 10
-23.992152
 20
83.721355
 30
0.0
  0
VERTEX
  5
CE13
  8
ALPHA
 10
-23.347495
 20
84.271853
 30
0.0
  0
VERTEX
  5
CE14
  8
ALPHA
 10
-23.008314
 20
85.047919
 30
0.0
  0
VERTEX
  5
CE15
  8
ALPHA
 10
-23.061741
 20
85.892412
 30
0.0
  0
VERTEX
  5
CE16
  8
ALPHA
 10
-23.513475
 20
86.606993
 30
0.0
  0
SEQEND
  5
CE17
  8
ALPHA
  0
CIRCLE
  5
CBA2
  8
ALPHA
 10
24.746566
 20
85.556334
 30
0.0
 40
1.62
  0
POLYLINE
  5
CBA3
  8
ALPHA
 66
     1
 10
0.0
 20
0.0
 30
0.0
 70
   128
210
0.0
220
0.0
230
-1.0
  0
VERTEX
  5
CE18
  8
ALPHA
 10
-25.979651
 20
86.607002
 30
0.0
  0
VERTEX
  5
CE19
  8
ALPHA
 10
-26.43603
 20
85.87768
 30
0.0
  0
VERTEX
  5
CE1A
  8
ALPHA
 10
-26.479071
 20
85.01755
 30
0.0
  0
VERTEX
  5
CE1B
  8
ALPHA
 10
-26.11743
 20
84.235052
 30
0.0
  0
VERTEX
  5
CE1C
  8
ALPHA
 10
-25.44581
 20
83.69323
 30
0.0
  0
SEQEND
  5
CE1D
  8
ALPHA
  0
CIRCLE
  5
CBA4
  8
ALPHA
 10
24.746566
 20
85.556334
 30
0.0
 40
0.753975
  0
ARC
  5
CBA5
  8
ALPHA
 10
29.145897
 20
85.479613
 30
0.0
 40
0.399993
 50
179.000911
 51
257.0
  0
ARC
  5
CBA6
  8
ALPHA
 10
29.145897
 20
85.479613
 30
0.0
 40
0.2
 50
179.000911
 51
257.0
  0
LINE
  5
CBA7
  8
ALPHA
 10
29.100907
 20
85.284739
 30
0.0
 11
29.557371
 21
85.179357
 31
0.0
  0
LINE
  5
CBA8
  8
ALPHA
 10
29.100907
 20
85.284739
 30
0.0
 11
29.055917
 21
85.089865
 31
0.0
  0
ARC
  5
CBA9
  8
ALPHA
 10
27.911613
 20
88.612881
 30
0.0
 40
0.399993
 50
224.000911
 51
302.0
  0
ARC
  5
CBAA
  8
ALPHA
 10
27.712146
 20
89.330634
 30
0.0
 40
0.2
 50
328.0
 51
51.842227
  0
ARC
  5
CBAB
  8
ALPHA
 10
27.911613
 20
88.612881
 30
0.0
 40
0.2
 50
224.000911
 51
302.0
  0
LINE
  5
CBAC
  8
ALPHA
 10
27.881755
 20
89.22465
 30
0.0
 11
27.712146
 21
89.330634
 31
0.0
  0
LINE
  5
CBAD
  8
ALPHA
 10
27.881755
 20
89.22465
 30
0.0
 11
27.633504
 21
88.827364
 31
0.0
  0
ARC
  5
CBAE
  8
ALPHA
 10
24.346199
 20
88.006334
 30
0.0
 40
0.15
 50
160.0
 51
270.0
  0
ARC
  5
CBAF
  8
ALPHA
 10
25.146934
 20
88.006334
 30
0.0
 40
0.15
 50
270.0
 51
20.0
  0
LINE
  5
CBB0
  8
ALPHA
 10
24.346199
 20
87.856334
 30
0.0
 11
25.146934
 21
87.856334
 31
0.0
  0
ARC
  5
CBB1
  8
ALPHA
 10
24.746566
 20
85.556334
 30
0.0
 40
3.999996
 50
74.000911
 51
75.999089
  0
ARC
  5
CBB2
  8
ALPHA
 10
24.746566
 20
85.556334
 30
0.0
 40
4.2
 50
74.000911
 51
75.999089
  0
LINE
  5
CBB3
  8
ALPHA
 10
25.904179
 20
89.593652
 30
0.0
 11
25.762703
 21
89.63156
 31
0.0
  0
ARC
  5
CBB4
  8
ALPHA
 10
24.669846
 20
89.955665
 30
0.0
 40
0.399993
 50
193.0
 51
270.999089
  0
ARC
  5
CBB5
  8
ALPHA
 10
24.746566
 20
85.556334
 30
0.0
 40
3.999993
 50
89.000911
 51
90.999089
  0
ARC
  5
CBB6
  8
ALPHA
 10
24.823287
 20
89.955665
 30
0.0
 40
0.399993
 50
269.000911
 51
347.0
  0
ARC
  5
CBB7
  8
ALPHA
 10
25.811091
 20
89.825618
 30
0.0
 40
0.399993
 50
178.0
 51
255.999089
  0
ARC
  5
CBB8
  8
ALPHA
 10
24.746566
 20
85.556334
 30
0.0
 40
4.8
 50
81.842227
 51
83.157773
  0
ARC
  5
CBB9
  8
ALPHA
 10
24.746566
 20
85.556334
 30
0.0
 40
4.8
 50
96.842227
 51
98.157773
  0
ARC
  5
CBBA
  8
ALPHA
 10
24.746566
 20
85.556334
 30
0.0
 40
5.0
 50
81.842227
 51
83.157773
  0
ARC
  5
CBBB
  8
ALPHA
 10
24.746566
 20
85.556334
 30
0.0
 40
5.0
 50
96.842227
 51
98.157773
  0
ARC
  5
CBBC
  8
ALPHA
 10
24.174715
 20
90.322148
 30
0.0
 40
0.2
 50
13.0
 51
96.842227
  0
ARC
  5
CBBD
  8
ALPHA
 10
24.669846
 20
89.955665
 30
0.0
 40
0.2
 50
193.0
 51
270.999089
  0
ARC
  5
CBBE
  8
ALPHA
 10
24.746566
 20
85.556334
 30
0.0
 40
4.2
 50
89.000911
 51
90.999089
  0
ARC
  5
CBBF
  8
ALPHA
 10
24.823287
 20
89.955665
 30
0.0
 40
0.2
 50
269.000911
 51
347.0
  0
ARC
  5
CBC0
  8
ALPHA
 10
25.318418
 20
90.322148
 30
0.0
 40
0.2
 50
83.157773
 51
167.0
  0
ARC
  5
CBC1
  8
ALPHA
 10
25.427684
 20
90.307763
 30
0.0
 40
0.2
 50
358.0
 51
81.842227
  0
ARC
  5
CBC2
  8
ALPHA
 10
25.811091
 20
89.825618
 30
0.0
 40
0.2
 50
178.0
 51
255.999089
  0
ARC
  5
CBC3
  8
ALPHA
 10
24.746566
 20
89.106334
 30
0.0
 40
0.15
 50
20.0
 51
160.0
  0
LINE
  5
CBC4
  8
ALPHA
 10
25.123544
 20
90.367139
 30
0.0
 11
25.318418
 21
90.322148
 31
0.0
  0
LINE
  5
CBC5
  8
ALPHA
 10
25.018161
 20
89.910675
 30
0.0
 11
25.213035
 21
89.865685
 31
0.0
  0
LINE
  5
CBC6
  8
ALPHA
 10
25.627562
 20
90.300783
 30
0.0
 11
25.427684
 21
90.307763
 31
0.0
  0
LINE
  5
CBC7
  8
ALPHA
 10
25.611212
 20
89.832598
 30
0.0
 11
25.411334
 21
89.839578
 31
0.0
  0
LINE
  5
CBC8
  8
ALPHA
 10
24.8198
 20
89.755696
 30
0.0
 11
24.673333
 21
89.755696
 31
0.0
  0
LINE
  5
CBC9
  8
ALPHA
 10
24.369589
 20
90.367139
 30
0.0
 11
24.174715
 21
90.322148
 31
0.0
  0
LINE
  5
CBCA
  8
ALPHA
 10
24.474972
 20
89.910675
 30
0.0
 11
24.280098
 21
89.865685
 31
0.0
  0
LINE
  5
CBCB
  8
ALPHA
 10
25.287887
 20
88.057637
 30
0.0
 11
24.88752
 21
89.157637
 31
0.0
  0
LINE
  5
CBCC
  8
ALPHA
 10
24.369589
 20
90.367139
 30
0.0
 11
24.474972
 21
89.910675
 31
0.0
  0
LINE
  5
CBCD
  8
ALPHA
 10
24.174715
 20
90.322148
 30
0.0
 11
24.280098
 21
89.865685
 31
0.0
  0
LINE
  5
CBCE
  8
ALPHA
 10
24.174715
 20
90.322148
 30
0.0
 11
24.150888
 21
90.520724
 31
0.0
  0
LINE
  5
CBCF
  8
ALPHA
 10
24.037069
 20
90.505739
 30
0.0
 11
24.065449
 21
90.307763
 31
0.0
  0
LINE
  5
CBD0
  8
ALPHA
 10
25.627562
 20
90.300783
 30
0.0
 11
25.611212
 21
89.832598
 31
0.0
  0
LINE
  5
CBD1
  8
ALPHA
 10
25.427684
 20
90.307763
 30
0.0
 11
25.411334
 21
89.839578
 31
0.0
  0
LINE
  5
CBD2
  8
ALPHA
 10
25.427684
 20
90.307763
 30
0.0
 11
25.456063
 21
90.505739
 31
0.0
  0
LINE
  5
CBD3
  8
ALPHA
 10
25.342245
 20
90.520724
 30
0.0
 11
25.318418
 21
90.322148
 31
0.0
  0
LINE
  5
CBD4
  8
ALPHA
 10
24.8198
 20
89.755696
 30
0.0
 11
24.816312
 21
89.555726
 31
0.0
  0
LINE
  5
CBD5
  8
ALPHA
 10
24.673333
 20
89.755696
 30
0.0
 11
24.67682
 21
89.555726
 31
0.0
  0
LINE
  5
CBD6
  8
ALPHA
 10
24.081798
 20
89.839578
 30
0.0
 11
24.065449
 21
90.307763
 31
0.0
  0
LINE
  5
CBD7
  8
ALPHA
 10
25.762703
 20
89.63156
 30
0.0
 11
25.714316
 21
89.437502
 31
0.0
  0
LINE
  5
CBD8
  8
ALPHA
 10
25.213035
 20
89.865685
 30
0.0
 11
25.318418
 21
90.322148
 31
0.0
  0
LINE
  5
CBD9
  8
ALPHA
 10
25.018161
 20
89.910675
 30
0.0
 11
25.123544
 21
90.367139
 31
0.0
  0
LINE
  5
CBDA
  8
ALPHA
 10
24.605612
 20
89.157637
 30
0.0
 11
24.205245
 21
88.057637
 31
0.0
  0
ARC
  5
CBDB
  8
ALPHA
 10
27.803113
 20
88.721381
 30
0.0
 40
0.399993
 50
148.0
 51
225.999089
  0
ARC
  5
CBDC
  8
ALPHA
 10
24.746566
 20
85.556334
 30
0.0
 40
3.999998
 50
44.000911
 51
45.999089
  0
ARC
  5
CBDD
  8
ALPHA
 10
27.012674
 20
89.327906
 30
0.0
 40
0.399997
 50
239.000911
 51
317.0
  0
ARC
  5
CBDE
  8
ALPHA
 10
24.746566
 20
85.556334
 30
0.0
 40
3.999992
 50
59.000911
 51
60.999089
  0
ARC
  5
CBDF
  8
ALPHA
 10
26.87979
 20
89.404627
 30
0.0
 40
0.399997
 50
163.0
 51
240.999089
  0
ARC
  5
CBE0
  8
ALPHA
 10
25.959303
 20
89.785905
 30
0.0
 40
0.399993
 50
254.000911
 51
332.0
  0
ARC
  5
CBE1
  8
ALPHA
 10
24.746566
 20
85.556334
 30
0.0
 40
4.8
 50
51.842227
 51
53.157773
  0
ARC
  5
CBE2
  8
ALPHA
 10
24.746566
 20
85.556334
 30
0.0
 40
4.8
 50
66.842227
 51
68.157773
  0
ARC
  5
CBE3
  8
ALPHA
 10
24.746566
 20
85.556334
 30
0.0
 40
5.0
 50
51.842227
 51
53.157773
  0
ARC
  5
CBE4
  8
ALPHA
 10
24.746566
 20
85.556334
 30
0.0
 40
5.0
 50
66.842227
 51
68.157773
  0
ARC
  5
CBE5
  8
ALPHA
 10
27.803113
 20
88.721381
 30
0.0
 40
0.2
 50
148.0
 51
225.999089
  0
ARC
  5
CBE6
  8
ALPHA
 10
24.746566
 20
85.556334
 30
0.0
 40
4.2
 50
44.000911
 51
45.999089
  0
ARC
  5
CBE7
  8
ALPHA
 10
27.624711
 20
89.397725
 30
0.0
 40
0.2
 50
53.157773
 51
137.0
  0
ARC
  5
CBE8
  8
ALPHA
 10
27.012674
 20
89.327906
 30
0.0
 40
0.2
 50
239.000911
 51
317.0
  0
ARC
  5
CBE9
  8
ALPHA
 10
24.746566
 20
85.556334
 30
0.0
 40
4.2
 50
59.000911
 51
60.999089
  0
ARC
  5
CBEA
  8
ALPHA
 10
26.87979
 20
89.404627
 30
0.0
 40
0.2
 50
163.0
 51
240.999089
  0
ARC
  5
CBEB
  8
ALPHA
 10
26.634235
 20
89.969576
 30
0.0
 40
0.2
 50
343.0
 51
66.842227
  0
ARC
  5
CBEC
  8
ALPHA
 10
25.959303
 20
89.785905
 30
0.0
 40
0.2
 50
254.000911
 51
332.0
  0
ARC
  5
CBED
  8
ALPHA
 10
26.532416
 20
90.011751
 30
0.0
 40
0.2
 50
68.157773
 51
152.0
  0
LINE
  5
CBEE
  8
ALPHA
 10
26.634235
 20
89.969576
 30
0.0
 11
26.825496
 21
89.911102
 31
0.0
  0
LINE
  5
CBEF
  8
ALPHA
 10
26.497268
 20
89.521576
 30
0.0
 11
26.688529
 21
89.463101
 31
0.0
  0
LINE
  5
CBF0
  8
ALPHA
 10
27.624711
 20
89.397725
 30
0.0
 11
27.478441
 21
89.534124
 31
0.0
  0
LINE
  5
CBF1
  8
ALPHA
 10
27.633504
 20
88.827364
 30
0.0
 11
27.463894
 21
88.933348
 31
0.0
  0
LINE
  5
CBF2
  8
ALPHA
 10
26.909669
 20
89.156471
 30
0.0
 11
26.782825
 21
89.229704
 31
0.0
  0
LINE
  5
CBF3
  8
ALPHA
 10
26.355826
 20
90.105645
 30
0.0
 11
26.532416
 21
90.011751
 31
0.0
  0
LINE
  5
CBF4
  8
ALPHA
 10
26.135893
 20
89.692011
 30
0.0
 11
26.312482
 21
89.598116
 31
0.0
  0
LINE
  5
CBF5
  8
ALPHA
 10
27.767747
 20
88.473947
 30
0.0
 11
27.664179
 21
88.577515
 31
0.0
  0
LINE
  5
CBF6
  8
ALPHA
 10
27.305215
 20
89.055107
 30
0.0
 11
27.158945
 21
89.191507
 31
0.0
  0
LINE
  5
CBF7
  8
ALPHA
 10
26.688529
 20
89.463101
 30
0.0
 11
26.825496
 21
89.911102
 31
0.0
  0
LINE
  5
CBF8
  8
ALPHA
 10
26.497268
 20
89.521576
 30
0.0
 11
26.634235
 21
89.969576
 31
0.0
  0
LINE
  5
CBF9
  8
ALPHA
 10
25.904179
 20
89.593652
 30
0.0
 11
25.849055
 21
89.401398
 31
0.0
  0
LINE
  5
CBFA
  8
ALPHA
 10
26.685526
 20
92.792629
 30
0.0
 11
26.519477
 21
92.172926
 31
0.0
  0
LINE
  5
CBFB
  8
ALPHA
 10
27.712146
 20
89.330634
 30
0.0
 11
27.463894
 21
88.933348
 31
0.0
  0
LINE
  5
CBFC
  8
ALPHA
 10
26.68586
 20
89.054782
 30
0.0
 11
26.782825
 21
89.229704
 31
0.0
  0
LINE
  5
CBFD
  8
ALPHA
 10
26.634235
 20
89.969576
 30
0.0
 11
26.712888
 21
90.153461
 31
0.0
  0
LINE
  5
CBFE
  8
ALPHA
 10
26.606826
 20
90.197393
 30
0.0
 11
26.532416
 21
90.011751
 31
0.0
  0
LINE
  5
CBFF
  8
ALPHA
 10
27.712146
 20
89.330634
 30
0.0
 11
27.835712
 21
89.487896
 31
0.0
  0
LINE
  5
CC00
  8
ALPHA
 10
27.744634
 20
89.557782
 30
0.0
 11
27.624711
 21
89.397725
 31
0.0
  0
LINE
  5
CC01
  8
ALPHA
 10
26.806664
 20
88.985036
 30
0.0
 11
26.909669
 21
89.156471
 31
0.0
  0
LINE
  5
CC02
  8
ALPHA
 10
26.312482
 20
89.598116
 30
0.0
 11
26.532416
 21
90.011751
 31
0.0
  0
LINE
  5
CC03
  8
ALPHA
 10
26.135893
 20
89.692011
 30
0.0
 11
26.355826
 21
90.105645
 31
0.0
  0
LINE
  5
CC04
  8
ALPHA
 10
27.767747
 20
88.473947
 30
0.0
 11
27.623881
 21
88.335013
 31
0.0
  0
LINE
  5
CC05
  8
ALPHA
 10
27.664179
 20
88.577515
 30
0.0
 11
27.525246
 21
88.433649
 31
0.0
  0
LINE
  5
CC06
  8
ALPHA
 10
27.624711
 20
89.397725
 30
0.0
 11
27.305215
 21
89.055107
 31
0.0
  0
LINE
  5
CC07
  8
ALPHA
 10
27.478441
 20
89.534124
 30
0.0
 11
27.158945
 21
89.191507
 31
0.0
  0
ARC
  5
CC08
  8
ALPHA
 10
28.518138
 20
87.822442
 30
0.0
 40
0.399993
 50
133.0
 51
210.999089
  0
ARC
  5
CC09
  8
ALPHA
 10
28.518138
 20
87.822442
 30
0.0
 40
0.2
 50
133.0
 51
210.999089
  0
ARC
  5
CC0A
  8
ALPHA
 10
29.145897
 20
85.633055
 30
0.0
 40
0.399993
 50
103.0
 51
180.999089
  0
ARC
  5
CC0B
  8
ALPHA
 10
24.746566
 20
85.556334
 30
0.0
 40
3.999989
 50
359.000911
 51
0.999089
  0
ARC
  5
CC0C
  8
ALPHA
 10
28.976137
 20
86.769071
 30
0.0
 40
0.399993
 50
118.0
 51
195.999089
  0
ARC
  5
CC0D
  8
ALPHA
 10
24.746566
 20
85.556334
 30
0.0
 40
4.0
 50
14.000911
 51
15.999089
  0
ARC
  5
CC0E
  8
ALPHA
 10
29.015851
 20
86.620858
 30
0.0
 40
0.399993
 50
194.000911
 51
272.0
  0
ARC
  5
CC0F
  8
ALPHA
 10
24.746566
 20
85.556334
 30
0.0
 40
4.8
 50
6.842227
 51
8.157773
  0
ARC
  5
CC10
  8
ALPHA
 10
24.746566
 20
85.556334
 30
0.0
 40
4.8
 50
21.842227
 51
23.157773
  0
ARC
  5
CC11
  8
ALPHA
 10
24.746566
 20
85.556334
 30
0.0
 40
3.99999
 50
29.000911
 51
30.999089
  0
ARC
  5
CC12
  8
ALPHA
 10
28.594859
 20
87.689558
 30
0.0
 40
0.399993
 50
209.000911
 51
287.0
  0
ARC
  5
CC13
  8
ALPHA
 10
29.512381
 20
86.128186
 30
0.0
 40
0.2
 50
283.0
 51
6.842227
  0
ARC
  5
CC14
  8
ALPHA
 10
29.145897
 20
85.633055
 30
0.0
 40
0.2
 50
103.0
 51
180.999089
  0
ARC
  5
CC15
  8
ALPHA
 10
24.746566
 20
85.556334
 30
0.0
 40
4.2
 50
359.000911
 51
0.999089
  0
ARC
  5
CC16
  8
ALPHA
 10
29.201983
 20
87.342184
 30
0.0
 40
0.2
 50
298.0
 51
21.842227
  0
ARC
  5
CC17
  8
ALPHA
 10
28.976137
 20
86.769071
 30
0.0
 40
0.2
 50
118.0
 51
195.999089
  0
ARC
  5
CC18
  8
ALPHA
 10
24.746566
 20
85.556334
 30
0.0
 40
4.2
 50
14.000911
 51
15.999089
  0
ARC
  5
CC19
  8
ALPHA
 10
29.015851
 20
86.620858
 30
0.0
 40
0.2
 50
194.000911
 51
272.0
  0
ARC
  5
CC1A
  8
ALPHA
 10
24.746566
 20
85.556334
 30
0.0
 40
5.0
 50
6.842227
 51
8.157773
  0
ARC
  5
CC1B
  8
ALPHA
 10
24.746566
 20
85.556334
 30
0.0
 40
5.0
 50
21.842227
 51
23.157773
  0
ARC
  5
CC1C
  8
ALPHA
 10
29.497995
 20
86.237451
 30
0.0
 40
0.2
 50
8.157773
 51
92.0
  0
ARC
  5
CC1D
  8
ALPHA
 10
24.746566
 20
85.556334
 30
0.0
 40
4.2
 50
29.000911
 51
30.999089
  0
ARC
  5
CC1E
  8
ALPHA
 10
28.594859
 20
87.689558
 30
0.0
 40
0.2
 50
209.000911
 51
287.0
  0
ARC
  5
CC1F
  8
ALPHA
 10
29.159808
 20
87.444003
 30
0.0
 40
0.2
 50
23.157773
 51
107.0
  0
LINE
  5
CC20
  8
ALPHA
 10
29.295878
 20
87.165594
 30
0.0
 11
29.201983
 21
87.342184
 31
0.0
  0
LINE
  5
CC21
  8
ALPHA
 10
28.882243
 20
86.945661
 30
0.0
 11
28.788348
 21
87.12225
 31
0.0
  0
LINE
  5
CC22
  8
ALPHA
 10
28.419937
 20
87.592593
 30
0.0
 11
28.346703
 21
87.719437
 31
0.0
  0
LINE
  5
CC23
  8
ALPHA
 10
29.02283
 20
86.42098
 30
0.0
 11
29.491016
 21
86.43733
 31
0.0
  0
LINE
  5
CC24
  8
ALPHA
 10
29.02981
 20
86.221102
 30
0.0
 11
29.497995
 21
86.237451
 31
0.0
  0
LINE
  5
CC25
  8
ALPHA
 10
29.557371
 20
85.933312
 30
0.0
 11
29.512381
 21
86.128186
 31
0.0
  0
LINE
  5
CC26
  8
ALPHA
 10
29.101334
 20
87.635264
 30
0.0
 11
29.159808
 21
87.444003
 31
0.0
  0
LINE
  5
CC27
  8
ALPHA
 10
28.653333
 20
87.498297
 30
0.0
 11
28.711808
 21
87.307036
 31
0.0
  0
LINE
  5
CC28
  8
ALPHA
 10
28.945928
 20
85.483101
 30
0.0
 11
28.745958
 21
85.486588
 31
0.0
  0
LINE
  5
CC29
  8
ALPHA
 10
28.945928
 20
85.629567
 30
0.0
 11
28.745958
 21
85.62608
 31
0.0
  0
LINE
  5
CC2A
  8
ALPHA
 10
29.512381
 20
86.128186
 30
0.0
 11
29.710956
 21
86.152013
 31
0.0
  0
LINE
  5
CC2B
  8
ALPHA
 10
29.695972
 20
86.265831
 30
0.0
 11
29.497995
 21
86.237451
 31
0.0
  0
LINE
  5
CC2C
  8
ALPHA
 10
29.512381
 20
86.128186
 30
0.0
 11
29.055917
 21
86.022803
 31
0.0
  0
LINE
  5
CC2D
  8
ALPHA
 10
28.821792
 20
86.572471
 30
0.0
 11
28.627734
 21
86.524083
 31
0.0
  0
LINE
  5
CC2E
  8
ALPHA
 10
29.100907
 20
85.827929
 30
0.0
 11
29.055917
 21
86.022803
 31
0.0
  0
LINE
  5
CC2F
  8
ALPHA
 10
28.821792
 20
86.572471
 30
0.0
 11
28.783884
 21
86.713947
 31
0.0
  0
LINE
  5
CC30
  8
ALPHA
 10
29.557371
 20
85.933312
 30
0.0
 11
29.100907
 21
85.827929
 31
0.0
  0
LINE
  5
CC31
  8
ALPHA
 10
29.491016
 20
86.43733
 30
0.0
 11
29.497995
 21
86.237451
 31
0.0
  0
LINE
  5
CC32
  8
ALPHA
 10
28.945928
 20
85.483101
 30
0.0
 11
28.945928
 21
85.629567
 31
0.0
  0
LINE
  5
CC33
  8
ALPHA
 10
29.02283
 20
86.42098
 30
0.0
 11
29.02981
 21
86.221102
 31
0.0
  0
LINE
  5
CC34
  8
ALPHA
 10
29.295878
 20
87.165594
 30
0.0
 11
28.882243
 21
86.945661
 31
0.0
  0
LINE
  5
CC35
  8
ALPHA
 10
29.201983
 20
87.342184
 30
0.0
 11
28.788348
 21
87.12225
 31
0.0
  0
LINE
  5
CC36
  8
ALPHA
 10
28.783884
 20
86.713947
 30
0.0
 11
28.591631
 21
86.658822
 31
0.0
  0
LINE
  5
CC37
  8
ALPHA
 10
29.201983
 20
87.342184
 30
0.0
 11
29.387626
 21
87.416594
 31
0.0
  0
LINE
  5
CC38
  8
ALPHA
 10
29.343693
 20
87.522656
 30
0.0
 11
29.159808
 21
87.444003
 31
0.0
  0
LINE
  5
CC39
  8
ALPHA
 10
28.419937
 20
87.592593
 30
0.0
 11
28.245014
 21
87.495628
 31
0.0
  0
LINE
  5
CC3A
  8
ALPHA
 10
28.346703
 20
87.719437
 30
0.0
 11
28.175268
 21
87.616432
 31
0.0
  0
LINE
  5
CC3B
  8
ALPHA
 10
28.711808
 20
87.307036
 30
0.0
 11
29.159808
 21
87.444003
 31
0.0
  0
LINE
  5
CC3C
  8
ALPHA
 10
28.653333
 20
87.498297
 30
0.0
 11
29.101334
 21
87.635264
 31
0.0
  0
ARC
  5
CC3D
  8
ALPHA
 10
24.746566
 20
85.556334
 30
0.0
 40
4.8
 50
36.842227
 51
38.157773
  0
ARC
  5
CC3E
  8
ALPHA
 10
24.746566
 20
85.556334
 30
0.0
 40
5.0
 50
36.842227
 51
38.157773
  0
ARC
  5
CC3F
  8
ALPHA
 10
28.587957
 20
88.434479
 30
0.0
 40
0.2
 50
313.0
 51
36.842227
  0
ARC
  5
CC40
  8
ALPHA
 10
28.520866
 20
88.521914
 30
0.0
 40
0.2
 50
38.157773
 51
122.0
  0
LINE
  5
CC41
  8
ALPHA
 10
28.724356
 20
88.288208
 30
0.0
 11
28.587957
 21
88.434479
 31
0.0
  0
LINE
  5
CC42
  8
ALPHA
 10
28.381739
 20
87.968712
 30
0.0
 11
28.245339
 21
88.114983
 31
0.0
  0
LINE
  5
CC43
  8
ALPHA
 10
28.414882
 20
88.691523
 30
0.0
 11
28.520866
 21
88.521914
 31
0.0
  0
LINE
  5
CC44
  8
ALPHA
 10
28.017597
 20
88.443272
 30
0.0
 11
28.12358
 21
88.273662
 31
0.0
  0
LINE
  5
CC45
  8
ALPHA
 10
28.724356
 20
88.288208
 30
0.0
 11
28.381739
 21
87.968712
 31
0.0
  0
LINE
  5
CC46
  8
ALPHA
 10
28.587957
 20
88.434479
 30
0.0
 11
28.245339
 21
88.114983
 31
0.0
  0
LINE
  5
CC47
  8
ALPHA
 10
28.587957
 20
88.434479
 30
0.0
 11
28.748015
 21
88.554402
 31
0.0
  0
LINE
  5
CC48
  8
ALPHA
 10
28.678128
 20
88.645479
 30
0.0
 11
28.520866
 21
88.521914
 31
0.0
  0
LINE
  5
CC49
  8
ALPHA
 10
28.12358
 20
88.273662
 30
0.0
 11
28.520866
 21
88.521914
 31
0.0
  0
LINE
  5
CC4A
  8
ALPHA
 10
28.017597
 20
88.443272
 30
0.0
 11
28.414882
 21
88.691523
 31
0.0
  0
ARC
  5
CC4B
  8
ALPHA
 10
24.746566
 20
85.556334
 30
0.0
 40
7.15
 50
45.0
 51
75.0
  0
ARC
  5
CC4C
  8
ALPHA
 10
24.746566
 20
85.556334
 30
0.0
 40
7.4
 50
45.0
 51
75.0
  0
LINE
  5
CC4D
  8
ALPHA
 10
30.033206
 20
90.842974
 30
0.0
 11
29.590248
 21
90.400016
 31
0.0
  0
ARC
  5
CC4E
  8
ALPHA
 10
24.746566
 20
85.556334
 30
0.0
 40
3.999996
 50
119.000911
 51
120.999089
  0
ARC
  5
CC4F
  8
ALPHA
 10
22.858897
 20
89.969576
 30
0.0
 40
0.2
 50
113.157773
 51
197.0
  0
ARC
  5
CC50
  8
ALPHA
 10
24.746566
 20
85.556334
 30
0.0
 40
4.2
 50
119.000911
 51
120.999089
  0
LINE
  5
CC51
  8
ALPHA
 10
22.804604
 20
89.463101
 30
0.0
 11
22.667636
 21
89.911102
 31
0.0
  0
LINE
  5
CC52
  8
ALPHA
 10
22.667636
 20
89.911102
 30
0.0
 11
22.858897
 21
89.969576
 31
0.0
  0
ARC
  5
CC53
  8
ALPHA
 10
22.480459
 20
89.327906
 30
0.0
 40
0.2
 50
223.0
 51
300.999089
  0
LINE
  5
CC54
  8
ALPHA
 10
22.583464
 20
89.156471
 30
0.0
 11
22.686469
 21
88.985036
 31
0.0
  0
ARC
  5
CC55
  8
ALPHA
 10
24.746566
 20
85.556334
 30
0.0
 40
3.999993
 50
104.000911
 51
105.999089
  0
ARC
  5
CC56
  8
ALPHA
 10
23.682042
 20
89.825618
 30
0.0
 40
0.2
 50
284.000911
 51
2.0
  0
LINE
  5
CC57
  8
ALPHA
 10
23.73043
 20
89.63156
 30
0.0
 11
23.778817
 21
89.437502
 31
0.0
  0
ARC
  5
CC58
  8
ALPHA
 10
23.533829
 20
89.785905
 30
0.0
 40
0.399993
 50
208.0
 51
285.999089
  0
ARC
  5
CC59
  8
ALPHA
 10
22.613343
 20
89.404627
 30
0.0
 40
0.399993
 50
299.000911
 51
17.0
  0
ARC
  5
CC5A
  8
ALPHA
 10
24.746566
 20
85.556334
 30
0.0
 40
4.8
 50
111.842227
 51
113.157773
  0
ARC
  5
CC5B
  8
ALPHA
 10
22.613343
 20
89.404627
 30
0.0
 40
0.2
 50
299.000911
 51
17.0
  0
ARC
  5
CC5C
  8
ALPHA
 10
24.746566
 20
85.556334
 30
0.0
 40
5.0
 50
111.842227
 51
113.157773
  0
ARC
  5
CC5D
  8
ALPHA
 10
22.960717
 20
90.011751
 30
0.0
 40
0.2
 50
28.0
 51
111.842227
  0
ARC
  5
CC5E
  8
ALPHA
 10
23.533829
 20
89.785905
 30
0.0
 40
0.2
 50
208.0
 51
285.999089
  0
ARC
  5
CC5F
  8
ALPHA
 10
24.746566
 20
85.556334
 30
0.0
 40
4.2
 50
104.000911
 51
105.999089
  0
LINE
  5
CC60
  8
ALPHA
 10
23.73043
 20
89.63156
 30
0.0
 11
23.588954
 21
89.593652
 31
0.0
  0
LINE
  5
CC61
  8
ALPHA
 10
23.137306
 20
90.105645
 30
0.0
 11
23.35724
 21
89.692011
 31
0.0
  0
LINE
  5
CC62
  8
ALPHA
 10
22.960717
 20
90.011751
 30
0.0
 11
23.18065
 21
89.598116
 31
0.0
  0
LINE
  5
CC63
  8
ALPHA
 10
22.960717
 20
90.011751
 30
0.0
 11
22.886306
 21
90.197393
 31
0.0
  0
LINE
  5
CC64
  8
ALPHA
 10
22.780244
 20
90.153461
 30
0.0
 11
22.858897
 21
89.969576
 31
0.0
  0
LINE
  5
CC65
  8
ALPHA
 10
22.710307
 20
89.229704
 30
0.0
 11
22.807272
 21
89.054782
 31
0.0
  0
LINE
  5
CC66
  8
ALPHA
 10
22.807472
 20
92.793132
 30
0.0
 11
22.973656
 21
92.172926
 31
0.0
  0
LINE
  5
CC67
  8
ALPHA
 10
23.588954
 20
89.593652
 30
0.0
 11
23.644078
 21
89.401398
 31
0.0
  0
LINE
  5
CC68
  8
ALPHA
 10
22.995865
 20
89.521576
 30
0.0
 11
22.858897
 21
89.969576
 31
0.0
  0
LINE
  5
CC69
  8
ALPHA
 10
23.35724
 20
89.692011
 30
0.0
 11
23.18065
 21
89.598116
 31
0.0
  0
LINE
  5
CC6A
  8
ALPHA
 10
22.804604
 20
89.463101
 30
0.0
 11
22.995865
 21
89.521576
 31
0.0
  0
LINE
  5
CC6B
  8
ALPHA
 10
23.137306
 20
90.105645
 30
0.0
 11
22.960717
 21
90.011751
 31
0.0
  0
LINE
  5
CC6C
  8
ALPHA
 10
23.88192
 20
89.832598
 30
0.0
 11
23.865571
 21
90.300783
 31
0.0
  0
ARC
  5
CC6D
  8
ALPHA
 10
24.746566
 20
85.556334
 30
0.0
 40
6.935285
 50
75.0
 51
105.0
  0
ARC
  5
CC6E
  8
ALPHA
 10
23.682042
 20
89.825618
 30
0.0
 40
0.399993
 50
284.000911
 51
2.0
  0
ARC
  5
CC6F
  8
ALPHA
 10
24.065449
 20
90.307763
 30
0.0
 40
0.2
 50
98.157773
 51
182.0
  0
LINE
  5
CC70
  8
ALPHA
 10
23.865571
 20
90.300783
 30
0.0
 11
24.065449
 21
90.307763
 31
0.0
  0
LINE
  5
CC71
  8
ALPHA
 10
23.88192
 20
89.832598
 30
0.0
 11
24.081798
 21
89.839578
 31
0.0
  0
ARC
  5
CC72
  8
ALPHA
 10
28.976137
 20
84.343597
 30
0.0
 40
0.399993
 50
164.000911
 51
242.0
  0
ARC
  5
CC73
  8
ALPHA
 10
28.976137
 20
84.343597
 30
0.0
 40
0.2
 50
164.000911
 51
242.0
  0
LINE
  5
CC74
  8
ALPHA
 10
28.882243
 20
84.167007
 30
0.0
 11
29.295878
 21
83.947074
 31
0.0
  0
LINE
  5
CC75
  8
ALPHA
 10
28.788348
 20
83.990418
 30
0.0
 11
29.201983
 21
83.770484
 31
0.0
  0
LINE
  5
CC76
  8
ALPHA
 10
29.295878
 20
83.947074
 30
0.0
 11
29.201983
 21
83.770484
 31
0.0
  0
LINE
  5
CC77
  8
ALPHA
 10
28.882243
 20
84.167007
 30
0.0
 11
28.788348
 21
83.990418
 31
0.0
  0
ARC
  5
CC78
  8
ALPHA
 10
24.746566
 20
85.556334
 30
0.0
 40
4.8
 50
336.842227
 51
338.157773
  0
ARC
  5
CC79
  8
ALPHA
 10
29.201983
 20
83.770484
 30
0.0
 40
0.2
 50
338.157773
 51
62.0
  0
LINE
  5
CC7A
  8
ALPHA
 10
29.387626
 20
83.696074
 30
0.0
 11
29.201983
 21
83.770484
 31
0.0
  0
LINE
  5
CC7B
  8
ALPHA
 10
29.159808
 20
83.668665
 30
0.0
 11
28.711808
 21
83.805632
 31
0.0
  0
ARC
  5
CC7C
  8
ALPHA
 10
29.015851
 20
84.49181
 30
0.0
 40
0.399993
 50
88.0
 51
165.999089
  0
ARC
  5
CC7D
  8
ALPHA
 10
24.746566
 20
85.556334
 30
0.0
 40
4.0
 50
344.000911
 51
345.999089
  0
ARC
  5
CC7E
  8
ALPHA
 10
24.746566
 20
85.556334
 30
0.0
 40
4.8
 50
351.842227
 51
353.157773
  0
ARC
  5
CC7F
  8
ALPHA
 10
29.497995
 20
84.875217
 30
0.0
 40
0.2
 50
268.0
 51
351.842227
  0
ARC
  5
CC80
  8
ALPHA
 10
29.015851
 20
84.49181
 30
0.0
 40
0.2
 50
88.0
 51
165.999089
  0
ARC
  5
CC81
  8
ALPHA
 10
24.746566
 20
85.556334
 30
0.0
 40
4.2
 50
344.000911
 51
345.999089
  0
ARC
  5
CC82
  8
ALPHA
 10
29.512381
 20
84.984483
 30
0.0
 40
0.2
 50
353.157773
 51
77.0
  0
ARC
  5
CC83
  8
ALPHA
 10
24.746566
 20
85.556334
 30
0.0
 40
5.0
 50
351.842227
 51
353.157773
  0
LINE
  5
CC84
  8
ALPHA
 10
28.783884
 20
84.398721
 30
0.0
 11
28.591631
 21
84.453846
 31
0.0
  0
LINE
  5
CC85
  8
ALPHA
 10
28.821792
 20
84.540197
 30
0.0
 11
28.627734
 21
84.588585
 31
0.0
  0
LINE
  5
CC86
  8
ALPHA
 10
29.055917
 20
85.089865
 30
0.0
 11
29.512381
 21
84.984483
 31
0.0
  0
LINE
  5
CC87
  8
ALPHA
 10
29.497995
 20
84.875217
 30
0.0
 11
29.695972
 21
84.846837
 31
0.0
  0
LINE
  5
CC88
  8
ALPHA
 10
29.710956
 20
84.960655
 30
0.0
 11
29.512381
 21
84.984483
 31
0.0
  0
LINE
  5
CC89
  8
ALPHA
 10
29.497995
 20
84.875217
 30
0.0
 11
29.02981
 21
84.891566
 31
0.0
  0
LINE
  5
CC8A
  8
ALPHA
 10
29.491016
 20
84.675339
 30
0.0
 11
29.02283
 21
84.691688
 31
0.0
  0
LINE
  5
CC8B
  8
ALPHA
 10
29.491016
 20
84.675339
 30
0.0
 11
29.497995
 21
84.875217
 31
0.0
  0
LINE
  5
CC8C
  8
ALPHA
 10
29.02283
 20
84.691688
 30
0.0
 11
29.02981
 21
84.891566
 31
0.0
  0
LINE
  5
CC8D
  8
ALPHA
 10
29.557371
 20
85.179357
 30
0.0
 11
29.512381
 21
84.984483
 31
0.0
  0
LINE
  5
CC8E
  8
ALPHA
 10
28.783884
 20
84.398721
 30
0.0
 11
28.821792
 21
84.540197
 31
0.0
  0
ARC
  5
CC8F
  8
ALPHA
 10
24.746566
 20
85.556334
 30
0.0
 40
7.15
 50
345.0
 51
15.0
  0
LINE
  5
CC90
  8
ALPHA
 10
31.978569
 20
87.494143
 30
0.0
 11
31.363158
 21
87.329245
 31
0.0
  0
ARC
  5
CC91
  8
ALPHA
 10
30.746566
 20
91.94396
 30
0.0
 40
2.0
 50
0.0
 51
78.34488
  0
VIEWPORT
  5
494D
 67
     1
  8
0
 10
4.995325
 20
6.556512
 30
0.0
 40
22.70986
 41
13.988421
 68
    -1
 69
     1
1001
ACAD
1000
MVIEW
1002
{
1070
    16
1010
0.0
1020
0.0
1030
0.0
1010
0.0
1020
0.0
1030
1.0
1040
0.0
1040
13.988421
1040
4.995325
1040
6.556512
1040
50.0
1040
0.0
1040
0.0
1070
     0
1070
   100
1070
     1
1070
     1
1070
     0
1070
     0
1070
     0
1070
     0
1040
0.0
1040
0.0
1040
0.0
1040
10.0
1040
10.0
1040
10.0
1040
10.0
1070
     0
1002
{
1002
}
1002
}
  0
ENDSEC
  0
EOF
