  0
SECTION
  2
HEADER
  9
$ACADVER
  1
AC1009
  9
$INSBASE
 10
402.590624
 20
-1.041018
 30
0.0
  9
$EXTMIN
 10
1177.355096
 20
11.228457
 30
0.0
  9
$EXTMAX
 10
1317.6093
 20
240.136379
 30
0.0
  9
$LIMMIN
 10
-407.970438
 20
-367.832444
  9
$LIMMAX
 10
429.804077
 20
234.370848
  9
$ORTHOMODE
 70
     1
  9
$REGENMODE
 70
     1
  9
$FILLMODE
 70
     1
  9
$QTEXTMODE
 70
     0
  9
$MIRRTEXT
 70
     1
  9
$DRAGMODE
 70
     2
  9
$LTSCALE
 40
10.0
  9
$OSMODE
 70
    35
  9
$ATTMODE
 70
     1
  9
$TEXTSIZE
 40
6.0
  9
$TRACEWID
 40
1.0
  9
$TEXTSTYLE
  7
ROMANS
  9
$CLAYER
  8
ALPHA
  9
$CELTYPE
  6
BYLAYER
  9
$CECOLOR
 62
   256
  9
$DIMSCALE
 40
1.0
  9
$DIMASZ
 40
5.0
  9
$DIMEXO
 40
2.0
  9
$DIMDLI
 40
0.38
  9
$DIMRND
 40
0.0
  9
$DIMDLE
 40
0.0
  9
$DIMEXE
 40
2.5
  9
$DIMTP
 40
0.0
  9
$DIMTM
 40
0.0
  9
$DIMTXT
 40
2.5
  9
$DIMCEN
 40
0.0
  9
$DIMTSZ
 40
0.0
  9
$DIMTOL
 70
     0
  9
$DIMLIM
 70
     0
  9
$DIMTIH
 70
     1
  9
$DIMTOH
 70
     1
  9
$DIMSE1
 70
     0
  9
$DIMSE2
 70
     0
  9
$DIMTAD
 70
     1
  9
$DIMZIN
 70
    12
  9
$DIMBLK
  1
OPEN30
  9
$DIMASO
 70
     1
  9
$DIMSHO
 70
     1
  9
$DIMPOST
  1

  9
$DIMAPOST
  1

  9
$DIMALT
 70
     0
  9
$DIMALTD
 70
     2
  9
$DIMALTF
 40
25.4
  9
$DIMLFAC
 40
1.0
  9
$DIMTOFL
 70
     0
  9
$DIMTVP
 40
0.0
  9
$DIMTIX
 70
     0
  9
$DIMSOXD
 70
     0
  9
$DIMSAH
 70
     0
  9
$DIMBLK1
  1

  9
$DIMBLK2
  1

  9
$DIMSTYLE
  2
SC_DEFAUT
  9
$DIMCLRD
 70
     0
  9
$DIMCLRE
 70
     0
  9
$DIMCLRT
 70
     0
  9
$DIMTFAC
 40
1.0
  9
$DIMGAP
 40
2.0
  9
$LUNITS
 70
     2
  9
$LUPREC
 70
     1
  9
$SKETCHINC
 40
0.1
  9
$FILLETRAD
 40
0.0
  9
$AUNITS
 70
     0
  9
$AUPREC
 70
     0
  9
$MENU
  1
acad
  9
$ELEVATION
 40
0.0
  9
$PELEVATION
 40
0.0
  9
$THICKNESS
 40
0.0
  9
$LIMCHECK
 70
     0
  9
$BLIPMODE
 70
     0
  9
$CHAMFERA
 40
0.0
  9
$CHAMFERB
 40
0.0
  9
$SKPOLY
 70
     0
  9
$TDCREATE
 40
2450373.687919
  9
$TDUPDATE
 40
2453054.631568
  9
$TDINDWG
 40
0.904539
  9
$TDUSRTIMER
 40
0.904539
  9
$USRTIMER
 70
     1
  9
$ANGBASE
 50
0.0
  9
$ANGDIR
 70
     0
  9
$PDMODE
 70
    32
  9
$PDSIZE
 40
0.0
  9
$PLINEWID
 40
0.0
  9
$COORDS
 70
     1
  9
$SPLFRAME
 70
     0
  9
$SPLINETYPE
 70
     6
  9
$SPLINESEGS
 70
     8
  9
$ATTDIA
 70
     0
  9
$ATTREQ
 70
     1
  9
$HANDLING
 70
     1
  9
$HANDSEED
  5
7E36
  9
$SURFTAB1
 70
     6
  9
$SURFTAB2
 70
     6
  9
$SURFTYPE
 70
     6
  9
$SURFU
 70
     6
  9
$SURFV
 70
     6
  9
$UCSNAME
  2

  9
$UCSORG
 10
0.0
 20
0.0
 30
0.0
  9
$UCSXDIR
 10
1.0
 20
0.0
 30
0.0
  9
$UCSYDIR
 10
0.0
 20
1.0
 30
0.0
  9
$PUCSNAME
  2

  9
$PUCSORG
 10
0.0
 20
0.0
 30
0.0
  9
$PUCSXDIR
 10
1.0
 20
0.0
 30
0.0
  9
$PUCSYDIR
 10
0.0
 20
1.0
 30
0.0
  9
$USERI1
 70
     0
  9
$USERI2
 70
     0
  9
$USERI3
 70
     0
  9
$USERI4
 70
     0
  9
$USERI5
 70
     0
  9
$USERR1
 40
0.0
  9
$USERR2
 40
0.0
  9
$USERR3
 40
0.0
  9
$USERR4
 40
0.0
  9
$USERR5
 40
0.0
  9
$WORLDVIEW
 70
     1
  9
$SHADEDGE
 70
     3
  9
$SHADEDIF
 70
    70
  9
$TILEMODE
 70
     1
  9
$MAXACTVP
 70
    16
  9
$PLIMCHECK
 70
     0
  9
$PEXTMIN
 10
-1.452248
 20
-0.437698
 30
0.0
  9
$PEXTMAX
 10
12.749749
 20
8.310198
 30
0.0
  9
$PLIMMIN
 10
0.0
 20
0.0
  9
$PLIMMAX
 10
12.0
 20
9.0
  9
$UNITMODE
 70
     0
  9
$VISRETAIN
 70
     0
  9
$PLINEGEN
 70
     0
  9
$PSLTSCALE
 70
     0
  0
ENDSEC
  0
SECTION
  2
TABLES
  0
TABLE
  2
VPORT
 70
     2
  0
VPORT
  2
*ACTIVE
 70
     0
 10
0.0
 20
0.0
 11
1.0
 21
1.0
 12
1247.480945
 22
125.678702
 13
0.0
 23
0.0
 14
1.0
 24
1.0
 15
10.0
 25
10.0
 16
0.0
 26
0.0
 36
1.0
 17
0.0
 27
0.0
 37
0.0
 40
230.56649
 41
1.466346
 42
50.0
 43
0.0
 44
0.0
 50
0.0
 51
0.0
 71
     0
 72
   100
 73
     1
 74
     0
 75
     0
 76
     0
 77
     0
 78
     0
  0
ENDTAB
  0
TABLE
  2
LTYPE
 70
     3
  0
LTYPE
  2
CONTINUOUS
 70
     0
  3
Solid line
 72
    65
 73
     0
 40
0.0
  0
LTYPE
  2
AXES2
 70
     0
  3
___ _ ___ _ ___ _ ___ _ ___ _ ___ _ ___ _ ___ _
 72
    65
 73
     4
 40
1.125
 49
0.75
 49
-0.125
 49
0.125
 49
-0.125
  0
LTYPE
  2
CACHE2
 70
     0
  3
Caché (x.5) _ _ _ _ _ _ _ _ _ _ _ _ _ _ _ _ _
 72
    65
 73
     2
 40
0.1875
 49
0.125
 49
-0.0625
  0
ENDTAB
  0
TABLE
  2
LAYER
 70
     6
  0
LAYER
  2
0
 70
     0
 62
   255
  6
CONTINUOUS
  0
LAYER
  2
COTATION1
 70
     0
 62
     2
  6
CONTINUOUS
  0
LAYER
  2
AXE
 70
     0
 62
    80
  6
AXES2
  0
LAYER
  2
DEFPOINTS
 70
     0
 62
     7
  6
CONTINUOUS
  0
LAYER
  2
ALPHA
 70
     0
 62
   254
  6
CONTINUOUS
  0
LAYER
  2
POINTILLE_COURT
 70
     0
 62
    41
  6
CACHE2
  0
ENDTAB
  0
TABLE
  2
STYLE
 70
     2
  0
STYLE
  2
ROMANS
 70
     0
 40
0.0
 41
1.0
 50
0.0
 71
     0
 42
6.0
  3
romans
  4

  0
STYLE
  2
STANDARD
 70
     0
 40
0.2
 41
1.0
 50
0.0
 71
     0
 42
0.2
  3
txt
  4

  0
ENDTAB
  0
TABLE
  2
VIEW
 70
     0
  0
ENDTAB
  0
TABLE
  2
UCS
 70
     0
  0
ENDTAB
  0
TABLE
  2
APPID
 70
     1
  0
APPID
  2
ACAD
 70
     0
  0
ENDTAB
  0
TABLE
  2
DIMSTYLE
 70
     1
  0
DIMSTYLE
  2
SC_DEFAUT
 70
     0
  3

  4

  5
OPEN30
  6

  7

 40
1.0
 41
5.0
 42
2.0
 43
0.38
 44
2.5
 45
0.0
 46
0.0
 47
0.0
 48
0.0
140
2.5
141
0.0
142
0.0
143
25.4
144
1.0
145
0.0
146
1.0
147
2.0
 71
     0
 72
     0
 73
     1
 74
     1
 75
     0
 76
     0
 77
     1
 78
    12
170
     0
171
     2
172
     0
173
     0
174
     0
175
     0
176
     0
177
     0
178
     0
  0
ENDTAB
  0
ENDSEC
  0
SECTION
  2
BLOCKS
  0
BLOCK
  8
0
  2
$MODEL_SPACE
 70
     0
 10
0.0
 20
0.0
 30
0.0
  3
$MODEL_SPACE
  1

  0
ENDBLK
  5
7E08
  8
0
  0
BLOCK
 67
     1
  8
0
  2
$PAPER_SPACE
 70
     0
 10
0.0
 20
0.0
 30
0.0
  3
$PAPER_SPACE
  1

  0
ENDBLK
  5
7E06
 67
     1
  8
0
  0
BLOCK
  8
0
  2
COTE
 70
     0
 10
0.0
 20
0.0
 30
0.0
  3
COTE
  1

  0
ENDBLK
  5
F
  8
0
  0
BLOCK
  8
0
  2
FOND
 70
     0
 10
0.0
 20
0.0
 30
0.0
  3
FOND
  1

  0
ENDBLK
  5
75
  8
0
  0
BLOCK
  8
0
  2
_OPEN30
 70
     0
 10
0.0
 20
0.0
 30
0.0
  3
_OPEN30
  1

  0
LINE
  5
4B05
  8
COTATION1
 62
     0
 10
-1.0
 20
0.267949
 30
0.0
 11
0.0
 21
0.0
 31
0.0
1001
ACAD
1000
RTLwPs
1070
   158
  0
LINE
  5
4B06
  8
COTATION1
 62
     0
 10
0.0
 20
0.0
 30
0.0
 11
-1.0
 21
-0.267949
 31
0.0
1001
ACAD
1000
RTLwPs
1070
   158
  0
LINE
  5
4B07
  8
COTATION1
 62
     0
 10
0.0
 20
0.0
 30
0.0
 11
-1.0
 21
0.0
 31
0.0
1001
ACAD
1000
RTLwPs
1070
   158
  0
ENDBLK
  5
4B09
  8
0
  0
BLOCK
  8
0
  2
*D3
 70
     1
 10
0.0
 20
0.0
 30
0.0
  3
*D3
  1

  0
LINE
  5
7C98
  8
COTATION1
 62
     0
 10
1225.930729
 20
116.878457
 30
0.0
 11
1225.930729
 21
238.136379
 31
0.0
1001
ACAD
1000
RTLwPs
1070
   158
  0
LINE
  5
7C99
  8
COTATION1
 62
     0
 10
1247.930729
 20
116.878457
 30
0.0
 11
1247.930729
 21
238.136379
 31
0.0
1001
ACAD
1000
RTLwPs
1070
   158
  0
LINE
  5
7C9A
  8
COTATION1
 62
     0
 10
1230.930729
 20
235.636379
 30
0.0
 11
1242.930729
 21
235.636379
 31
0.0
1001
ACAD
1000
RTLwPs
1070
   158
  0
INSERT
  5
7C9B
  8
COTATION1
 62
     0
  2
_OPEN30
 10
1225.930729
 20
235.636379
 30
0.0
 41
5.0
 42
5.0
 43
5.0
 50
180.0
1001
ACAD
1000
RTLwPs
1070
   158
  0
INSERT
  5
7C9C
  8
COTATION1
 62
     0
  2
_OPEN30
 10
1247.930729
 20
235.636379
 30
0.0
 41
5.0
 42
5.0
 43
5.0
1001
ACAD
1000
RTLwPs
1070
   158
  0
TEXT
  5
7C9D
  8
COTATION1
 62
     0
 10
1234.549776
 20
237.636379
 30
0.0
 40
2.5
  1
22
1001
ACAD
1000
MTEXTBEGIN
1070
    73
1070
     1
1070
    44
1040
1.0
1070
    74
1070
     0
1000
MTEXTEND
  0
POINT
  5
7C9E
  8
DEFPOINTS
 62
     0
 10
1225.930729
 20
114.878457
 30
0.0
  0
POINT
  5
7C9F
  8
DEFPOINTS
 62
     0
 10
1247.930729
 20
114.878457
 30
0.0
  0
POINT
  5
7CA0
  8
DEFPOINTS
 62
     0
 10
1247.930729
 20
235.636379
 30
0.0
  0
ENDBLK
  5
77D4
  8
0
  0
BLOCK
  8
0
  2
*D4
 70
     1
 10
0.0
 20
0.0
 30
0.0
  3
*D4
  1

  0
LINE
  5
7C8F
  8
COTATION1
 62
     0
 10
1226.930729
 20
114.878457
 30
0.0
 11
1226.930729
 21
227.385866
 31
0.0
1001
ACAD
1000
RTLwPs
1070
   158
  0
LINE
  5
7C90
  8
COTATION1
 62
     0
 10
1246.930729
 20
114.878457
 30
0.0
 11
1246.930729
 21
227.385866
 31
0.0
1001
ACAD
1000
RTLwPs
1070
   158
  0
LINE
  5
7C91
  8
COTATION1
 62
     0
 10
1231.930729
 20
224.885866
 30
0.0
 11
1241.930729
 21
224.885866
 31
0.0
1001
ACAD
1000
RTLwPs
1070
   158
  0
INSERT
  5
7C92
  8
COTATION1
 62
     0
  2
_OPEN30
 10
1226.930729
 20
224.885866
 30
0.0
 41
5.0
 42
5.0
 43
5.0
 50
180.0
1001
ACAD
1000
RTLwPs
1070
   158
  0
INSERT
  5
7C93
  8
COTATION1
 62
     0
  2
_OPEN30
 10
1246.930729
 20
224.885866
 30
0.0
 41
5.0
 42
5.0
 43
5.0
1001
ACAD
1000
RTLwPs
1070
   158
  0
TEXT
  5
7C94
  8
COTATION1
 62
     0
 10
1234.549776
 20
226.885866
 30
0.0
 40
2.5
  1
20
1001
ACAD
1000
MTEXTBEGIN
1070
    73
1070
     1
1070
    44
1040
1.0
1070
    74
1070
     0
1000
MTEXTEND
  0
POINT
  5
7C95
  8
DEFPOINTS
 62
     0
 10
1226.930729
 20
112.878457
 30
0.0
  0
POINT
  5
7C96
  8
DEFPOINTS
 62
     0
 10
1246.930729
 20
112.878457
 30
0.0
  0
POINT
  5
7C97
  8
DEFPOINTS
 62
     0
 10
1246.930729
 20
224.885866
 30
0.0
  0
ENDBLK
  5
77E0
  8
0
  0
BLOCK
  8
0
  2
*D5
 70
     1
 10
0.0
 20
0.0
 30
0.0
  3
*D5
  1

  0
LINE
  5
799F
  8
COTATION1
 62
     0
 10
1197.162921
 20
39.515317
 30
0.0
 11
1207.496255
 21
39.515317
 31
0.0
1001
ACAD
1000
RTLwPs
1070
   158
  0
LINE
  5
79A0
  8
COTATION1
 62
     0
 10
1207.496255
 20
39.515317
 30
0.0
 11
1222.632023
 21
53.344118
 31
0.0
1001
ACAD
1000
RTLwPs
1070
   158
  0
TEXT
  5
79A1
  8
COTATION1
 62
     0
 10
1196.805778
 20
41.515317
 30
0.0
 40
2.5
  1
2x%%c3
1001
ACAD
1000
MTEXTBEGIN
1070
    73
1070
     1
1070
    44
1040
1.0
1070
    74
1070
     0
1000
MTEXTEND
  0
INSERT
  5
79A2
  8
COTATION1
 62
     0
  2
_OPEN30
 10
1226.323335
 20
56.716687
 30
0.0
 41
5.0
 42
5.0
 43
5.0
 50
42.416396
1001
ACAD
1000
RTLwPs
1070
   158
  0
POINT
  5
79A3
  8
DEFPOINTS
 62
     0
 10
1226.323335
 20
56.716687
 30
0.0
  0
POINT
  5
79A4
  8
DEFPOINTS
 62
     0
 10
1228.538122
 20
58.740228
 30
0.0
  0
ENDBLK
  5
78A2
  8
0
  0
BLOCK
  8
0
  2
*D6
 70
     1
 10
0.0
 20
0.0
 30
0.0
  3
*D6
  1

  0
LINE
  5
79A5
  8
COTATION1
 62
     0
 10
1227.430729
 20
51.228457
 30
0.0
 11
1227.430729
 21
21.228457
 31
0.0
1001
ACAD
1000
RTLwPs
1070
   158
  0
LINE
  5
79A6
  8
COTATION1
 62
     0
 10
1246.430729
 20
51.228457
 30
0.0
 11
1246.430729
 21
21.228457
 31
0.0
1001
ACAD
1000
RTLwPs
1070
   158
  0
LINE
  5
79A7
  8
COTATION1
 62
     0
 10
1232.430729
 20
23.728457
 30
0.0
 11
1241.430729
 21
23.728457
 31
0.0
1001
ACAD
1000
RTLwPs
1070
   158
  0
INSERT
  5
79A8
  8
COTATION1
 62
     0
  2
_OPEN30
 10
1227.430729
 20
23.728457
 30
0.0
 41
5.0
 42
5.0
 43
5.0
 50
180.0
1001
ACAD
1000
RTLwPs
1070
   158
  0
INSERT
  5
79A9
  8
COTATION1
 62
     0
  2
_OPEN30
 10
1246.430729
 20
23.728457
 30
0.0
 41
5.0
 42
5.0
 43
5.0
1001
ACAD
1000
RTLwPs
1070
   158
  0
TEXT
  5
79AA
  8
COTATION1
 62
     0
 10
1234.430729
 20
25.728457
 30
0.0
 40
2.5
  1
19
1001
ACAD
1000
MTEXTBEGIN
1070
    73
1070
     1
1070
    44
1040
1.0
1070
    74
1070
     0
1000
MTEXTEND
  0
POINT
  5
79AB
  8
DEFPOINTS
 62
     0
 10
1227.430729
 20
53.228457
 30
0.0
  0
POINT
  5
79AC
  8
DEFPOINTS
 62
     0
 10
1246.430729
 20
53.228457
 30
0.0
  0
POINT
  5
79AD
  8
DEFPOINTS
 62
     0
 10
1246.430729
 20
23.728457
 30
0.0
  0
ENDBLK
  5
78AE
  8
0
  0
BLOCK
  8
0
  2
*D7
 70
     1
 10
0.0
 20
0.0
 30
0.0
  3
*D7
  1

  0
LINE
  5
79AE
  8
COTATION1
 62
     0
 10
1253.080729
 20
108.728457
 30
0.0
 11
1288.441108
 21
108.728457
 31
0.0
1001
ACAD
1000
RTLwPs
1070
   158
  0
LINE
  5
79AF
  8
COTATION1
 62
     0
 10
1252.930729
 20
57.728457
 30
0.0
 11
1288.441108
 21
57.728457
 31
0.0
1001
ACAD
1000
RTLwPs
1070
   158
  0
LINE
  5
79B0
  8
COTATION1
 62
     0
 10
1285.941108
 20
103.728457
 30
0.0
 11
1285.941108
 21
86.478457
 31
0.0
1001
ACAD
1000
RTLwPs
1070
   158
  0
LINE
  5
79B1
  8
COTATION1
 62
     0
 10
1285.941108
 20
62.728457
 30
0.0
 11
1285.941108
 21
79.978457
 31
0.0
1001
ACAD
1000
RTLwPs
1070
   158
  0
INSERT
  5
79B2
  8
COTATION1
 62
     0
  2
_OPEN30
 10
1285.941108
 20
108.728457
 30
0.0
 41
5.0
 42
5.0
 43
5.0
 50
90.0
1001
ACAD
1000
RTLwPs
1070
   158
  0
INSERT
  5
79B3
  8
COTATION1
 62
     0
  2
_OPEN30
 10
1285.941108
 20
57.728457
 30
0.0
 41
5.0
 42
5.0
 43
5.0
 50
270.0
1001
ACAD
1000
RTLwPs
1070
   158
  0
TEXT
  5
79B4
  8
COTATION1
 62
     0
 10
1283.917299
 20
81.978457
 30
0.0
 40
2.5
  1
51
1001
ACAD
1000
MTEXTBEGIN
1070
    73
1070
     1
1070
    44
1040
1.0
1070
    74
1070
     0
1000
MTEXTEND
  0
POINT
  5
79B5
  8
DEFPOINTS
 62
     0
 10
1251.080729
 20
108.728457
 30
0.0
  0
POINT
  5
79B6
  8
DEFPOINTS
 62
     0
 10
1250.930729
 20
57.728457
 30
0.0
  0
POINT
  5
79B7
  8
DEFPOINTS
 62
     0
 10
1285.941108
 20
57.728457
 30
0.0
  0
ENDBLK
  5
78BB
  8
0
  0
BLOCK
  8
0
  2
*D8
 70
     1
 10
0.0
 20
0.0
 30
0.0
  3
*D8
  1

  0
LINE
  5
79B8
  8
COTATION1
 62
     0
 10
1238.930729
 20
118.728457
 30
0.0
 11
1288.441108
 21
118.728457
 31
0.0
1001
ACAD
1000
RTLwPs
1070
   158
  0
LINE
  5
79B9
  8
COTATION1
 62
     0
 10
1253.080729
 20
108.728457
 30
0.0
 11
1288.441108
 21
108.728457
 31
0.0
1001
ACAD
1000
RTLwPs
1070
   158
  0
LINE
  5
79BA
  8
COTATION1
 62
     0
 10
1285.941108
 20
123.728457
 30
0.0
 11
1285.941108
 21
128.728457
 31
0.0
1001
ACAD
1000
RTLwPs
1070
   158
  0
LINE
  5
79BB
  8
COTATION1
 62
     0
 10
1285.941108
 20
103.728457
 30
0.0
 11
1285.941108
 21
98.728457
 31
0.0
1001
ACAD
1000
RTLwPs
1070
   158
  0
INSERT
  5
79BC
  8
COTATION1
 62
     0
  2
_OPEN30
 10
1285.941108
 20
118.728457
 30
0.0
 41
5.0
 42
5.0
 43
5.0
 50
270.0
1001
ACAD
1000
RTLwPs
1070
   158
  0
INSERT
  5
79BD
  8
COTATION1
 62
     0
  2
_OPEN30
 10
1285.941108
 20
108.728457
 30
0.0
 41
5.0
 42
5.0
 43
5.0
 50
90.0
1001
ACAD
1000
RTLwPs
1070
   158
  0
TEXT
  5
79BE
  8
COTATION1
 62
     0
 10
1283.381585
 20
112.478457
 30
0.0
 40
2.5
  1
10
1001
ACAD
1000
MTEXTBEGIN
1070
    73
1070
     1
1070
    44
1040
1.0
1070
    74
1070
     0
1000
MTEXTEND
  0
POINT
  5
79BF
  8
DEFPOINTS
 62
     0
 10
1236.930729
 20
118.728457
 30
0.0
  0
POINT
  5
79C0
  8
DEFPOINTS
 62
     0
 10
1251.080729
 20
108.728457
 30
0.0
  0
POINT
  5
79C1
  8
DEFPOINTS
 62
     0
 10
1285.941108
 20
108.728457
 30
0.0
  0
ENDBLK
  5
78C8
  8
0
  0
BLOCK
  8
0
  2
*D9
 70
     1
 10
0.0
 20
0.0
 30
0.0
  3
*D9
  1

  0
LINE
  5
7D96
  8
COTATION1
 62
     0
 10
1254.080729
 20
110.728457
 30
0.0
 11
1278.441108
 21
110.728457
 31
0.0
  0
LINE
  5
7D97
  8
COTATION1
 62
     0
 10
1253.080729
 20
108.728457
 30
0.0
 11
1278.441108
 21
108.728457
 31
0.0
  0
LINE
  5
7D98
  8
COTATION1
 62
     0
 10
1275.941108
 20
115.728457
 30
0.0
 11
1275.941108
 21
120.728457
 31
0.0
  0
LINE
  5
7D99
  8
COTATION1
 62
     0
 10
1275.941108
 20
103.728457
 30
0.0
 11
1275.941108
 21
98.728457
 31
0.0
  0
TEXT
  5
7D9A
  8
COTATION1
 62
     0
 10
1271.917299
 20
98.926735
 30
0.0
 40
2.5
  1
2
  0
INSERT
  5
7D9B
  8
COTATION1
 62
     0
  2
_OPEN30
 10
1275.941108
 20
110.728457
 30
0.0
 41
5.0
 42
5.0
 43
5.0
 50
270.0
  0
INSERT
  5
7D9C
  8
COTATION1
 62
     0
  2
_OPEN30
 10
1275.941108
 20
108.728457
 30
0.0
 41
5.0
 42
5.0
 43
5.0
 50
90.0
  0
POINT
  5
7D9D
  8
DEFPOINTS
 62
     0
 10
1252.080729
 20
110.728457
 30
0.0
  0
POINT
  5
7D9E
  8
DEFPOINTS
 62
     0
 10
1251.080729
 20
108.728457
 30
0.0
  0
POINT
  5
7D9F
  8
DEFPOINTS
 62
     0
 10
1275.941108
 20
108.728457
 30
0.0
  0
ENDBLK
  5
78D5
  8
0
  0
BLOCK
  8
0
  2
*D10
 70
     1
 10
0.0
 20
0.0
 30
0.0
  3
*D10
  1

  0
LINE
  5
7933
  8
COTATION1
 62
     0
 10
1289.898181
 20
131.761246
 30
0.0
 11
1268.017229
 21
131.761246
 31
0.0
1001
ACAD
1000
RTLwPs
1070
   158
  0
LINE
  5
7934
  8
COTATION1
 62
     0
 10
1268.017229
 20
131.761246
 30
0.0
 11
1252.868884
 21
115.899252
 31
0.0
1001
ACAD
1000
RTLwPs
1070
   158
  0
TEXT
  5
7935
  8
COTATION1
 62
     0
 10
1269.660086
 20
133.761246
 30
0.0
 40
2.5
  1
2x%%c4.3x6.3
1001
ACAD
1000
MTEXTBEGIN
1070
    73
1070
     1
1070
    44
1040
1.0
1070
    74
1070
     0
1000
MTEXTEND
  0
INSERT
  5
7936
  8
COTATION1
 62
     0
  2
_OPEN30
 10
1249.415628
 20
112.283312
 30
0.0
 41
5.0
 42
5.0
 43
5.0
 50
226.318329
1001
ACAD
1000
RTLwPs
1070
   158
  0
POINT
  5
7937
  8
DEFPOINTS
 62
     0
 10
1249.415628
 20
112.283312
 30
0.0
  0
POINT
  5
7938
  8
DEFPOINTS
 62
     0
 10
1246.445829
 20
109.173603
 30
0.0
  0
ENDBLK
  5
793A
  8
0
  0
BLOCK
  8
0
  2
*D11
 70
     1
 10
0.0
 20
0.0
 30
0.0
  3
*D11
  1

  0
LINE
  5
7D56
  8
COTATION1
 62
     0
 10
1238.930729
 20
207.228457
 30
0.0
 11
1309.930729
 21
207.228457
 31
0.0
1001
ACAD
1000
RTLwPs
1070
   158
  0
LINE
  5
7D57
  8
COTATION1
 62
     0
 10
1249.780729
 20
50.228457
 30
0.0
 11
1309.930729
 21
50.228457
 31
0.0
1001
ACAD
1000
RTLwPs
1070
   158
  0
LINE
  5
7D58
  8
COTATION1
 62
     0
 10
1307.430729
 20
202.228457
 30
0.0
 11
1307.430729
 21
131.978457
 31
0.0
1001
ACAD
1000
RTLwPs
1070
   158
  0
LINE
  5
7D59
  8
COTATION1
 62
     0
 10
1307.430729
 20
55.228457
 30
0.0
 11
1307.430729
 21
125.478457
 31
0.0
1001
ACAD
1000
RTLwPs
1070
   158
  0
INSERT
  5
7D5A
  8
COTATION1
 62
     0
  2
_OPEN30
 10
1307.430729
 20
207.228457
 30
0.0
 41
5.0
 42
5.0
 43
5.0
 50
90.0
1001
ACAD
1000
RTLwPs
1070
   158
  0
INSERT
  5
7D5B
  8
COTATION1
 62
     0
  2
_OPEN30
 10
1307.430729
 20
50.228457
 30
0.0
 41
5.0
 42
5.0
 43
5.0
 50
270.0
1001
ACAD
1000
RTLwPs
1070
   158
  0
TEXT
  5
7D5C
  8
COTATION1
 62
     0
 10
1296.537871
 20
127.478457
 30
0.0
 40
2.5
  1
132...178.5
1001
ACAD
1000
MTEXTBEGIN
1070
    73
1070
     1
1070
    44
1040
1.0
1070
    74
1070
     0
1000
MTEXTEND
  0
POINT
  5
7D5D
  8
DEFPOINTS
 62
     0
 10
1236.930729
 20
207.228457
 30
0.0
  0
POINT
  5
7D5E
  8
DEFPOINTS
 62
     0
 10
1247.780729
 20
50.228457
 30
0.0
  0
POINT
  5
7D5F
  8
DEFPOINTS
 62
     0
 10
1307.430729
 20
50.228457
 30
0.0
  0
ENDBLK
  5
7947
  8
0
  0
BLOCK
  8
0
  2
*D12
 70
     1
 10
0.0
 20
0.0
 30
0.0
  3
*D12
  1

  0
LINE
  5
7949
  8
COTATION1
 62
     0
 10
1271.654579
 20
71.92229
 30
0.0
 11
1257.749817
 21
71.92229
 31
0.0
1001
ACAD
1000
RTLwPs
1070
   158
  0
LINE
  5
794A
  8
COTATION1
 62
     0
 10
1257.749817
 20
71.92229
 30
0.0
 11
1231.52098
 21
103.246479
 31
0.0
1001
ACAD
1000
RTLwPs
1070
   158
  0
TEXT
  5
794B
  8
COTATION1
 62
     0
 10
1259.392674
 20
73.92229
 30
0.0
 40
2.5
  1
2x%%c4.3
1001
ACAD
1000
MTEXTBEGIN
1070
    73
1070
     1
1070
    44
1040
1.0
1070
    74
1070
     0
1000
MTEXTEND
  0
INSERT
  5
794C
  8
COTATION1
 62
     0
  2
_OPEN30
 10
1228.311014
 20
107.08003
 30
0.0
 41
5.0
 42
5.0
 43
5.0
 50
129.940614
1001
ACAD
1000
RTLwPs
1070
   158
  0
POINT
  5
794D
  8
DEFPOINTS
 62
     0
 10
1228.311014
 20
107.08003
 30
0.0
  0
POINT
  5
794E
  8
DEFPOINTS
 62
     0
 10
1225.550443
 20
110.376884
 30
0.0
  0
ENDBLK
  5
7950
  8
0
  0
BLOCK
  8
0
  2
*D13
 70
     1
 10
0.0
 20
0.0
 30
0.0
  3
*D13
  1

  0
LINE
  5
7952
  8
COTATION1
 62
     0
 10
1221.430729
 20
51.728457
 30
0.0
 11
1221.430729
 21
11.228457
 31
0.0
1001
ACAD
1000
RTLwPs
1070
   158
  0
LINE
  5
7953
  8
COTATION1
 62
     0
 10
1252.430729
 20
51.728457
 30
0.0
 11
1252.430729
 21
11.228457
 31
0.0
1001
ACAD
1000
RTLwPs
1070
   158
  0
LINE
  5
7954
  8
COTATION1
 62
     0
 10
1226.430729
 20
13.728457
 30
0.0
 11
1247.430729
 21
13.728457
 31
0.0
1001
ACAD
1000
RTLwPs
1070
   158
  0
INSERT
  5
7955
  8
COTATION1
 62
     0
  2
_OPEN30
 10
1221.430729
 20
13.728457
 30
0.0
 41
5.0
 42
5.0
 43
5.0
 50
180.0
1001
ACAD
1000
RTLwPs
1070
   158
  0
INSERT
  5
7956
  8
COTATION1
 62
     0
  2
_OPEN30
 10
1252.430729
 20
13.728457
 30
0.0
 41
5.0
 42
5.0
 43
5.0
1001
ACAD
1000
RTLwPs
1070
   158
  0
TEXT
  5
7957
  8
COTATION1
 62
     0
 10
1234.906919
 20
15.728457
 30
0.0
 40
2.5
  1
31
1001
ACAD
1000
MTEXTBEGIN
1070
    73
1070
     1
1070
    44
1040
1.0
1070
    74
1070
     0
1000
MTEXTEND
  0
POINT
  5
7958
  8
DEFPOINTS
 62
     0
 10
1221.430729
 20
53.728457
 30
0.0
  0
POINT
  5
7959
  8
DEFPOINTS
 62
     0
 10
1252.430729
 20
53.728457
 30
0.0
  0
POINT
  5
795A
  8
DEFPOINTS
 62
     0
 10
1252.430729
 20
13.728457
 30
0.0
  0
ENDBLK
  5
795C
  8
0
  0
BLOCK
  8
0
  2
*D14
 70
     1
 10
0.0
 20
0.0
 30
0.0
  3
*D14
  1

  0
LINE
  5
7BA7
  8
COTATION1
 62
     0
 10
1234.930729
 20
207.228457
 30
0.0
 11
1184.021763
 21
207.228457
 31
0.0
1001
ACAD
1000
RTLwPs
1070
   158
  0
LINE
  5
7BA8
  8
COTATION1
 62
     0
 10
1220.780729
 20
108.728457
 30
0.0
 11
1184.021763
 21
108.728457
 31
0.0
1001
ACAD
1000
RTLwPs
1070
   158
  0
LINE
  5
7BA9
  8
COTATION1
 62
     0
 10
1186.521763
 20
202.228457
 30
0.0
 11
1186.521763
 21
164.478457
 31
0.0
1001
ACAD
1000
RTLwPs
1070
   158
  0
LINE
  5
7BAA
  8
COTATION1
 62
     0
 10
1186.521763
 20
113.728457
 30
0.0
 11
1186.521763
 21
157.978457
 31
0.0
1001
ACAD
1000
RTLwPs
1070
   158
  0
INSERT
  5
7BAB
  8
COTATION1
 62
     0
  2
_OPEN30
 10
1186.521763
 20
207.228457
 30
0.0
 41
5.0
 42
5.0
 43
5.0
 50
90.0
1001
ACAD
1000
RTLwPs
1070
   158
  0
INSERT
  5
7BAC
  8
COTATION1
 62
     0
  2
_OPEN30
 10
1186.521763
 20
108.728457
 30
0.0
 41
5.0
 42
5.0
 43
5.0
 50
270.0
1001
ACAD
1000
RTLwPs
1070
   158
  0
TEXT
  5
7BAD
  8
COTATION1
 62
     0
 10
1176.997954
 20
159.978457
 30
0.0
 40
2.5
  1
73.5...120
1001
ACAD
1000
MTEXTBEGIN
1070
    73
1070
     1
1070
    44
1040
1.0
1070
    74
1070
     0
1000
MTEXTEND
  0
POINT
  5
7BAE
  8
DEFPOINTS
 62
     0
 10
1236.930729
 20
207.228457
 30
0.0
  0
POINT
  5
7BAF
  8
DEFPOINTS
 62
     0
 10
1222.780729
 20
108.728457
 30
0.0
  0
POINT
  5
7BB0
  8
DEFPOINTS
 62
     0
 10
1186.521763
 20
108.728457
 30
0.0
  0
ENDBLK
  5
7969
  8
0
  0
BLOCK
  8
0
  2
*D15
 70
     1
 10
0.0
 20
0.0
 30
0.0
  3
*D15
  1

  0
LINE
  5
796B
  8
COTATION1
 62
     0
 10
1228.930729
 20
130.228457
 30
0.0
 11
1228.930729
 21
145.180199
 31
0.0
1001
ACAD
1000
RTLwPs
1070
   158
  0
LINE
  5
796C
  8
COTATION1
 62
     0
 10
1244.930729
 20
130.228457
 30
0.0
 11
1244.930729
 21
145.180199
 31
0.0
1001
ACAD
1000
RTLwPs
1070
   158
  0
LINE
  5
796D
  8
COTATION1
 62
     0
 10
1239.930729
 20
142.680199
 30
0.0
 11
1233.930729
 21
142.680199
 31
0.0
1001
ACAD
1000
RTLwPs
1070
   158
  0
LINE
  5
796E
  8
COTATION1
 62
     0
 10
1228.930729
 20
142.680199
 30
0.0
 11
1214.600209
 21
142.680199
 31
0.0
1001
ACAD
1000
RTLwPs
1070
   158
  0
INSERT
  5
796F
  8
COTATION1
 62
     0
  2
_OPEN30
 10
1244.930729
 20
142.680199
 30
0.0
 41
5.0
 42
5.0
 43
5.0
1001
ACAD
1000
RTLwPs
1070
   158
  0
INSERT
  5
7970
  8
COTATION1
 62
     0
  2
_OPEN30
 10
1228.930729
 20
142.680199
 30
0.0
 41
5.0
 42
5.0
 43
5.0
 50
180.0
1001
ACAD
1000
RTLwPs
1070
   158
  0
TEXT
  5
7971
  8
COTATION1
 62
     0
 10
1215.885924
 20
144.680199
 30
0.0
 40
2.5
  1
16
1001
ACAD
1000
MTEXTBEGIN
1070
    73
1070
     1
1070
    44
1040
1.0
1070
    74
1070
     0
1000
MTEXTEND
  0
POINT
  5
7972
  8
DEFPOINTS
 62
     0
 10
1228.930729
 20
128.228457
 30
0.0
  0
POINT
  5
7973
  8
DEFPOINTS
 62
     0
 10
1244.930729
 20
128.228457
 30
0.0
  0
POINT
  5
7974
  8
DEFPOINTS
 62
     0
 10
1244.930729
 20
142.680199
 30
0.0
  0
ENDBLK
  5
7976
  8
0
  0
BLOCK
  8
0
  2
*D16
 70
     1
 10
0.0
 20
0.0
 30
0.0
  3
*D16
  1

  0
LINE
  5
7C85
  8
COTATION1
 62
     0
 10
1234.930729
 20
207.228457
 30
0.0
 11
1198.736394
 21
207.228457
 31
0.0
1001
ACAD
1000
RTLwPs
1070
   158
  0
LINE
  5
7C86
  8
COTATION1
 62
     0
 10
1223.930729
 20
128.228457
 30
0.0
 11
1198.736394
 21
128.228457
 31
0.0
1001
ACAD
1000
RTLwPs
1070
   158
  0
LINE
  5
7C87
  8
COTATION1
 62
     0
 10
1201.236394
 20
202.228457
 30
0.0
 11
1201.236394
 21
155.228457
 31
0.0
1001
ACAD
1000
RTLwPs
1070
   158
  0
LINE
  5
7C88
  8
COTATION1
 62
     0
 10
1201.236394
 20
133.228457
 30
0.0
 11
1201.236394
 21
148.728457
 31
0.0
1001
ACAD
1000
RTLwPs
1070
   158
  0
INSERT
  5
7C89
  8
COTATION1
 62
     0
  2
_OPEN30
 10
1201.236394
 20
207.228457
 30
0.0
 41
5.0
 42
5.0
 43
5.0
 50
90.0
1001
ACAD
1000
RTLwPs
1070
   158
  0
INSERT
  5
7C8A
  8
COTATION1
 62
     0
  2
_OPEN30
 10
1201.236394
 20
128.228457
 30
0.0
 41
5.0
 42
5.0
 43
5.0
 50
270.0
1001
ACAD
1000
RTLwPs
1070
   158
  0
TEXT
  5
7C8B
  8
COTATION1
 62
     0
 10
1191.712584
 20
150.728457
 30
0.0
 40
2.5
  1
54...100.5
1001
ACAD
1000
MTEXTBEGIN
1070
    73
1070
     1
1070
    44
1040
1.0
1070
    74
1070
     0
1000
MTEXTEND
  0
POINT
  5
7C8C
  8
DEFPOINTS
 62
     0
 10
1236.930729
 20
207.228457
 30
0.0
  0
POINT
  5
7C8D
  8
DEFPOINTS
 62
     0
 10
1225.930729
 20
128.228457
 30
0.0
  0
POINT
  5
7C8E
  8
DEFPOINTS
 62
     0
 10
1201.236394
 20
128.228457
 30
0.0
  0
ENDBLK
  5
7983
  8
0
  0
BLOCK
  8
0
  2
*D17
 70
     1
 10
0.0
 20
0.0
 30
0.0
  3
*D17
  1

  0
LINE
  5
7985
  8
COTATION1
 62
     0
 10
1279.711234
 20
167.463586
 30
0.0
 11
1271.40171
 21
167.463586
 31
0.0
1001
ACAD
1000
RTLwPs
1070
   158
  0
LINE
  5
7986
  8
COTATION1
 62
     0
 10
1271.40171
 20
167.463586
 30
0.0
 11
1264.507514
 21
170.41656
 31
0.0
1001
ACAD
1000
RTLwPs
1070
   158
  0
TEXT
  5
7987
  8
COTATION1
 62
     0
 10
1273.163615
 20
169.463586
 30
0.0
 40
2.5
  1
%%c50
1001
ACAD
1000
MTEXTBEGIN
1070
    73
1070
     1
1070
    44
1040
1.0
1070
    74
1070
     0
1000
MTEXTEND
  0
INSERT
  5
7988
  8
COTATION1
 62
     0
  2
_OPEN30
 10
1259.911383
 20
172.385209
 30
0.0
 41
5.0
 42
5.0
 43
5.0
 50
156.813215
1001
ACAD
1000
RTLwPs
1070
   158
  0
POINT
  5
7989
  8
DEFPOINTS
 62
     0
 10
1259.911383
 20
172.385209
 30
0.0
  0
POINT
  5
798A
  8
DEFPOINTS
 62
     0
 10
1213.950074
 20
192.071705
 30
0.0
  0
ENDBLK
  5
798C
  8
0
  0
ENDSEC
  0
SECTION
  2
ENTITIES
  0
INSERT
  5
A
  8
0
  2
COTE
 10
0.0
 20
0.0
 30
0.0
  0
INSERT
  5
17
  8
0
  2
COTE
 10
284.010391
 20
6.373258
 30
0.0
  0
INSERT
  5
72
  8
0
  2
FOND
 10
0.0
 20
0.0
 30
0.0
  0
LINE
  5
63A2
  8
AXE
 10
1217.430729
 20
86.228457
 30
0.0
 11
1267.430729
 21
86.228457
 31
0.0
  0
DIMENSION
  5
663A
  8
COTATION1
  2
*D10
 10
1246.445829
 20
109.173603
 30
0.0
 11
1279.957705
 21
131.761246
 31
0.0
 70
   131
  1
2x<>x6.3
 15
1249.415628
 25
112.283312
 35
0.0
 40
0.0
1001
ACAD
1000
DSTYLE
1002
{
1070
   288
1070
     1
1002
}
  0
DIMENSION
  5
663B
  8
COTATION1
  2
*D11
 10
1307.430729
 20
50.228457
 30
0.0
 11
1307.430729
 21
128.728457
 31
0.0
  1
132...178.5
 13
1236.930729
 23
207.228457
 33
0.0
 14
1247.780729
 24
50.228457
 34
0.0
 50
90.0
  0
DIMENSION
  5
6646
  8
COTATION1
  2
*D12
 10
1225.550443
 20
110.376884
 30
0.0
 11
1265.702198
 21
71.92229
 31
0.0
 70
   131
  1
2x<>
 15
1228.311014
 25
107.08003
 35
0.0
 40
0.0
1001
ACAD
1000
DSTYLE
1002
{
1070
   288
1070
     1
1002
}
  0
DIMENSION
  5
664A
  8
COTATION1
  2
*D13
 10
1252.430729
 20
13.728457
 30
0.0
 11
1236.930729
 21
16.978457
 31
0.0
 13
1221.430729
 23
53.728457
 33
0.0
 14
1252.430729
 24
53.728457
 34
0.0
  0
LINE
  5
664B
  8
ALPHA
 10
1249.430729
 20
54.728457
 30
0.0
 11
1252.430729
 21
54.728457
 31
0.0
  0
LINE
  5
664C
  8
AXE
 10
1252.080729
 20
110.728457
 30
0.0
 11
1243.780729
 21
110.728457
 31
0.0
  0
LINE
  5
664E
  8
ALPHA
 10
1221.430729
 20
53.728457
 30
0.0
 11
1252.430729
 21
53.728457
 31
0.0
  0
LINE
  5
6662
  8
ALPHA
 10
1221.430729
 20
116.028457
 30
0.0
 11
1221.430729
 21
53.728457
 31
0.0
  0
TEXT
  5
666E
  8
AXE
 10
1229.454538
 20
33.728457
 30
0.0
 40
8.0
  1
Y
 72
     2
 11
1235.930729
 21
33.728457
 31
0.0
  0
LINE
  5
6671
  8
ALPHA
 10
1224.430729
 20
58.780776
 30
0.0
 11
1236.930729
 21
58.780776
 31
0.0
  0
LINE
  5
6672
  8
ALPHA
 10
1225.930729
 20
54.728457
 30
0.0
 11
1247.930729
 21
54.728457
 31
0.0
  0
LINE
  5
6673
  8
ALPHA
 10
1221.430729
 20
54.728457
 30
0.0
 11
1224.430729
 21
54.728457
 31
0.0
  0
LINE
  5
6674
  8
ALPHA
 10
1225.930729
 20
58.780776
 30
0.0
 11
1226.943529
 21
54.728457
 31
0.0
  0
LINE
  5
6675
  8
ALPHA
 10
1224.430729
 20
54.728457
 30
0.0
 11
1224.430729
 21
58.780776
 31
0.0
  0
LINE
  5
6676
  8
ALPHA
 10
1225.930729
 20
54.728457
 30
0.0
 11
1225.930729
 21
58.780776
 31
0.0
  0
LINE
  5
6677
  8
ALPHA
 10
1247.930729
 20
58.780776
 30
0.0
 11
1246.917928
 21
54.728457
 31
0.0
  0
LINE
  5
6678
  8
ALPHA
 10
1247.930729
 20
54.728457
 30
0.0
 11
1247.930729
 21
58.780776
 31
0.0
  0
LINE
  5
6679
  8
ALPHA
 10
1249.430729
 20
54.728457
 30
0.0
 11
1249.430729
 21
58.780776
 31
0.0
  0
LINE
  5
667A
  8
ALPHA
 10
1249.430729
 20
58.780776
 30
0.0
 11
1236.930729
 21
58.780776
 31
0.0
  0
LINE
  5
668B
  8
AXE
 10
1247.930729
 20
106.578457
 30
0.0
 11
1247.930729
 21
114.878457
 31
0.0
  0
LINE
  5
668C
  8
AXE
 10
1246.930729
 20
104.578457
 30
0.0
 11
1246.930729
 21
112.878457
 31
0.0
  0
LINE
  5
668F
  8
AXE
 10
1225.930729
 20
106.578457
 30
0.0
 11
1225.930729
 21
114.878457
 31
0.0
  0
LINE
  5
6690
  8
AXE
 10
1226.930729
 20
104.578457
 30
0.0
 11
1226.930729
 21
112.878457
 31
0.0
  0
LINE
  5
6695
  8
AXE
 10
1222.780729
 20
108.728457
 30
0.0
 11
1231.080729
 21
108.728457
 31
0.0
  0
LINE
  5
66A2
  8
AXE
 10
1251.080729
 20
108.728457
 30
0.0
 11
1242.780729
 21
108.728457
 31
0.0
  0
LINE
  5
66AB
  8
AXE
 10
1221.780729
 20
110.728457
 30
0.0
 11
1230.080729
 21
110.728457
 31
0.0
  0
LINE
  5
66BB
  8
ALPHA
 10
1252.430729
 20
116.028457
 30
0.0
 11
1252.430729
 21
53.728457
 31
0.0
  0
TEXT
  5
66BC
  8
AXE
 10
1260.954538
 20
87.228457
 30
0.0
 40
8.0
  1
X
 72
     2
 11
1267.430729
 21
87.228457
 31
0.0
  0
LINE
  5
71BC
  8
ALPHA
 10
1221.430729
 20
116.028457
 30
0.0
 11
1221.430729
 21
100.728457
 31
0.0
  0
LINE
  5
71D6
  8
AXE
 10
1226.930729
 20
104.578457
 30
0.0
 11
1226.930729
 21
112.878457
 31
0.0
  0
LINE
  5
71F7
  8
ALPHA
 10
1252.430729
 20
116.028457
 30
0.0
 11
1252.430729
 21
100.728457
 31
0.0
  0
LINE
  5
7200
  8
AXE
 10
1246.930729
 20
104.578457
 30
0.0
 11
1246.930729
 21
112.878457
 31
0.0
  0
POLYLINE
  5
749D
  8
ALPHA
 66
     1
 10
0.0
 20
0.0
 30
0.0
 70
   128
  0
VERTEX
  5
7E0E
  8
ALPHA
 10
1228.476134
 20
114.657772
 30
0.0
  0
VERTEX
  5
7E0F
  8
ALPHA
 10
1228.476134
 20
114.968467
 30
0.0
  0
VERTEX
  5
7E10
  8
ALPHA
 10
1228.476134
 20
115.651994
 30
0.0
  0
VERTEX
  5
7E11
  8
ALPHA
 10
1228.476134
 20
116.335521
 30
0.0
  0
VERTEX
  5
7E12
  8
ALPHA
 10
1228.476134
 20
116.646215
 30
0.0
  0
SEQEND
  5
7E13
  8
ALPHA
  0
LINE
  5
749E
  8
ALPHA
 10
1233.801221
 20
112.66713
 30
0.0
 11
1233.430729
 21
112.66713
 31
0.0
  0
LINE
  5
749F
  8
ALPHA
 10
1240.430729
 20
112.66713
 30
0.0
 11
1240.059873
 21
112.66713
 31
0.0
  0
LINE
  5
74A0
  8
ALPHA
 10
1228.930729
 20
114.256592
 30
0.0
 11
1228.476134
 21
114.657772
 31
0.0
  0
POLYLINE
  5
74A1
  8
ALPHA
 66
     1
 10
0.0
 20
0.0
 30
0.0
 70
   128
  0
VERTEX
  5
7E14
  8
ALPHA
 10
1245.399616
 20
116.646215
 30
0.0
  0
VERTEX
  5
7E15
  8
ALPHA
 10
1245.399616
 20
116.248287
 30
0.0
  0
VERTEX
  5
7E16
  8
ALPHA
 10
1245.399616
 20
115.431495
 30
0.0
  0
VERTEX
  5
7E17
  8
ALPHA
 10
1245.399616
 20
114.761327
 30
0.0
  0
VERTEX
  5
7E18
  8
ALPHA
 10
1245.38587
 20
114.643272
 30
0.0
  0
VERTEX
  5
7E19
  8
ALPHA
 10
1244.930729
 20
114.245557
 30
0.0
  0
SEQEND
  5
7E1A
  8
ALPHA
  0
LINE
  5
74A2
  8
ALPHA
 10
1245.373778
 20
104.326884
 30
0.0
 11
1244.930729
 21
104.451106
 31
0.0
  0
POLYLINE
  5
74A3
  8
ALPHA
 66
     1
 10
0.0
 20
0.0
 30
0.0
 70
   128
  0
VERTEX
  5
7E1B
  8
ALPHA
 10
1252.430729
 20
102.014089
 30
0.0
  0
VERTEX
  5
7E1C
  8
ALPHA
 10
1252.00955
 20
102.724008
 30
0.0
  0
VERTEX
  5
7E1D
  8
ALPHA
 10
1251.837541
 20
102.828763
 30
0.0
  0
VERTEX
  5
7E1E
  8
ALPHA
 10
1251.639218
 20
102.907471
 30
0.0
  0
VERTEX
  5
7E1F
  8
ALPHA
 10
1251.214558
 20
103.060118
 30
0.0
  0
VERTEX
  5
7E20
  8
ALPHA
 10
1250.240909
 20
103.359889
 30
0.0
  0
VERTEX
  5
7E21
  8
ALPHA
 10
1247.842525
 20
103.918811
 30
0.0
  0
VERTEX
  5
7E22
  8
ALPHA
 10
1244.930729
 20
104.38831
 30
0.0
  0
SEQEND
  5
7E23
  8
ALPHA
  0
LINE
  5
74A4
  8
ALPHA
 10
1228.476134
 20
116.646215
 30
0.0
 11
1228.930729
 21
116.646215
 31
0.0
  0
LINE
  5
74A5
  8
ALPHA
 10
1228.930729
 20
104.451257
 30
0.0
 11
1228.487679
 21
104.326884
 31
0.0
  0
LINE
  5
74A6
  8
ALPHA
 10
1233.430729
 20
116.646215
 30
0.0
 11
1240.430729
 21
116.646215
 31
0.0
  0
POLYLINE
  5
74A7
  8
ALPHA
 66
     1
 10
0.0
 20
0.0
 30
0.0
 70
   128
  0
VERTEX
  5
7E24
  8
ALPHA
 10
1228.930729
 20
104.388316
 30
0.0
  0
VERTEX
  5
7E25
  8
ALPHA
 10
1226.018825
 20
103.918818
 30
0.0
  0
VERTEX
  5
7E26
  8
ALPHA
 10
1223.620254
 20
103.359895
 30
0.0
  0
VERTEX
  5
7E27
  8
ALPHA
 10
1222.646476
 20
103.060125
 30
0.0
  0
VERTEX
  5
7E28
  8
ALPHA
 10
1222.22174
 20
102.907477
 30
0.0
  0
VERTEX
  5
7E29
  8
ALPHA
 10
1222.023408
 20
102.828763
 30
0.0
  0
VERTEX
  5
7E2A
  8
ALPHA
 10
1221.85146
 20
102.724009
 30
0.0
  0
VERTEX
  5
7E2B
  8
ALPHA
 10
1221.430729
 20
102.014089
 30
0.0
  0
SEQEND
  5
7E2C
  8
ALPHA
  0
LINE
  5
74A8
  8
ALPHA
 10
1240.430729
 20
104.802141
 30
0.0
 11
1233.430729
 21
104.802141
 31
0.0
  0
POLYLINE
  5
74A9
  8
ALPHA
 66
     1
 10
0.0
 20
0.0
 30
0.0
 70
   128
  0
VERTEX
  5
7E2D
  8
ALPHA
 10
1240.430729
 20
112.038512
 30
0.0
  0
VERTEX
  5
7E2E
  8
ALPHA
 10
1238.760956
 20
114.382395
 30
0.0
  0
VERTEX
  5
7E2F
  8
ALPHA
 10
1237.867313
 20
115.067071
 30
0.0
  0
VERTEX
  5
7E30
  8
ALPHA
 10
1236.930971
 20
115.314173
 30
0.0
  0
VERTEX
  5
7E31
  8
ALPHA
 10
1235.994448
 20
115.067314
 30
0.0
  0
VERTEX
  5
7E32
  8
ALPHA
 10
1235.100688
 20
114.382838
 30
0.0
  0
VERTEX
  5
7E33
  8
ALPHA
 10
1233.430729
 20
112.039226
 30
0.0
  0
SEQEND
  5
7E34
  8
ALPHA
  0
LINE
  5
74AA
  8
ALPHA
 10
1244.930729
 20
116.646215
 30
0.0
 11
1245.399616
 21
116.646215
 31
0.0
  0
ARC
  5
74AB
  8
ALPHA
 10
1236.930729
 20
182.228457
 30
0.0
 40
22.5
 50
33.257196
 51
86.742804
  0
LINE
  5
74AC
  8
ALPHA
 10
1256.327509
 20
171.895746
 30
0.0
 11
1240.708393
 21
180.913447
 31
0.0
  0
LINE
  5
74AD
  8
ALPHA
 10
1255.577509
 20
170.596708
 30
0.0
 11
1239.958393
 21
179.614409
 31
0.0
  0
LINE
  5
74AE
  8
ALPHA
 10
1255.577509
 20
193.860206
 30
0.0
 11
1239.958393
 21
184.842505
 31
0.0
  0
LINE
  5
74AF
  8
ALPHA
 10
1256.327509
 20
192.561168
 30
0.0
 11
1240.708393
 21
183.543467
 31
0.0
  0
LINE
  5
74B0
  8
AXE
 10
1206.930729
 20
182.228457
 30
0.0
 11
1266.930729
 21
182.228457
 31
0.0
  0
CIRCLE
  5
74B1
  8
ALPHA
 10
1236.930729
 20
182.228457
 30
0.0
 40
25.0
  0
ARC
  5
74B2
  8
ALPHA
 10
1236.930729
 20
182.228457
 30
0.0
 40
22.5
 50
273.257196
 51
326.742804
  0
LINE
  5
74B4
  8
AXE
 10
1247.930729
 20
182.228457
 30
0.0
 11
1225.930729
 21
182.228457
 31
0.0
  0
LINE
  5
74B5
  8
AXE
 10
1225.930729
 20
128.228457
 30
0.0
 11
1247.930729
 21
128.228457
 31
0.0
  0
ARC
  5
74B6
  8
ALPHA
 10
1240.930729
 20
73.228457
 30
0.0
 40
4.0
 50
270.0
 51
0.0
  0
DIMENSION
  5
74B8
  8
COTATION1
  2
*D14
 10
1186.521763
 20
108.728457
 30
0.0
 11
1186.521763
 21
161.228457
 31
0.0
 70
   128
  1
73.5...120
 13
1236.930729
 23
207.228457
 33
0.0
 14
1222.780729
 24
108.728457
 34
0.0
 50
90.0
  0
DIMENSION
  5
74B9
  8
COTATION1
  2
*D15
 10
1244.930729
 20
142.680199
 30
0.0
 11
1218.445448
 21
142.680199
 31
0.0
 70
   128
 13
1228.930729
 23
128.228457
 33
0.0
 14
1244.930729
 24
128.228457
 34
0.0
  0
LINE
  5
74BA
  8
AXE
 10
1236.930729
 20
193.228457
 30
0.0
 11
1236.930729
 21
52.728457
 31
0.0
  0
LINE
  5
74BB
  8
ALPHA
 10
1228.930729
 20
158.543019
 30
0.0
 11
1228.930729
 21
73.228457
 31
0.0
  0
LINE
  5
74BC
  8
ALPHA
 10
1240.430729
 20
122.751232
 30
0.0
 11
1240.430729
 21
81.228457
 31
0.0
  0
LINE
  5
74BD
  8
ALPHA
 10
1233.430729
 20
122.751232
 30
0.0
 11
1233.430729
 21
81.228457
 31
0.0
  0
ARC
  5
74C0
  8
ALPHA
 10
1232.930729
 20
73.228457
 30
0.0
 40
4.0
 50
180.0
 51
270.0
  0
ARC
  5
74C1
  8
ALPHA
 10
1236.930729
 20
81.228457
 30
0.0
 40
3.5
 50
180.0
 51
0.0
  0
LINE
  5
74C2
  8
AXE
 10
1236.930729
 20
212.228457
 30
0.0
 11
1236.930729
 21
33.728457
 31
0.0
  0
LINE
  5
74C3
  8
ALPHA
 10
1218.283948
 20
170.596708
 30
0.0
 11
1233.903064
 21
179.614409
 31
0.0
  0
ARC
  5
74C4
  8
ALPHA
 10
1236.930729
 20
182.228457
 30
0.0
 40
22.5
 50
153.257196
 51
206.742804
  0
LINE
  5
74C5
  8
ALPHA
 10
1217.533948
 20
171.895746
 30
0.0
 11
1233.153064
 21
180.913447
 31
0.0
  0
LINE
  5
74C6
  8
ALPHA
 10
1237.680729
 20
160.263997
 30
0.0
 11
1237.680729
 21
178.299399
 31
0.0
  0
LINE
  5
74C7
  8
ALPHA
 10
1236.180729
 20
160.263997
 30
0.0
 11
1236.180729
 21
178.299399
 31
0.0
  0
CIRCLE
  5
74C8
  8
ALPHA
 10
1236.930729
 20
128.228457
 30
0.0
 40
6.5
  0
LINE
  5
74C9
  8
ALPHA
 10
1233.430729
 20
157.47467
 30
0.0
 11
1233.430729
 21
133.705683
 31
0.0
  0
LINE
  5
74CA
  8
ALPHA
 10
1240.430729
 20
157.47467
 30
0.0
 11
1240.430729
 21
133.705683
 31
0.0
  0
LINE
  5
74CB
  8
AXE
 10
1226.930729
 20
104.578457
 30
0.0
 11
1226.930729
 21
112.878457
 31
0.0
  0
ARC
  5
74CC
  8
ALPHA
 10
1225.930729
 20
110.728457
 30
0.0
 40
2.15
 50
0.0
 51
180.0
  0
ARC
  5
74CF
  8
ALPHA
 10
1225.930729
 20
108.728457
 30
0.0
 40
2.15
 50
180.0
 51
270.0
  0
LINE
  5
74D0
  8
ALPHA
 10
1223.780729
 20
110.728457
 30
0.0
 11
1223.780729
 21
108.728457
 31
0.0
  0
LINE
  5
74D1
  8
ALPHA
 10
1236.940625
 20
106.874421
 30
0.0
 11
1235.478291
 21
105.41209
 31
0.0
  0
LINE
  5
74D2
  8
ALPHA
 10
1236.357339
 20
109.145437
 30
0.0
 11
1235.512925
 21
108.302121
 31
0.0
  0
LINE
  5
74D3
  8
ALPHA
 10
1236.086315
 20
107.729281
 30
0.0
 11
1234.62453
 21
106.266401
 31
0.0
  0
LINE
  5
74D4
  8
ALPHA
 10
1235.512925
 20
108.302121
 30
0.0
 11
1236.086315
 21
107.729281
 31
0.0
  0
LINE
  5
74D5
  8
ALPHA
 10
1238.358429
 20
107.145998
 30
0.0
 11
1237.514012
 21
106.301584
 31
0.0
  0
LINE
  5
74D6
  8
ALPHA
 10
1237.785039
 20
107.717737
 30
0.0
 11
1238.358429
 21
107.145998
 31
0.0
  0
LINE
  5
74D7
  8
ALPHA
 10
1236.930729
 20
108.573698
 30
0.0
 11
1236.357339
 21
109.145437
 31
0.0
  0
LINE
  5
74D8
  8
ALPHA
 10
1237.514012
 20
106.301584
 30
0.0
 11
1236.940625
 21
106.874421
 31
0.0
  0
LINE
  5
74D9
  8
ALPHA
 10
1238.387564
 20
110.030533
 30
0.0
 11
1236.930729
 21
108.573698
 31
0.0
  0
LINE
  5
74DA
  8
ALPHA
 10
1228.080729
 20
110.728457
 30
0.0
 11
1228.080729
 21
110.545047
 31
0.0
  0
LINE
  5
74DB
  8
ALPHA
 10
1225.930729
 20
106.578457
 30
0.0
 11
1226.930729
 21
106.578457
 31
0.0
  0
ARC
  5
74DC
  8
ALPHA
 10
1226.930729
 20
108.728457
 30
0.0
 40
2.15
 50
270.0
 51
338.471096
  0
ARC
  5
74DD
  8
ALPHA
 10
1226.930729
 20
108.728457
 30
0.0
 40
2.15
 50
21.528904
 51
57.663974
  0
CIRCLE
  5
74DE
  8
ALPHA
 10
1236.930729
 20
107.728457
 30
0.0
 40
2.735279
  0
LINE
  5
74DF
  8
ALPHA
 10
1239.241874
 20
109.175673
 30
0.0
 11
1237.785039
 21
107.717737
 31
0.0
  0
ARC
  5
74E1
  8
ALPHA
 10
1236.930729
 20
64.233363
 30
0.0
 40
54.495095
 50
98.441655
 51
106.021593
  0
ARC
  5
74E2
  8
ALPHA
 10
1222.030729
 20
116.028457
 30
0.0
 40
0.6
 50
103.554708
 51
180.0
  0
ARC
  5
74E3
  8
ALPHA
 10
1236.930729
 20
64.233363
 30
0.0
 40
54.495095
 50
86.317589
 51
86.970133
  0
LINE
  5
74E4
  8
ALPHA
 10
1236.930729
 20
127.233825
 30
0.0
 11
1238.032048
 21
126.131393
 31
0.0
  0
LINE
  5
74E5
  8
ALPHA
 10
1234.833109
 20
129.329776
 30
0.0
 11
1235.936096
 21
128.228457
 31
0.0
  0
LINE
  5
74E6
  8
ALPHA
 10
1235.936096
 20
128.228457
 30
0.0
 11
1233.589541
 21
125.883012
 31
0.0
  0
LINE
  5
74E7
  8
ALPHA
 10
1234.585287
 20
124.88727
 30
0.0
 11
1236.930729
 21
127.233825
 31
0.0
  0
LINE
  5
74E8
  8
ALPHA
 10
1236.930729
 20
129.224199
 30
0.0
 11
1235.828854
 21
130.325518
 31
0.0
  0
LINE
  5
74E9
  8
ALPHA
 10
1235.828854
 20
130.325518
 30
0.0
 11
1234.833109
 21
129.329776
 31
0.0
  0
LINE
  5
74EA
  8
ALPHA
 10
1228.46184
 20
116.646216
 30
0.0
 11
1228.46184
 21
114.656673
 31
0.0
  0
LINE
  5
74EB
  8
ALPHA
 10
1226.487141
 20
114.656673
 30
0.0
 11
1226.487141
 21
116.646216
 31
0.0
  0
LINE
  5
74EC
  8
ALPHA
 10
1228.46184
 20
114.656673
 30
0.0
 11
1226.487141
 21
114.656673
 31
0.0
  0
LINE
  5
74ED
  8
ALPHA
 10
1226.487141
 20
116.646216
 30
0.0
 11
1228.46184
 21
116.646216
 31
0.0
  0
LINE
  5
74EE
  8
ALPHA
 10
1228.442599
 20
116.059633
 30
0.0
 11
1226.51298
 21
116.059633
 31
0.0
  0
ARC
  5
74EF
  8
ALPHA
 10
1236.930729
 20
64.233363
 30
0.0
 40
54.495095
 50
93.029867
 51
93.682411
  0
CIRCLE
  5
74F0
  8
ALPHA
 10
1236.930729
 20
128.228457
 30
0.0
 40
4.021871
  0
CIRCLE
  5
74F1
  8
ALPHA
 10
1236.930729
 20
128.228457
 30
0.0
 40
5.026506
  0
LINE
  5
74F2
  8
ALPHA
 10
1239.277283
 20
131.569644
 30
0.0
 11
1236.930729
 21
129.224199
 31
0.0
  0
LINE
  5
74F3
  8
ALPHA
 10
1238.032048
 20
126.131393
 30
0.0
 11
1239.02779
 21
127.127138
 31
0.0
  0
LINE
  5
74F4
  8
ALPHA
 10
1239.02779
 20
127.127138
 30
0.0
 11
1237.926474
 21
128.228457
 31
0.0
  0
LINE
  5
74F5
  8
ALPHA
 10
1237.926474
 20
128.228457
 30
0.0
 11
1240.271361
 21
130.575012
 31
0.0
  0
ARC
  5
74F6
  8
ALPHA
 10
1236.930729
 20
128.228457
 30
0.0
 40
10.0
 50
249.512685
 51
290.487315
  0
ARC
  5
74F7
  8
ALPHA
 10
1236.930729
 20
128.228457
 30
0.0
 40
10.0
 50
69.512685
 51
110.487315
  0
ARC
  5
74F8
  8
ALPHA
 10
1236.930729
 20
182.228457
 30
0.0
 40
22.5
 50
213.257196
 51
266.742804
  0
ARC
  5
74F9
  8
ALPHA
 10
1217.283948
 20
172.328759
 30
0.0
 40
0.5
 50
206.742804
 51
300.0
  0
ARC
  5
74FA
  8
ALPHA
 10
1218.533948
 20
170.163695
 30
0.0
 40
0.5
 50
120.0
 51
213.257196
  0
ARC
  5
74FB
  8
ALPHA
 10
1238.180729
 20
160.263997
 30
0.0
 40
0.5
 50
180.0
 51
273.257196
  0
ARC
  5
74FC
  8
ALPHA
 10
1235.680729
 20
160.263997
 30
0.0
 40
0.5
 50
266.742804
 51
0.0
  0
LINE
  5
74FD
  8
ALPHA
 10
1236.180729
 20
204.192917
 30
0.0
 11
1236.180729
 21
186.157516
 31
0.0
  0
LINE
  5
74FE
  8
ALPHA
 10
1237.680729
 20
204.192917
 30
0.0
 11
1237.680729
 21
186.157516
 31
0.0
  0
ARC
  5
74FF
  8
ALPHA
 10
1236.930729
 20
182.228457
 30
0.0
 40
22.5
 50
93.257196
 51
146.742804
  0
LINE
  5
7500
  8
ALPHA
 10
1218.283948
 20
193.860206
 30
0.0
 11
1233.903064
 21
184.842505
 31
0.0
  0
LINE
  5
7501
  8
ALPHA
 10
1217.533948
 20
192.561168
 30
0.0
 11
1233.153064
 21
183.543467
 31
0.0
  0
ARC
  5
7502
  8
ALPHA
 10
1217.283948
 20
192.128155
 30
0.0
 40
0.5
 50
60.0
 51
153.257196
  0
ARC
  5
7503
  8
ALPHA
 10
1218.533948
 20
194.293219
 30
0.0
 40
0.5
 50
146.742804
 51
240.0
  0
CIRCLE
  5
7504
  8
ALPHA
 10
1236.930729
 20
182.228457
 30
0.0
 40
4.0
  0
ARC
  5
7505
  8
ALPHA
 10
1238.180729
 20
204.192917
 30
0.0
 40
0.5
 50
86.742804
 51
180.0
  0
ARC
  5
7506
  8
ALPHA
 10
1235.680729
 20
204.192917
 30
0.0
 40
0.5
 50
0.0
 51
93.257196
  0
LINE
  5
7507
  8
ALPHA
 10
1244.930729
 20
158.543019
 30
0.0
 11
1244.930729
 21
73.228457
 31
0.0
  0
ARC
  5
7508
  8
ALPHA
 10
1236.930729
 20
182.228457
 30
0.0
 40
22.5
 50
333.257196
 51
26.742804
  0
DIMENSION
  5
7509
  8
COTATION1
  2
*D16
 10
1201.236394
 20
128.228457
 30
0.0
 11
1201.236394
 21
151.978457
 31
0.0
 70
   128
  1
54...100.5
 13
1236.930729
 23
207.228457
 33
0.0
 14
1225.930729
 24
128.228457
 34
0.0
 50
90.0
  0
LINE
  5
750A
  8
AXE
 10
1246.930729
 20
104.578457
 30
0.0
 11
1246.930729
 21
112.878457
 31
0.0
  0
ARC
  5
750B
  8
ALPHA
 10
1247.930729
 20
110.728457
 30
0.0
 40
2.15
 50
0.0
 51
180.0
  0
LINE
  5
750F
  8
ALPHA
 10
1245.780729
 20
110.728457
 30
0.0
 11
1245.780729
 21
110.545047
 31
0.0
  0
ARC
  5
7510
  8
ALPHA
 10
1247.930729
 20
108.728457
 30
0.0
 40
2.15
 50
270.0
 51
0.0
  0
LINE
  5
7511
  8
ALPHA
 10
1247.930729
 20
106.578457
 30
0.0
 11
1246.930729
 21
106.578457
 31
0.0
  0
ARC
  5
7512
  8
ALPHA
 10
1246.930729
 20
108.728457
 30
0.0
 40
2.15
 50
122.336026
 51
158.471096
  0
LINE
  5
7513
  8
ALPHA
 10
1250.080729
 20
110.728457
 30
0.0
 11
1250.080729
 21
108.728457
 31
0.0
  0
ARC
  5
7514
  8
ALPHA
 10
1246.930729
 20
108.728457
 30
0.0
 40
2.15
 50
201.528904
 51
270.0
  0
ARC
  5
7515
  8
ALPHA
 10
1236.930729
 20
64.233363
 30
0.0
 40
54.495095
 50
73.978407
 51
81.558345
  0
ARC
  5
7516
  8
ALPHA
 10
1251.830729
 20
116.028457
 30
0.0
 40
0.6
 50
0.0
 51
76.445292
  0
LINE
  5
7517
  8
ALPHA
 10
1247.374316
 20
116.647314
 30
0.0
 11
1245.399617
 21
116.647314
 31
0.0
  0
LINE
  5
7518
  8
ALPHA
 10
1245.399617
 20
114.657771
 30
0.0
 11
1247.374316
 21
114.657771
 31
0.0
  0
LINE
  5
7519
  8
ALPHA
 10
1245.417757
 20
116.059633
 30
0.0
 11
1247.348477
 21
116.059633
 31
0.0
  0
LINE
  5
751A
  8
ALPHA
 10
1245.399617
 20
116.647314
 30
0.0
 11
1245.399617
 21
114.657771
 31
0.0
  0
LINE
  5
751B
  8
ALPHA
 10
1247.374316
 20
114.657771
 30
0.0
 11
1247.374316
 21
116.647314
 31
0.0
  0
ARC
  5
751C
  8
ALPHA
 10
1256.577509
 20
172.328759
 30
0.0
 40
0.5
 50
240.0
 51
333.257196
  0
ARC
  5
751D
  8
ALPHA
 10
1255.327509
 20
170.163695
 30
0.0
 40
0.5
 50
326.742804
 51
60.0
  0
ARC
  5
751E
  8
ALPHA
 10
1255.327509
 20
194.293219
 30
0.0
 40
0.5
 50
300.0
 51
33.257196
  0
ARC
  5
751F
  8
ALPHA
 10
1256.577509
 20
192.128155
 30
0.0
 40
0.5
 50
26.742804
 51
120.0
  0
DIMENSION
  5
76B4
  8
COTATION1
  2
*D17
 10
1213.950074
 20
192.071705
 30
0.0
 11
1276.556472
 21
170.713586
 31
0.0
 70
     3
 15
1259.911383
 25
172.385209
 35
0.0
 40
0.0
  0
DIMENSION
  5
77C6
  8
COTATION1
  2
*D3
 10
1247.930729
 20
235.636379
 30
0.0
 11
1236.930729
 21
238.886379
 31
0.0
 13
1225.930729
 23
114.878457
 33
0.0
 14
1247.930729
 24
114.878457
 34
0.0
  0
DIMENSION
  5
77C7
  8
COTATION1
  2
*D4
 10
1246.930729
 20
224.885866
 30
0.0
 11
1236.930729
 21
228.135866
 31
0.0
 13
1226.930729
 23
112.878457
 33
0.0
 14
1246.930729
 24
112.878457
 34
0.0
  0
DIMENSION
  5
788D
  8
COTATION1
  2
*D5
 10
1228.538122
 20
58.740228
 30
0.0
 11
1201.329588
 21
39.515317
 31
0.0
 70
   131
  1
2x<>
 15
1226.323335
 25
56.716687
 35
0.0
 40
0.0
1001
ACAD
1000
DSTYLE
1002
{
1070
   288
1070
     1
1002
}
  0
LINE
  5
788E
  8
AXE
 10
1231.930729
 20
57.728457
 30
0.0
 11
1222.930729
 21
57.728457
 31
0.0
  0
LINE
  5
788F
  8
AXE
 10
1227.430729
 20
53.228457
 30
0.0
 11
1227.430729
 21
62.228457
 31
0.0
  0
CIRCLE
  5
7890
  8
POINTILLE_COURT
 10
1227.430729
 20
57.728457
 30
0.0
 40
1.5
  0
CIRCLE
  5
7891
  8
POINTILLE_COURT
 10
1246.430729
 20
57.728457
 30
0.0
 40
1.5
  0
LINE
  5
7892
  8
AXE
 10
1241.930729
 20
57.728457
 30
0.0
 11
1250.930729
 21
57.728457
 31
0.0
  0
LINE
  5
7893
  8
AXE
 10
1246.430729
 20
53.228457
 30
0.0
 11
1246.430729
 21
62.228457
 31
0.0
  0
DIMENSION
  5
7895
  8
COTATION1
  2
*D6
 10
1246.430729
 20
23.728457
 30
0.0
 11
1236.930729
 21
26.978457
 31
0.0
 13
1227.430729
 23
53.228457
 33
0.0
 14
1246.430729
 24
53.228457
 34
0.0
  0
DIMENSION
  5
7896
  8
COTATION1
  2
*D7
 10
1285.941108
 20
57.728457
 30
0.0
 11
1285.941108
 21
83.228457
 31
0.0
 13
1251.080729
 23
108.728457
 33
0.0
 14
1250.930729
 24
57.728457
 34
0.0
 50
90.0
  0
DIMENSION
  5
7897
  8
COTATION1
  2
*D8
 10
1285.941108
 20
108.728457
 30
0.0
 11
1285.941108
 21
113.728457
 31
0.0
 13
1236.930729
 23
118.728457
 33
0.0
 14
1251.080729
 24
108.728457
 34
0.0
 50
90.0
  0
DIMENSION
  5
7898
  8
COTATION1
  2
*D9
 10
1275.941108
 20
108.728457
 30
0.0
 11
1273.107775
 21
100.176735
 31
0.0
 70
   128
 13
1252.080729
 23
110.728457
 33
0.0
 14
1251.080729
 24
108.728457
 34
0.0
 50
90.0
1001
ACAD
1000
DSTYLE
1002
{
1070
   287
1070
     5
1070
   287
1070
     5
1070
   287
1070
     5
1070
   287
1070
     5
1070
   287
1070
     5
1070
   287
1070
     5
1070
   287
1070
     5
1070
   279
1070
     2
1070
   172
1070
     0
1002
}
  0
LINE
  5
79CC
  8
ALPHA
 10
1240.930729
 20
69.228457
 30
0.0
 11
1232.930729
 21
69.228457
 31
0.0
  0
LINE
  5
7D33
  8
ALPHA
 10
1226.080755
 20
50.228457
 30
0.0
 11
1247.780702
 21
50.228457
 31
0.0
  0
LINE
  5
7D34
  8
ALPHA
 10
1247.780729
 20
53.728457
 30
0.0
 11
1247.780729
 21
50.228457
 31
0.0
  0
LINE
  5
7D35
  8
ALPHA
 10
1226.080729
 20
53.728457
 30
0.0
 11
1226.080729
 21
50.228457
 31
0.0
  0
VIEWPORT
  5
494D
 67
     1
  8
0
 10
4.995325
 20
6.556512
 30
0.0
 40
22.70986
 41
13.988421
 68
    -1
 69
     1
1001
ACAD
1000
MVIEW
1002
{
1070
    16
1010
0.0
1020
0.0
1030
0.0
1010
0.0
1020
0.0
1030
1.0
1040
0.0
1040
13.988421
1040
4.995325
1040
6.556512
1040
50.0
1040
0.0
1040
0.0
1070
     0
1070
   100
1070
     1
1070
     1
1070
     0
1070
     0
1070
     0
1070
     0
1040
0.0
1040
0.0
1040
0.0
1040
10.0
1040
10.0
1040
10.0
1040
10.0
1070
     0
1002
{
1002
}
1002
}
  0
ENDSEC
  0
EOF
