  0
SECTION
  2
HEADER
  9
$ACADVER
  1
AC1009
  9
$INSBASE
 10
402.590624
 20
-1.041018
 30
0.0
  9
$EXTMIN
 10
1083.100991
 20
13.887007
 30
0.0
  9
$EXTMAX
 10
1170.779563
 20
238.728457
 30
0.0
  9
$LIMMIN
 10
-407.970438
 20
-367.832444
  9
$LIMMAX
 10
429.804077
 20
234.370848
  9
$ORTHOMODE
 70
     1
  9
$REGENMODE
 70
     1
  9
$FILLMODE
 70
     1
  9
$QTEXTMODE
 70
     0
  9
$MIRRTEXT
 70
     1
  9
$DRAGMODE
 70
     2
  9
$LTSCALE
 40
10.0
  9
$OSMODE
 70
    35
  9
$ATTMODE
 70
     1
  9
$TEXTSIZE
 40
6.0
  9
$TRACEWID
 40
1.0
  9
$TEXTSTYLE
  7
ROMANS
  9
$CLAYER
  8
ALPHA
  9
$CELTYPE
  6
BYLAYER
  9
$CECOLOR
 62
   256
  9
$DIMSCALE
 40
1.0
  9
$DIMASZ
 40
5.0
  9
$DIMEXO
 40
2.0
  9
$DIMDLI
 40
0.38
  9
$DIMRND
 40
0.0
  9
$DIMDLE
 40
0.0
  9
$DIMEXE
 40
2.5
  9
$DIMTP
 40
0.0
  9
$DIMTM
 40
0.0
  9
$DIMTXT
 40
2.5
  9
$DIMCEN
 40
0.0
  9
$DIMTSZ
 40
0.0
  9
$DIMTOL
 70
     0
  9
$DIMLIM
 70
     0
  9
$DIMTIH
 70
     1
  9
$DIMTOH
 70
     1
  9
$DIMSE1
 70
     0
  9
$DIMSE2
 70
     0
  9
$DIMTAD
 70
     1
  9
$DIMZIN
 70
    12
  9
$DIMBLK
  1
OPEN30
  9
$DIMASO
 70
     1
  9
$DIMSHO
 70
     1
  9
$DIMPOST
  1

  9
$DIMAPOST
  1

  9
$DIMALT
 70
     0
  9
$DIMALTD
 70
     2
  9
$DIMALTF
 40
25.4
  9
$DIMLFAC
 40
1.0
  9
$DIMTOFL
 70
     0
  9
$DIMTVP
 40
0.0
  9
$DIMTIX
 70
     0
  9
$DIMSOXD
 70
     0
  9
$DIMSAH
 70
     0
  9
$DIMBLK1
  1

  9
$DIMBLK2
  1

  9
$DIMSTYLE
  2
SC_DEFAUT
  9
$DIMCLRD
 70
     0
  9
$DIMCLRE
 70
     0
  9
$DIMCLRT
 70
     0
  9
$DIMTFAC
 40
1.0
  9
$DIMGAP
 40
2.0
  9
$LUNITS
 70
     2
  9
$LUPREC
 70
     1
  9
$SKETCHINC
 40
0.1
  9
$FILLETRAD
 40
0.0
  9
$AUNITS
 70
     0
  9
$AUPREC
 70
     0
  9
$MENU
  1
acad
  9
$ELEVATION
 40
0.0
  9
$PELEVATION
 40
0.0
  9
$THICKNESS
 40
0.0
  9
$LIMCHECK
 70
     0
  9
$BLIPMODE
 70
     0
  9
$CHAMFERA
 40
0.0
  9
$CHAMFERB
 40
0.0
  9
$SKPOLY
 70
     0
  9
$TDCREATE
 40
2450373.687919
  9
$TDUPDATE
 40
2453055.621053
  9
$TDINDWG
 40
0.813106
  9
$TDUSRTIMER
 40
0.813106
  9
$USRTIMER
 70
     1
  9
$ANGBASE
 50
0.0
  9
$ANGDIR
 70
     0
  9
$PDMODE
 70
    32
  9
$PDSIZE
 40
0.0
  9
$PLINEWID
 40
0.0
  9
$COORDS
 70
     1
  9
$SPLFRAME
 70
     0
  9
$SPLINETYPE
 70
     6
  9
$SPLINESEGS
 70
     8
  9
$ATTDIA
 70
     0
  9
$ATTREQ
 70
     1
  9
$HANDLING
 70
     1
  9
$HANDSEED
  5
777B
  9
$SURFTAB1
 70
     6
  9
$SURFTAB2
 70
     6
  9
$SURFTYPE
 70
     6
  9
$SURFU
 70
     6
  9
$SURFV
 70
     6
  9
$UCSNAME
  2

  9
$UCSORG
 10
0.0
 20
0.0
 30
0.0
  9
$UCSXDIR
 10
1.0
 20
0.0
 30
0.0
  9
$UCSYDIR
 10
0.0
 20
1.0
 30
0.0
  9
$PUCSNAME
  2

  9
$PUCSORG
 10
0.0
 20
0.0
 30
0.0
  9
$PUCSXDIR
 10
1.0
 20
0.0
 30
0.0
  9
$PUCSYDIR
 10
0.0
 20
1.0
 30
0.0
  9
$USERI1
 70
     0
  9
$USERI2
 70
     0
  9
$USERI3
 70
     0
  9
$USERI4
 70
     0
  9
$USERI5
 70
     0
  9
$USERR1
 40
0.0
  9
$USERR2
 40
0.0
  9
$USERR3
 40
0.0
  9
$USERR4
 40
0.0
  9
$USERR5
 40
0.0
  9
$WORLDVIEW
 70
     1
  9
$SHADEDGE
 70
     3
  9
$SHADEDIF
 70
    70
  9
$TILEMODE
 70
     1
  9
$MAXACTVP
 70
    16
  9
$PLIMCHECK
 70
     0
  9
$PEXTMIN
 10
-1.452248
 20
-0.437698
 30
0.0
  9
$PEXTMAX
 10
12.749749
 20
8.310198
 30
0.0
  9
$PLIMMIN
 10
0.0
 20
0.0
  9
$PLIMMAX
 10
12.0
 20
9.0
  9
$UNITMODE
 70
     0
  9
$VISRETAIN
 70
     0
  9
$PLINEGEN
 70
     0
  9
$PSLTSCALE
 70
     0
  0
ENDSEC
  0
SECTION
  2
TABLES
  0
TABLE
  2
VPORT
 70
     2
  0
VPORT
  2
*ACTIVE
 70
     0
 10
0.0
 20
0.0
 11
1.0
 21
1.0
 12
1126.94391
 22
126.301066
 13
0.0
 23
0.0
 14
1.0
 24
1.0
 15
10.0
 25
10.0
 16
0.0
 26
0.0
 36
1.0
 17
0.0
 27
0.0
 37
0.0
 40
226.493036
 41
1.466346
 42
50.0
 43
0.0
 44
0.0
 50
0.0
 51
0.0
 71
     0
 72
   100
 73
     1
 74
     0
 75
     0
 76
     0
 77
     0
 78
     0
  0
ENDTAB
  0
TABLE
  2
LTYPE
 70
     3
  0
LTYPE
  2
CONTINUOUS
 70
     0
  3
Solid line
 72
    65
 73
     0
 40
0.0
  0
LTYPE
  2
AXES2
 70
     0
  3
___ _ ___ _ ___ _ ___ _ ___ _ ___ _ ___ _ ___ _
 72
    65
 73
     4
 40
1.125
 49
0.75
 49
-0.125
 49
0.125
 49
-0.125
  0
LTYPE
  2
CACHE2
 70
     0
  3
Caché (x.5) _ _ _ _ _ _ _ _ _ _ _ _ _ _ _ _ _
 72
    65
 73
     2
 40
0.1875
 49
0.125
 49
-0.0625
  0
ENDTAB
  0
TABLE
  2
LAYER
 70
     6
  0
LAYER
  2
0
 70
     0
 62
   255
  6
CONTINUOUS
  0
LAYER
  2
COTATION1
 70
     0
 62
     2
  6
CONTINUOUS
  0
LAYER
  2
AXE
 70
     0
 62
    80
  6
AXES2
  0
LAYER
  2
DEFPOINTS
 70
     0
 62
     7
  6
CONTINUOUS
  0
LAYER
  2
ALPHA
 70
     0
 62
   254
  6
CONTINUOUS
  0
LAYER
  2
POINTILLE_COURT
 70
     0
 62
    41
  6
CACHE2
  0
ENDTAB
  0
TABLE
  2
STYLE
 70
     2
  0
STYLE
  2
ROMANS
 70
     0
 40
0.0
 41
1.0
 50
0.0
 71
     0
 42
6.0
  3
romans
  4

  0
STYLE
  2
STANDARD
 70
     0
 40
0.2
 41
1.0
 50
0.0
 71
     0
 42
0.2
  3
txt
  4

  0
ENDTAB
  0
TABLE
  2
VIEW
 70
     0
  0
ENDTAB
  0
TABLE
  2
UCS
 70
     0
  0
ENDTAB
  0
TABLE
  2
APPID
 70
     1
  0
APPID
  2
ACAD
 70
     0
  0
ENDTAB
  0
TABLE
  2
DIMSTYLE
 70
     1
  0
DIMSTYLE
  2
SC_DEFAUT
 70
     0
  3

  4

  5
OPEN30
  6

  7

 40
1.0
 41
5.0
 42
2.0
 43
0.38
 44
2.5
 45
0.0
 46
0.0
 47
0.0
 48
0.0
140
2.5
141
0.0
142
0.0
143
25.4
144
1.0
145
0.0
146
1.0
147
2.0
 71
     0
 72
     0
 73
     1
 74
     1
 75
     0
 76
     0
 77
     1
 78
    12
170
     0
171
     2
172
     0
173
     0
174
     0
175
     0
176
     0
177
     0
178
     0
  0
ENDTAB
  0
ENDSEC
  0
SECTION
  2
BLOCKS
  0
BLOCK
  8
0
  2
$MODEL_SPACE
 70
     0
 10
0.0
 20
0.0
 30
0.0
  3
$MODEL_SPACE
  1

  0
ENDBLK
  5
770E
  8
0
  0
BLOCK
 67
     1
  8
0
  2
$PAPER_SPACE
 70
     0
 10
0.0
 20
0.0
 30
0.0
  3
$PAPER_SPACE
  1

  0
ENDBLK
  5
770C
 67
     1
  8
0
  0
BLOCK
  8
0
  2
COTE
 70
     0
 10
0.0
 20
0.0
 30
0.0
  3
COTE
  1

  0
ENDBLK
  5
F
  8
0
  0
BLOCK
  8
0
  2
FOND
 70
     0
 10
0.0
 20
0.0
 30
0.0
  3
FOND
  1

  0
ENDBLK
  5
75
  8
0
  0
BLOCK
  8
0
  2
_OPEN30
 70
     0
 10
0.0
 20
0.0
 30
0.0
  3
_OPEN30
  1

  0
LINE
  5
4B05
  8
COTATION1
 62
     0
 10
-1.0
 20
0.267949
 30
0.0
 11
0.0
 21
0.0
 31
0.0
1001
ACAD
1000
RTLwPs
1070
   158
  0
LINE
  5
4B06
  8
COTATION1
 62
     0
 10
0.0
 20
0.0
 30
0.0
 11
-1.0
 21
-0.267949
 31
0.0
1001
ACAD
1000
RTLwPs
1070
   158
  0
LINE
  5
4B07
  8
COTATION1
 62
     0
 10
0.0
 20
0.0
 30
0.0
 11
-1.0
 21
0.0
 31
0.0
1001
ACAD
1000
RTLwPs
1070
   158
  0
ENDBLK
  5
4B09
  8
0
  0
BLOCK
  8
0
  2
*D3
 70
     1
 10
0.0
 20
0.0
 30
0.0
  3
*D3
  1

  0
LINE
  5
6F16
  8
COTATION1
 62
     0
 10
1108.100991
 20
57.045918
 30
0.0
 11
1108.100991
 21
13.887007
 31
0.0
1001
ACAD
1000
RTLwPs
1070
   158
  0
LINE
  5
6F17
  8
COTATION1
 62
     0
 10
1138.100991
 20
51.728457
 30
0.0
 11
1138.100991
 21
13.887007
 31
0.0
1001
ACAD
1000
RTLwPs
1070
   158
  0
LINE
  5
6F18
  8
COTATION1
 62
     0
 10
1113.100991
 20
16.387007
 30
0.0
 11
1133.100991
 21
16.387007
 31
0.0
1001
ACAD
1000
RTLwPs
1070
   158
  0
INSERT
  5
6F19
  8
COTATION1
 62
     0
  2
_OPEN30
 10
1108.100991
 20
16.387007
 30
0.0
 41
5.0
 42
5.0
 43
5.0
 50
180.0
1001
ACAD
1000
RTLwPs
1070
   158
  0
INSERT
  5
6F1A
  8
COTATION1
 62
     0
  2
_OPEN30
 10
1138.100991
 20
16.387007
 30
0.0
 41
5.0
 42
5.0
 43
5.0
1001
ACAD
1000
RTLwPs
1070
   158
  0
TEXT
  5
6F1B
  8
COTATION1
 62
     0
 10
1120.720039
 20
18.387007
 30
0.0
 40
2.5
  1
30
1001
ACAD
1000
MTEXTBEGIN
1070
    73
1070
     1
1070
    44
1040
1.0
1070
    74
1070
     0
1000
MTEXTEND
1000
MTEXTBEGIN
1070
    73
1070
     1
1070
    44
1040
1.0
1070
    74
1070
     0
1000
MTEXTEND
  0
POINT
  5
6F1C
  8
DEFPOINTS
 62
     0
 10
1108.100991
 20
59.045918
 30
0.0
  0
POINT
  5
6F1D
  8
DEFPOINTS
 62
     0
 10
1138.100991
 20
53.728457
 30
0.0
  0
POINT
  5
6F1E
  8
DEFPOINTS
 62
     0
 10
1138.100991
 20
16.387007
 30
0.0
  0
ENDBLK
  5
6706
  8
0
  0
BLOCK
  8
0
  2
*D4
 70
     1
 10
0.0
 20
0.0
 30
0.0
  3
*D4
  1

  0
LINE
  5
7408
  8
COTATION1
 62
     0
 10
1093.100991
 20
209.228457
 30
0.0
 11
1093.100991
 21
226.728457
 31
0.0
1001
ACAD
1000
RTLwPs
1070
   158
  0
LINE
  5
7409
  8
COTATION1
 62
     0
 10
1103.100991
 20
209.228457
 30
0.0
 11
1103.100991
 21
226.728457
 31
0.0
1001
ACAD
1000
RTLwPs
1070
   158
  0
LINE
  5
740A
  8
COTATION1
 62
     0
 10
1088.100991
 20
224.228457
 30
0.0
 11
1083.100991
 21
224.228457
 31
0.0
1001
ACAD
1000
RTLwPs
1070
   158
  0
LINE
  5
740B
  8
COTATION1
 62
     0
 10
1108.100991
 20
224.228457
 30
0.0
 11
1113.100991
 21
224.228457
 31
0.0
1001
ACAD
1000
RTLwPs
1070
   158
  0
TEXT
  5
740C
  8
COTATION1
 62
     0
 10
1085.291467
 20
226.228457
 30
0.0
 40
2.5
  1
10
1001
ACAD
1000
MTEXTBEGIN
1070
    73
1070
     1
1070
    44
1040
1.0
1070
    74
1070
     0
1000
MTEXTEND
  0
INSERT
  5
740D
  8
COTATION1
 62
     0
  2
_OPEN30
 10
1093.100991
 20
224.228457
 30
0.0
 41
5.0
 42
5.0
 43
5.0
1001
ACAD
1000
RTLwPs
1070
   158
  0
INSERT
  5
740E
  8
COTATION1
 62
     0
  2
_OPEN30
 10
1103.100991
 20
224.228457
 30
0.0
 41
5.0
 42
5.0
 43
5.0
 50
180.0
1001
ACAD
1000
RTLwPs
1070
   158
  0
POINT
  5
740F
  8
DEFPOINTS
 62
     0
 10
1093.100991
 20
207.228457
 30
0.0
  0
POINT
  5
7410
  8
DEFPOINTS
 62
     0
 10
1103.100991
 20
207.228457
 30
0.0
  0
POINT
  5
7411
  8
DEFPOINTS
 62
     0
 10
1103.100991
 20
224.228457
 30
0.0
  0
ENDBLK
  5
730F
  8
0
  0
BLOCK
  8
0
  2
*D5
 70
     1
 10
0.0
 20
0.0
 30
0.0
  3
*D5
  1

  0
LINE
  5
73F5
  8
COTATION1
 62
     0
 10
1098.100991
 20
214.228457
 30
0.0
 11
1098.100991
 21
236.728457
 31
0.0
1001
ACAD
1000
RTLwPs
1070
   158
  0
LINE
  5
73F6
  8
COTATION1
 62
     0
 10
1138.100991
 20
120.728457
 30
0.0
 11
1138.100991
 21
236.728457
 31
0.0
1001
ACAD
1000
RTLwPs
1070
   158
  0
LINE
  5
73F7
  8
COTATION1
 62
     0
 10
1103.100991
 20
234.228457
 30
0.0
 11
1133.100991
 21
234.228457
 31
0.0
1001
ACAD
1000
RTLwPs
1070
   158
  0
INSERT
  5
73F8
  8
COTATION1
 62
     0
  2
_OPEN30
 10
1098.100991
 20
234.228457
 30
0.0
 41
5.0
 42
5.0
 43
5.0
 50
180.0
1001
ACAD
1000
RTLwPs
1070
   158
  0
INSERT
  5
73F9
  8
COTATION1
 62
     0
  2
_OPEN30
 10
1138.100991
 20
234.228457
 30
0.0
 41
5.0
 42
5.0
 43
5.0
1001
ACAD
1000
RTLwPs
1070
   158
  0
TEXT
  5
73FA
  8
COTATION1
 62
     0
 10
1115.720039
 20
236.228457
 30
0.0
 40
2.5
  1
40
1001
ACAD
1000
MTEXTBEGIN
1070
    73
1070
     1
1070
    44
1040
1.0
1070
    74
1070
     0
1000
MTEXTEND
  0
POINT
  5
73FB
  8
DEFPOINTS
 62
     0
 10
1098.100991
 20
212.228457
 30
0.0
  0
POINT
  5
73FC
  8
DEFPOINTS
 62
     0
 10
1138.100991
 20
118.728457
 30
0.0
  0
POINT
  5
73FD
  8
DEFPOINTS
 62
     0
 10
1138.100991
 20
234.228457
 30
0.0
  0
ENDBLK
  5
731B
  8
0
  0
BLOCK
  8
0
  2
*D6
 70
     1
 10
0.0
 20
0.0
 30
0.0
  3
*D6
  1

  0
LINE
  5
73FE
  8
COTATION1
 62
     0
 10
1125.600991
 20
143.390128
 30
0.0
 11
1125.600991
 21
226.728457
 31
0.0
1001
ACAD
1000
RTLwPs
1070
   158
  0
LINE
  5
73FF
  8
COTATION1
 62
     0
 10
1138.100991
 20
120.728457
 30
0.0
 11
1138.100991
 21
226.728457
 31
0.0
1001
ACAD
1000
RTLwPs
1070
   158
  0
LINE
  5
7400
  8
COTATION1
 62
     0
 10
1120.600991
 20
224.228457
 30
0.0
 11
1115.600991
 21
224.228457
 31
0.0
1001
ACAD
1000
RTLwPs
1070
   158
  0
LINE
  5
7401
  8
COTATION1
 62
     0
 10
1143.100991
 20
224.228457
 30
0.0
 11
1148.100991
 21
224.228457
 31
0.0
1001
ACAD
1000
RTLwPs
1070
   158
  0
INSERT
  5
7402
  8
COTATION1
 62
     0
  2
_OPEN30
 10
1125.600991
 20
224.228457
 30
0.0
 41
5.0
 42
5.0
 43
5.0
1001
ACAD
1000
RTLwPs
1070
   158
  0
INSERT
  5
7403
  8
COTATION1
 62
     0
  2
_OPEN30
 10
1138.100991
 20
224.228457
 30
0.0
 41
5.0
 42
5.0
 43
5.0
 50
180.0
1001
ACAD
1000
RTLwPs
1070
   158
  0
TEXT
  5
7404
  8
COTATION1
 62
     0
 10
1127.505753
 20
226.228457
 30
0.0
 40
2.5
  1
12.5
1001
ACAD
1000
MTEXTBEGIN
1070
    73
1070
     1
1070
    44
1040
1.0
1070
    74
1070
     0
1000
MTEXTEND
  0
POINT
  5
7405
  8
DEFPOINTS
 62
     0
 10
1125.600991
 20
141.390128
 30
0.0
  0
POINT
  5
7406
  8
DEFPOINTS
 62
     0
 10
1138.100991
 20
118.728457
 30
0.0
  0
POINT
  5
7407
  8
DEFPOINTS
 62
     0
 10
1138.100991
 20
224.228457
 30
0.0
  0
ENDBLK
  5
7328
  8
0
  0
BLOCK
  8
0
  2
*D7
 70
     1
 10
0.0
 20
0.0
 30
0.0
  3
*D7
  1

  0
LINE
  5
7538
  8
COTATION1
 62
     0
 10
1134.100991
 20
59.728457
 30
0.0
 11
1134.100991
 21
74.087159
 31
0.0
1001
ACAD
1000
RTLwPs
1070
   158
  0
LINE
  5
7539
  8
COTATION1
 62
     0
 10
1138.100991
 20
61.728457
 30
0.0
 11
1138.100991
 21
74.087159
 31
0.0
1001
ACAD
1000
RTLwPs
1070
   158
  0
LINE
  5
753A
  8
COTATION1
 62
     0
 10
1129.100991
 20
71.587159
 30
0.0
 11
1124.100991
 21
71.587159
 31
0.0
1001
ACAD
1000
RTLwPs
1070
   158
  0
LINE
  5
753B
  8
COTATION1
 62
     0
 10
1143.100991
 20
71.587159
 30
0.0
 11
1148.100991
 21
71.587159
 31
0.0
1001
ACAD
1000
RTLwPs
1070
   158
  0
TEXT
  5
753C
  8
COTATION1
 62
     0
 10
1145.610505
 20
72.574117
 30
0.0
 40
2.5
  1
4
1001
ACAD
1000
MTEXTBEGIN
1070
    73
1070
     1
1070
    44
1040
1.0
1070
    74
1070
     0
1000
MTEXTEND
  0
INSERT
  5
753D
  8
COTATION1
 62
     0
  2
_OPEN30
 10
1134.100991
 20
71.587159
 30
0.0
 41
5.0
 42
5.0
 43
5.0
1001
ACAD
1000
RTLwPs
1070
   158
  0
INSERT
  5
753E
  8
COTATION1
 62
     0
  2
_OPEN30
 10
1138.100991
 20
71.587159
 30
0.0
 41
5.0
 42
5.0
 43
5.0
 50
180.0
1001
ACAD
1000
RTLwPs
1070
   158
  0
POINT
  5
753F
  8
DEFPOINTS
 62
     0
 10
1134.100991
 20
57.728457
 30
0.0
  0
POINT
  5
7540
  8
DEFPOINTS
 62
     0
 10
1138.100991
 20
59.728457
 30
0.0
  0
POINT
  5
7541
  8
DEFPOINTS
 62
     0
 10
1138.100991
 20
71.587159
 30
0.0
  0
ENDBLK
  5
752D
  8
0
  0
BLOCK
  8
0
  2
*D8
 70
     1
 10
0.0
 20
0.0
 30
0.0
  3
*D8
  1

  0
LINE
  5
762F
  8
COTATION1
 62
     0
 10
1105.100991
 20
207.228457
 30
0.0
 11
1163.100991
 21
207.228457
 31
0.0
1001
ACAD
1000
RTLwPs
1070
   158
  0
LINE
  5
7630
  8
COTATION1
 62
     0
 10
1138.450991
 20
50.228457
 30
0.0
 11
1163.100991
 21
50.228457
 31
0.0
1001
ACAD
1000
RTLwPs
1070
   158
  0
LINE
  5
7631
  8
COTATION1
 62
     0
 10
1160.600991
 20
202.228457
 30
0.0
 11
1160.600991
 21
131.978457
 31
0.0
1001
ACAD
1000
RTLwPs
1070
   158
  0
LINE
  5
7632
  8
COTATION1
 62
     0
 10
1160.600991
 20
55.228457
 30
0.0
 11
1160.600991
 21
125.478457
 31
0.0
1001
ACAD
1000
RTLwPs
1070
   158
  0
INSERT
  5
7633
  8
COTATION1
 62
     0
  2
_OPEN30
 10
1160.600991
 20
207.228457
 30
0.0
 41
5.0
 42
5.0
 43
5.0
 50
90.0
1001
ACAD
1000
RTLwPs
1070
   158
  0
INSERT
  5
7634
  8
COTATION1
 62
     0
  2
_OPEN30
 10
1160.600991
 20
50.228457
 30
0.0
 41
5.0
 42
5.0
 43
5.0
 50
270.0
1001
ACAD
1000
RTLwPs
1070
   158
  0
TEXT
  5
7635
  8
COTATION1
 62
     0
 10
1149.708134
 20
127.478457
 30
0.0
 40
2.5
  1
132...178.5
1001
ACAD
1000
MTEXTBEGIN
1070
    73
1070
     1
1070
    44
1040
1.0
1070
    74
1070
     0
1000
MTEXTEND
  0
POINT
  5
7636
  8
DEFPOINTS
 62
     0
 10
1103.100991
 20
207.228457
 30
0.0
  0
POINT
  5
7637
  8
DEFPOINTS
 62
     0
 10
1136.450991
 20
50.228457
 30
0.0
  0
POINT
  5
7638
  8
DEFPOINTS
 62
     0
 10
1160.600991
 20
50.228457
 30
0.0
  0
ENDBLK
  5
758A
  8
0
  0
ENDSEC
  0
SECTION
  2
ENTITIES
  0
INSERT
  5
A
  8
0
  2
COTE
 10
0.0
 20
0.0
 30
0.0
  0
INSERT
  5
17
  8
0
  2
COTE
 10
284.010391
 20
6.373258
 30
0.0
  0
INSERT
  5
72
  8
0
  2
FOND
 10
0.0
 20
0.0
 30
0.0
  0
POLYLINE
  5
662C
  8
ALPHA
 66
     1
 10
0.0
 20
0.0
 30
0.0
 70
   128
210
0.0
220
0.0
230
-1.0
  0
VERTEX
  5
7714
  8
ALPHA
 10
-1126.147734
 20
58.413808
 30
0.0
  0
VERTEX
  5
7715
  8
ALPHA
 10
-1127.337529
 20
58.282761
 30
0.0
  0
VERTEX
  5
7716
  8
ALPHA
 10
-1127.730024
 20
57.699099
 30
0.0
  0
VERTEX
  5
7717
  8
ALPHA
 10
-1128.12566
 20
56.893738
 30
0.0
  0
VERTEX
  5
7718
  8
ALPHA
 10
-1128.340684
 20
56.440208
 30
0.0
  0
SEQEND
  5
7719
  8
ALPHA
  0
POLYLINE
  5
662D
  8
ALPHA
 66
     1
 10
0.0
 20
0.0
 30
0.0
 70
   128
210
0.0
220
0.0
230
-1.0
  0
VERTEX
  5
771A
  8
ALPHA
 10
-1120.923893
 20
54.728457
 30
0.0
  0
VERTEX
  5
771B
  8
ALPHA
 10
-1117.323207
 20
55.250769
 30
0.0
  0
VERTEX
  5
771C
  8
ALPHA
 10
-1113.340514
 20
56.356367
 30
0.0
  0
VERTEX
  5
771D
  8
ALPHA
 10
-1110.024324
 20
57.521728
 30
0.0
  0
VERTEX
  5
771E
  8
ALPHA
 10
-1108.943826
 20
57.963219
 30
0.0
  0
VERTEX
  5
771F
  8
ALPHA
 10
-1108.423144
 20
58.22333
 30
0.0
  0
SEQEND
  5
7720
  8
ALPHA
  0
LINE
  5
662E
  8
ALPHA
 10
1108.423144
 20
58.22333
 30
0.0
 11
1108.100991
 21
58.780776
 31
0.0
  0
POLYLINE
  5
662F
  8
ALPHA
 66
     1
 10
0.0
 20
0.0
 30
0.0
 70
   128
  0
VERTEX
  5
7721
  8
ALPHA
 10
1122.585142
 20
56.728457
 30
0.0
  0
VERTEX
  5
7722
  8
ALPHA
 10
1121.779375
 20
69.214045
 30
0.0
  0
VERTEX
  5
7723
  8
ALPHA
 10
1120.150045
 20
81.073691
 30
0.0
  0
VERTEX
  5
7724
  8
ALPHA
 10
1117.940614
 20
92.082127
 30
0.0
  0
VERTEX
  5
7725
  8
ALPHA
 10
1115.394545
 20
102.014089
 30
0.0
  0
SEQEND
  5
7726
  8
ALPHA
  0
LINE
  5
6630
  8
ALPHA
 10
1125.490234
 20
57.976207
 30
0.0
 11
1126.147734
 21
58.413808
 31
0.0
  0
POLYLINE
  5
6631
  8
ALPHA
 66
     1
 10
0.0
 20
0.0
 30
0.0
 70
   128
210
0.0
220
0.0
230
-1.0
  0
VERTEX
  5
7727
  8
ALPHA
 10
-1128.340684
 20
56.440208
 30
0.0
  0
VERTEX
  5
7728
  8
ALPHA
 10
-1128.570362
 20
55.94747
 30
0.0
  0
VERTEX
  5
7729
  8
ALPHA
 10
-1128.648426
 20
55.37562
 30
0.0
  0
VERTEX
  5
772A
  8
ALPHA
 10
-1128.331238
 20
54.728457
 30
0.0
  0
SEQEND
  5
772B
  8
ALPHA
  0
DIMENSION
  5
6642
  8
COTATION1
  2
*D3
 10
1138.100991
 20
16.387007
 30
0.0
 11
1123.100991
 21
19.637007
 31
0.0
 13
1108.100991
 23
59.045918
 33
0.0
 14
1138.100991
 24
53.728457
 34
0.0
  0
LINE
  5
6651
  8
AXE
 10
1103.100991
 20
86.228457
 30
0.0
 11
1153.100991
 21
86.228457
 31
0.0
  0
LINE
  5
6654
  8
ALPHA
 10
1113.100991
 20
116.028457
 30
0.0
 11
1138.100991
 21
116.028457
 31
0.0
  0
LINE
  5
6655
  8
ALPHA
 10
1114.100991
 20
53.728457
 30
0.0
 11
1138.100991
 21
53.728457
 31
0.0
  0
ARC
  5
6656
  8
ALPHA
 10
963.75876
 20
55.387689
 30
0.0
 40
156.451664
 50
0.857269
 51
18.449068
  0
LINE
  5
6657
  8
ALPHA
 10
1108.100991
 20
102.228457
 30
0.0
 11
1108.100991
 21
58.780776
 31
0.0
  0
LINE
  5
6658
  8
ALPHA
 10
1113.450516
 20
56.331078
 30
0.0
 11
1114.100991
 21
53.728457
 31
0.0
  0
ARC
  5
6659
  8
ALPHA
 10
1141.770578
 20
106.515651
 30
0.0
 40
33.671021
 50
166.958519
 51
180.528913
  0
LINE
  5
665A
  8
ALPHA
 10
1113.100991
 20
118.728457
 30
0.0
 11
1113.100991
 21
102.014089
 31
0.0
  0
LINE
  5
665B
  8
ALPHA
 10
1113.100991
 20
104.898623
 30
0.0
 11
1112.169644
 21
104.898623
 31
0.0
  0
LINE
  5
665C
  8
ALPHA
 10
1113.100991
 20
102.014089
 30
0.0
 11
1115.394545
 21
102.014089
 31
0.0
  0
LINE
  5
665D
  8
ALPHA
 10
1108.100991
 20
103.014089
 30
0.0
 11
1112.785097
 21
103.014089
 31
0.0
  0
LINE
  5
665E
  8
ALPHA
 10
1108.100991
 20
102.228457
 30
0.0
 11
1108.100991
 21
106.204829
 31
0.0
  0
ARC
  5
665F
  8
ALPHA
 10
1110.437819
 20
113.814173
 30
0.0
 40
1.5
 50
90.0
 51
168.480193
  0
LINE
  5
6660
  8
ALPHA
 10
1110.437819
 20
115.314173
 30
0.0
 11
1113.100991
 21
115.314173
 31
0.0
  0
DIMENSION
  5
6661
  8
COTATION1
  2
*D8
 10
1160.600991
 20
50.228457
 30
0.0
 11
1160.600991
 21
128.728457
 31
0.0
  1
132...178.5
 13
1103.100991
 23
207.228457
 33
0.0
 14
1136.450991
 24
50.228457
 34
0.0
 50
90.0
  0
LINE
  5
6663
  8
ALPHA
 10
1138.100991
 20
118.728457
 30
0.0
 11
1138.100991
 21
53.728457
 31
0.0
  0
TEXT
  5
6665
  8
AXE
 10
1118.124801
 20
33.728457
 30
0.0
 40
8.0
  1
Y
 72
     2
 11
1124.600991
 21
33.728457
 31
0.0
  0
LINE
  5
6666
  8
ALPHA
 10
1126.074747
 20
59.728457
 30
0.0
 11
1138.100991
 21
59.728457
 31
0.0
  0
LINE
  5
6667
  8
ALPHA
 10
1120.923893
 20
54.728457
 30
0.0
 11
1138.100991
 21
54.728457
 31
0.0
  0
LINE
  5
6668
  8
ALPHA
 10
1122.585142
 20
56.728457
 30
0.0
 11
1125.074011
 21
56.728457
 31
0.0
  0
LINE
  5
6669
  8
ALPHA
 10
1120.192912
 20
57.728457
 30
0.0
 11
1122.55724
 21
57.728457
 31
0.0
  0
LINE
  5
666A
  8
ALPHA
 10
1126.074747
 20
59.728457
 30
0.0
 11
1125.074011
 21
56.728457
 31
0.0
  0
TEXT
  5
667F
  8
AXE
 10
1146.624801
 20
87.228457
 30
0.0
 40
8.0
  1
Z
 72
     2
 11
1153.100991
 21
87.228457
 31
0.0
  0
LINE
  5
6C3D
  8
AXE
 10
1125.600991
 20
141.390128
 30
0.0
 11
1125.600991
 21
33.728457
 31
0.0
  0
POLYLINE
  5
7294
  8
ALPHA
 66
     1
 10
0.0
 20
0.0
 30
0.0
 70
   128
210
0.0
220
0.0
230
-1.0
  0
VERTEX
  5
772C
  8
ALPHA
 10
-1131.63258
 20
136.390128
 30
0.0
  0
VERTEX
  5
772D
  8
ALPHA
 10
-1133.055001
 20
135.801058
 30
0.0
  0
VERTEX
  5
772E
  8
ALPHA
 10
-1133.643515
 20
134.378081
 30
0.0
  0
SEQEND
  5
772F
  8
ALPHA
  0
LINE
  5
7295
  8
ALPHA
 10
1117.557698
 20
118.728457
 30
0.0
 11
1117.557698
 21
119.097416
 31
0.0
  0
POLYLINE
  5
7296
  8
ALPHA
 66
     1
 10
0.0
 20
0.0
 30
0.0
 70
   128
  0
VERTEX
  5
7730
  8
ALPHA
 10
1125.600329
 20
124.733481
 30
0.0
  0
VERTEX
  5
7731
  8
ALPHA
 10
1124.253275
 20
124.491306
 30
0.0
  0
VERTEX
  5
7732
  8
ALPHA
 10
1122.986067
 20
123.852846
 30
0.0
  0
VERTEX
  5
7733
  8
ALPHA
 10
1120.726769
 20
121.915448
 30
0.0
  0
VERTEX
  5
7734
  8
ALPHA
 10
1118.893593
 20
119.978051
 30
0.0
  0
VERTEX
  5
7735
  8
ALPHA
 10
1118.159038
 20
119.33959
 30
0.0
  0
VERTEX
  5
7736
  8
ALPHA
 10
1117.557698
 20
119.097416
 30
0.0
  0
SEQEND
  5
7737
  8
ALPHA
  0
POLYLINE
  5
7297
  8
ALPHA
 66
     1
 10
0.0
 20
0.0
 30
0.0
 70
   128
  0
VERTEX
  5
7738
  8
ALPHA
 10
1133.643515
 20
118.728457
 30
0.0
  0
VERTEX
  5
7739
  8
ALPHA
 10
1132.952328
 20
118.728457
 30
0.0
  0
VERTEX
  5
773A
  8
ALPHA
 10
1131.130106
 20
118.728457
 30
0.0
  0
VERTEX
  5
773B
  8
ALPHA
 10
1128.553862
 20
118.728457
 30
0.0
  0
VERTEX
  5
773C
  8
ALPHA
 10
1125.600607
 20
118.728457
 30
0.0
  0
VERTEX
  5
773D
  8
ALPHA
 10
1122.647351
 20
118.728457
 30
0.0
  0
VERTEX
  5
773E
  8
ALPHA
 10
1120.071107
 20
118.728457
 30
0.0
  0
VERTEX
  5
773F
  8
ALPHA
 10
1118.248885
 20
118.728457
 30
0.0
  0
VERTEX
  5
7740
  8
ALPHA
 10
1117.557698
 20
118.728457
 30
0.0
  0
SEQEND
  5
7741
  8
ALPHA
  0
POLYLINE
  5
7298
  8
ALPHA
 66
     1
 10
0.0
 20
0.0
 30
0.0
 70
   128
  0
VERTEX
  5
7742
  8
ALPHA
 10
1133.643515
 20
134.378081
 30
0.0
  0
VERTEX
  5
7743
  8
ALPHA
 10
1133.643515
 20
133.705636
 30
0.0
  0
VERTEX
  5
7744
  8
ALPHA
 10
1133.643515
 20
131.932827
 30
0.0
  0
VERTEX
  5
7745
  8
ALPHA
 10
1133.643515
 20
129.426442
 30
0.0
  0
VERTEX
  5
7746
  8
ALPHA
 10
1133.643515
 20
126.553269
 30
0.0
  0
VERTEX
  5
7747
  8
ALPHA
 10
1133.643515
 20
123.680096
 30
0.0
  0
VERTEX
  5
7748
  8
ALPHA
 10
1133.643515
 20
121.173711
 30
0.0
  0
VERTEX
  5
7749
  8
ALPHA
 10
1133.643515
 20
119.400902
 30
0.0
  0
VERTEX
  5
774A
  8
ALPHA
 10
1133.643515
 20
118.728457
 30
0.0
  0
SEQEND
  5
774B
  8
ALPHA
  0
POLYLINE
  5
7299
  8
ALPHA
 66
     1
 10
0.0
 20
0.0
 30
0.0
 70
   128
  0
VERTEX
  5
774C
  8
ALPHA
 10
1107.604687
 20
136.390128
 30
0.0
  0
VERTEX
  5
774D
  8
ALPHA
 10
1107.874531
 20
136.390128
 30
0.0
  0
VERTEX
  5
774E
  8
ALPHA
 10
1108.637135
 20
136.390128
 30
0.0
  0
VERTEX
  5
774F
  8
ALPHA
 10
1109.822105
 20
136.390128
 30
0.0
  0
VERTEX
  5
7750
  8
ALPHA
 10
1111.359045
 20
136.390128
 30
0.0
  0
VERTEX
  5
7751
  8
ALPHA
 10
1115.207262
 20
136.390128
 30
0.0
  0
VERTEX
  5
7752
  8
ALPHA
 10
1119.618633
 20
136.390128
 30
0.0
  0
VERTEX
  5
7753
  8
ALPHA
 10
1124.030004
 20
136.390128
 30
0.0
  0
VERTEX
  5
7754
  8
ALPHA
 10
1127.878222
 20
136.390128
 30
0.0
  0
VERTEX
  5
7755
  8
ALPHA
 10
1129.415162
 20
136.390128
 30
0.0
  0
VERTEX
  5
7756
  8
ALPHA
 10
1130.600131
 20
136.390128
 30
0.0
  0
VERTEX
  5
7757
  8
ALPHA
 10
1131.362735
 20
136.390128
 30
0.0
  0
VERTEX
  5
7758
  8
ALPHA
 10
1131.63258
 20
136.390128
 30
0.0
  0
SEQEND
  5
7759
  8
ALPHA
  0
POLYLINE
  5
729A
  8
ALPHA
 66
     1
 10
0.0
 20
0.0
 30
0.0
 70
   128
  0
VERTEX
  5
775A
  8
ALPHA
 10
1117.557698
 20
119.097416
 30
0.0
  0
VERTEX
  5
775B
  8
ALPHA
 10
1117.129982
 20
119.097416
 30
0.0
  0
VERTEX
  5
775C
  8
ALPHA
 10
1116.002366
 20
119.097416
 30
0.0
  0
VERTEX
  5
775D
  8
ALPHA
 10
1112.580637
 20
119.097416
 30
0.0
  0
VERTEX
  5
775E
  8
ALPHA
 10
1109.158907
 20
119.097416
 30
0.0
  0
VERTEX
  5
775F
  8
ALPHA
 10
1108.031292
 20
119.097416
 30
0.0
  0
VERTEX
  5
7760
  8
ALPHA
 10
1107.603576
 20
119.097416
 30
0.0
  0
SEQEND
  5
7761
  8
ALPHA
  0
POLYLINE
  5
729B
  8
ALPHA
 66
     1
 10
0.0
 20
0.0
 30
0.0
 70
   128
  0
VERTEX
  5
7762
  8
ALPHA
 10
1107.603576
 20
119.097416
 30
0.0
  0
VERTEX
  5
7763
  8
ALPHA
 10
1107.603588
 20
119.291621
 30
0.0
  0
VERTEX
  5
7764
  8
ALPHA
 10
1107.603623
 20
119.840462
 30
0.0
  0
VERTEX
  5
7765
  8
ALPHA
 10
1107.603749
 20
121.799402
 30
0.0
  0
VERTEX
  5
7766
  8
ALPHA
 10
1107.603927
 20
124.568938
 30
0.0
  0
VERTEX
  5
7767
  8
ALPHA
 10
1107.604131
 20
127.743772
 30
0.0
  0
VERTEX
  5
7768
  8
ALPHA
 10
1107.604335
 20
130.918606
 30
0.0
  0
VERTEX
  5
7769
  8
ALPHA
 10
1107.604513
 20
133.688142
 30
0.0
  0
VERTEX
  5
776A
  8
ALPHA
 10
1107.604639
 20
135.647082
 30
0.0
  0
VERTEX
  5
776B
  8
ALPHA
 10
1107.604674
 20
136.195923
 30
0.0
  0
VERTEX
  5
776C
  8
ALPHA
 10
1107.604687
 20
136.390128
 30
0.0
  0
SEQEND
  5
776D
  8
ALPHA
  0
POLYLINE
  5
729C
  8
ALPHA
 66
     1
 10
0.0
 20
0.0
 30
0.0
 70
   128
210
0.0
220
0.0
230
-1.0
  0
VERTEX
  5
776E
  8
ALPHA
 10
-1099.795921
 20
128.709459
 30
0.0
  0
VERTEX
  5
776F
  8
ALPHA
 10
-1100.000916
 20
130.191553
 30
0.0
  0
VERTEX
  5
7770
  8
ALPHA
 10
-1100.336509
 20
131.255287
 30
0.0
  0
VERTEX
  5
7771
  8
ALPHA
 10
-1100.64991
 20
131.896545
 30
0.0
  0
VERTEX
  5
7772
  8
ALPHA
 10
-1100.788331
 20
132.111213
 30
0.0
  0
SEQEND
  5
7773
  8
ALPHA
  0
LINE
  5
729D
  8
ALPHA
 10
1100.706648
 20
128.709459
 30
0.0
 11
1099.795921
 21
128.709459
 31
0.0
  0
LINE
  5
729E
  8
ALPHA
 10
1102.597561
 20
124.184715
 30
0.0
 11
1100.788331
 21
124.300848
 31
0.0
  0
LINE
  5
729F
  8
ALPHA
 10
1100.706648
 20
127.703713
 30
0.0
 11
1100.706648
 21
128.709459
 31
0.0
  0
LINE
  5
72A0
  8
ALPHA
 10
1099.795921
 20
127.703713
 30
0.0
 11
1100.706648
 21
127.703713
 31
0.0
  0
POLYLINE
  5
72A1
  8
ALPHA
 66
     1
 10
0.0
 20
0.0
 30
0.0
 70
   128
210
0.0
220
0.0
230
-1.0
  0
VERTEX
  5
7774
  8
ALPHA
 10
-1100.788331
 20
124.300848
 30
0.0
  0
VERTEX
  5
7775
  8
ALPHA
 10
-1100.64991
 20
124.515689
 30
0.0
  0
VERTEX
  5
7776
  8
ALPHA
 10
-1100.336509
 20
125.157329
 30
0.0
  0
VERTEX
  5
7777
  8
ALPHA
 10
-1100.000916
 20
126.221445
 30
0.0
  0
VERTEX
  5
7778
  8
ALPHA
 10
-1099.795921
 20
127.703713
 30
0.0
  0
SEQEND
  5
7779
  8
ALPHA
  0
LINE
  5
72A2
  8
ALPHA
 10
1100.788331
 20
132.111213
 30
0.0
 11
1102.597561
 21
132.228457
 31
0.0
  0
LINE
  5
72A3
  8
ALPHA
 10
1105.100991
 20
188.728457
 30
0.0
 11
1105.100991
 21
69.228457
 31
0.0
  0
LINE
  5
72A4
  8
ALPHA
 10
1103.100991
 20
207.228457
 30
0.0
 11
1103.100991
 21
69.228457
 31
0.0
  0
LINE
  5
72A6
  8
AXE
 10
1125.600991
 20
141.390128
 30
0.0
 11
1125.600991
 21
85.728457
 31
0.0
  0
LINE
  5
72A7
  8
ALPHA
 10
1105.100991
 20
69.228457
 30
0.0
 11
1103.100991
 21
69.228457
 31
0.0
  0
LINE
  5
72A8
  8
ALPHA
 10
1103.100991
 20
207.228457
 30
0.0
 11
1098.100991
 21
207.228457
 31
0.0
  0
LINE
  5
72A9
  8
ALPHA
 10
1103.100991
 20
157.228457
 30
0.0
 11
1098.092205
 21
157.228457
 31
0.0
  0
DIMENSION
  5
72AB
  8
COTATION1
  2
*D4
 10
1103.100991
 20
224.228457
 30
0.0
 11
1087.850991
 21
224.228457
 31
0.0
 70
   128
 13
1093.100991
 23
207.228457
 33
0.0
 14
1103.100991
 24
207.228457
 34
0.0
  0
DIMENSION
  5
72AC
  8
COTATION1
  2
*D5
 10
1138.100991
 20
234.228457
 30
0.0
 11
1118.100991
 21
237.478457
 31
0.0
 13
1098.100991
 23
212.228457
 33
0.0
 14
1138.100991
 24
118.728457
 34
0.0
  0
LINE
  5
72AD
  8
ALPHA
 10
1093.100991
 20
207.228457
 30
0.0
 11
1093.100991
 21
157.228457
 31
0.0
  0
LINE
  5
72AE
  8
AXE
 10
1098.100991
 20
212.228457
 30
0.0
 11
1098.100991
 21
152.228457
 31
0.0
  0
LINE
  5
72AF
  8
ALPHA
 10
1093.100991
 20
157.228457
 30
0.0
 11
1098.092205
 21
157.228457
 31
0.0
  0
LINE
  5
72B0
  8
ALPHA
 10
1097.333419
 20
207.228457
 30
0.0
 11
1098.092205
 21
207.228457
 31
0.0
  0
LINE
  5
72B1
  8
ALPHA
 10
1093.100991
 20
207.228457
 30
0.0
 11
1098.083419
 21
207.228457
 31
0.0
  0
DIMENSION
  5
72B2
  8
COTATION1
  2
*D6
 10
1138.100991
 20
224.228457
 30
0.0
 11
1131.850991
 21
227.478457
 31
0.0
 13
1125.600991
 23
141.390128
 33
0.0
 14
1138.100991
 24
118.728457
 34
0.0
  0
LINE
  5
72B3
  8
ALPHA
 10
1103.100991
 20
121.670905
 30
0.0
 11
1103.100991
 21
134.741154
 31
0.0
  0
LINE
  5
72B4
  8
ALPHA
 10
1102.597562
 20
134.728457
 30
0.0
 11
1102.597562
 21
121.728457
 31
0.0
  0
LINE
  5
72B5
  8
ALPHA
 10
1106.350991
 20
138.228457
 30
0.0
 11
1106.350991
 21
118.228457
 31
0.0
  0
LINE
  5
72B7
  8
ALPHA
 10
1113.100991
 20
118.728457
 30
0.0
 11
1138.100991
 21
118.728457
 31
0.0
  0
LINE
  5
72C1
  8
ALPHA
 10
1125.600328
 20
124.733481
 30
0.0
 11
1107.733599
 21
124.733481
 31
0.0
  0
LINE
  5
72C2
  8
ALPHA
 10
1107.604686
 20
123.17897
 30
0.0
 11
1107.604686
 21
133.233092
 31
0.0
  0
LINE
  5
72C3
  8
ALPHA
 10
1103.100991
 20
133.233092
 30
0.0
 11
1103.100991
 21
123.17897
 31
0.0
  0
LINE
  5
72C6
  8
ALPHA
 10
1105.100991
 20
123.637389
 30
0.0
 11
1107.604686
 21
123.637389
 31
0.0
  0
LINE
  5
72C7
  8
ALPHA
 10
1105.100991
 20
124.280289
 30
0.0
 11
1107.604686
 21
124.280289
 31
0.0
  0
LINE
  5
72C8
  8
ALPHA
 10
1105.100991
 20
124.94486
 30
0.0
 11
1107.604686
 21
124.94486
 31
0.0
  0
LINE
  5
72C9
  8
ALPHA
 10
1105.100991
 20
125.846141
 30
0.0
 11
1107.604686
 21
125.846141
 31
0.0
  0
LINE
  5
72CA
  8
ALPHA
 10
1105.100991
 20
126.748534
 30
0.0
 11
1107.604686
 21
126.748534
 31
0.0
  0
LINE
  5
72CB
  8
ALPHA
 10
1105.100991
 20
127.649815
 30
0.0
 11
1107.604686
 21
127.649815
 31
0.0
  0
LINE
  5
72CC
  8
ALPHA
 10
1105.100991
 20
130.565921
 30
0.0
 11
1107.604686
 21
130.565921
 31
0.0
  0
LINE
  5
72CD
  8
ALPHA
 10
1105.100991
 20
129.664641
 30
0.0
 11
1107.604686
 21
129.664641
 31
0.0
  0
LINE
  5
72CE
  8
ALPHA
 10
1105.100991
 20
128.763357
 30
0.0
 11
1107.604686
 21
128.763357
 31
0.0
  0
LINE
  5
72CF
  8
ALPHA
 10
1105.100991
 20
123.17897
 30
0.0
 11
1107.604686
 21
123.17897
 31
0.0
  0
LINE
  5
72D0
  8
ALPHA
 10
1105.100991
 20
132.774673
 30
0.0
 11
1107.604686
 21
132.774673
 31
0.0
  0
LINE
  5
72D1
  8
ALPHA
 10
1105.100991
 20
132.131773
 30
0.0
 11
1107.604686
 21
132.131773
 31
0.0
  0
LINE
  5
72D2
  8
ALPHA
 10
1105.100991
 20
131.467202
 30
0.0
 11
1107.604686
 21
131.467202
 31
0.0
  0
LINE
  5
72D3
  8
ALPHA
 10
1107.604686
 20
133.233092
 30
0.0
 11
1105.100991
 21
133.233092
 31
0.0
  0
LINE
  5
72D4
  8
ALPHA
 10
1103.100991
 20
121.728457
 30
0.0
 11
1102.597562
 21
121.728457
 31
0.0
  0
LINE
  5
72D5
  8
ALPHA
 10
1107.604548
 20
122.228457
 30
0.0
 11
1106.350991
 21
122.228457
 31
0.0
  0
LINE
  5
72D6
  8
ALPHA
 10
1106.350991
 20
118.228457
 30
0.0
 11
1105.100991
 21
118.228457
 31
0.0
  0
LINE
  5
72D9
  8
ALPHA
 10
1106.350991
 20
138.228457
 30
0.0
 11
1105.100991
 21
138.228457
 31
0.0
  0
LINE
  5
72DA
  8
ALPHA
 10
1103.100991
 20
134.728457
 30
0.0
 11
1102.597562
 21
134.728457
 31
0.0
  0
LINE
  5
72DB
  8
ALPHA
 10
1107.604548
 20
134.228457
 30
0.0
 11
1106.350991
 21
134.228457
 31
0.0
  0
LINE
  5
72DC
  8
ALPHA
 10
1105.100991
 20
188.728457
 30
0.0
 11
1103.100991
 21
188.728457
 31
0.0
  0
DIMENSION
  5
751C
  8
COTATION1
  2
*D7
 10
1138.100991
 20
71.587159
 30
0.0
 11
1146.860505
 21
73.824117
 31
0.0
 70
   128
 13
1134.100991
 23
57.728457
 33
0.0
 14
1138.100991
 24
59.728457
 34
0.0
  0
LINE
  5
751D
  8
POINTILLE_COURT
 10
1138.100991
 20
59.228457
 30
0.0
 11
1135.600991
 21
59.228457
 31
0.0
  0
LINE
  5
751E
  8
POINTILLE_COURT
 10
1138.100991
 20
56.228457
 30
0.0
 11
1135.600991
 21
56.228457
 31
0.0
  0
ARC
  5
751F
  8
POINTILLE_COURT
 10
1135.600991
 20
57.728457
 30
0.0
 40
1.5
 50
90.0
 51
270.0
  0
LINE
  5
75C6
  8
ALPHA
 10
1097.906184
 20
128.228457
 30
0.0
 11
1106.01794
 21
128.228457
 31
0.0
  0
LINE
  5
7617
  8
ALPHA
 10
1114.750991
 20
50.228457
 30
0.0
 11
1136.450991
 21
50.228457
 31
0.0
  0
LINE
  5
7618
  8
ALPHA
 10
1114.750991
 20
50.228457
 30
0.0
 11
1114.750991
 21
53.728457
 31
0.0
  0
LINE
  5
7619
  8
ALPHA
 10
1136.450991
 20
53.728457
 30
0.0
 11
1136.450991
 21
50.228457
 31
0.0
  0
VIEWPORT
  5
494D
 67
     1
  8
0
 10
4.995325
 20
6.556512
 30
0.0
 40
22.70986
 41
13.988421
 68
    -1
 69
     1
1001
ACAD
1000
MVIEW
1002
{
1070
    16
1010
0.0
1020
0.0
1030
0.0
1010
0.0
1020
0.0
1030
1.0
1040
0.0
1040
13.988421
1040
4.995325
1040
6.556512
1040
50.0
1040
0.0
1040
0.0
1070
     0
1070
   100
1070
     1
1070
     1
1070
     0
1070
     0
1070
     0
1070
     0
1040
0.0
1040
0.0
1040
0.0
1040
10.0
1040
10.0
1040
10.0
1040
10.0
1070
     0
1002
{
1002
}
1002
}
  0
ENDSEC
  0
EOF
