  0
SECTION
  2
HEADER
  9
$ACADVER
  1
AC1009
  9
$INSBASE
 10
402.590624
 20
-1.041018
 30
0.0
  9
$EXTMIN
 10
1197.162921
 20
11.228457
 30
0.0
  9
$EXTMAX
 10
1299.740252
 20
194.228457
 30
0.0
  9
$LIMMIN
 10
-407.970438
 20
-367.832444
  9
$LIMMAX
 10
429.804077
 20
234.370848
  9
$ORTHOMODE
 70
     1
  9
$REGENMODE
 70
     1
  9
$FILLMODE
 70
     1
  9
$QTEXTMODE
 70
     0
  9
$MIRRTEXT
 70
     1
  9
$DRAGMODE
 70
     2
  9
$LTSCALE
 40
10.0
  9
$OSMODE
 70
    35
  9
$ATTMODE
 70
     1
  9
$TEXTSIZE
 40
6.0
  9
$TRACEWID
 40
1.0
  9
$TEXTSTYLE
  7
ROMANS
  9
$CLAYER
  8
ALPHA
  9
$CELTYPE
  6
BYLAYER
  9
$CECOLOR
 62
   256
  9
$DIMSCALE
 40
1.0
  9
$DIMASZ
 40
5.0
  9
$DIMEXO
 40
2.0
  9
$DIMDLI
 40
0.38
  9
$DIMRND
 40
0.0
  9
$DIMDLE
 40
0.0
  9
$DIMEXE
 40
2.5
  9
$DIMTP
 40
0.0
  9
$DIMTM
 40
0.0
  9
$DIMTXT
 40
2.5
  9
$DIMCEN
 40
0.0
  9
$DIMTSZ
 40
0.0
  9
$DIMTOL
 70
     0
  9
$DIMLIM
 70
     0
  9
$DIMTIH
 70
     1
  9
$DIMTOH
 70
     1
  9
$DIMSE1
 70
     0
  9
$DIMSE2
 70
     0
  9
$DIMTAD
 70
     1
  9
$DIMZIN
 70
    12
  9
$DIMBLK
  1
OPEN30
  9
$DIMASO
 70
     1
  9
$DIMSHO
 70
     1
  9
$DIMPOST
  1

  9
$DIMAPOST
  1

  9
$DIMALT
 70
     0
  9
$DIMALTD
 70
     2
  9
$DIMALTF
 40
25.4
  9
$DIMLFAC
 40
1.0
  9
$DIMTOFL
 70
     0
  9
$DIMTVP
 40
0.0
  9
$DIMTIX
 70
     0
  9
$DIMSOXD
 70
     0
  9
$DIMSAH
 70
     0
  9
$DIMBLK1
  1

  9
$DIMBLK2
  1

  9
$DIMSTYLE
  2
SC_DEFAUT
  9
$DIMCLRD
 70
     0
  9
$DIMCLRE
 70
     0
  9
$DIMCLRT
 70
     0
  9
$DIMTFAC
 40
1.0
  9
$DIMGAP
 40
2.0
  9
$LUNITS
 70
     2
  9
$LUPREC
 70
     1
  9
$SKETCHINC
 40
0.1
  9
$FILLETRAD
 40
0.0
  9
$AUNITS
 70
     0
  9
$AUPREC
 70
     0
  9
$MENU
  1
acad
  9
$ELEVATION
 40
0.0
  9
$PELEVATION
 40
0.0
  9
$THICKNESS
 40
0.0
  9
$LIMCHECK
 70
     0
  9
$BLIPMODE
 70
     0
  9
$CHAMFERA
 40
0.0
  9
$CHAMFERB
 40
0.0
  9
$SKPOLY
 70
     0
  9
$TDCREATE
 40
2450373.687919
  9
$TDUPDATE
 40
2453054.639329
  9
$TDINDWG
 40
0.857049
  9
$TDUSRTIMER
 40
0.857049
  9
$USRTIMER
 70
     1
  9
$ANGBASE
 50
0.0
  9
$ANGDIR
 70
     0
  9
$PDMODE
 70
    32
  9
$PDSIZE
 40
0.0
  9
$PLINEWID
 40
0.0
  9
$COORDS
 70
     1
  9
$SPLFRAME
 70
     0
  9
$SPLINETYPE
 70
     6
  9
$SPLINESEGS
 70
     8
  9
$ATTDIA
 70
     0
  9
$ATTREQ
 70
     1
  9
$HANDLING
 70
     1
  9
$HANDSEED
  5
793D
  9
$SURFTAB1
 70
     6
  9
$SURFTAB2
 70
     6
  9
$SURFTYPE
 70
     6
  9
$SURFU
 70
     6
  9
$SURFV
 70
     6
  9
$UCSNAME
  2

  9
$UCSORG
 10
0.0
 20
0.0
 30
0.0
  9
$UCSXDIR
 10
1.0
 20
0.0
 30
0.0
  9
$UCSYDIR
 10
0.0
 20
1.0
 30
0.0
  9
$PUCSNAME
  2

  9
$PUCSORG
 10
0.0
 20
0.0
 30
0.0
  9
$PUCSXDIR
 10
1.0
 20
0.0
 30
0.0
  9
$PUCSYDIR
 10
0.0
 20
1.0
 30
0.0
  9
$USERI1
 70
     0
  9
$USERI2
 70
     0
  9
$USERI3
 70
     0
  9
$USERI4
 70
     0
  9
$USERI5
 70
     0
  9
$USERR1
 40
0.0
  9
$USERR2
 40
0.0
  9
$USERR3
 40
0.0
  9
$USERR4
 40
0.0
  9
$USERR5
 40
0.0
  9
$WORLDVIEW
 70
     1
  9
$SHADEDGE
 70
     3
  9
$SHADEDIF
 70
    70
  9
$TILEMODE
 70
     1
  9
$MAXACTVP
 70
    16
  9
$PLIMCHECK
 70
     0
  9
$PEXTMIN
 10
-1.452248
 20
-0.437698
 30
0.0
  9
$PEXTMAX
 10
12.749749
 20
8.310198
 30
0.0
  9
$PLIMMIN
 10
0.0
 20
0.0
  9
$PLIMMAX
 10
12.0
 20
9.0
  9
$UNITMODE
 70
     0
  9
$VISRETAIN
 70
     0
  9
$PLINEGEN
 70
     0
  9
$PSLTSCALE
 70
     0
  0
ENDSEC
  0
SECTION
  2
TABLES
  0
TABLE
  2
VPORT
 70
     2
  0
VPORT
  2
*ACTIVE
 70
     0
 10
0.0
 20
0.0
 11
1.0
 21
1.0
 12
1248.47078
 22
102.712391
 13
0.0
 23
0.0
 14
1.0
 24
1.0
 15
10.0
 25
10.0
 16
0.0
 26
0.0
 36
1.0
 17
0.0
 27
0.0
 37
0.0
 40
184.361183
 41
1.466346
 42
50.0
 43
0.0
 44
0.0
 50
0.0
 51
0.0
 71
     0
 72
   100
 73
     1
 74
     0
 75
     0
 76
     0
 77
     0
 78
     0
  0
ENDTAB
  0
TABLE
  2
LTYPE
 70
     3
  0
LTYPE
  2
CONTINUOUS
 70
     0
  3
Solid line
 72
    65
 73
     0
 40
0.0
  0
LTYPE
  2
AXES2
 70
     0
  3
___ _ ___ _ ___ _ ___ _ ___ _ ___ _ ___ _ ___ _
 72
    65
 73
     4
 40
1.125
 49
0.75
 49
-0.125
 49
0.125
 49
-0.125
  0
LTYPE
  2
CACHE2
 70
     0
  3
Caché (x.5) _ _ _ _ _ _ _ _ _ _ _ _ _ _ _ _ _
 72
    65
 73
     2
 40
0.1875
 49
0.125
 49
-0.0625
  0
ENDTAB
  0
TABLE
  2
LAYER
 70
     6
  0
LAYER
  2
0
 70
     0
 62
   255
  6
CONTINUOUS
  0
LAYER
  2
COTATION1
 70
     0
 62
     2
  6
CONTINUOUS
  0
LAYER
  2
AXE
 70
     0
 62
    80
  6
AXES2
  0
LAYER
  2
DEFPOINTS
 70
     0
 62
     7
  6
CONTINUOUS
  0
LAYER
  2
ALPHA
 70
     0
 62
   254
  6
CONTINUOUS
  0
LAYER
  2
POINTILLE_COURT
 70
     0
 62
    41
  6
CACHE2
  0
ENDTAB
  0
TABLE
  2
STYLE
 70
     2
  0
STYLE
  2
ROMANS
 70
     0
 40
0.0
 41
1.0
 50
0.0
 71
     0
 42
6.0
  3
romans
  4

  0
STYLE
  2
STANDARD
 70
     0
 40
0.2
 41
1.0
 50
0.0
 71
     0
 42
0.2
  3
txt
  4

  0
ENDTAB
  0
TABLE
  2
VIEW
 70
     0
  0
ENDTAB
  0
TABLE
  2
UCS
 70
     0
  0
ENDTAB
  0
TABLE
  2
APPID
 70
     1
  0
APPID
  2
ACAD
 70
     0
  0
ENDTAB
  0
TABLE
  2
DIMSTYLE
 70
     1
  0
DIMSTYLE
  2
SC_DEFAUT
 70
     0
  3

  4

  5
OPEN30
  6

  7

 40
1.0
 41
5.0
 42
2.0
 43
0.38
 44
2.5
 45
0.0
 46
0.0
 47
0.0
 48
0.0
140
2.5
141
0.0
142
0.0
143
25.4
144
1.0
145
0.0
146
1.0
147
2.0
 71
     0
 72
     0
 73
     1
 74
     1
 75
     0
 76
     0
 77
     1
 78
    12
170
     0
171
     2
172
     0
173
     0
174
     0
175
     0
176
     0
177
     0
178
     0
  0
ENDTAB
  0
ENDSEC
  0
SECTION
  2
BLOCKS
  0
BLOCK
  8
0
  2
$MODEL_SPACE
 70
     0
 10
0.0
 20
0.0
 30
0.0
  3
$MODEL_SPACE
  1

  0
ENDBLK
  5
78B5
  8
0
  0
BLOCK
 67
     1
  8
0
  2
$PAPER_SPACE
 70
     0
 10
0.0
 20
0.0
 30
0.0
  3
$PAPER_SPACE
  1

  0
ENDBLK
  5
78B3
 67
     1
  8
0
  0
BLOCK
  8
0
  2
COTE
 70
     0
 10
0.0
 20
0.0
 30
0.0
  3
COTE
  1

  0
ENDBLK
  5
F
  8
0
  0
BLOCK
  8
0
  2
FOND
 70
     0
 10
0.0
 20
0.0
 30
0.0
  3
FOND
  1

  0
ENDBLK
  5
75
  8
0
  0
BLOCK
  8
0
  2
_OPEN30
 70
     0
 10
0.0
 20
0.0
 30
0.0
  3
_OPEN30
  1

  0
LINE
  5
4B05
  8
COTATION1
 62
     0
 10
-1.0
 20
0.267949
 30
0.0
 11
0.0
 21
0.0
 31
0.0
1001
ACAD
1000
RTLwPs
1070
   158
  0
LINE
  5
4B06
  8
COTATION1
 62
     0
 10
0.0
 20
0.0
 30
0.0
 11
-1.0
 21
-0.267949
 31
0.0
1001
ACAD
1000
RTLwPs
1070
   158
  0
LINE
  5
4B07
  8
COTATION1
 62
     0
 10
0.0
 20
0.0
 30
0.0
 11
-1.0
 21
0.0
 31
0.0
1001
ACAD
1000
RTLwPs
1070
   158
  0
ENDBLK
  5
4B09
  8
0
  0
BLOCK
  8
0
  2
*D3
 70
     1
 10
0.0
 20
0.0
 30
0.0
  3
*D3
  1

  0
LINE
  5
76DE
  8
COTATION1
 62
     0
 10
1226.930729
 20
114.878457
 30
0.0
 11
1226.930729
 21
182.228457
 31
0.0
1001
ACAD
1000
RTLwPs
1070
   158
  0
LINE
  5
76DF
  8
COTATION1
 62
     0
 10
1246.930729
 20
114.878457
 30
0.0
 11
1246.930729
 21
182.228457
 31
0.0
1001
ACAD
1000
RTLwPs
1070
   158
  0
LINE
  5
76E0
  8
COTATION1
 62
     0
 10
1231.930729
 20
179.728457
 30
0.0
 11
1241.930729
 21
179.728457
 31
0.0
1001
ACAD
1000
RTLwPs
1070
   158
  0
INSERT
  5
76E1
  8
COTATION1
 62
     0
  2
_OPEN30
 10
1226.930729
 20
179.728457
 30
0.0
 41
5.0
 42
5.0
 43
5.0
 50
180.0
1001
ACAD
1000
RTLwPs
1070
   158
  0
INSERT
  5
76E2
  8
COTATION1
 62
     0
  2
_OPEN30
 10
1246.930729
 20
179.728457
 30
0.0
 41
5.0
 42
5.0
 43
5.0
1001
ACAD
1000
RTLwPs
1070
   158
  0
TEXT
  5
76E3
  8
COTATION1
 62
     0
 10
1234.549776
 20
181.728457
 30
0.0
 40
2.5
  1
20
1001
ACAD
1000
MTEXTBEGIN
1070
    73
1070
     1
1070
    44
1040
1.0
1070
    74
1070
     0
1000
MTEXTEND
  0
POINT
  5
76E4
  8
DEFPOINTS
 62
     0
 10
1226.930729
 20
112.878457
 30
0.0
  0
POINT
  5
76E5
  8
DEFPOINTS
 62
     0
 10
1246.930729
 20
112.878457
 30
0.0
  0
POINT
  5
76E6
  8
DEFPOINTS
 62
     0
 10
1246.930729
 20
179.728457
 30
0.0
  0
ENDBLK
  5
74D5
  8
0
  0
BLOCK
  8
0
  2
*D4
 70
     1
 10
0.0
 20
0.0
 30
0.0
  3
*D4
  1

  0
LINE
  5
76E7
  8
COTATION1
 62
     0
 10
1225.930729
 20
116.878457
 30
0.0
 11
1225.930729
 21
192.228457
 31
0.0
1001
ACAD
1000
RTLwPs
1070
   158
  0
LINE
  5
76E8
  8
COTATION1
 62
     0
 10
1247.930729
 20
116.878457
 30
0.0
 11
1247.930729
 21
192.228457
 31
0.0
1001
ACAD
1000
RTLwPs
1070
   158
  0
LINE
  5
76E9
  8
COTATION1
 62
     0
 10
1230.930729
 20
189.728457
 30
0.0
 11
1242.930729
 21
189.728457
 31
0.0
1001
ACAD
1000
RTLwPs
1070
   158
  0
INSERT
  5
76EA
  8
COTATION1
 62
     0
  2
_OPEN30
 10
1225.930729
 20
189.728457
 30
0.0
 41
5.0
 42
5.0
 43
5.0
 50
180.0
1001
ACAD
1000
RTLwPs
1070
   158
  0
INSERT
  5
76EB
  8
COTATION1
 62
     0
  2
_OPEN30
 10
1247.930729
 20
189.728457
 30
0.0
 41
5.0
 42
5.0
 43
5.0
1001
ACAD
1000
RTLwPs
1070
   158
  0
TEXT
  5
76EC
  8
COTATION1
 62
     0
 10
1234.549776
 20
191.728457
 30
0.0
 40
2.5
  1
22
1001
ACAD
1000
MTEXTBEGIN
1070
    73
1070
     1
1070
    44
1040
1.0
1070
    74
1070
     0
1000
MTEXTEND
  0
POINT
  5
76ED
  8
DEFPOINTS
 62
     0
 10
1225.930729
 20
114.878457
 30
0.0
  0
POINT
  5
76EE
  8
DEFPOINTS
 62
     0
 10
1247.930729
 20
114.878457
 30
0.0
  0
POINT
  5
76EF
  8
DEFPOINTS
 62
     0
 10
1247.930729
 20
189.728457
 30
0.0
  0
ENDBLK
  5
74E1
  8
0
  0
BLOCK
  8
0
  2
*D5
 70
     1
 10
0.0
 20
0.0
 30
0.0
  3
*D5
  1

  0
LINE
  5
7741
  8
COTATION1
 62
     0
 10
1255.930729
 20
149.728457
 30
0.0
 11
1198.930729
 21
149.728457
 31
0.0
1001
ACAD
1000
RTLwPs
1070
   158
  0
LINE
  5
7742
  8
COTATION1
 62
     0
 10
1220.780729
 20
108.728457
 30
0.0
 11
1198.930729
 21
108.728457
 31
0.0
1001
ACAD
1000
RTLwPs
1070
   158
  0
LINE
  5
7743
  8
COTATION1
 62
     0
 10
1201.430729
 20
144.728457
 30
0.0
 11
1201.430729
 21
132.478457
 31
0.0
1001
ACAD
1000
RTLwPs
1070
   158
  0
LINE
  5
7744
  8
COTATION1
 62
     0
 10
1201.430729
 20
113.728457
 30
0.0
 11
1201.430729
 21
125.978457
 31
0.0
1001
ACAD
1000
RTLwPs
1070
   158
  0
INSERT
  5
7745
  8
COTATION1
 62
     0
  2
_OPEN30
 10
1201.430729
 20
149.728457
 30
0.0
 41
5.0
 42
5.0
 43
5.0
 50
90.0
1001
ACAD
1000
RTLwPs
1070
   158
  0
INSERT
  5
7746
  8
COTATION1
 62
     0
  2
_OPEN30
 10
1201.430729
 20
108.728457
 30
0.0
 41
5.0
 42
5.0
 43
5.0
 50
270.0
1001
ACAD
1000
RTLwPs
1070
   158
  0
TEXT
  5
7747
  8
COTATION1
 62
     0
 10
1199.406919
 20
127.978457
 30
0.0
 40
2.5
  1
41
1001
ACAD
1000
MTEXTBEGIN
1070
    73
1070
     1
1070
    44
1040
1.0
1070
    74
1070
     0
1000
MTEXTEND
  0
POINT
  5
7748
  8
DEFPOINTS
 62
     0
 10
1257.930729
 20
149.728457
 30
0.0
  0
POINT
  5
7749
  8
DEFPOINTS
 62
     0
 10
1222.780729
 20
108.728457
 30
0.0
  0
POINT
  5
774A
  8
DEFPOINTS
 62
     0
 10
1201.430729
 20
108.728457
 30
0.0
  0
ENDBLK
  5
754D
  8
0
  0
BLOCK
  8
0
  2
*D6
 70
     1
 10
0.0
 20
0.0
 30
0.0
  3
*D6
  1

  0
LINE
  5
76F0
  8
COTATION1
 62
     0
 10
1197.162921
 20
39.515317
 30
0.0
 11
1207.496255
 21
39.515317
 31
0.0
1001
ACAD
1000
RTLwPs
1070
   158
  0
LINE
  5
76F1
  8
COTATION1
 62
     0
 10
1207.496255
 20
39.515317
 30
0.0
 11
1222.632023
 21
53.344118
 31
0.0
1001
ACAD
1000
RTLwPs
1070
   158
  0
TEXT
  5
76F2
  8
COTATION1
 62
     0
 10
1196.805778
 20
41.515317
 30
0.0
 40
2.5
  1
2x%%c3
1001
ACAD
1000
MTEXTBEGIN
1070
    73
1070
     1
1070
    44
1040
1.0
1070
    74
1070
     0
1000
MTEXTEND
  0
INSERT
  5
76F3
  8
COTATION1
 62
     0
  2
_OPEN30
 10
1226.323335
 20
56.716687
 30
0.0
 41
5.0
 42
5.0
 43
5.0
 50
42.416396
1001
ACAD
1000
RTLwPs
1070
   158
  0
POINT
  5
76F4
  8
DEFPOINTS
 62
     0
 10
1226.323335
 20
56.716687
 30
0.0
  0
POINT
  5
76F5
  8
DEFPOINTS
 62
     0
 10
1228.538122
 20
58.740228
 30
0.0
  0
ENDBLK
  5
7603
  8
0
  0
BLOCK
  8
0
  2
*D7
 70
     1
 10
0.0
 20
0.0
 30
0.0
  3
*D7
  1

  0
LINE
  5
76F6
  8
COTATION1
 62
     0
 10
1227.430729
 20
51.228457
 30
0.0
 11
1227.430729
 21
21.228457
 31
0.0
1001
ACAD
1000
RTLwPs
1070
   158
  0
LINE
  5
76F7
  8
COTATION1
 62
     0
 10
1246.430729
 20
51.228457
 30
0.0
 11
1246.430729
 21
21.228457
 31
0.0
1001
ACAD
1000
RTLwPs
1070
   158
  0
LINE
  5
76F8
  8
COTATION1
 62
     0
 10
1232.430729
 20
23.728457
 30
0.0
 11
1241.430729
 21
23.728457
 31
0.0
1001
ACAD
1000
RTLwPs
1070
   158
  0
INSERT
  5
76F9
  8
COTATION1
 62
     0
  2
_OPEN30
 10
1227.430729
 20
23.728457
 30
0.0
 41
5.0
 42
5.0
 43
5.0
 50
180.0
1001
ACAD
1000
RTLwPs
1070
   158
  0
INSERT
  5
76FA
  8
COTATION1
 62
     0
  2
_OPEN30
 10
1246.430729
 20
23.728457
 30
0.0
 41
5.0
 42
5.0
 43
5.0
1001
ACAD
1000
RTLwPs
1070
   158
  0
TEXT
  5
76FB
  8
COTATION1
 62
     0
 10
1234.430729
 20
25.728457
 30
0.0
 40
2.5
  1
19
1001
ACAD
1000
MTEXTBEGIN
1070
    73
1070
     1
1070
    44
1040
1.0
1070
    74
1070
     0
1000
MTEXTEND
  0
POINT
  5
76FC
  8
DEFPOINTS
 62
     0
 10
1227.430729
 20
53.228457
 30
0.0
  0
POINT
  5
76FD
  8
DEFPOINTS
 62
     0
 10
1246.430729
 20
53.228457
 30
0.0
  0
POINT
  5
76FE
  8
DEFPOINTS
 62
     0
 10
1246.430729
 20
23.728457
 30
0.0
  0
ENDBLK
  5
760F
  8
0
  0
BLOCK
  8
0
  2
*D8
 70
     1
 10
0.0
 20
0.0
 30
0.0
  3
*D8
  1

  0
LINE
  5
77E9
  8
COTATION1
 62
     0
 10
1254.080729
 20
110.728457
 30
0.0
 11
1278.441108
 21
110.728457
 31
0.0
  0
LINE
  5
77EA
  8
COTATION1
 62
     0
 10
1253.080729
 20
108.728457
 30
0.0
 11
1278.441108
 21
108.728457
 31
0.0
  0
LINE
  5
77EB
  8
COTATION1
 62
     0
 10
1275.941108
 20
115.728457
 30
0.0
 11
1275.941108
 21
120.728457
 31
0.0
  0
LINE
  5
77EC
  8
COTATION1
 62
     0
 10
1275.941108
 20
103.728457
 30
0.0
 11
1275.941108
 21
98.728457
 31
0.0
  0
TEXT
  5
77ED
  8
COTATION1
 62
     0
 10
1271.917299
 20
98.926735
 30
0.0
 40
2.5
  1
2
  0
INSERT
  5
77EE
  8
COTATION1
 62
     0
  2
_OPEN30
 10
1275.941108
 20
110.728457
 30
0.0
 41
5.0
 42
5.0
 43
5.0
 50
270.0
  0
INSERT
  5
77EF
  8
COTATION1
 62
     0
  2
_OPEN30
 10
1275.941108
 20
108.728457
 30
0.0
 41
5.0
 42
5.0
 43
5.0
 50
90.0
  0
POINT
  5
77F0
  8
DEFPOINTS
 62
     0
 10
1252.080729
 20
110.728457
 30
0.0
  0
POINT
  5
77F1
  8
DEFPOINTS
 62
     0
 10
1251.080729
 20
108.728457
 30
0.0
  0
POINT
  5
77F2
  8
DEFPOINTS
 62
     0
 10
1275.941108
 20
108.728457
 30
0.0
  0
ENDBLK
  5
761C
  8
0
  0
BLOCK
  8
0
  2
*D9
 70
     1
 10
0.0
 20
0.0
 30
0.0
  3
*D9
  1

  0
LINE
  5
7709
  8
COTATION1
 62
     0
 10
1238.930729
 20
118.728457
 30
0.0
 11
1288.441108
 21
118.728457
 31
0.0
1001
ACAD
1000
RTLwPs
1070
   158
  0
LINE
  5
770A
  8
COTATION1
 62
     0
 10
1253.080729
 20
108.728457
 30
0.0
 11
1288.441108
 21
108.728457
 31
0.0
1001
ACAD
1000
RTLwPs
1070
   158
  0
LINE
  5
770B
  8
COTATION1
 62
     0
 10
1285.941108
 20
123.728457
 30
0.0
 11
1285.941108
 21
128.728457
 31
0.0
1001
ACAD
1000
RTLwPs
1070
   158
  0
LINE
  5
770C
  8
COTATION1
 62
     0
 10
1285.941108
 20
103.728457
 30
0.0
 11
1285.941108
 21
98.728457
 31
0.0
1001
ACAD
1000
RTLwPs
1070
   158
  0
INSERT
  5
770D
  8
COTATION1
 62
     0
  2
_OPEN30
 10
1285.941108
 20
118.728457
 30
0.0
 41
5.0
 42
5.0
 43
5.0
 50
270.0
1001
ACAD
1000
RTLwPs
1070
   158
  0
INSERT
  5
770E
  8
COTATION1
 62
     0
  2
_OPEN30
 10
1285.941108
 20
108.728457
 30
0.0
 41
5.0
 42
5.0
 43
5.0
 50
90.0
1001
ACAD
1000
RTLwPs
1070
   158
  0
TEXT
  5
770F
  8
COTATION1
 62
     0
 10
1283.381585
 20
112.478457
 30
0.0
 40
2.5
  1
10
1001
ACAD
1000
MTEXTBEGIN
1070
    73
1070
     1
1070
    44
1040
1.0
1070
    74
1070
     0
1000
MTEXTEND
  0
POINT
  5
7710
  8
DEFPOINTS
 62
     0
 10
1236.930729
 20
118.728457
 30
0.0
  0
POINT
  5
7711
  8
DEFPOINTS
 62
     0
 10
1251.080729
 20
108.728457
 30
0.0
  0
POINT
  5
7712
  8
DEFPOINTS
 62
     0
 10
1285.941108
 20
108.728457
 30
0.0
  0
ENDBLK
  5
7629
  8
0
  0
BLOCK
  8
0
  2
*D10
 70
     1
 10
0.0
 20
0.0
 30
0.0
  3
*D10
  1

  0
LINE
  5
7713
  8
COTATION1
 62
     0
 10
1253.080729
 20
108.728457
 30
0.0
 11
1288.441108
 21
108.728457
 31
0.0
1001
ACAD
1000
RTLwPs
1070
   158
  0
LINE
  5
7714
  8
COTATION1
 62
     0
 10
1252.930729
 20
57.728457
 30
0.0
 11
1288.441108
 21
57.728457
 31
0.0
1001
ACAD
1000
RTLwPs
1070
   158
  0
LINE
  5
7715
  8
COTATION1
 62
     0
 10
1285.941108
 20
103.728457
 30
0.0
 11
1285.941108
 21
86.478457
 31
0.0
1001
ACAD
1000
RTLwPs
1070
   158
  0
LINE
  5
7716
  8
COTATION1
 62
     0
 10
1285.941108
 20
62.728457
 30
0.0
 11
1285.941108
 21
79.978457
 31
0.0
1001
ACAD
1000
RTLwPs
1070
   158
  0
INSERT
  5
7717
  8
COTATION1
 62
     0
  2
_OPEN30
 10
1285.941108
 20
108.728457
 30
0.0
 41
5.0
 42
5.0
 43
5.0
 50
90.0
1001
ACAD
1000
RTLwPs
1070
   158
  0
INSERT
  5
7718
  8
COTATION1
 62
     0
  2
_OPEN30
 10
1285.941108
 20
57.728457
 30
0.0
 41
5.0
 42
5.0
 43
5.0
 50
270.0
1001
ACAD
1000
RTLwPs
1070
   158
  0
TEXT
  5
7719
  8
COTATION1
 62
     0
 10
1283.917299
 20
81.978457
 30
0.0
 40
2.5
  1
51
1001
ACAD
1000
MTEXTBEGIN
1070
    73
1070
     1
1070
    44
1040
1.0
1070
    74
1070
     0
1000
MTEXTEND
  0
POINT
  5
771A
  8
DEFPOINTS
 62
     0
 10
1251.080729
 20
108.728457
 30
0.0
  0
POINT
  5
771B
  8
DEFPOINTS
 62
     0
 10
1250.930729
 20
57.728457
 30
0.0
  0
POINT
  5
771C
  8
DEFPOINTS
 62
     0
 10
1285.941108
 20
57.728457
 30
0.0
  0
ENDBLK
  5
7636
  8
0
  0
BLOCK
  8
0
  2
*D11
 70
     1
 10
0.0
 20
0.0
 30
0.0
  3
*D11
  1

  0
LINE
  5
7694
  8
COTATION1
 62
     0
 10
1292.234562
 20
134.207695
 30
0.0
 11
1270.353609
 21
134.207695
 31
0.0
1001
ACAD
1000
RTLwPs
1070
   158
  0
LINE
  5
7695
  8
COTATION1
 62
     0
 10
1270.353609
 20
134.207695
 30
0.0
 11
1252.868884
 21
115.899252
 31
0.0
1001
ACAD
1000
RTLwPs
1070
   158
  0
TEXT
  5
7696
  8
COTATION1
 62
     0
 10
1271.996467
 20
136.207695
 30
0.0
 40
2.5
  1
2x%%c4.3x6.3
1001
ACAD
1000
MTEXTBEGIN
1070
    73
1070
     1
1070
    44
1040
1.0
1070
    74
1070
     0
1000
MTEXTEND
  0
INSERT
  5
7697
  8
COTATION1
 62
     0
  2
_OPEN30
 10
1249.415628
 20
112.283312
 30
0.0
 41
5.0
 42
5.0
 43
5.0
 50
226.318329
1001
ACAD
1000
RTLwPs
1070
   158
  0
POINT
  5
7698
  8
DEFPOINTS
 62
     0
 10
1249.415628
 20
112.283312
 30
0.0
  0
POINT
  5
7699
  8
DEFPOINTS
 62
     0
 10
1246.445829
 20
109.173603
 30
0.0
  0
ENDBLK
  5
769B
  8
0
  0
BLOCK
  8
0
  2
*D12
 70
     1
 10
0.0
 20
0.0
 30
0.0
  3
*D12
  1

  0
LINE
  5
77A9
  8
COTATION1
 62
     0
 10
1259.930729
 20
149.728457
 30
0.0
 11
1298.430729
 21
149.728457
 31
0.0
1001
ACAD
1000
RTLwPs
1070
   158
  0
LINE
  5
77AA
  8
COTATION1
 62
     0
 10
1249.780729
 20
50.228457
 30
0.0
 11
1298.430729
 21
50.228457
 31
0.0
1001
ACAD
1000
RTLwPs
1070
   158
  0
LINE
  5
77AB
  8
COTATION1
 62
     0
 10
1295.930729
 20
144.728457
 30
0.0
 11
1295.930729
 21
103.228457
 31
0.0
1001
ACAD
1000
RTLwPs
1070
   158
  0
LINE
  5
77AC
  8
COTATION1
 62
     0
 10
1295.930729
 20
55.228457
 30
0.0
 11
1295.930729
 21
96.728457
 31
0.0
1001
ACAD
1000
RTLwPs
1070
   158
  0
INSERT
  5
77AD
  8
COTATION1
 62
     0
  2
_OPEN30
 10
1295.930729
 20
149.728457
 30
0.0
 41
5.0
 42
5.0
 43
5.0
 50
90.0
1001
ACAD
1000
RTLwPs
1070
   158
  0
INSERT
  5
77AE
  8
COTATION1
 62
     0
  2
_OPEN30
 10
1295.930729
 20
50.228457
 30
0.0
 41
5.0
 42
5.0
 43
5.0
 50
270.0
1001
ACAD
1000
RTLwPs
1070
   158
  0
TEXT
  5
77AF
  8
COTATION1
 62
     0
 10
1291.764062
 20
98.728457
 30
0.0
 40
2.5
  1
99.5
1001
ACAD
1000
MTEXTBEGIN
1070
    73
1070
     1
1070
    44
1040
1.0
1070
    74
1070
     0
1000
MTEXTEND
  0
POINT
  5
77B0
  8
DEFPOINTS
 62
     0
 10
1257.930729
 20
149.728457
 30
0.0
  0
POINT
  5
77B1
  8
DEFPOINTS
 62
     0
 10
1247.780729
 20
50.228457
 30
0.0
  0
POINT
  5
77B2
  8
DEFPOINTS
 62
     0
 10
1295.930729
 20
50.228457
 30
0.0
  0
ENDBLK
  5
76A8
  8
0
  0
BLOCK
  8
0
  2
*D13
 70
     1
 10
0.0
 20
0.0
 30
0.0
  3
*D13
  1

  0
LINE
  5
76AA
  8
COTATION1
 62
     0
 10
1271.654579
 20
71.92229
 30
0.0
 11
1257.749817
 21
71.92229
 31
0.0
1001
ACAD
1000
RTLwPs
1070
   158
  0
LINE
  5
76AB
  8
COTATION1
 62
     0
 10
1257.749817
 20
71.92229
 30
0.0
 11
1231.52098
 21
103.246479
 31
0.0
1001
ACAD
1000
RTLwPs
1070
   158
  0
TEXT
  5
76AC
  8
COTATION1
 62
     0
 10
1259.392674
 20
73.92229
 30
0.0
 40
2.5
  1
2x%%c4.3
1001
ACAD
1000
MTEXTBEGIN
1070
    73
1070
     1
1070
    44
1040
1.0
1070
    74
1070
     0
1000
MTEXTEND
  0
INSERT
  5
76AD
  8
COTATION1
 62
     0
  2
_OPEN30
 10
1228.311014
 20
107.08003
 30
0.0
 41
5.0
 42
5.0
 43
5.0
 50
129.940614
1001
ACAD
1000
RTLwPs
1070
   158
  0
POINT
  5
76AE
  8
DEFPOINTS
 62
     0
 10
1228.311014
 20
107.08003
 30
0.0
  0
POINT
  5
76AF
  8
DEFPOINTS
 62
     0
 10
1225.550443
 20
110.376884
 30
0.0
  0
ENDBLK
  5
76B1
  8
0
  0
BLOCK
  8
0
  2
*D14
 70
     1
 10
0.0
 20
0.0
 30
0.0
  3
*D14
  1

  0
LINE
  5
76B3
  8
COTATION1
 62
     0
 10
1221.430729
 20
51.728457
 30
0.0
 11
1221.430729
 21
11.228457
 31
0.0
1001
ACAD
1000
RTLwPs
1070
   158
  0
LINE
  5
76B4
  8
COTATION1
 62
     0
 10
1252.430729
 20
51.728457
 30
0.0
 11
1252.430729
 21
11.228457
 31
0.0
1001
ACAD
1000
RTLwPs
1070
   158
  0
LINE
  5
76B5
  8
COTATION1
 62
     0
 10
1226.430729
 20
13.728457
 30
0.0
 11
1247.430729
 21
13.728457
 31
0.0
1001
ACAD
1000
RTLwPs
1070
   158
  0
INSERT
  5
76B6
  8
COTATION1
 62
     0
  2
_OPEN30
 10
1221.430729
 20
13.728457
 30
0.0
 41
5.0
 42
5.0
 43
5.0
 50
180.0
1001
ACAD
1000
RTLwPs
1070
   158
  0
INSERT
  5
76B7
  8
COTATION1
 62
     0
  2
_OPEN30
 10
1252.430729
 20
13.728457
 30
0.0
 41
5.0
 42
5.0
 43
5.0
1001
ACAD
1000
RTLwPs
1070
   158
  0
TEXT
  5
76B8
  8
COTATION1
 62
     0
 10
1234.906919
 20
15.728457
 30
0.0
 40
2.5
  1
31
1001
ACAD
1000
MTEXTBEGIN
1070
    73
1070
     1
1070
    44
1040
1.0
1070
    74
1070
     0
1000
MTEXTEND
  0
POINT
  5
76B9
  8
DEFPOINTS
 62
     0
 10
1221.430729
 20
53.728457
 30
0.0
  0
POINT
  5
76BA
  8
DEFPOINTS
 62
     0
 10
1252.430729
 20
53.728457
 30
0.0
  0
POINT
  5
76BB
  8
DEFPOINTS
 62
     0
 10
1252.430729
 20
13.728457
 30
0.0
  0
ENDBLK
  5
76BD
  8
0
  0
BLOCK
  8
0
  2
*D15
 70
     1
 10
0.0
 20
0.0
 30
0.0
  3
*D15
  1

  0
LINE
  5
7737
  8
COTATION1
 62
     0
 10
1252.430729
 20
118.028457
 30
0.0
 11
1252.430729
 21
172.228457
 31
0.0
1001
ACAD
1000
RTLwPs
1070
   158
  0
LINE
  5
7738
  8
COTATION1
 62
     0
 10
1264.930729
 20
144.728457
 30
0.0
 11
1264.930729
 21
172.228457
 31
0.0
1001
ACAD
1000
RTLwPs
1070
   158
  0
LINE
  5
7739
  8
COTATION1
 62
     0
 10
1247.430729
 20
169.728457
 30
0.0
 11
1242.430729
 21
169.728457
 31
0.0
1001
ACAD
1000
RTLwPs
1070
   158
  0
LINE
  5
773A
  8
COTATION1
 62
     0
 10
1269.930729
 20
169.728457
 30
0.0
 11
1274.930729
 21
169.728457
 31
0.0
1001
ACAD
1000
RTLwPs
1070
   158
  0
INSERT
  5
773B
  8
COTATION1
 62
     0
  2
_OPEN30
 10
1252.430729
 20
169.728457
 30
0.0
 41
5.0
 42
5.0
 43
5.0
1001
ACAD
1000
RTLwPs
1070
   158
  0
INSERT
  5
773C
  8
COTATION1
 62
     0
  2
_OPEN30
 10
1264.930729
 20
169.728457
 30
0.0
 41
5.0
 42
5.0
 43
5.0
 50
180.0
1001
ACAD
1000
RTLwPs
1070
   158
  0
TEXT
  5
773D
  8
COTATION1
 62
     0
 10
1254.33549
 20
171.728457
 30
0.0
 40
2.5
  1
12.5
1001
ACAD
1000
MTEXTBEGIN
1070
    73
1070
     1
1070
    44
1040
1.0
1070
    74
1070
     0
1000
MTEXTEND
  0
POINT
  5
773E
  8
DEFPOINTS
 62
     0
 10
1252.430729
 20
116.028457
 30
0.0
  0
POINT
  5
773F
  8
DEFPOINTS
 62
     0
 10
1264.930729
 20
142.728457
 30
0.0
  0
POINT
  5
7740
  8
DEFPOINTS
 62
     0
 10
1264.930729
 20
169.728457
 30
0.0
  0
ENDBLK
  5
76D4
  8
0
  0
BLOCK
  8
0
  2
*D16
 70
     1
 10
0.0
 20
0.0
 30
0.0
  3
*D16
  1

  0
LINE
  5
7731
  8
COTATION1
 62
     0
 10
1279.422482
 20
157.483071
 30
0.0
 11
1270.993911
 21
157.483071
 31
0.0
1001
ACAD
1000
RTLwPs
1070
   158
  0
LINE
  5
7732
  8
COTATION1
 62
     0
 10
1270.993911
 20
157.483071
 30
0.0
 11
1265.88538
 21
151.713084
 31
0.0
1001
ACAD
1000
RTLwPs
1070
   158
  0
TEXT
  5
7733
  8
COTATION1
 62
     0
 10
1272.755815
 20
159.483071
 30
0.0
 40
2.5
  1
%%c14
1001
ACAD
1000
MTEXTBEGIN
1070
    73
1070
     1
1070
    44
1040
1.0
1070
    74
1070
     0
1000
MTEXTEND
  0
INSERT
  5
7734
  8
COTATION1
 62
     0
  2
_OPEN30
 10
1262.570942
 20
147.969489
 30
0.0
 41
5.0
 42
5.0
 43
5.0
 50
228.479526
1001
ACAD
1000
RTLwPs
1070
   158
  0
POINT
  5
7735
  8
DEFPOINTS
 62
     0
 10
1262.570942
 20
147.969489
 30
0.0
  0
POINT
  5
7736
  8
DEFPOINTS
 62
     0
 10
1253.290515
 20
137.487425
 30
0.0
  0
ENDBLK
  5
76DD
  8
0
  0
ENDSEC
  0
SECTION
  2
ENTITIES
  0
INSERT
  5
A
  8
0
  2
COTE
 10
0.0
 20
0.0
 30
0.0
  0
INSERT
  5
17
  8
0
  2
COTE
 10
284.010391
 20
6.373258
 30
0.0
  0
INSERT
  5
72
  8
0
  2
FOND
 10
0.0
 20
0.0
 30
0.0
  0
LINE
  5
63A2
  8
AXE
 10
1217.430729
 20
86.228457
 30
0.0
 11
1267.430729
 21
86.228457
 31
0.0
  0
POLYLINE
  5
6632
  8
ALPHA
 66
     1
 10
0.0
 20
0.0
 30
0.0
 70
   128
  0
VERTEX
  5
78BB
  8
ALPHA
 10
1228.476134
 20
116.646215
 30
0.0
  0
VERTEX
  5
78BC
  8
ALPHA
 10
1228.666193
 20
116.646215
 30
0.0
  0
VERTEX
  5
78BD
  8
ALPHA
 10
1229.203315
 20
116.646215
 30
0.0
  0
VERTEX
  5
78BE
  8
ALPHA
 10
1230.037921
 20
116.646215
 30
0.0
  0
VERTEX
  5
78BF
  8
ALPHA
 10
1231.120428
 20
116.646215
 30
0.0
  0
VERTEX
  5
78C0
  8
ALPHA
 10
1233.83083
 20
116.646215
 30
0.0
  0
VERTEX
  5
78C1
  8
ALPHA
 10
1236.937875
 20
116.646215
 30
0.0
  0
VERTEX
  5
78C2
  8
ALPHA
 10
1240.044921
 20
116.646215
 30
0.0
  0
VERTEX
  5
78C3
  8
ALPHA
 10
1242.755322
 20
116.646215
 30
0.0
  0
VERTEX
  5
78C4
  8
ALPHA
 10
1243.83783
 20
116.646215
 30
0.0
  0
VERTEX
  5
78C5
  8
ALPHA
 10
1244.672435
 20
116.646215
 30
0.0
  0
VERTEX
  5
78C6
  8
ALPHA
 10
1245.209558
 20
116.646215
 30
0.0
  0
VERTEX
  5
78C7
  8
ALPHA
 10
1245.399616
 20
116.646215
 30
0.0
  0
SEQEND
  5
78C8
  8
ALPHA
  0
POLYLINE
  5
6633
  8
ALPHA
 66
     1
 10
0.0
 20
0.0
 30
0.0
 70
   128
  0
VERTEX
  5
78C9
  8
ALPHA
 10
1252.430729
 20
102.014089
 30
0.0
  0
VERTEX
  5
78CA
  8
ALPHA
 10
1252.210575
 20
102.515048
 30
0.0
  0
VERTEX
  5
78CB
  8
ALPHA
 10
1251.811342
 20
102.840362
 30
0.0
  0
VERTEX
  5
78CC
  8
ALPHA
 10
1250.6828
 20
103.231063
 30
0.0
  0
VERTEX
  5
78CD
  8
ALPHA
 10
1249.289187
 20
103.606102
 30
0.0
  0
VERTEX
  5
78CE
  8
ALPHA
 10
1245.818869
 20
104.264281
 30
0.0
  0
VERTEX
  5
78CF
  8
ALPHA
 10
1241.624634
 20
104.725066
 30
0.0
  0
VERTEX
  5
78D0
  8
ALPHA
 10
1236.930729
 20
104.898623
 30
0.0
  0
VERTEX
  5
78D1
  8
ALPHA
 10
1232.236815
 20
104.725066
 30
0.0
  0
VERTEX
  5
78D2
  8
ALPHA
 10
1228.04252
 20
104.264281
 30
0.0
  0
VERTEX
  5
78D3
  8
ALPHA
 10
1224.572038
 20
103.606102
 30
0.0
  0
VERTEX
  5
78D4
  8
ALPHA
 10
1223.178289
 20
103.231063
 30
0.0
  0
VERTEX
  5
78D5
  8
ALPHA
 10
1222.049565
 20
102.840362
 30
0.0
  0
VERTEX
  5
78D6
  8
ALPHA
 10
1221.650195
 20
102.515048
 30
0.0
  0
VERTEX
  5
78D7
  8
ALPHA
 10
1221.430729
 20
102.014089
 30
0.0
  0
SEQEND
  5
78D8
  8
ALPHA
  0
POLYLINE
  5
6634
  8
ALPHA
 66
     1
 10
0.0
 20
0.0
 30
0.0
 70
   128
210
0.0
220
0.0
230
-1.0
  0
VERTEX
  5
78D9
  8
ALPHA
 10
-1245.373778
 20
104.326884
 30
0.0
  0
VERTEX
  5
78DA
  8
ALPHA
 10
-1244.357085
 20
104.700782
 30
0.0
  0
VERTEX
  5
78DB
  8
ALPHA
 10
-1243.487588
 20
105.576464
 30
0.0
  0
VERTEX
  5
78DC
  8
ALPHA
 10
-1240.497158
 20
111.920158
 30
0.0
  0
VERTEX
  5
78DD
  8
ALPHA
 10
-1239.666589
 20
113.270098
 30
0.0
  0
VERTEX
  5
78DE
  8
ALPHA
 10
-1238.797205
 20
114.345721
 30
0.0
  0
VERTEX
  5
78DF
  8
ALPHA
 10
-1237.88619
 20
115.057066
 30
0.0
  0
VERTEX
  5
78E0
  8
ALPHA
 10
-1236.930729
 20
115.314173
 30
0.0
  0
VERTEX
  5
78E1
  8
ALPHA
 10
-1235.975107
 20
115.057066
 30
0.0
  0
VERTEX
  5
78E2
  8
ALPHA
 10
-1235.063995
 20
114.345721
 30
0.0
  0
VERTEX
  5
78E3
  8
ALPHA
 10
-1234.194539
 20
113.270098
 30
0.0
  0
VERTEX
  5
78E4
  8
ALPHA
 10
-1233.363887
 20
111.920158
 30
0.0
  0
VERTEX
  5
78E5
  8
ALPHA
 10
-1230.37222
 20
105.576464
 30
0.0
  0
VERTEX
  5
78E6
  8
ALPHA
 10
-1229.503341
 20
104.700782
 30
0.0
  0
VERTEX
  5
78E7
  8
ALPHA
 10
-1228.487679
 20
104.326884
 30
0.0
  0
SEQEND
  5
78E8
  8
ALPHA
  0
POLYLINE
  5
6635
  8
ALPHA
 66
     1
 10
0.0
 20
0.0
 30
0.0
 70
   128
  0
VERTEX
  5
78E9
  8
ALPHA
 10
1245.399616
 20
116.646215
 30
0.0
  0
VERTEX
  5
78EA
  8
ALPHA
 10
1245.399616
 20
116.335521
 30
0.0
  0
VERTEX
  5
78EB
  8
ALPHA
 10
1245.399616
 20
115.651994
 30
0.0
  0
VERTEX
  5
78EC
  8
ALPHA
 10
1245.399616
 20
114.968467
 30
0.0
  0
VERTEX
  5
78ED
  8
ALPHA
 10
1245.399616
 20
114.657772
 30
0.0
  0
VERTEX
  5
78EE
  8
ALPHA
 10
1244.527147
 20
113.964985
 30
0.0
  0
VERTEX
  5
78EF
  8
ALPHA
 10
1243.338331
 20
113.323118
 30
0.0
  0
VERTEX
  5
78F0
  8
ALPHA
 10
1242.061281
 20
112.850918
 30
0.0
  0
VERTEX
  5
78F1
  8
ALPHA
 10
1240.924107
 20
112.66713
 30
0.0
  0
SEQEND
  5
78F2
  8
ALPHA
  0
POLYLINE
  5
6636
  8
ALPHA
 66
     1
 10
0.0
 20
0.0
 30
0.0
 70
   128
210
0.0
220
0.0
230
-1.0
  0
VERTEX
  5
78F3
  8
ALPHA
 10
-1232.951643
 20
112.66713
 30
0.0
  0
VERTEX
  5
78F4
  8
ALPHA
 10
-1231.815011
 20
112.850918
 30
0.0
  0
VERTEX
  5
78F5
  8
ALPHA
 10
-1230.538038
 20
113.323118
 30
0.0
  0
VERTEX
  5
78F6
  8
ALPHA
 10
-1229.34899
 20
113.964985
 30
0.0
  0
VERTEX
  5
78F7
  8
ALPHA
 10
-1228.476134
 20
114.657772
 30
0.0
  0
SEQEND
  5
78F8
  8
ALPHA
  0
POLYLINE
  5
6637
  8
ALPHA
 66
     1
 10
0.0
 20
0.0
 30
0.0
 70
   128
  0
VERTEX
  5
78F9
  8
ALPHA
 10
1240.924107
 20
112.66713
 30
0.0
  0
VERTEX
  5
78FA
  8
ALPHA
 10
1240.674597
 20
112.66713
 30
0.0
  0
VERTEX
  5
78FB
  8
ALPHA
 10
1240.059873
 20
112.66713
 30
0.0
  0
SEQEND
  5
78FC
  8
ALPHA
  0
POLYLINE
  5
6638
  8
ALPHA
 66
     1
 10
0.0
 20
0.0
 30
0.0
 70
   128
  0
VERTEX
  5
78FD
  8
ALPHA
 10
1233.801221
 20
112.66713
 30
0.0
  0
VERTEX
  5
78FE
  8
ALPHA
 10
1233.196624
 20
112.66713
 30
0.0
  0
VERTEX
  5
78FF
  8
ALPHA
 10
1232.951643
 20
112.66713
 30
0.0
  0
SEQEND
  5
7900
  8
ALPHA
  0
POLYLINE
  5
6639
  8
ALPHA
 66
     1
 10
0.0
 20
0.0
 30
0.0
 70
   128
  0
VERTEX
  5
7901
  8
ALPHA
 10
1228.476134
 20
114.657772
 30
0.0
  0
VERTEX
  5
7902
  8
ALPHA
 10
1228.476134
 20
114.968467
 30
0.0
  0
VERTEX
  5
7903
  8
ALPHA
 10
1228.476134
 20
115.651994
 30
0.0
  0
VERTEX
  5
7904
  8
ALPHA
 10
1228.476134
 20
116.335521
 30
0.0
  0
VERTEX
  5
7905
  8
ALPHA
 10
1228.476134
 20
116.646215
 30
0.0
  0
SEQEND
  5
7906
  8
ALPHA
  0
DIMENSION
  5
663A
  8
COTATION1
  2
*D11
 10
1246.445829
 20
109.173603
 30
0.0
 11
1282.294086
 21
134.207695
 31
0.0
 70
   131
  1
2x<>x6.3
 15
1249.415628
 25
112.283312
 35
0.0
 40
0.0
1001
ACAD
1000
DSTYLE
1002
{
1070
   288
1070
     1
1002
}
  0
DIMENSION
  5
663B
  8
COTATION1
  2
*D12
 10
1295.930729
 20
50.228457
 30
0.0
 11
1295.930729
 21
99.978457
 31
0.0
 13
1257.930729
 23
149.728457
 33
0.0
 14
1247.780729
 24
50.228457
 34
0.0
 50
90.0
  0
DIMENSION
  5
6646
  8
COTATION1
  2
*D13
 10
1225.550443
 20
110.376884
 30
0.0
 11
1265.702198
 21
71.92229
 31
0.0
 70
   131
  1
2x<>
 15
1228.311014
 25
107.08003
 35
0.0
 40
0.0
1001
ACAD
1000
DSTYLE
1002
{
1070
   288
1070
     1
1002
}
  0
DIMENSION
  5
664A
  8
COTATION1
  2
*D14
 10
1252.430729
 20
13.728457
 30
0.0
 11
1236.930729
 21
16.978457
 31
0.0
 13
1221.430729
 23
53.728457
 33
0.0
 14
1252.430729
 24
53.728457
 34
0.0
  0
LINE
  5
664B
  8
ALPHA
 10
1249.430729
 20
54.728457
 30
0.0
 11
1252.430729
 21
54.728457
 31
0.0
  0
LINE
  5
664C
  8
AXE
 10
1252.080729
 20
110.728457
 30
0.0
 11
1243.780729
 21
110.728457
 31
0.0
  0
ARC
  5
664D
  8
ALPHA
 10
1236.930729
 20
64.233363
 30
0.0
 40
54.495095
 50
73.978407
 51
106.021593
  0
LINE
  5
664E
  8
ALPHA
 10
1221.430729
 20
53.728457
 30
0.0
 11
1252.430729
 21
53.728457
 31
0.0
  0
LINE
  5
6662
  8
ALPHA
 10
1221.430729
 20
116.028457
 30
0.0
 11
1221.430729
 21
53.728457
 31
0.0
  0
TEXT
  5
666E
  8
AXE
 10
1229.454538
 20
33.728457
 30
0.0
 40
8.0
  1
Y
 72
     2
 11
1235.930729
 21
33.728457
 31
0.0
  0
LINE
  5
6671
  8
ALPHA
 10
1224.430729
 20
58.780776
 30
0.0
 11
1236.930729
 21
58.780776
 31
0.0
  0
LINE
  5
6672
  8
ALPHA
 10
1225.930729
 20
54.728457
 30
0.0
 11
1247.930729
 21
54.728457
 31
0.0
  0
LINE
  5
6673
  8
ALPHA
 10
1221.430729
 20
54.728457
 30
0.0
 11
1224.430729
 21
54.728457
 31
0.0
  0
LINE
  5
6674
  8
ALPHA
 10
1225.930729
 20
58.780776
 30
0.0
 11
1226.943529
 21
54.728457
 31
0.0
  0
LINE
  5
6675
  8
ALPHA
 10
1224.430729
 20
54.728457
 30
0.0
 11
1224.430729
 21
58.780776
 31
0.0
  0
LINE
  5
6676
  8
ALPHA
 10
1225.930729
 20
54.728457
 30
0.0
 11
1225.930729
 21
58.780776
 31
0.0
  0
LINE
  5
6677
  8
ALPHA
 10
1247.930729
 20
58.780776
 30
0.0
 11
1246.917928
 21
54.728457
 31
0.0
  0
LINE
  5
6678
  8
ALPHA
 10
1247.930729
 20
54.728457
 30
0.0
 11
1247.930729
 21
58.780776
 31
0.0
  0
LINE
  5
6679
  8
ALPHA
 10
1249.430729
 20
54.728457
 30
0.0
 11
1249.430729
 21
58.780776
 31
0.0
  0
LINE
  5
667A
  8
ALPHA
 10
1249.430729
 20
58.780776
 30
0.0
 11
1236.930729
 21
58.780776
 31
0.0
  0
LINE
  5
668A
  8
ALPHA
 10
1250.080729
 20
110.728457
 30
0.0
 11
1250.080729
 21
108.728457
 31
0.0
  0
LINE
  5
668B
  8
AXE
 10
1247.930729
 20
106.578457
 30
0.0
 11
1247.930729
 21
114.878457
 31
0.0
  0
LINE
  5
668C
  8
AXE
 10
1246.930729
 20
104.578457
 30
0.0
 11
1246.930729
 21
112.878457
 31
0.0
  0
LINE
  5
668D
  8
ALPHA
 10
1238.387564
 20
110.030533
 30
0.0
 11
1236.930729
 21
108.573698
 31
0.0
  0
CIRCLE
  5
668E
  8
ALPHA
 10
1236.930729
 20
107.728457
 30
0.0
 40
2.735279
  0
LINE
  5
668F
  8
AXE
 10
1225.930729
 20
106.578457
 30
0.0
 11
1225.930729
 21
114.878457
 31
0.0
  0
LINE
  5
6690
  8
AXE
 10
1226.930729
 20
104.578457
 30
0.0
 11
1226.930729
 21
112.878457
 31
0.0
  0
ARC
  5
6691
  8
ALPHA
 10
1226.930729
 20
108.728457
 30
0.0
 40
2.15
 50
270.0
 51
57.663974
  0
LINE
  5
6692
  8
ALPHA
 10
1223.780729
 20
110.728457
 30
0.0
 11
1223.780729
 21
108.728457
 31
0.0
  0
ARC
  5
6693
  8
ALPHA
 10
1246.930729
 20
108.728457
 30
0.0
 40
2.15
 50
122.336026
 51
270.0
  0
LINE
  5
6694
  8
ALPHA
 10
1236.086315
 20
107.729281
 30
0.0
 11
1234.62453
 21
106.266401
 31
0.0
  0
LINE
  5
6695
  8
AXE
 10
1222.780729
 20
108.728457
 30
0.0
 11
1231.080729
 21
108.728457
 31
0.0
  0
ARC
  5
6696
  8
ALPHA
 10
1225.930729
 20
108.728457
 30
0.0
 40
2.15
 50
180.0
 51
270.0
  0
LINE
  5
6697
  8
ALPHA
 10
1225.930729
 20
106.578457
 30
0.0
 11
1226.930729
 21
106.578457
 31
0.0
  0
LINE
  5
6698
  8
ALPHA
 10
1247.930729
 20
106.578457
 30
0.0
 11
1246.930729
 21
106.578457
 31
0.0
  0
ARC
  5
6699
  8
ALPHA
 10
1247.930729
 20
108.728457
 30
0.0
 40
2.15
 50
270.0
 51
0.0
  0
LINE
  5
669A
  8
ALPHA
 10
1237.514012
 20
106.301584
 30
0.0
 11
1236.940625
 21
106.874421
 31
0.0
  0
LINE
  5
669B
  8
ALPHA
 10
1235.512925
 20
108.302121
 30
0.0
 11
1236.086315
 21
107.729281
 31
0.0
  0
LINE
  5
669C
  8
ALPHA
 10
1236.357339
 20
109.145437
 30
0.0
 11
1235.512925
 21
108.302121
 31
0.0
  0
LINE
  5
669D
  8
ALPHA
 10
1236.930729
 20
108.573698
 30
0.0
 11
1236.357339
 21
109.145437
 31
0.0
  0
LINE
  5
669E
  8
ALPHA
 10
1236.940625
 20
106.874421
 30
0.0
 11
1235.478291
 21
105.41209
 31
0.0
  0
LINE
  5
669F
  8
ALPHA
 10
1238.358429
 20
107.145998
 30
0.0
 11
1237.514012
 21
106.301584
 31
0.0
  0
LINE
  5
66A0
  8
ALPHA
 10
1237.785039
 20
107.717737
 30
0.0
 11
1238.358429
 21
107.145998
 31
0.0
  0
LINE
  5
66A1
  8
ALPHA
 10
1239.241874
 20
109.175673
 30
0.0
 11
1237.785039
 21
107.717737
 31
0.0
  0
LINE
  5
66A2
  8
AXE
 10
1251.080729
 20
108.728457
 30
0.0
 11
1242.780729
 21
108.728457
 31
0.0
  0
ARC
  5
66A7
  8
ALPHA
 10
1222.030729
 20
116.028457
 30
0.0
 40
0.6
 50
103.554708
 51
180.0
  0
LINE
  5
66A8
  8
ALPHA
 10
1226.487141
 20
116.646216
 30
0.0
 11
1228.46184
 21
116.646216
 31
0.0
  0
LINE
  5
66A9
  8
ALPHA
 10
1228.442599
 20
116.059633
 30
0.0
 11
1226.51298
 21
116.059633
 31
0.0
  0
ARC
  5
66AA
  8
ALPHA
 10
1225.930729
 20
110.728457
 30
0.0
 40
2.15
 50
0.0
 51
180.0
  0
LINE
  5
66AB
  8
AXE
 10
1221.780729
 20
110.728457
 30
0.0
 11
1230.080729
 21
110.728457
 31
0.0
  0
LINE
  5
66AC
  8
ALPHA
 10
1228.080729
 20
110.728457
 30
0.0
 11
1228.080729
 21
110.545047
 31
0.0
  0
LINE
  5
66AD
  8
ALPHA
 10
1228.46184
 20
114.656673
 30
0.0
 11
1226.487141
 21
114.656673
 31
0.0
  0
LINE
  5
66AE
  8
ALPHA
 10
1226.487141
 20
114.656673
 30
0.0
 11
1226.487141
 21
116.646216
 31
0.0
  0
LINE
  5
66AF
  8
ALPHA
 10
1228.46184
 20
116.646216
 30
0.0
 11
1228.46184
 21
114.656673
 31
0.0
  0
LINE
  5
66B4
  8
ALPHA
 10
1247.374316
 20
114.657771
 30
0.0
 11
1247.374316
 21
116.647314
 31
0.0
  0
LINE
  5
66B5
  8
ALPHA
 10
1245.780729
 20
110.728457
 30
0.0
 11
1245.780729
 21
110.545047
 31
0.0
  0
LINE
  5
66B6
  8
ALPHA
 10
1245.399617
 20
116.647314
 30
0.0
 11
1245.399617
 21
114.657771
 31
0.0
  0
LINE
  5
66B7
  8
ALPHA
 10
1247.374316
 20
116.647314
 30
0.0
 11
1245.399617
 21
116.647314
 31
0.0
  0
LINE
  5
66B8
  8
ALPHA
 10
1245.417757
 20
116.059633
 30
0.0
 11
1247.348477
 21
116.059633
 31
0.0
  0
LINE
  5
66B9
  8
ALPHA
 10
1245.399617
 20
114.657771
 30
0.0
 11
1247.374316
 21
114.657771
 31
0.0
  0
ARC
  5
66BA
  8
ALPHA
 10
1247.930729
 20
110.728457
 30
0.0
 40
2.15
 50
0.0
 51
180.0
  0
LINE
  5
66BB
  8
ALPHA
 10
1252.430729
 20
116.028457
 30
0.0
 11
1252.430729
 21
53.728457
 31
0.0
  0
TEXT
  5
66BC
  8
AXE
 10
1260.954538
 20
87.228457
 30
0.0
 40
8.0
  1
X
 72
     2
 11
1267.430729
 21
87.228457
 31
0.0
  0
ARC
  5
66BD
  8
ALPHA
 10
1251.830729
 20
116.028457
 30
0.0
 40
0.6
 50
0.0
 51
76.445292
  0
LINE
  5
6F96
  8
AXE
 10
1236.930729
 20
154.728457
 30
0.0
 11
1236.930729
 21
33.728457
 31
0.0
  0
DIMENSION
  5
7041
  8
COTATION1
  2
*D5
 10
1201.430729
 20
108.728457
 30
0.0
 11
1201.430729
 21
129.228457
 31
0.0
 70
   128
 13
1257.930729
 23
149.728457
 33
0.0
 14
1222.780729
 24
108.728457
 34
0.0
 50
90.0
  0
POLYLINE
  5
7195
  8
ALPHA
 66
     1
 10
0.0
 20
0.0
 30
0.0
 70
   128
  0
VERTEX
  5
7907
  8
ALPHA
 10
1243.309174
 20
128.738223
 30
0.0
  0
VERTEX
  5
7908
  8
ALPHA
 10
1239.709881
 20
128.738223
 30
0.0
  0
VERTEX
  5
7909
  8
ALPHA
 10
1238.188299
 20
128.738223
 30
0.0
  0
VERTEX
  5
790A
  8
ALPHA
 10
1237.730184
 20
128.738223
 30
0.0
  0
VERTEX
  5
790B
  8
ALPHA
 10
1237.562675
 20
128.738223
 30
0.0
  0
SEQEND
  5
790C
  8
ALPHA
  0
POLYLINE
  5
7196
  8
ALPHA
 66
     1
 10
0.0
 20
0.0
 30
0.0
 70
   128
  0
VERTEX
  5
790D
  8
ALPHA
 10
1249.98965
 20
136.263051
 30
0.0
  0
VERTEX
  5
790E
  8
ALPHA
 10
1245.680351
 20
135.395347
 30
0.0
  0
VERTEX
  5
790F
  8
ALPHA
 10
1241.647754
 20
134.578493
 30
0.0
  0
VERTEX
  5
7910
  8
ALPHA
 10
1239.950033
 20
134.233547
 30
0.0
  0
VERTEX
  5
7911
  8
ALPHA
 10
1238.579266
 20
133.954606
 30
0.0
  0
VERTEX
  5
7912
  8
ALPHA
 10
1237.621378
 20
133.759436
 30
0.0
  0
VERTEX
  5
7913
  8
ALPHA
 10
1237.162295
 20
133.6658
 30
0.0
  0
VERTEX
  5
7914
  8
ALPHA
 10
1236.604147
 20
133.379044
 30
0.0
  0
VERTEX
  5
7915
  8
ALPHA
 10
1236.203514
 20
132.875868
 30
0.0
  0
VERTEX
  5
7916
  8
ALPHA
 10
1236.047427
 20
132.229731
 30
0.0
  0
VERTEX
  5
7917
  8
ALPHA
 10
1236.244028
 20
131.455031
 30
0.0
  0
VERTEX
  5
7918
  8
ALPHA
 10
1236.788976
 20
130.898854
 30
0.0
  0
VERTEX
  5
7919
  8
ALPHA
 10
1237.562675
 20
130.686834
 30
0.0
  0
SEQEND
  5
791A
  8
ALPHA
  0
POLYLINE
  5
7197
  8
ALPHA
 66
     1
 10
0.0
 20
0.0
 30
0.0
 70
   128
210
0.0
220
0.0
230
-1.0
  0
VERTEX
  5
791B
  8
ALPHA
 10
-1237.563005
 20
128.73822
 30
0.0
  0
VERTEX
  5
791C
  8
ALPHA
 10
-1236.200365
 20
128.992963
 30
0.0
  0
VERTEX
  5
791D
  8
ALPHA
 10
-1235.087728
 20
129.732526
 30
0.0
  0
VERTEX
  5
791E
  8
ALPHA
 10
-1234.337624
 20
130.841216
 30
0.0
  0
VERTEX
  5
791F
  8
ALPHA
 10
-1234.062583
 20
132.203335
 30
0.0
  0
VERTEX
  5
7920
  8
ALPHA
 10
-1234.238916
 20
133.30397
 30
0.0
  0
VERTEX
  5
7921
  8
ALPHA
 10
-1234.730168
 20
134.260938
 30
0.0
  0
VERTEX
  5
7922
  8
ALPHA
 10
-1235.479721
 20
135.017573
 30
0.0
  0
VERTEX
  5
7923
  8
ALPHA
 10
-1236.430958
 20
135.517209
 30
0.0
  0
SEQEND
  5
7924
  8
ALPHA
  0
POLYLINE
  5
7198
  8
ALPHA
 66
     1
 10
0.0
 20
0.0
 30
0.0
 70
   128
  0
VERTEX
  5
7925
  8
ALPHA
 10
1237.562675
 20
130.686834
 30
0.0
  0
VERTEX
  5
7926
  8
ALPHA
 10
1237.784142
 20
130.686834
 30
0.0
  0
VERTEX
  5
7927
  8
ALPHA
 10
1238.380303
 20
130.686834
 30
0.0
  0
VERTEX
  5
7928
  8
ALPHA
 10
1240.287261
 20
130.686834
 30
0.0
  0
VERTEX
  5
7929
  8
ALPHA
 10
1242.464662
 20
130.686834
 30
0.0
  0
VERTEX
  5
792A
  8
ALPHA
 10
1244.093621
 20
130.686834
 30
0.0
  0
SEQEND
  5
792B
  8
ALPHA
  0
POLYLINE
  5
71A1
  8
ALPHA
 66
     1
 10
0.0
 20
0.0
 30
0.0
 70
   128
  0
VERTEX
  5
792C
  8
ALPHA
 10
1248.949689
 20
118.13805
 30
0.0
  0
VERTEX
  5
792D
  8
ALPHA
 10
1251.451046
 20
118.491749
 30
0.0
  0
VERTEX
  5
792E
  8
ALPHA
 10
1253.680729
 20
119.486237
 30
0.0
  0
SEQEND
  5
792F
  8
ALPHA
  0
POLYLINE
  5
71A2
  8
ALPHA
 66
     1
 10
0.0
 20
0.0
 30
0.0
 70
   128
  0
VERTEX
  5
7930
  8
ALPHA
 10
1236.430958
 20
135.517209
 30
0.0
  0
VERTEX
  5
7931
  8
ALPHA
 10
1236.580847
 20
135.547046
 30
0.0
  0
VERTEX
  5
7932
  8
ALPHA
 10
1237.004447
 20
135.631369
 30
0.0
  0
VERTEX
  5
7933
  8
ALPHA
 10
1238.516371
 20
135.932337
 30
0.0
  0
VERTEX
  5
7934
  8
ALPHA
 10
1240.653918
 20
136.357844
 30
0.0
  0
VERTEX
  5
7935
  8
ALPHA
 10
1243.104278
 20
136.845619
 30
0.0
  0
VERTEX
  5
7936
  8
ALPHA
 10
1245.554637
 20
137.333395
 30
0.0
  0
VERTEX
  5
7937
  8
ALPHA
 10
1247.692185
 20
137.758902
 30
0.0
  0
VERTEX
  5
7938
  8
ALPHA
 10
1249.204109
 20
138.05987
 30
0.0
  0
VERTEX
  5
7939
  8
ALPHA
 10
1249.627708
 20
138.144193
 30
0.0
  0
VERTEX
  5
793A
  8
ALPHA
 10
1249.777597
 20
138.17403
 30
0.0
  0
SEQEND
  5
793B
  8
ALPHA
  0
LINE
  5
71A3
  8
ALPHA
 10
1240.680729
 20
128.228457
 30
0.0
 11
1233.180729
 21
128.228457
 31
0.0
  0
LINE
  5
71A4
  8
ALPHA
 10
1242.180729
 20
122.028457
 30
0.0
 11
1227.930729
 21
122.028457
 31
0.0
  0
ARC
  5
71A5
  8
ALPHA
 10
1236.930729
 20
114.707324
 30
0.0
 40
14.03152
 50
74.498985
 51
105.501015
  0
LINE
  5
71A7
  8
ALPHA
 10
1242.180729
 20
122.728457
 30
0.0
 11
1228.630729
 21
122.728457
 31
0.0
  0
LINE
  5
71B6
  8
ALPHA
 10
1227.930729
 20
122.028457
 30
0.0
 11
1228.630729
 21
122.728457
 31
0.0
  0
LINE
  5
71B7
  8
ALPHA
 10
1233.180729
 20
128.228457
 30
0.0
 11
1233.180729
 21
122.728457
 31
0.0
  0
LINE
  5
71B8
  8
ALPHA
 10
1228.930729
 20
118.13805
 30
0.0
 11
1227.930729
 21
118.13805
 31
0.0
  0
LINE
  5
71BA
  8
ALPHA
 10
1227.930729
 20
122.028457
 30
0.0
 11
1227.930729
 21
118.13805
 31
0.0
  0
DIMENSION
  5
71C8
  8
COTATION1
  2
*D15
 10
1264.930729
 20
169.728457
 30
0.0
 11
1258.680729
 21
169.728457
 31
0.0
 70
   128
 13
1252.430729
 23
116.028457
 33
0.0
 14
1264.930729
 24
142.728457
 34
0.0
  0
ARC
  5
71D3
  8
ALPHA
 10
1248.430729
 20
127.728457
 30
0.0
 40
4.55
 50
0.0
 51
180.0
  0
LINE
  5
71D4
  8
AXE
 10
1248.430729
 20
133.728457
 30
0.0
 11
1248.430729
 21
121.728457
 31
0.0
  0
LINE
  5
71D5
  8
ALPHA
 10
1254.78764
 20
132.982525
 30
0.0
 11
1253.056109
 21
130.212075
 31
0.0
  0
ARC
  5
71D6
  8
ALPHA
 10
1248.430729
 20
127.728457
 30
0.0
 40
5.25
 50
0.0
 51
180.0
  0
LINE
  5
71D7
  8
ALPHA
 10
1261.746721
 20
140.343462
 30
0.0
 11
1253.680729
 21
127.437874
 31
0.0
  0
LINE
  5
71D8
  8
AXE
 10
1242.430729
 20
127.728457
 30
0.0
 11
1254.430729
 21
127.728457
 31
0.0
  0
LINE
  5
71D9
  8
ALPHA
 10
1252.980729
 20
127.728457
 30
0.0
 11
1252.980729
 21
119.686237
 31
0.0
  0
ARC
  5
71DA
  8
ALPHA
 10
1242.180729
 20
123.728457
 30
0.0
 40
1.7
 50
270.0
 51
0.0
  0
LINE
  5
71DB
  8
ALPHA
 10
1243.180729
 20
127.728457
 30
0.0
 11
1243.180729
 21
123.728457
 31
0.0
  0
LINE
  5
71DC
  8
ALPHA
 10
1243.880729
 20
127.728457
 30
0.0
 11
1243.880729
 21
123.728457
 31
0.0
  0
ARC
  5
71DD
  8
ALPHA
 10
1242.180729
 20
123.728457
 30
0.0
 40
1.0
 50
270.0
 51
0.0
  0
CIRCLE
  5
71DE
  8
ALPHA
 10
1248.430729
 20
127.728457
 30
0.0
 40
3.0
  0
LINE
  5
71DF
  8
ALPHA
 10
1240.680729
 20
128.228457
 30
0.0
 11
1240.680729
 21
122.728457
 31
0.0
  0
LINE
  5
71E0
  8
ALPHA
 10
1240.680729
 20
128.228457
 30
0.0
 11
1240.680729
 21
122.728457
 31
0.0
  0
LINE
  5
71E2
  8
ALPHA
 10
1248.949689
 20
118.13805
 30
0.0
 11
1244.930729
 21
118.13805
 31
0.0
  0
LINE
  5
71EA
  8
ALPHA
 10
1253.680729
 20
127.728457
 30
0.0
 11
1253.680729
 21
119.486237
 31
0.0
  0
LINE
  5
71EB
  8
AXE
 10
1252.930729
 20
142.728457
 30
0.0
 11
1262.930729
 21
142.728457
 31
0.0
  0
ARC
  5
71EC
  8
ALPHA
 10
1257.930729
 20
142.728457
 30
0.0
 40
10.240224
 50
211.926237
 51
264.062997
  0
ARC
  5
71ED
  8
ALPHA
 10
1257.930729
 20
142.728457
 30
0.0
 40
5.8
 50
288.877873
 51
187.613911
  0
LINE
  5
71EE
  8
ALPHA
 10
1254.114736
 20
145.113452
 30
0.0
 11
1248.381336
 21
135.940013
 31
0.0
  0
ARC
  5
71EF
  8
ALPHA
 10
1257.930729
 20
142.728457
 30
0.0
 40
7.0
 50
277.999818
 51
197.989416
  0
CIRCLE
  5
71F0
  8
ALPHA
 10
1257.930729
 20
142.728457
 30
0.0
 40
3.5
  0
CIRCLE
  5
71F1
  8
ALPHA
 10
1257.930729
 20
142.728457
 30
0.0
 40
2.0
  0
ARC
  5
71F2
  8
ALPHA
 10
1257.930729
 20
142.728457
 30
0.0
 40
4.5
 50
327.994617
 51
147.994617
  0
LINE
  5
71F3
  8
AXE
 10
1257.930729
 20
147.728457
 30
0.0
 11
1257.930729
 21
137.728457
 31
0.0
  0
DIMENSION
  5
735B
  8
COTATION1
  2
*D16
 10
1253.290515
 20
137.487425
 30
0.0
 11
1276.208196
 21
157.483071
 31
0.0
 70
   131
 15
1262.570942
 25
147.969489
 35
0.0
 40
0.0
  0
DIMENSION
  5
74C7
  8
COTATION1
  2
*D3
 10
1246.930729
 20
179.728457
 30
0.0
 11
1236.930729
 21
182.978457
 31
0.0
 13
1226.930729
 23
112.878457
 33
0.0
 14
1246.930729
 24
112.878457
 34
0.0
  0
DIMENSION
  5
74C8
  8
COTATION1
  2
*D4
 10
1247.930729
 20
189.728457
 30
0.0
 11
1236.930729
 21
192.978457
 31
0.0
 13
1225.930729
 23
114.878457
 33
0.0
 14
1247.930729
 24
114.878457
 34
0.0
  0
DIMENSION
  5
75EE
  8
COTATION1
  2
*D6
 10
1228.538122
 20
58.740228
 30
0.0
 11
1201.329588
 21
39.515317
 31
0.0
 70
   131
  1
2x<>
 15
1226.323335
 25
56.716687
 35
0.0
 40
0.0
1001
ACAD
1000
DSTYLE
1002
{
1070
   288
1070
     1
1002
}
  0
CIRCLE
  5
75EF
  8
POINTILLE_COURT
 10
1227.430729
 20
57.728457
 30
0.0
 40
1.5
  0
LINE
  5
75F0
  8
AXE
 10
1231.930729
 20
57.728457
 30
0.0
 11
1222.930729
 21
57.728457
 31
0.0
  0
LINE
  5
75F1
  8
AXE
 10
1227.430729
 20
53.228457
 30
0.0
 11
1227.430729
 21
62.228457
 31
0.0
  0
LINE
  5
75F2
  8
AXE
 10
1246.430729
 20
53.228457
 30
0.0
 11
1246.430729
 21
62.228457
 31
0.0
  0
LINE
  5
75F3
  8
AXE
 10
1241.930729
 20
57.728457
 30
0.0
 11
1250.930729
 21
57.728457
 31
0.0
  0
CIRCLE
  5
75F4
  8
POINTILLE_COURT
 10
1246.430729
 20
57.728457
 30
0.0
 40
1.5
  0
DIMENSION
  5
75F5
  8
COTATION1
  2
*D7
 10
1246.430729
 20
23.728457
 30
0.0
 11
1236.930729
 21
26.978457
 31
0.0
 13
1227.430729
 23
53.228457
 33
0.0
 14
1246.430729
 24
53.228457
 34
0.0
  0
DIMENSION
  5
75F6
  8
COTATION1
  2
*D8
 10
1275.941108
 20
108.728457
 30
0.0
 11
1273.107775
 21
100.176735
 31
0.0
 70
   128
 13
1252.080729
 23
110.728457
 33
0.0
 14
1251.080729
 24
108.728457
 34
0.0
 50
90.0
1001
ACAD
1000
DSTYLE
1002
{
1070
   287
1070
     5
1070
   287
1070
     5
1070
   287
1070
     5
1070
   279
1070
     2
1070
   172
1070
     0
1002
}
  0
DIMENSION
  5
75F7
  8
COTATION1
  2
*D9
 10
1285.941108
 20
108.728457
 30
0.0
 11
1285.941108
 21
113.728457
 31
0.0
 13
1236.930729
 23
118.728457
 33
0.0
 14
1251.080729
 24
108.728457
 34
0.0
 50
90.0
  0
DIMENSION
  5
75F8
  8
COTATION1
  2
*D10
 10
1285.941108
 20
57.728457
 30
0.0
 11
1285.941108
 21
83.228457
 31
0.0
 13
1251.080729
 23
108.728457
 33
0.0
 14
1250.930729
 24
57.728457
 34
0.0
 50
90.0
  0
LINE
  5
77A4
  8
ALPHA
 10
1226.080755
 20
50.228457
 30
0.0
 11
1247.780702
 21
50.228457
 31
0.0
  0
LINE
  5
77A5
  8
ALPHA
 10
1247.780729
 20
53.728457
 30
0.0
 11
1247.780729
 21
50.228457
 31
0.0
  0
LINE
  5
77A6
  8
ALPHA
 10
1226.080729
 20
53.728457
 30
0.0
 11
1226.080729
 21
50.228457
 31
0.0
  0
VIEWPORT
  5
494D
 67
     1
  8
0
 10
4.995325
 20
6.556512
 30
0.0
 40
22.70986
 41
13.988421
 68
    -1
 69
     1
1001
ACAD
1000
MVIEW
1002
{
1070
    16
1010
0.0
1020
0.0
1030
0.0
1010
0.0
1020
0.0
1030
1.0
1040
0.0
1040
13.988421
1040
4.995325
1040
6.556512
1040
50.0
1040
0.0
1040
0.0
1070
     0
1070
   100
1070
     1
1070
     1
1070
     0
1070
     0
1070
     0
1070
     0
1040
0.0
1040
0.0
1040
0.0
1040
10.0
1040
10.0
1040
10.0
1040
10.0
1070
     0
1002
{
1002
}
1002
}
  0
ENDSEC
  0
EOF
