  0
SECTION
  2
HEADER
  9
$ACADVER
  1
AC1009
  9
$INSBASE
 10
402.590624
 20
-1.041018
 30
0.0
  9
$EXTMIN
 10
1197.162921
 20
11.228457
 30
0.0
  9
$EXTMAX
 10
1300.930729
 20
250.728457
 30
0.0
  9
$LIMMIN
 10
-407.970438
 20
-367.832444
  9
$LIMMAX
 10
429.804077
 20
234.370848
  9
$ORTHOMODE
 70
     1
  9
$REGENMODE
 70
     1
  9
$FILLMODE
 70
     1
  9
$QTEXTMODE
 70
     0
  9
$MIRRTEXT
 70
     1
  9
$DRAGMODE
 70
     2
  9
$LTSCALE
 40
10.0
  9
$OSMODE
 70
    35
  9
$ATTMODE
 70
     1
  9
$TEXTSIZE
 40
6.0
  9
$TRACEWID
 40
1.0
  9
$TEXTSTYLE
  7
ROMANS
  9
$CLAYER
  8
ALPHA
  9
$CELTYPE
  6
BYLAYER
  9
$CECOLOR
 62
   256
  9
$DIMSCALE
 40
1.0
  9
$DIMASZ
 40
5.0
  9
$DIMEXO
 40
2.0
  9
$DIMDLI
 40
0.38
  9
$DIMRND
 40
0.0
  9
$DIMDLE
 40
0.0
  9
$DIMEXE
 40
2.5
  9
$DIMTP
 40
0.0
  9
$DIMTM
 40
0.0
  9
$DIMTXT
 40
2.5
  9
$DIMCEN
 40
0.0
  9
$DIMTSZ
 40
0.0
  9
$DIMTOL
 70
     0
  9
$DIMLIM
 70
     0
  9
$DIMTIH
 70
     1
  9
$DIMTOH
 70
     1
  9
$DIMSE1
 70
     0
  9
$DIMSE2
 70
     0
  9
$DIMTAD
 70
     1
  9
$DIMZIN
 70
    12
  9
$DIMBLK
  1
OPEN30
  9
$DIMASO
 70
     1
  9
$DIMSHO
 70
     1
  9
$DIMPOST
  1

  9
$DIMAPOST
  1

  9
$DIMALT
 70
     0
  9
$DIMALTD
 70
     2
  9
$DIMALTF
 40
25.4
  9
$DIMLFAC
 40
1.0
  9
$DIMTOFL
 70
     0
  9
$DIMTVP
 40
0.0
  9
$DIMTIX
 70
     0
  9
$DIMSOXD
 70
     0
  9
$DIMSAH
 70
     0
  9
$DIMBLK1
  1

  9
$DIMBLK2
  1

  9
$DIMSTYLE
  2
SC_DEFAUT
  9
$DIMCLRD
 70
     0
  9
$DIMCLRE
 70
     0
  9
$DIMCLRT
 70
     0
  9
$DIMTFAC
 40
1.0
  9
$DIMGAP
 40
2.0
  9
$LUNITS
 70
     2
  9
$LUPREC
 70
     1
  9
$SKETCHINC
 40
0.1
  9
$FILLETRAD
 40
0.0
  9
$AUNITS
 70
     0
  9
$AUPREC
 70
     0
  9
$MENU
  1
acad
  9
$ELEVATION
 40
0.0
  9
$PELEVATION
 40
0.0
  9
$THICKNESS
 40
0.0
  9
$LIMCHECK
 70
     0
  9
$BLIPMODE
 70
     0
  9
$CHAMFERA
 40
0.0
  9
$CHAMFERB
 40
0.0
  9
$SKPOLY
 70
     0
  9
$TDCREATE
 40
2450373.687919
  9
$TDUPDATE
 40
2453054.645271
  9
$TDINDWG
 40
0.850633
  9
$TDUSRTIMER
 40
0.850633
  9
$USRTIMER
 70
     1
  9
$ANGBASE
 50
0.0
  9
$ANGDIR
 70
     0
  9
$PDMODE
 70
    32
  9
$PDSIZE
 40
0.0
  9
$PLINEWID
 40
0.0
  9
$COORDS
 70
     1
  9
$SPLFRAME
 70
     0
  9
$SPLINETYPE
 70
     6
  9
$SPLINESEGS
 70
     8
  9
$ATTDIA
 70
     0
  9
$ATTREQ
 70
     1
  9
$HANDLING
 70
     1
  9
$HANDSEED
  5
794E
  9
$SURFTAB1
 70
     6
  9
$SURFTAB2
 70
     6
  9
$SURFTYPE
 70
     6
  9
$SURFU
 70
     6
  9
$SURFV
 70
     6
  9
$UCSNAME
  2

  9
$UCSORG
 10
0.0
 20
0.0
 30
0.0
  9
$UCSXDIR
 10
1.0
 20
0.0
 30
0.0
  9
$UCSYDIR
 10
0.0
 20
1.0
 30
0.0
  9
$PUCSNAME
  2

  9
$PUCSORG
 10
0.0
 20
0.0
 30
0.0
  9
$PUCSXDIR
 10
1.0
 20
0.0
 30
0.0
  9
$PUCSYDIR
 10
0.0
 20
1.0
 30
0.0
  9
$USERI1
 70
     0
  9
$USERI2
 70
     0
  9
$USERI3
 70
     0
  9
$USERI4
 70
     0
  9
$USERI5
 70
     0
  9
$USERR1
 40
0.0
  9
$USERR2
 40
0.0
  9
$USERR3
 40
0.0
  9
$USERR4
 40
0.0
  9
$USERR5
 40
0.0
  9
$WORLDVIEW
 70
     1
  9
$SHADEDGE
 70
     3
  9
$SHADEDIF
 70
    70
  9
$TILEMODE
 70
     1
  9
$MAXACTVP
 70
    16
  9
$PLIMCHECK
 70
     0
  9
$PEXTMIN
 10
-1.452248
 20
-0.437698
 30
0.0
  9
$PEXTMAX
 10
12.749749
 20
8.310198
 30
0.0
  9
$PLIMMIN
 10
0.0
 20
0.0
  9
$PLIMMAX
 10
12.0
 20
9.0
  9
$UNITMODE
 70
     0
  9
$VISRETAIN
 70
     0
  9
$PLINEGEN
 70
     0
  9
$PSLTSCALE
 70
     0
  0
ENDSEC
  0
SECTION
  2
TABLES
  0
TABLE
  2
VPORT
 70
     2
  0
VPORT
  2
*ACTIVE
 70
     0
 10
0.0
 20
0.0
 11
1.0
 21
1.0
 12
1249.065909
 22
130.97989
 13
0.0
 23
0.0
 14
1.0
 24
1.0
 15
10.0
 25
10.0
 16
0.0
 26
0.0
 36
1.0
 17
0.0
 27
0.0
 37
0.0
 40
241.241589
 41
1.466346
 42
50.0
 43
0.0
 44
0.0
 50
0.0
 51
0.0
 71
     0
 72
   100
 73
     1
 74
     0
 75
     0
 76
     0
 77
     0
 78
     0
  0
ENDTAB
  0
TABLE
  2
LTYPE
 70
     3
  0
LTYPE
  2
CONTINUOUS
 70
     0
  3
Solid line
 72
    65
 73
     0
 40
0.0
  0
LTYPE
  2
AXES2
 70
     0
  3
___ _ ___ _ ___ _ ___ _ ___ _ ___ _ ___ _ ___ _
 72
    65
 73
     4
 40
1.125
 49
0.75
 49
-0.125
 49
0.125
 49
-0.125
  0
LTYPE
  2
CACHE2
 70
     0
  3
Caché (x.5) _ _ _ _ _ _ _ _ _ _ _ _ _ _ _ _ _
 72
    65
 73
     2
 40
0.1875
 49
0.125
 49
-0.0625
  0
ENDTAB
  0
TABLE
  2
LAYER
 70
     6
  0
LAYER
  2
0
 70
     0
 62
   255
  6
CONTINUOUS
  0
LAYER
  2
COTATION1
 70
     0
 62
     2
  6
CONTINUOUS
  0
LAYER
  2
AXE
 70
     0
 62
    80
  6
AXES2
  0
LAYER
  2
DEFPOINTS
 70
     0
 62
     7
  6
CONTINUOUS
  0
LAYER
  2
ALPHA
 70
     0
 62
   254
  6
CONTINUOUS
  0
LAYER
  2
POINTILLE_COURT
 70
     0
 62
    41
  6
CACHE2
  0
ENDTAB
  0
TABLE
  2
STYLE
 70
     2
  0
STYLE
  2
ROMANS
 70
     0
 40
0.0
 41
1.0
 50
0.0
 71
     0
 42
6.0
  3
romans
  4

  0
STYLE
  2
STANDARD
 70
     0
 40
0.2
 41
1.0
 50
0.0
 71
     0
 42
0.2
  3
txt
  4

  0
ENDTAB
  0
TABLE
  2
VIEW
 70
     0
  0
ENDTAB
  0
TABLE
  2
UCS
 70
     0
  0
ENDTAB
  0
TABLE
  2
APPID
 70
     1
  0
APPID
  2
ACAD
 70
     0
  0
ENDTAB
  0
TABLE
  2
DIMSTYLE
 70
     1
  0
DIMSTYLE
  2
SC_DEFAUT
 70
     0
  3

  4

  5
OPEN30
  6

  7

 40
1.0
 41
5.0
 42
2.0
 43
0.38
 44
2.5
 45
0.0
 46
0.0
 47
0.0
 48
0.0
140
2.5
141
0.0
142
0.0
143
25.4
144
1.0
145
0.0
146
1.0
147
2.0
 71
     0
 72
     0
 73
     1
 74
     1
 75
     0
 76
     0
 77
     1
 78
    12
170
     0
171
     2
172
     0
173
     0
174
     0
175
     0
176
     0
177
     0
178
     0
  0
ENDTAB
  0
ENDSEC
  0
SECTION
  2
BLOCKS
  0
BLOCK
  8
0
  2
$MODEL_SPACE
 70
     0
 10
0.0
 20
0.0
 30
0.0
  3
$MODEL_SPACE
  1

  0
ENDBLK
  5
7705
  8
0
  0
BLOCK
 67
     1
  8
0
  2
$PAPER_SPACE
 70
     0
 10
0.0
 20
0.0
 30
0.0
  3
$PAPER_SPACE
  1

  0
ENDBLK
  5
7703
 67
     1
  8
0
  0
BLOCK
  8
0
  2
COTE
 70
     0
 10
0.0
 20
0.0
 30
0.0
  3
COTE
  1

  0
ENDBLK
  5
F
  8
0
  0
BLOCK
  8
0
  2
FOND
 70
     0
 10
0.0
 20
0.0
 30
0.0
  3
FOND
  1

  0
ENDBLK
  5
75
  8
0
  0
BLOCK
  8
0
  2
_OPEN30
 70
     0
 10
0.0
 20
0.0
 30
0.0
  3
_OPEN30
  1

  0
LINE
  5
4B05
  8
COTATION1
 62
     0
 10
-1.0
 20
0.267949
 30
0.0
 11
0.0
 21
0.0
 31
0.0
1001
ACAD
1000
RTLwPs
1070
   158
  0
LINE
  5
4B06
  8
COTATION1
 62
     0
 10
0.0
 20
0.0
 30
0.0
 11
-1.0
 21
-0.267949
 31
0.0
1001
ACAD
1000
RTLwPs
1070
   158
  0
LINE
  5
4B07
  8
COTATION1
 62
     0
 10
0.0
 20
0.0
 30
0.0
 11
-1.0
 21
0.0
 31
0.0
1001
ACAD
1000
RTLwPs
1070
   158
  0
ENDBLK
  5
4B09
  8
0
  0
BLOCK
  8
0
  2
*D3
 70
     1
 10
0.0
 20
0.0
 30
0.0
  3
*D3
  1

  0
LINE
  5
73DD
  8
COTATION1
 62
     0
 10
1225.930729
 20
104.578457
 30
0.0
 11
1225.930729
 21
65.464638
 31
0.0
1001
ACAD
1000
RTLwPs
1070
   158
  0
LINE
  5
73DE
  8
COTATION1
 62
     0
 10
1247.930729
 20
104.578457
 30
0.0
 11
1247.930729
 21
65.464638
 31
0.0
1001
ACAD
1000
RTLwPs
1070
   158
  0
LINE
  5
73DF
  8
COTATION1
 62
     0
 10
1230.930729
 20
67.964638
 30
0.0
 11
1242.930729
 21
67.964638
 31
0.0
1001
ACAD
1000
RTLwPs
1070
   158
  0
INSERT
  5
73E0
  8
COTATION1
 62
     0
  2
_OPEN30
 10
1225.930729
 20
67.964638
 30
0.0
 41
5.0
 42
5.0
 43
5.0
 50
180.0
1001
ACAD
1000
RTLwPs
1070
   158
  0
INSERT
  5
73E1
  8
COTATION1
 62
     0
  2
_OPEN30
 10
1247.930729
 20
67.964638
 30
0.0
 41
5.0
 42
5.0
 43
5.0
1001
ACAD
1000
RTLwPs
1070
   158
  0
TEXT
  5
73E2
  8
COTATION1
 62
     0
 10
1234.549776
 20
69.964638
 30
0.0
 40
2.5
  1
22
1001
ACAD
1000
MTEXTBEGIN
1070
    73
1070
     1
1070
    44
1040
1.0
1070
    74
1070
     0
1000
MTEXTEND
  0
POINT
  5
73E3
  8
DEFPOINTS
 62
     0
 10
1225.930729
 20
106.578457
 30
0.0
  0
POINT
  5
73E4
  8
DEFPOINTS
 62
     0
 10
1247.930729
 20
106.578457
 30
0.0
  0
POINT
  5
73E5
  8
DEFPOINTS
 62
     0
 10
1247.930729
 20
67.964638
 30
0.0
  0
ENDBLK
  5
7133
  8
0
  0
BLOCK
  8
0
  2
*D4
 70
     1
 10
0.0
 20
0.0
 30
0.0
  3
*D4
  1

  0
LINE
  5
73D4
  8
COTATION1
 62
     0
 10
1226.930729
 20
102.578457
 30
0.0
 11
1226.930729
 21
74.638602
 31
0.0
1001
ACAD
1000
RTLwPs
1070
   158
  0
LINE
  5
73D5
  8
COTATION1
 62
     0
 10
1246.930729
 20
102.578457
 30
0.0
 11
1246.930729
 21
74.638602
 31
0.0
1001
ACAD
1000
RTLwPs
1070
   158
  0
LINE
  5
73D6
  8
COTATION1
 62
     0
 10
1231.930729
 20
77.138602
 30
0.0
 11
1241.930729
 21
77.138602
 31
0.0
1001
ACAD
1000
RTLwPs
1070
   158
  0
INSERT
  5
73D7
  8
COTATION1
 62
     0
  2
_OPEN30
 10
1226.930729
 20
77.138602
 30
0.0
 41
5.0
 42
5.0
 43
5.0
 50
180.0
1001
ACAD
1000
RTLwPs
1070
   158
  0
INSERT
  5
73D8
  8
COTATION1
 62
     0
  2
_OPEN30
 10
1246.930729
 20
77.138602
 30
0.0
 41
5.0
 42
5.0
 43
5.0
1001
ACAD
1000
RTLwPs
1070
   158
  0
TEXT
  5
73D9
  8
COTATION1
 62
     0
 10
1234.549776
 20
79.138602
 30
0.0
 40
2.5
  1
20
1001
ACAD
1000
MTEXTBEGIN
1070
    73
1070
     1
1070
    44
1040
1.0
1070
    74
1070
     0
1000
MTEXTEND
  0
POINT
  5
73DA
  8
DEFPOINTS
 62
     0
 10
1226.930729
 20
104.578457
 30
0.0
  0
POINT
  5
73DB
  8
DEFPOINTS
 62
     0
 10
1246.930729
 20
104.578457
 30
0.0
  0
POINT
  5
73DC
  8
DEFPOINTS
 62
     0
 10
1246.930729
 20
77.138602
 30
0.0
  0
ENDBLK
  5
713F
  8
0
  0
BLOCK
  8
0
  2
*D5
 70
     1
 10
0.0
 20
0.0
 30
0.0
  3
*D5
  1

  0
LINE
  5
7303
  8
COTATION1
 62
     0
 10
1235.252458
 20
250.728457
 30
0.0
 11
1198.930729
 21
250.728457
 31
0.0
1001
ACAD
1000
RTLwPs
1070
   158
  0
LINE
  5
7304
  8
COTATION1
 62
     0
 10
1220.780729
 20
108.728457
 30
0.0
 11
1198.930729
 21
108.728457
 31
0.0
1001
ACAD
1000
RTLwPs
1070
   158
  0
LINE
  5
7305
  8
COTATION1
 62
     0
 10
1201.430729
 20
245.728457
 30
0.0
 11
1201.430729
 21
182.978457
 31
0.0
1001
ACAD
1000
RTLwPs
1070
   158
  0
LINE
  5
7306
  8
COTATION1
 62
     0
 10
1201.430729
 20
113.728457
 30
0.0
 11
1201.430729
 21
176.478457
 31
0.0
1001
ACAD
1000
RTLwPs
1070
   158
  0
INSERT
  5
7307
  8
COTATION1
 62
     0
  2
_OPEN30
 10
1201.430729
 20
250.728457
 30
0.0
 41
5.0
 42
5.0
 43
5.0
 50
90.0
1001
ACAD
1000
RTLwPs
1070
   158
  0
INSERT
  5
7308
  8
COTATION1
 62
     0
  2
_OPEN30
 10
1201.430729
 20
108.728457
 30
0.0
 41
5.0
 42
5.0
 43
5.0
 50
270.0
1001
ACAD
1000
RTLwPs
1070
   158
  0
TEXT
  5
7309
  8
COTATION1
 62
     0
 10
1197.680729
 20
178.478457
 30
0.0
 40
2.5
  1
142
1001
ACAD
1000
MTEXTBEGIN
1070
    73
1070
     1
1070
    44
1040
1.0
1070
    74
1070
     0
1000
MTEXTEND
  0
POINT
  5
730A
  8
DEFPOINTS
 62
     0
 10
1237.252458
 20
250.728457
 30
0.0
  0
POINT
  5
730B
  8
DEFPOINTS
 62
     0
 10
1222.780729
 20
108.728457
 30
0.0
  0
POINT
  5
730C
  8
DEFPOINTS
 62
     0
 10
1201.430729
 20
108.728457
 30
0.0
  0
ENDBLK
  5
71BF
  8
0
  0
BLOCK
  8
0
  2
*D6
 70
     1
 10
0.0
 20
0.0
 30
0.0
  3
*D6
  1

  0
LINE
  5
743A
  8
COTATION1
 62
     0
 10
1239.252458
 20
250.728457
 30
0.0
 11
1298.430729
 21
250.728457
 31
0.0
1001
ACAD
1000
RTLwPs
1070
   158
  0
LINE
  5
743B
  8
COTATION1
 62
     0
 10
1249.780729
 20
50.228457
 30
0.0
 11
1298.430729
 21
50.228457
 31
0.0
1001
ACAD
1000
RTLwPs
1070
   158
  0
LINE
  5
743C
  8
COTATION1
 62
     0
 10
1295.930729
 20
245.728457
 30
0.0
 11
1295.930729
 21
153.728457
 31
0.0
1001
ACAD
1000
RTLwPs
1070
   158
  0
LINE
  5
743D
  8
COTATION1
 62
     0
 10
1295.930729
 20
55.228457
 30
0.0
 11
1295.930729
 21
147.228457
 31
0.0
1001
ACAD
1000
RTLwPs
1070
   158
  0
INSERT
  5
743E
  8
COTATION1
 62
     0
  2
_OPEN30
 10
1295.930729
 20
250.728457
 30
0.0
 41
5.0
 42
5.0
 43
5.0
 50
90.0
1001
ACAD
1000
RTLwPs
1070
   158
  0
INSERT
  5
743F
  8
COTATION1
 62
     0
  2
_OPEN30
 10
1295.930729
 20
50.228457
 30
0.0
 41
5.0
 42
5.0
 43
5.0
 50
270.0
1001
ACAD
1000
RTLwPs
1070
   158
  0
TEXT
  5
7440
  8
COTATION1
 62
     0
 10
1290.573586
 20
149.228457
 30
0.0
 40
2.5
  1
200.5
1001
ACAD
1000
MTEXTBEGIN
1070
    73
1070
     1
1070
    44
1040
1.0
1070
    74
1070
     0
1000
MTEXTEND
  0
POINT
  5
7441
  8
DEFPOINTS
 62
     0
 10
1237.252458
 20
250.728457
 30
0.0
  0
POINT
  5
7442
  8
DEFPOINTS
 62
     0
 10
1247.780729
 20
50.228457
 30
0.0
  0
POINT
  5
7443
  8
DEFPOINTS
 62
     0
 10
1295.930729
 20
50.228457
 30
0.0
  0
ENDBLK
  5
71CC
  8
0
  0
BLOCK
  8
0
  2
*D7
 70
     1
 10
0.0
 20
0.0
 30
0.0
  3
*D7
  1

  0
LINE
  5
731F
  8
COTATION1
 62
     0
 10
1197.162921
 20
39.515317
 30
0.0
 11
1207.496255
 21
39.515317
 31
0.0
1001
ACAD
1000
RTLwPs
1070
   158
  0
LINE
  5
7320
  8
COTATION1
 62
     0
 10
1207.496255
 20
39.515317
 30
0.0
 11
1222.632023
 21
53.344118
 31
0.0
1001
ACAD
1000
RTLwPs
1070
   158
  0
TEXT
  5
7321
  8
COTATION1
 62
     0
 10
1196.805778
 20
41.515317
 30
0.0
 40
2.5
  1
2x%%c3
1001
ACAD
1000
MTEXTBEGIN
1070
    73
1070
     1
1070
    44
1040
1.0
1070
    74
1070
     0
1000
MTEXTEND
  0
INSERT
  5
7322
  8
COTATION1
 62
     0
  2
_OPEN30
 10
1226.323335
 20
56.716687
 30
0.0
 41
5.0
 42
5.0
 43
5.0
 50
42.416396
1001
ACAD
1000
RTLwPs
1070
   158
  0
POINT
  5
7323
  8
DEFPOINTS
 62
     0
 10
1226.323335
 20
56.716687
 30
0.0
  0
POINT
  5
7324
  8
DEFPOINTS
 62
     0
 10
1228.538122
 20
58.740228
 30
0.0
  0
ENDBLK
  5
724B
  8
0
  0
BLOCK
  8
0
  2
*D8
 70
     1
 10
0.0
 20
0.0
 30
0.0
  3
*D8
  1

  0
LINE
  5
7325
  8
COTATION1
 62
     0
 10
1253.080729
 20
108.728457
 30
0.0
 11
1288.441108
 21
108.728457
 31
0.0
1001
ACAD
1000
RTLwPs
1070
   158
  0
LINE
  5
7326
  8
COTATION1
 62
     0
 10
1252.930729
 20
57.728457
 30
0.0
 11
1288.441108
 21
57.728457
 31
0.0
1001
ACAD
1000
RTLwPs
1070
   158
  0
LINE
  5
7327
  8
COTATION1
 62
     0
 10
1285.941108
 20
103.728457
 30
0.0
 11
1285.941108
 21
86.478457
 31
0.0
1001
ACAD
1000
RTLwPs
1070
   158
  0
LINE
  5
7328
  8
COTATION1
 62
     0
 10
1285.941108
 20
62.728457
 30
0.0
 11
1285.941108
 21
79.978457
 31
0.0
1001
ACAD
1000
RTLwPs
1070
   158
  0
INSERT
  5
7329
  8
COTATION1
 62
     0
  2
_OPEN30
 10
1285.941108
 20
108.728457
 30
0.0
 41
5.0
 42
5.0
 43
5.0
 50
90.0
1001
ACAD
1000
RTLwPs
1070
   158
  0
INSERT
  5
732A
  8
COTATION1
 62
     0
  2
_OPEN30
 10
1285.941108
 20
57.728457
 30
0.0
 41
5.0
 42
5.0
 43
5.0
 50
270.0
1001
ACAD
1000
RTLwPs
1070
   158
  0
TEXT
  5
732B
  8
COTATION1
 62
     0
 10
1283.917299
 20
81.978457
 30
0.0
 40
2.5
  1
51
1001
ACAD
1000
MTEXTBEGIN
1070
    73
1070
     1
1070
    44
1040
1.0
1070
    74
1070
     0
1000
MTEXTEND
  0
POINT
  5
732C
  8
DEFPOINTS
 62
     0
 10
1251.080729
 20
108.728457
 30
0.0
  0
POINT
  5
732D
  8
DEFPOINTS
 62
     0
 10
1250.930729
 20
57.728457
 30
0.0
  0
POINT
  5
732E
  8
DEFPOINTS
 62
     0
 10
1285.941108
 20
57.728457
 30
0.0
  0
ENDBLK
  5
7258
  8
0
  0
BLOCK
  8
0
  2
*D9
 70
     1
 10
0.0
 20
0.0
 30
0.0
  3
*D9
  1

  0
LINE
  5
732F
  8
COTATION1
 62
     0
 10
1227.430729
 20
51.228457
 30
0.0
 11
1227.430729
 21
21.228457
 31
0.0
1001
ACAD
1000
RTLwPs
1070
   158
  0
LINE
  5
7330
  8
COTATION1
 62
     0
 10
1246.430729
 20
51.228457
 30
0.0
 11
1246.430729
 21
21.228457
 31
0.0
1001
ACAD
1000
RTLwPs
1070
   158
  0
LINE
  5
7331
  8
COTATION1
 62
     0
 10
1232.430729
 20
23.728457
 30
0.0
 11
1241.430729
 21
23.728457
 31
0.0
1001
ACAD
1000
RTLwPs
1070
   158
  0
INSERT
  5
7332
  8
COTATION1
 62
     0
  2
_OPEN30
 10
1227.430729
 20
23.728457
 30
0.0
 41
5.0
 42
5.0
 43
5.0
 50
180.0
1001
ACAD
1000
RTLwPs
1070
   158
  0
INSERT
  5
7333
  8
COTATION1
 62
     0
  2
_OPEN30
 10
1246.430729
 20
23.728457
 30
0.0
 41
5.0
 42
5.0
 43
5.0
1001
ACAD
1000
RTLwPs
1070
   158
  0
TEXT
  5
7334
  8
COTATION1
 62
     0
 10
1234.430729
 20
25.728457
 30
0.0
 40
2.5
  1
19
1001
ACAD
1000
MTEXTBEGIN
1070
    73
1070
     1
1070
    44
1040
1.0
1070
    74
1070
     0
1000
MTEXTEND
  0
POINT
  5
7335
  8
DEFPOINTS
 62
     0
 10
1227.430729
 20
53.228457
 30
0.0
  0
POINT
  5
7336
  8
DEFPOINTS
 62
     0
 10
1246.430729
 20
53.228457
 30
0.0
  0
POINT
  5
7337
  8
DEFPOINTS
 62
     0
 10
1246.430729
 20
23.728457
 30
0.0
  0
ENDBLK
  5
7264
  8
0
  0
BLOCK
  8
0
  2
*D10
 70
     1
 10
0.0
 20
0.0
 30
0.0
  3
*D10
  1

  0
LINE
  5
7338
  8
COTATION1
 62
     0
 10
1238.930729
 20
118.728457
 30
0.0
 11
1288.441108
 21
118.728457
 31
0.0
1001
ACAD
1000
RTLwPs
1070
   158
  0
LINE
  5
7339
  8
COTATION1
 62
     0
 10
1253.080729
 20
108.728457
 30
0.0
 11
1288.441108
 21
108.728457
 31
0.0
1001
ACAD
1000
RTLwPs
1070
   158
  0
LINE
  5
733A
  8
COTATION1
 62
     0
 10
1285.941108
 20
123.728457
 30
0.0
 11
1285.941108
 21
128.728457
 31
0.0
1001
ACAD
1000
RTLwPs
1070
   158
  0
LINE
  5
733B
  8
COTATION1
 62
     0
 10
1285.941108
 20
103.728457
 30
0.0
 11
1285.941108
 21
98.728457
 31
0.0
1001
ACAD
1000
RTLwPs
1070
   158
  0
INSERT
  5
733C
  8
COTATION1
 62
     0
  2
_OPEN30
 10
1285.941108
 20
118.728457
 30
0.0
 41
5.0
 42
5.0
 43
5.0
 50
270.0
1001
ACAD
1000
RTLwPs
1070
   158
  0
INSERT
  5
733D
  8
COTATION1
 62
     0
  2
_OPEN30
 10
1285.941108
 20
108.728457
 30
0.0
 41
5.0
 42
5.0
 43
5.0
 50
90.0
1001
ACAD
1000
RTLwPs
1070
   158
  0
TEXT
  5
733E
  8
COTATION1
 62
     0
 10
1283.381585
 20
112.478457
 30
0.0
 40
2.5
  1
10
1001
ACAD
1000
MTEXTBEGIN
1070
    73
1070
     1
1070
    44
1040
1.0
1070
    74
1070
     0
1000
MTEXTEND
  0
POINT
  5
733F
  8
DEFPOINTS
 62
     0
 10
1236.930729
 20
118.728457
 30
0.0
  0
POINT
  5
7340
  8
DEFPOINTS
 62
     0
 10
1251.080729
 20
108.728457
 30
0.0
  0
POINT
  5
7341
  8
DEFPOINTS
 62
     0
 10
1285.941108
 20
108.728457
 30
0.0
  0
ENDBLK
  5
7271
  8
0
  0
BLOCK
  8
0
  2
*D11
 70
     1
 10
0.0
 20
0.0
 30
0.0
  3
*D11
  1

  0
LINE
  5
747A
  8
COTATION1
 62
     0
 10
1254.080729
 20
110.728457
 30
0.0
 11
1278.441108
 21
110.728457
 31
0.0
  0
LINE
  5
747B
  8
COTATION1
 62
     0
 10
1253.080729
 20
108.728457
 30
0.0
 11
1278.441108
 21
108.728457
 31
0.0
  0
LINE
  5
747C
  8
COTATION1
 62
     0
 10
1275.941108
 20
115.728457
 30
0.0
 11
1275.941108
 21
120.728457
 31
0.0
  0
LINE
  5
747D
  8
COTATION1
 62
     0
 10
1275.941108
 20
103.728457
 30
0.0
 11
1275.941108
 21
98.728457
 31
0.0
  0
TEXT
  5
747E
  8
COTATION1
 62
     0
 10
1271.917299
 20
98.926735
 30
0.0
 40
2.5
  1
2
  0
INSERT
  5
747F
  8
COTATION1
 62
     0
  2
_OPEN30
 10
1275.941108
 20
110.728457
 30
0.0
 41
5.0
 42
5.0
 43
5.0
 50
270.0
  0
INSERT
  5
7480
  8
COTATION1
 62
     0
  2
_OPEN30
 10
1275.941108
 20
108.728457
 30
0.0
 41
5.0
 42
5.0
 43
5.0
 50
90.0
  0
POINT
  5
7481
  8
DEFPOINTS
 62
     0
 10
1252.080729
 20
110.728457
 30
0.0
  0
POINT
  5
7482
  8
DEFPOINTS
 62
     0
 10
1251.080729
 20
108.728457
 30
0.0
  0
POINT
  5
7483
  8
DEFPOINTS
 62
     0
 10
1275.941108
 20
108.728457
 30
0.0
  0
ENDBLK
  5
727E
  8
0
  0
BLOCK
  8
0
  2
*D12
 70
     1
 10
0.0
 20
0.0
 30
0.0
  3
*D12
  1

  0
LINE
  5
7366
  8
COTATION1
 62
     0
 10
1291.632315
 20
133.577076
 30
0.0
 11
1269.751363
 21
133.577076
 31
0.0
1001
ACAD
1000
RTLwPs
1070
   158
  0
LINE
  5
7367
  8
COTATION1
 62
     0
 10
1269.751363
 20
133.577076
 30
0.0
 11
1252.868884
 21
115.899252
 31
0.0
1001
ACAD
1000
RTLwPs
1070
   158
  0
TEXT
  5
7368
  8
COTATION1
 62
     0
 10
1271.39422
 20
135.577076
 30
0.0
 40
2.5
  1
2x%%c4.3x6.3
1001
ACAD
1000
MTEXTBEGIN
1070
    73
1070
     1
1070
    44
1040
1.0
1070
    74
1070
     0
1000
MTEXTEND
  0
INSERT
  5
7369
  8
COTATION1
 62
     0
  2
_OPEN30
 10
1249.415628
 20
112.283312
 30
0.0
 41
5.0
 42
5.0
 43
5.0
 50
226.318329
1001
ACAD
1000
RTLwPs
1070
   158
  0
POINT
  5
736A
  8
DEFPOINTS
 62
     0
 10
1249.415628
 20
112.283312
 30
0.0
  0
POINT
  5
736B
  8
DEFPOINTS
 62
     0
 10
1246.445829
 20
109.173603
 30
0.0
  0
ENDBLK
  5
72E3
  8
0
  0
BLOCK
  8
0
  2
*D13
 70
     1
 10
0.0
 20
0.0
 30
0.0
  3
*D13
  1

  0
LINE
  5
72EF
  8
COTATION1
 62
     0
 10
1271.654579
 20
71.92229
 30
0.0
 11
1257.749817
 21
71.92229
 31
0.0
1001
ACAD
1000
RTLwPs
1070
   158
  0
LINE
  5
72F0
  8
COTATION1
 62
     0
 10
1257.749817
 20
71.92229
 30
0.0
 11
1231.52098
 21
103.246479
 31
0.0
1001
ACAD
1000
RTLwPs
1070
   158
  0
TEXT
  5
72F1
  8
COTATION1
 62
     0
 10
1259.392674
 20
73.92229
 30
0.0
 40
2.5
  1
2x%%c4.3
1001
ACAD
1000
MTEXTBEGIN
1070
    73
1070
     1
1070
    44
1040
1.0
1070
    74
1070
     0
1000
MTEXTEND
  0
INSERT
  5
72F2
  8
COTATION1
 62
     0
  2
_OPEN30
 10
1228.311014
 20
107.08003
 30
0.0
 41
5.0
 42
5.0
 43
5.0
 50
129.940614
1001
ACAD
1000
RTLwPs
1070
   158
  0
POINT
  5
72F3
  8
DEFPOINTS
 62
     0
 10
1228.311014
 20
107.08003
 30
0.0
  0
POINT
  5
72F4
  8
DEFPOINTS
 62
     0
 10
1225.550443
 20
110.376884
 30
0.0
  0
ENDBLK
  5
72F6
  8
0
  0
BLOCK
  8
0
  2
*D14
 70
     1
 10
0.0
 20
0.0
 30
0.0
  3
*D14
  1

  0
LINE
  5
72F8
  8
COTATION1
 62
     0
 10
1221.430729
 20
51.728457
 30
0.0
 11
1221.430729
 21
11.228457
 31
0.0
1001
ACAD
1000
RTLwPs
1070
   158
  0
LINE
  5
72F9
  8
COTATION1
 62
     0
 10
1252.430729
 20
51.728457
 30
0.0
 11
1252.430729
 21
11.228457
 31
0.0
1001
ACAD
1000
RTLwPs
1070
   158
  0
LINE
  5
72FA
  8
COTATION1
 62
     0
 10
1226.430729
 20
13.728457
 30
0.0
 11
1247.430729
 21
13.728457
 31
0.0
1001
ACAD
1000
RTLwPs
1070
   158
  0
INSERT
  5
72FB
  8
COTATION1
 62
     0
  2
_OPEN30
 10
1221.430729
 20
13.728457
 30
0.0
 41
5.0
 42
5.0
 43
5.0
 50
180.0
1001
ACAD
1000
RTLwPs
1070
   158
  0
INSERT
  5
72FC
  8
COTATION1
 62
     0
  2
_OPEN30
 10
1252.430729
 20
13.728457
 30
0.0
 41
5.0
 42
5.0
 43
5.0
1001
ACAD
1000
RTLwPs
1070
   158
  0
TEXT
  5
72FD
  8
COTATION1
 62
     0
 10
1234.906919
 20
15.728457
 30
0.0
 40
2.5
  1
31
1001
ACAD
1000
MTEXTBEGIN
1070
    73
1070
     1
1070
    44
1040
1.0
1070
    74
1070
     0
1000
MTEXTEND
  0
POINT
  5
72FE
  8
DEFPOINTS
 62
     0
 10
1221.430729
 20
53.728457
 30
0.0
  0
POINT
  5
72FF
  8
DEFPOINTS
 62
     0
 10
1252.430729
 20
53.728457
 30
0.0
  0
POINT
  5
7300
  8
DEFPOINTS
 62
     0
 10
1252.430729
 20
13.728457
 30
0.0
  0
ENDBLK
  5
7302
  8
0
  0
ENDSEC
  0
SECTION
  2
ENTITIES
  0
INSERT
  5
A
  8
0
  2
COTE
 10
0.0
 20
0.0
 30
0.0
  0
INSERT
  5
17
  8
0
  2
COTE
 10
284.010391
 20
6.373258
 30
0.0
  0
INSERT
  5
72
  8
0
  2
FOND
 10
0.0
 20
0.0
 30
0.0
  0
LINE
  5
63A2
  8
AXE
 10
1217.430729
 20
86.228457
 30
0.0
 11
1267.430729
 21
86.228457
 31
0.0
  0
POLYLINE
  5
6632
  8
ALPHA
 66
     1
 10
0.0
 20
0.0
 30
0.0
 70
   128
  0
VERTEX
  5
770B
  8
ALPHA
 10
1228.476134
 20
116.646215
 30
0.0
  0
VERTEX
  5
770C
  8
ALPHA
 10
1228.666193
 20
116.646215
 30
0.0
  0
VERTEX
  5
770D
  8
ALPHA
 10
1229.203315
 20
116.646215
 30
0.0
  0
VERTEX
  5
770E
  8
ALPHA
 10
1231.120428
 20
116.646215
 30
0.0
  0
VERTEX
  5
770F
  8
ALPHA
 10
1233.83083
 20
116.646215
 30
0.0
  0
VERTEX
  5
7710
  8
ALPHA
 10
1236.937875
 20
116.646215
 30
0.0
  0
VERTEX
  5
7711
  8
ALPHA
 10
1240.044921
 20
116.646215
 30
0.0
  0
VERTEX
  5
7712
  8
ALPHA
 10
1242.755322
 20
116.646215
 30
0.0
  0
VERTEX
  5
7713
  8
ALPHA
 10
1244.672435
 20
116.646215
 30
0.0
  0
VERTEX
  5
7714
  8
ALPHA
 10
1245.209558
 20
116.646215
 30
0.0
  0
VERTEX
  5
7715
  8
ALPHA
 10
1245.399616
 20
116.646215
 30
0.0
  0
SEQEND
  5
7716
  8
ALPHA
  0
POLYLINE
  5
6633
  8
ALPHA
 66
     1
 10
0.0
 20
0.0
 30
0.0
 70
   128
  0
VERTEX
  5
7717
  8
ALPHA
 10
1252.430729
 20
102.014089
 30
0.0
  0
VERTEX
  5
7718
  8
ALPHA
 10
1251.811342
 20
102.840362
 30
0.0
  0
VERTEX
  5
7719
  8
ALPHA
 10
1249.289187
 20
103.606102
 30
0.0
  0
VERTEX
  5
771A
  8
ALPHA
 10
1245.818869
 20
104.264281
 30
0.0
  0
VERTEX
  5
771B
  8
ALPHA
 10
1241.624634
 20
104.725066
 30
0.0
  0
VERTEX
  5
771C
  8
ALPHA
 10
1236.930729
 20
104.898623
 30
0.0
  0
VERTEX
  5
771D
  8
ALPHA
 10
1232.236815
 20
104.725066
 30
0.0
  0
VERTEX
  5
771E
  8
ALPHA
 10
1228.04252
 20
104.264281
 30
0.0
  0
VERTEX
  5
771F
  8
ALPHA
 10
1224.572038
 20
103.606102
 30
0.0
  0
VERTEX
  5
7720
  8
ALPHA
 10
1222.049565
 20
102.840362
 30
0.0
  0
VERTEX
  5
7721
  8
ALPHA
 10
1221.430729
 20
102.014089
 30
0.0
  0
SEQEND
  5
7722
  8
ALPHA
  0
POLYLINE
  5
6634
  8
ALPHA
 66
     1
 10
0.0
 20
0.0
 30
0.0
 70
   128
210
0.0
220
0.0
230
-1.0
  0
VERTEX
  5
7723
  8
ALPHA
 10
-1245.373778
 20
104.326884
 30
0.0
  0
VERTEX
  5
7724
  8
ALPHA
 10
-1244.357085
 20
104.700782
 30
0.0
  0
VERTEX
  5
7725
  8
ALPHA
 10
-1243.487588
 20
105.576464
 30
0.0
  0
VERTEX
  5
7726
  8
ALPHA
 10
-1240.497158
 20
111.920158
 30
0.0
  0
VERTEX
  5
7727
  8
ALPHA
 10
-1239.666589
 20
113.270098
 30
0.0
  0
VERTEX
  5
7728
  8
ALPHA
 10
-1238.797205
 20
114.345721
 30
0.0
  0
VERTEX
  5
7729
  8
ALPHA
 10
-1237.88619
 20
115.057066
 30
0.0
  0
VERTEX
  5
772A
  8
ALPHA
 10
-1236.930729
 20
115.314173
 30
0.0
  0
VERTEX
  5
772B
  8
ALPHA
 10
-1235.975107
 20
115.057066
 30
0.0
  0
VERTEX
  5
772C
  8
ALPHA
 10
-1235.063995
 20
114.345721
 30
0.0
  0
VERTEX
  5
772D
  8
ALPHA
 10
-1234.194539
 20
113.270098
 30
0.0
  0
VERTEX
  5
772E
  8
ALPHA
 10
-1233.363887
 20
111.920158
 30
0.0
  0
VERTEX
  5
772F
  8
ALPHA
 10
-1230.37222
 20
105.576464
 30
0.0
  0
VERTEX
  5
7730
  8
ALPHA
 10
-1229.503341
 20
104.700782
 30
0.0
  0
VERTEX
  5
7731
  8
ALPHA
 10
-1228.487679
 20
104.326884
 30
0.0
  0
SEQEND
  5
7732
  8
ALPHA
  0
POLYLINE
  5
6635
  8
ALPHA
 66
     1
 10
0.0
 20
0.0
 30
0.0
 70
   128
  0
VERTEX
  5
7733
  8
ALPHA
 10
1245.399616
 20
116.646215
 30
0.0
  0
VERTEX
  5
7734
  8
ALPHA
 10
1245.399616
 20
116.335521
 30
0.0
  0
VERTEX
  5
7735
  8
ALPHA
 10
1245.399616
 20
115.651994
 30
0.0
  0
VERTEX
  5
7736
  8
ALPHA
 10
1245.399616
 20
114.968467
 30
0.0
  0
VERTEX
  5
7737
  8
ALPHA
 10
1245.399616
 20
114.657772
 30
0.0
  0
VERTEX
  5
7738
  8
ALPHA
 10
1244.527147
 20
113.964985
 30
0.0
  0
VERTEX
  5
7739
  8
ALPHA
 10
1243.338331
 20
113.323118
 30
0.0
  0
VERTEX
  5
773A
  8
ALPHA
 10
1242.061281
 20
112.850918
 30
0.0
  0
VERTEX
  5
773B
  8
ALPHA
 10
1240.924107
 20
112.66713
 30
0.0
  0
SEQEND
  5
773C
  8
ALPHA
  0
POLYLINE
  5
6636
  8
ALPHA
 66
     1
 10
0.0
 20
0.0
 30
0.0
 70
   128
210
0.0
220
0.0
230
-1.0
  0
VERTEX
  5
773D
  8
ALPHA
 10
-1232.951643
 20
112.66713
 30
0.0
  0
VERTEX
  5
773E
  8
ALPHA
 10
-1231.815011
 20
112.850918
 30
0.0
  0
VERTEX
  5
773F
  8
ALPHA
 10
-1230.538038
 20
113.323118
 30
0.0
  0
VERTEX
  5
7740
  8
ALPHA
 10
-1229.34899
 20
113.964985
 30
0.0
  0
VERTEX
  5
7741
  8
ALPHA
 10
-1228.476134
 20
114.657772
 30
0.0
  0
SEQEND
  5
7742
  8
ALPHA
  0
POLYLINE
  5
6637
  8
ALPHA
 66
     1
 10
0.0
 20
0.0
 30
0.0
 70
   128
  0
VERTEX
  5
7743
  8
ALPHA
 10
1240.924107
 20
112.66713
 30
0.0
  0
VERTEX
  5
7744
  8
ALPHA
 10
1240.674597
 20
112.66713
 30
0.0
  0
VERTEX
  5
7745
  8
ALPHA
 10
1240.059873
 20
112.66713
 30
0.0
  0
SEQEND
  5
7746
  8
ALPHA
  0
POLYLINE
  5
6638
  8
ALPHA
 66
     1
 10
0.0
 20
0.0
 30
0.0
 70
   128
  0
VERTEX
  5
7747
  8
ALPHA
 10
1233.801221
 20
112.66713
 30
0.0
  0
VERTEX
  5
7748
  8
ALPHA
 10
1233.196624
 20
112.66713
 30
0.0
  0
VERTEX
  5
7749
  8
ALPHA
 10
1232.951643
 20
112.66713
 30
0.0
  0
SEQEND
  5
774A
  8
ALPHA
  0
POLYLINE
  5
6639
  8
ALPHA
 66
     1
 10
0.0
 20
0.0
 30
0.0
 70
   128
  0
VERTEX
  5
774B
  8
ALPHA
 10
1228.476134
 20
114.657772
 30
0.0
  0
VERTEX
  5
774C
  8
ALPHA
 10
1228.476134
 20
114.968467
 30
0.0
  0
VERTEX
  5
774D
  8
ALPHA
 10
1228.476134
 20
115.651994
 30
0.0
  0
VERTEX
  5
774E
  8
ALPHA
 10
1228.476134
 20
116.335521
 30
0.0
  0
VERTEX
  5
774F
  8
ALPHA
 10
1228.476134
 20
116.646215
 30
0.0
  0
SEQEND
  5
7750
  8
ALPHA
  0
DIMENSION
  5
663A
  8
COTATION1
  2
*D12
 10
1246.445829
 20
109.173603
 30
0.0
 11
1281.691839
 21
133.577076
 31
0.0
 70
   131
  1
2x<>x6.3
 15
1249.415628
 25
112.283312
 35
0.0
 40
0.0
1001
ACAD
1000
DSTYLE
1002
{
1070
   288
1070
     1
1002
}
  0
DIMENSION
  5
663B
  8
COTATION1
  2
*D6
 10
1295.930729
 20
50.228457
 30
0.0
 11
1295.930729
 21
150.478457
 31
0.0
 13
1237.252458
 23
250.728457
 33
0.0
 14
1247.780729
 24
50.228457
 34
0.0
 50
90.0
  0
DIMENSION
  5
6646
  8
COTATION1
  2
*D13
 10
1225.550443
 20
110.376884
 30
0.0
 11
1265.702198
 21
71.92229
 31
0.0
 70
   131
  1
2x<>
 15
1228.311014
 25
107.08003
 35
0.0
 40
0.0
1001
ACAD
1000
DSTYLE
1002
{
1070
   288
1070
     1
1002
}
  0
DIMENSION
  5
664A
  8
COTATION1
  2
*D14
 10
1252.430729
 20
13.728457
 30
0.0
 11
1236.930729
 21
16.978457
 31
0.0
 13
1221.430729
 23
53.728457
 33
0.0
 14
1252.430729
 24
53.728457
 34
0.0
  0
LINE
  5
664B
  8
ALPHA
 10
1249.430729
 20
54.728457
 30
0.0
 11
1252.430729
 21
54.728457
 31
0.0
  0
LINE
  5
664C
  8
AXE
 10
1252.080729
 20
110.728457
 30
0.0
 11
1243.780729
 21
110.728457
 31
0.0
  0
ARC
  5
664D
  8
ALPHA
 10
1236.930729
 20
64.233363
 30
0.0
 40
54.495095
 50
73.978407
 51
106.021593
  0
LINE
  5
664E
  8
ALPHA
 10
1221.430729
 20
53.728457
 30
0.0
 11
1252.430729
 21
53.728457
 31
0.0
  0
LINE
  5
6662
  8
ALPHA
 10
1221.430729
 20
116.028457
 30
0.0
 11
1221.430729
 21
53.728457
 31
0.0
  0
TEXT
  5
666E
  8
AXE
 10
1229.454538
 20
33.728457
 30
0.0
 40
8.0
  1
Y
 72
     2
 11
1235.930729
 21
33.728457
 31
0.0
  0
LINE
  5
6671
  8
ALPHA
 10
1224.430729
 20
58.780776
 30
0.0
 11
1236.930729
 21
58.780776
 31
0.0
  0
LINE
  5
6672
  8
ALPHA
 10
1225.930729
 20
54.728457
 30
0.0
 11
1247.930729
 21
54.728457
 31
0.0
  0
LINE
  5
6673
  8
ALPHA
 10
1221.430729
 20
54.728457
 30
0.0
 11
1224.430729
 21
54.728457
 31
0.0
  0
LINE
  5
6674
  8
ALPHA
 10
1225.930729
 20
58.780776
 30
0.0
 11
1226.943529
 21
54.728457
 31
0.0
  0
LINE
  5
6675
  8
ALPHA
 10
1224.430729
 20
54.728457
 30
0.0
 11
1224.430729
 21
58.780776
 31
0.0
  0
LINE
  5
6676
  8
ALPHA
 10
1225.930729
 20
54.728457
 30
0.0
 11
1225.930729
 21
58.780776
 31
0.0
  0
LINE
  5
6677
  8
ALPHA
 10
1247.930729
 20
58.780776
 30
0.0
 11
1246.917928
 21
54.728457
 31
0.0
  0
LINE
  5
6678
  8
ALPHA
 10
1247.930729
 20
54.728457
 30
0.0
 11
1247.930729
 21
58.780776
 31
0.0
  0
LINE
  5
6679
  8
ALPHA
 10
1249.430729
 20
54.728457
 30
0.0
 11
1249.430729
 21
58.780776
 31
0.0
  0
LINE
  5
667A
  8
ALPHA
 10
1249.430729
 20
58.780776
 30
0.0
 11
1236.930729
 21
58.780776
 31
0.0
  0
LINE
  5
668A
  8
ALPHA
 10
1250.080729
 20
110.728457
 30
0.0
 11
1250.080729
 21
108.728457
 31
0.0
  0
LINE
  5
668B
  8
AXE
 10
1247.930729
 20
106.578457
 30
0.0
 11
1247.930729
 21
114.878457
 31
0.0
  0
LINE
  5
668C
  8
AXE
 10
1246.930729
 20
104.578457
 30
0.0
 11
1246.930729
 21
112.878457
 31
0.0
  0
LINE
  5
668D
  8
ALPHA
 10
1238.387564
 20
110.030533
 30
0.0
 11
1236.930729
 21
108.573698
 31
0.0
  0
CIRCLE
  5
668E
  8
ALPHA
 10
1236.930729
 20
107.728457
 30
0.0
 40
2.735279
  0
LINE
  5
668F
  8
AXE
 10
1225.930729
 20
106.578457
 30
0.0
 11
1225.930729
 21
114.878457
 31
0.0
  0
LINE
  5
6690
  8
AXE
 10
1226.930729
 20
104.578457
 30
0.0
 11
1226.930729
 21
112.878457
 31
0.0
  0
ARC
  5
6691
  8
ALPHA
 10
1226.930729
 20
108.728457
 30
0.0
 40
2.15
 50
270.0
 51
57.663974
  0
LINE
  5
6692
  8
ALPHA
 10
1223.780729
 20
110.728457
 30
0.0
 11
1223.780729
 21
108.728457
 31
0.0
  0
ARC
  5
6693
  8
ALPHA
 10
1246.930729
 20
108.728457
 30
0.0
 40
2.15
 50
122.336026
 51
270.0
  0
LINE
  5
6694
  8
ALPHA
 10
1236.086315
 20
107.729281
 30
0.0
 11
1234.62453
 21
106.266401
 31
0.0
  0
LINE
  5
6695
  8
AXE
 10
1222.780729
 20
108.728457
 30
0.0
 11
1231.080729
 21
108.728457
 31
0.0
  0
ARC
  5
6696
  8
ALPHA
 10
1225.930729
 20
108.728457
 30
0.0
 40
2.15
 50
180.0
 51
270.0
  0
LINE
  5
6697
  8
ALPHA
 10
1225.930729
 20
106.578457
 30
0.0
 11
1226.930729
 21
106.578457
 31
0.0
  0
LINE
  5
6698
  8
ALPHA
 10
1247.930729
 20
106.578457
 30
0.0
 11
1246.930729
 21
106.578457
 31
0.0
  0
ARC
  5
6699
  8
ALPHA
 10
1247.930729
 20
108.728457
 30
0.0
 40
2.15
 50
270.0
 51
0.0
  0
LINE
  5
669A
  8
ALPHA
 10
1237.514012
 20
106.301584
 30
0.0
 11
1236.940625
 21
106.874421
 31
0.0
  0
LINE
  5
669B
  8
ALPHA
 10
1235.512925
 20
108.302121
 30
0.0
 11
1236.086315
 21
107.729281
 31
0.0
  0
LINE
  5
669C
  8
ALPHA
 10
1236.357339
 20
109.145437
 30
0.0
 11
1235.512925
 21
108.302121
 31
0.0
  0
LINE
  5
669D
  8
ALPHA
 10
1236.930729
 20
108.573698
 30
0.0
 11
1236.357339
 21
109.145437
 31
0.0
  0
LINE
  5
669E
  8
ALPHA
 10
1236.940625
 20
106.874421
 30
0.0
 11
1235.478291
 21
105.41209
 31
0.0
  0
LINE
  5
669F
  8
ALPHA
 10
1238.358429
 20
107.145998
 30
0.0
 11
1237.514012
 21
106.301584
 31
0.0
  0
LINE
  5
66A0
  8
ALPHA
 10
1237.785039
 20
107.717737
 30
0.0
 11
1238.358429
 21
107.145998
 31
0.0
  0
LINE
  5
66A1
  8
ALPHA
 10
1239.241874
 20
109.175673
 30
0.0
 11
1237.785039
 21
107.717737
 31
0.0
  0
LINE
  5
66A2
  8
AXE
 10
1251.080729
 20
108.728457
 30
0.0
 11
1242.780729
 21
108.728457
 31
0.0
  0
ARC
  5
66A7
  8
ALPHA
 10
1222.030729
 20
116.028457
 30
0.0
 40
0.6
 50
103.554708
 51
180.0
  0
LINE
  5
66A8
  8
ALPHA
 10
1226.487141
 20
116.646216
 30
0.0
 11
1228.46184
 21
116.646216
 31
0.0
  0
LINE
  5
66A9
  8
ALPHA
 10
1228.442599
 20
116.059633
 30
0.0
 11
1226.51298
 21
116.059633
 31
0.0
  0
ARC
  5
66AA
  8
ALPHA
 10
1225.930729
 20
110.728457
 30
0.0
 40
2.15
 50
0.0
 51
180.0
  0
LINE
  5
66AB
  8
AXE
 10
1221.780729
 20
110.728457
 30
0.0
 11
1230.080729
 21
110.728457
 31
0.0
  0
LINE
  5
66AC
  8
ALPHA
 10
1228.080729
 20
110.728457
 30
0.0
 11
1228.080729
 21
110.545047
 31
0.0
  0
LINE
  5
66AD
  8
ALPHA
 10
1228.46184
 20
114.656673
 30
0.0
 11
1226.487141
 21
114.656673
 31
0.0
  0
LINE
  5
66AE
  8
ALPHA
 10
1226.487141
 20
114.656673
 30
0.0
 11
1226.487141
 21
116.646216
 31
0.0
  0
LINE
  5
66AF
  8
ALPHA
 10
1228.46184
 20
116.646216
 30
0.0
 11
1228.46184
 21
114.656673
 31
0.0
  0
LINE
  5
66B4
  8
ALPHA
 10
1247.374316
 20
114.657771
 30
0.0
 11
1247.374316
 21
116.647314
 31
0.0
  0
LINE
  5
66B5
  8
ALPHA
 10
1245.780729
 20
110.728457
 30
0.0
 11
1245.780729
 21
110.545047
 31
0.0
  0
LINE
  5
66B6
  8
ALPHA
 10
1245.399617
 20
116.647314
 30
0.0
 11
1245.399617
 21
114.657771
 31
0.0
  0
LINE
  5
66B7
  8
ALPHA
 10
1247.374316
 20
116.647314
 30
0.0
 11
1245.399617
 21
116.647314
 31
0.0
  0
LINE
  5
66B8
  8
ALPHA
 10
1245.417757
 20
116.059633
 30
0.0
 11
1247.348477
 21
116.059633
 31
0.0
  0
LINE
  5
66B9
  8
ALPHA
 10
1245.399617
 20
114.657771
 30
0.0
 11
1247.374316
 21
114.657771
 31
0.0
  0
ARC
  5
66BA
  8
ALPHA
 10
1247.930729
 20
110.728457
 30
0.0
 40
2.15
 50
0.0
 51
180.0
  0
LINE
  5
66BB
  8
ALPHA
 10
1252.430729
 20
116.028457
 30
0.0
 11
1252.430729
 21
53.728457
 31
0.0
  0
TEXT
  5
66BC
  8
AXE
 10
1260.954538
 20
87.228457
 30
0.0
 40
8.0
  1
X
 72
     2
 11
1267.430729
 21
87.228457
 31
0.0
  0
ARC
  5
66BD
  8
ALPHA
 10
1251.830729
 20
116.028457
 30
0.0
 40
0.6
 50
0.0
 51
76.445292
  0
POLYLINE
  5
6CA6
  8
ALPHA
 66
     1
 10
0.0
 20
0.0
 30
0.0
 70
   128
  0
VERTEX
  5
7751
  8
ALPHA
 10
1243.169015
 20
120.795538
 30
0.0
  0
VERTEX
  5
7752
  8
ALPHA
 10
1243.52473
 20
120.942664
 30
0.0
  0
VERTEX
  5
7753
  8
ALPHA
 10
1243.671855
 20
121.298379
 30
0.0
  0
VERTEX
  5
7754
  8
ALPHA
 10
1243.52473
 20
121.65465
 30
0.0
  0
VERTEX
  5
7755
  8
ALPHA
 10
1243.169015
 20
121.802332
 30
0.0
  0
SEQEND
  5
7756
  8
ALPHA
  0
POLYLINE
  5
6CA7
  8
ALPHA
 66
     1
 10
0.0
 20
0.0
 30
0.0
 70
   128
  0
VERTEX
  5
7757
  8
ALPHA
 10
1236.930729
 20
120.795538
 30
0.0
  0
VERTEX
  5
7758
  8
ALPHA
 10
1239.223214
 20
120.795538
 30
0.0
  0
VERTEX
  5
7759
  8
ALPHA
 10
1241.221208
 20
120.795538
 30
0.0
  0
VERTEX
  5
775A
  8
ALPHA
 10
1242.633534
 20
120.795538
 30
0.0
  0
VERTEX
  5
775B
  8
ALPHA
 10
1243.169015
 20
120.795538
 30
0.0
  0
SEQEND
  5
775C
  8
ALPHA
  0
POLYLINE
  5
6CA8
  8
ALPHA
 66
     1
 10
0.0
 20
0.0
 30
0.0
 70
   128
  0
VERTEX
  5
775D
  8
ALPHA
 10
1243.169015
 20
121.802332
 30
0.0
  0
VERTEX
  5
775E
  8
ALPHA
 10
1242.633534
 20
121.802332
 30
0.0
  0
VERTEX
  5
775F
  8
ALPHA
 10
1241.221208
 20
121.802332
 30
0.0
  0
VERTEX
  5
7760
  8
ALPHA
 10
1239.223214
 20
121.802332
 30
0.0
  0
VERTEX
  5
7761
  8
ALPHA
 10
1236.930729
 20
121.802332
 30
0.0
  0
SEQEND
  5
7762
  8
ALPHA
  0
POLYLINE
  5
6CA9
  8
ALPHA
 66
     1
 10
0.0
 20
0.0
 30
0.0
 70
   128
  0
VERTEX
  5
7763
  8
ALPHA
 10
1240.43689
 20
137.554042
 30
0.0
  0
VERTEX
  5
7764
  8
ALPHA
 10
1240.262573
 20
137.554042
 30
0.0
  0
VERTEX
  5
7765
  8
ALPHA
 10
1239.786107
 20
137.554042
 30
0.0
  0
VERTEX
  5
7766
  8
ALPHA
 10
1238.205632
 20
137.554042
 30
0.0
  0
VERTEX
  5
7767
  8
ALPHA
 10
1234.486867
 20
137.554042
 30
0.0
  0
VERTEX
  5
7768
  8
ALPHA
 10
1233.464207
 20
137.554042
 30
0.0
  0
VERTEX
  5
7769
  8
ALPHA
 10
1233.223291
 20
137.441144
 30
0.0
  0
VERTEX
  5
776A
  8
ALPHA
 10
1232.756577
 20
137.071272
 30
0.0
  0
VERTEX
  5
776B
  8
ALPHA
 10
1231.234219
 20
135.191879
 30
0.0
  0
VERTEX
  5
776C
  8
ALPHA
 10
1230.446097
 20
132.855673
 30
0.0
  0
VERTEX
  5
776D
  8
ALPHA
 10
1230.392391
 20
132.228845
 30
0.0
  0
VERTEX
  5
776E
  8
ALPHA
 10
1230.389386
 20
131.92435
 30
0.0
  0
VERTEX
  5
776F
  8
ALPHA
 10
1230.399068
 20
131.646413
 30
0.0
  0
VERTEX
  5
7770
  8
ALPHA
 10
1230.549427
 20
130.566439
 30
0.0
  0
SEQEND
  5
7771
  8
ALPHA
  0
POLYLINE
  5
6CAA
  8
ALPHA
 66
     1
 10
0.0
 20
0.0
 30
0.0
 70
   128
  0
VERTEX
  5
7772
  8
ALPHA
 10
1240.43689
 20
137.554042
 30
0.0
  0
VERTEX
  5
7773
  8
ALPHA
 10
1240.262573
 20
137.554042
 30
0.0
  0
VERTEX
  5
7774
  8
ALPHA
 10
1239.786107
 20
137.554042
 30
0.0
  0
VERTEX
  5
7775
  8
ALPHA
 10
1238.205632
 20
137.554042
 30
0.0
  0
VERTEX
  5
7776
  8
ALPHA
 10
1234.486867
 20
137.554042
 30
0.0
  0
VERTEX
  5
7777
  8
ALPHA
 10
1233.464207
 20
137.554042
 30
0.0
  0
VERTEX
  5
7778
  8
ALPHA
 10
1233.223291
 20
137.441144
 30
0.0
  0
VERTEX
  5
7779
  8
ALPHA
 10
1232.756577
 20
137.071272
 30
0.0
  0
VERTEX
  5
777A
  8
ALPHA
 10
1231.234219
 20
135.191879
 30
0.0
  0
VERTEX
  5
777B
  8
ALPHA
 10
1230.446097
 20
132.855673
 30
0.0
  0
VERTEX
  5
777C
  8
ALPHA
 10
1230.392391
 20
132.228845
 30
0.0
  0
VERTEX
  5
777D
  8
ALPHA
 10
1230.389386
 20
131.92435
 30
0.0
  0
VERTEX
  5
777E
  8
ALPHA
 10
1230.399068
 20
131.646413
 30
0.0
  0
VERTEX
  5
777F
  8
ALPHA
 10
1230.549427
 20
130.566439
 30
0.0
  0
SEQEND
  5
7780
  8
ALPHA
  0
POLYLINE
  5
6CAB
  8
ALPHA
 66
     1
 10
0.0
 20
0.0
 30
0.0
 70
   128
  0
VERTEX
  5
7781
  8
ALPHA
 10
1236.930729
 20
120.795538
 30
0.0
  0
VERTEX
  5
7782
  8
ALPHA
 10
1234.638243
 20
120.795538
 30
0.0
  0
VERTEX
  5
7783
  8
ALPHA
 10
1232.640249
 20
120.795538
 30
0.0
  0
VERTEX
  5
7784
  8
ALPHA
 10
1231.227923
 20
120.795538
 30
0.0
  0
VERTEX
  5
7785
  8
ALPHA
 10
1230.692442
 20
120.795538
 30
0.0
  0
SEQEND
  5
7786
  8
ALPHA
  0
POLYLINE
  5
6CAC
  8
ALPHA
 66
     1
 10
0.0
 20
0.0
 30
0.0
 70
   128
  0
VERTEX
  5
7787
  8
ALPHA
 10
1230.692442
 20
121.802332
 30
0.0
  0
VERTEX
  5
7788
  8
ALPHA
 10
1231.227923
 20
121.802332
 30
0.0
  0
VERTEX
  5
7789
  8
ALPHA
 10
1232.640249
 20
121.802332
 30
0.0
  0
VERTEX
  5
778A
  8
ALPHA
 10
1234.638243
 20
121.802332
 30
0.0
  0
VERTEX
  5
778B
  8
ALPHA
 10
1236.930729
 20
121.802332
 30
0.0
  0
SEQEND
  5
778C
  8
ALPHA
  0
POLYLINE
  5
6CAD
  8
ALPHA
 66
     1
 10
0.0
 20
0.0
 30
0.0
 70
   128
210
0.0
220
0.0
230
-1.0
  0
VERTEX
  5
778D
  8
ALPHA
 10
-1230.692442
 20
120.795538
 30
0.0
  0
VERTEX
  5
778E
  8
ALPHA
 10
-1230.336727
 20
120.942664
 30
0.0
  0
VERTEX
  5
778F
  8
ALPHA
 10
-1230.189602
 20
121.298379
 30
0.0
  0
VERTEX
  5
7790
  8
ALPHA
 10
-1230.336727
 20
121.65465
 30
0.0
  0
VERTEX
  5
7791
  8
ALPHA
 10
-1230.692442
 20
121.802332
 30
0.0
  0
SEQEND
  5
7792
  8
ALPHA
  0
POLYLINE
  5
6CAE
  8
ALPHA
 66
     1
 10
0.0
 20
0.0
 30
0.0
 70
   128
  0
VERTEX
  5
7793
  8
ALPHA
 10
1230.549427
 20
130.566439
 30
0.0
  0
VERTEX
  5
7794
  8
ALPHA
 10
1230.651563
 20
130.286321
 30
0.0
  0
VERTEX
  5
7795
  8
ALPHA
 10
1230.920832
 20
129.547826
 30
0.0
  0
VERTEX
  5
7796
  8
ALPHA
 10
1231.737925
 20
127.306876
 30
0.0
  0
VERTEX
  5
7797
  8
ALPHA
 10
1232.555017
 20
125.065927
 30
0.0
  0
VERTEX
  5
7798
  8
ALPHA
 10
1232.824286
 20
124.327432
 30
0.0
  0
VERTEX
  5
7799
  8
ALPHA
 10
1232.926423
 20
124.047314
 30
0.0
  0
SEQEND
  5
779A
  8
ALPHA
  0
POLYLINE
  5
6CAF
  8
ALPHA
 66
     1
 10
0.0
 20
0.0
 30
0.0
 70
   128
  0
VERTEX
  5
779B
  8
ALPHA
 10
1230.549427
 20
130.566439
 30
0.0
  0
VERTEX
  5
779C
  8
ALPHA
 10
1230.651563
 20
130.286321
 30
0.0
  0
VERTEX
  5
779D
  8
ALPHA
 10
1230.920832
 20
129.547826
 30
0.0
  0
VERTEX
  5
779E
  8
ALPHA
 10
1231.737925
 20
127.306876
 30
0.0
  0
VERTEX
  5
779F
  8
ALPHA
 10
1232.555017
 20
125.065927
 30
0.0
  0
VERTEX
  5
77A0
  8
ALPHA
 10
1232.824286
 20
124.327432
 30
0.0
  0
VERTEX
  5
77A1
  8
ALPHA
 10
1232.926423
 20
124.047314
 30
0.0
  0
SEQEND
  5
77A2
  8
ALPHA
  0
POLYLINE
  5
6CB0
  8
ALPHA
 66
     1
 10
0.0
 20
0.0
 30
0.0
 70
   128
  0
VERTEX
  5
77A3
  8
ALPHA
 10
1240.935034
 20
124.047314
 30
0.0
  0
VERTEX
  5
77A4
  8
ALPHA
 10
1240.99373
 20
124.208431
 30
0.0
  0
VERTEX
  5
77A5
  8
ALPHA
 10
1241.154167
 20
124.648818
 30
0.0
  0
VERTEX
  5
77A6
  8
ALPHA
 10
1241.686348
 20
126.109615
 30
0.0
  0
VERTEX
  5
77A7
  8
ALPHA
 10
1242.938538
 20
129.546783
 30
0.0
  0
VERTEX
  5
77A8
  8
ALPHA
 10
1243.282891
 20
130.492004
 30
0.0
  0
VERTEX
  5
77A9
  8
ALPHA
 10
1243.347391
 20
130.740923
 30
0.0
  0
VERTEX
  5
77AA
  8
ALPHA
 10
1243.430849
 20
131.278889
 30
0.0
  0
VERTEX
  5
77AB
  8
ALPHA
 10
1243.468938
 20
131.830935
 30
0.0
  0
VERTEX
  5
77AC
  8
ALPHA
 10
1243.471326
 20
131.970826
 30
0.0
  0
VERTEX
  5
77AD
  8
ALPHA
 10
1243.457572
 20
132.451225
 30
0.0
  0
VERTEX
  5
77AE
  8
ALPHA
 10
1243.25546
 20
133.703127
 30
0.0
  0
VERTEX
  5
77AF
  8
ALPHA
 10
1242.203711
 20
135.907443
 30
0.0
  0
VERTEX
  5
77B0
  8
ALPHA
 10
1240.43689
 20
137.554042
 30
0.0
  0
SEQEND
  5
77B1
  8
ALPHA
  0
POLYLINE
  5
6CB1
  8
ALPHA
 66
     1
 10
0.0
 20
0.0
 30
0.0
 70
   128
  0
VERTEX
  5
77B2
  8
ALPHA
 10
1240.935034
 20
124.047314
 30
0.0
  0
VERTEX
  5
77B3
  8
ALPHA
 10
1240.99373
 20
124.208431
 30
0.0
  0
VERTEX
  5
77B4
  8
ALPHA
 10
1241.154167
 20
124.648818
 30
0.0
  0
VERTEX
  5
77B5
  8
ALPHA
 10
1241.686348
 20
126.109615
 30
0.0
  0
VERTEX
  5
77B6
  8
ALPHA
 10
1242.938538
 20
129.546783
 30
0.0
  0
VERTEX
  5
77B7
  8
ALPHA
 10
1243.282891
 20
130.492004
 30
0.0
  0
VERTEX
  5
77B8
  8
ALPHA
 10
1243.347391
 20
130.740923
 30
0.0
  0
VERTEX
  5
77B9
  8
ALPHA
 10
1243.430849
 20
131.278889
 30
0.0
  0
VERTEX
  5
77BA
  8
ALPHA
 10
1243.468938
 20
131.830935
 30
0.0
  0
VERTEX
  5
77BB
  8
ALPHA
 10
1243.471326
 20
131.970826
 30
0.0
  0
VERTEX
  5
77BC
  8
ALPHA
 10
1243.457572
 20
132.451225
 30
0.0
  0
VERTEX
  5
77BD
  8
ALPHA
 10
1243.25546
 20
133.703127
 30
0.0
  0
VERTEX
  5
77BE
  8
ALPHA
 10
1242.203711
 20
135.907443
 30
0.0
  0
VERTEX
  5
77BF
  8
ALPHA
 10
1240.43689
 20
137.554042
 30
0.0
  0
SEQEND
  5
77C0
  8
ALPHA
  0
POLYLINE
  5
6CB2
  8
ALPHA
 66
     1
 10
0.0
 20
0.0
 30
0.0
 70
   128
  0
VERTEX
  5
77C1
  8
ALPHA
 10
1239.969131
 20
161.270377
 30
0.0
  0
VERTEX
  5
77C2
  8
ALPHA
 10
1239.692355
 20
161.240418
 30
0.0
  0
VERTEX
  5
77C3
  8
ALPHA
 10
1238.966111
 20
161.161808
 30
0.0
  0
VERTEX
  5
77C4
  8
ALPHA
 10
1236.789748
 20
160.926235
 30
0.0
  0
VERTEX
  5
77C5
  8
ALPHA
 10
1234.689084
 20
160.698855
 30
0.0
  0
VERTEX
  5
77C6
  8
ALPHA
 10
1234.057466
 20
160.630488
 30
0.0
  0
VERTEX
  5
77C7
  8
ALPHA
 10
1233.863899
 20
160.612114
 30
0.0
  0
VERTEX
  5
77C8
  8
ALPHA
 10
1233.437805
 20
160.403599
 30
0.0
  0
VERTEX
  5
77C9
  8
ALPHA
 10
1233.293379
 20
159.94537
 30
0.0
  0
VERTEX
  5
77CA
  8
ALPHA
 10
1233.521741
 20
159.532169
 30
0.0
  0
VERTEX
  5
77CB
  8
ALPHA
 10
1233.802958
 20
159.395823
 30
0.0
  0
VERTEX
  5
77CC
  8
ALPHA
 10
1233.401895
 20
159.1493
 30
0.0
  0
VERTEX
  5
77CD
  8
ALPHA
 10
1233.30255
 20
158.678229
 30
0.0
  0
VERTEX
  5
77CE
  8
ALPHA
 10
1233.569156
 20
158.291067
 30
0.0
  0
VERTEX
  5
77CF
  8
ALPHA
 10
1233.795469
 20
158.204079
 30
0.0
  0
VERTEX
  5
77D0
  8
ALPHA
 10
1233.743945
 20
158.176967
 30
0.0
  0
VERTEX
  5
77D1
  8
ALPHA
 10
1233.370429
 20
157.893293
 30
0.0
  0
VERTEX
  5
77D2
  8
ALPHA
 10
1233.317463
 20
157.413326
 30
0.0
  0
VERTEX
  5
77D3
  8
ALPHA
 10
1233.619796
 20
157.053599
 30
0.0
  0
VERTEX
  5
77D4
  8
ALPHA
 10
1233.856186
 20
156.988345
 30
0.0
  0
VERTEX
  5
77D5
  8
ALPHA
 10
1233.687165
 20
156.950484
 30
0.0
  0
VERTEX
  5
77D6
  8
ALPHA
 10
1233.343713
 20
156.632216
 30
0.0
  0
VERTEX
  5
77D7
  8
ALPHA
 10
1233.337812
 20
156.148977
 30
0.0
  0
VERTEX
  5
77D8
  8
ALPHA
 10
1233.673355
 20
155.82103
 30
0.0
  0
VERTEX
  5
77D9
  8
ALPHA
 10
1233.871637
 20
155.778518
 30
0.0
  0
VERTEX
  5
77DA
  8
ALPHA
 10
1233.632924
 20
155.719511
 30
0.0
  0
VERTEX
  5
77DB
  8
ALPHA
 10
1233.322053
 20
155.368596
 30
0.0
  0
VERTEX
  5
77DC
  8
ALPHA
 10
1233.363293
 20
154.886519
 30
0.0
  0
VERTEX
  5
77DD
  8
ALPHA
 10
1233.729529
 20
154.593096
 30
0.0
  0
VERTEX
  5
77DE
  8
ALPHA
 10
1233.810476
 20
154.564281
 30
0.0
  0
VERTEX
  5
77DF
  8
ALPHA
 10
1233.581525
 20
154.48266
 30
0.0
  0
VERTEX
  5
77E0
  8
ALPHA
 10
1233.305752
 20
154.101677
 30
0.0
  0
VERTEX
  5
77E1
  8
ALPHA
 10
1233.3936
 20
153.627518
 30
0.0
  0
VERTEX
  5
77E2
  8
ALPHA
 10
1233.788012
 20
153.370127
 30
0.0
  0
VERTEX
  5
77E3
  8
ALPHA
 10
1233.751206
 20
153.343423
 30
0.0
  0
VERTEX
  5
77E4
  8
ALPHA
 10
1233.533276
 20
153.240484
 30
0.0
  0
VERTEX
  5
77E5
  8
ALPHA
 10
1233.295117
 20
152.833405
 30
0.0
  0
VERTEX
  5
77E6
  8
ALPHA
 10
1233.428428
 20
152.372007
 30
0.0
  0
VERTEX
  5
77E7
  8
ALPHA
 10
1233.8485
 20
152.153599
 30
0.0
  0
VERTEX
  5
77E8
  8
ALPHA
 10
1233.488479
 20
151.994948
 30
0.0
  0
VERTEX
  5
77E9
  8
ALPHA
 10
1233.290451
 20
151.563355
 30
0.0
  0
VERTEX
  5
77EA
  8
ALPHA
 10
1233.467472
 20
151.120816
 30
0.0
  0
VERTEX
  5
77EB
  8
ALPHA
 10
1233.8794
 20
150.943484
 30
0.0
  0
VERTEX
  5
77EC
  8
ALPHA
 10
1233.447442
 20
150.745556
 30
0.0
  0
VERTEX
  5
77ED
  8
ALPHA
 10
1233.292019
 20
150.293112
 30
0.0
  0
VERTEX
  5
77EE
  8
ALPHA
 10
1233.510427
 20
149.873432
 30
0.0
  0
VERTEX
  5
77EF
  8
ALPHA
 10
1233.818024
 20
149.730668
 30
0.0
  0
VERTEX
  5
77F0
  8
ALPHA
 10
1233.410467
 20
149.492787
 30
0.0
  0
VERTEX
  5
77F1
  8
ALPHA
 10
1233.299707
 20
149.02518
 30
0.0
  0
VERTEX
  5
77F2
  8
ALPHA
 10
1233.556988
 20
148.631636
 30
0.0
  0
VERTEX
  5
77F3
  8
ALPHA
 10
1233.780586
 20
148.539492
 30
0.0
  0
VERTEX
  5
77F4
  8
ALPHA
 10
1233.758501
 20
148.513215
 30
0.0
  0
VERTEX
  5
77F5
  8
ALPHA
 10
1233.377862
 20
148.237441
 30
0.0
  0
VERTEX
  5
77F6
  8
ALPHA
 10
1233.313213
 20
147.758605
 30
0.0
  0
VERTEX
  5
77F7
  8
ALPHA
 10
1233.60685
 20
147.39329
 30
0.0
  0
VERTEX
  5
77F8
  8
ALPHA
 10
1233.840839
 20
147.322947
 30
0.0
  0
VERTEX
  5
77F9
  8
ALPHA
 10
1233.701134
 20
147.288905
 30
0.0
  0
VERTEX
  5
77FA
  8
ALPHA
 10
1233.34993
 20
146.978969
 30
0.0
  0
VERTEX
  5
77FB
  8
ALPHA
 10
1233.332232
 20
146.49551
 30
0.0
  0
VERTEX
  5
77FC
  8
ALPHA
 10
1233.659708
 20
146.159967
 30
0.0
  0
VERTEX
  5
77FD
  8
ALPHA
 10
1233.887187
 20
146.11236
 30
0.0
  0
VERTEX
  5
77FE
  8
ALPHA
 10
1233.646229
 20
146.059182
 30
0.0
  0
VERTEX
  5
77FF
  8
ALPHA
 10
1233.326977
 20
145.716669
 30
0.0
  0
VERTEX
  5
7800
  8
ALPHA
 10
1233.356458
 20
145.23467
 30
0.0
  0
VERTEX
  5
7801
  8
ALPHA
 10
1233.715257
 20
144.932792
 30
0.0
  0
VERTEX
  5
7802
  8
ALPHA
 10
1233.825601
 20
144.901645
 30
0.0
  0
VERTEX
  5
7803
  8
ALPHA
 10
1233.594092
 20
144.825417
 30
0.0
  0
VERTEX
  5
7804
  8
ALPHA
 10
1233.309308
 20
144.451901
 30
0.0
  0
VERTEX
  5
7805
  8
ALPHA
 10
1233.385587
 20
143.976385
 30
0.0
  0
VERTEX
  5
7806
  8
ALPHA
 10
1233.773191
 20
143.711011
 30
0.0
  0
VERTEX
  5
7807
  8
ALPHA
 10
1233.765829
 20
143.684922
 30
0.0
  0
VERTEX
  5
7808
  8
ALPHA
 10
1233.545026
 20
143.587134
 30
0.0
  0
VERTEX
  5
7809
  8
ALPHA
 10
1233.297228
 20
143.186071
 30
0.0
  0
VERTEX
  5
780A
  8
ALPHA
 10
1233.419313
 20
142.721288
 30
0.0
  0
VERTEX
  5
780B
  8
ALPHA
 10
1233.833206
 20
142.493733
 30
0.0
  0
VERTEX
  5
780C
  8
ALPHA
 10
1233.499338
 20
142.343072
 30
0.0
  0
VERTEX
  5
780D
  8
ALPHA
 10
1233.291041
 20
141.916978
 30
0.0
  0
VERTEX
  5
780E
  8
ALPHA
 10
1233.457332
 20
141.469374
 30
0.0
  0
VERTEX
  5
780F
  8
ALPHA
 10
1233.894997
 20
141.282471
 30
0.0
  0
SEQEND
  5
7810
  8
ALPHA
  0
POLYLINE
  5
6CB3
  8
ALPHA
 66
     1
 10
0.0
 20
0.0
 30
0.0
 70
   128
  0
VERTEX
  5
7811
  8
ALPHA
 10
1233.894997
 20
141.282471
 30
0.0
  0
VERTEX
  5
7812
  8
ALPHA
 10
1234.171713
 20
141.3124
 30
0.0
  0
VERTEX
  5
7813
  8
ALPHA
 10
1234.897796
 20
141.39093
 30
0.0
  0
VERTEX
  5
7814
  8
ALPHA
 10
1237.073682
 20
141.626264
 30
0.0
  0
VERTEX
  5
7815
  8
ALPHA
 10
1239.173884
 20
141.853413
 30
0.0
  0
VERTEX
  5
7816
  8
ALPHA
 10
1239.805364
 20
141.921711
 30
0.0
  0
VERTEX
  5
7817
  8
ALPHA
 10
1239.998895
 20
141.940066
 30
0.0
  0
VERTEX
  5
7818
  8
ALPHA
 10
1240.424988
 20
142.148145
 30
0.0
  0
VERTEX
  5
7819
  8
ALPHA
 10
1240.569415
 20
142.604478
 30
0.0
  0
VERTEX
  5
781A
  8
ALPHA
 10
1240.341053
 20
143.018371
 30
0.0
  0
VERTEX
  5
781B
  8
ALPHA
 10
1240.059836
 20
143.154371
 30
0.0
  0
VERTEX
  5
781C
  8
ALPHA
 10
1240.460899
 20
143.40132
 30
0.0
  0
VERTEX
  5
781D
  8
ALPHA
 10
1240.560246
 20
143.872588
 30
0.0
  0
VERTEX
  5
781E
  8
ALPHA
 10
1240.293989
 20
144.259308
 30
0.0
  0
VERTEX
  5
781F
  8
ALPHA
 10
1240.068292
 20
144.346118
 30
0.0
  0
VERTEX
  5
7820
  8
ALPHA
 10
1240.11965
 20
144.373302
 30
0.0
  0
VERTEX
  5
7821
  8
ALPHA
 10
1240.492412
 20
144.658085
 30
0.0
  0
VERTEX
  5
7822
  8
ALPHA
 10
1240.545339
 20
145.138608
 30
0.0
  0
VERTEX
  5
7823
  8
ALPHA
 10
1240.243462
 20
145.496478
 30
0.0
  0
VERTEX
  5
7824
  8
ALPHA
 10
1240.007792
 20
145.561177
 30
0.0
  0
VERTEX
  5
7825
  8
ALPHA
 10
1240.176265
 20
145.598959
 30
0.0
  0
VERTEX
  5
7826
  8
ALPHA
 10
1240.519105
 20
145.917273
 30
0.0
  0
VERTEX
  5
7827
  8
ALPHA
 10
1240.525002
 20
146.401097
 30
0.0
  0
VERTEX
  5
7828
  8
ALPHA
 10
1240.190038
 20
146.728573
 30
0.0
  0
VERTEX
  5
7829
  8
ALPHA
 10
1239.9924
 20
146.770993
 30
0.0
  0
VERTEX
  5
782A
  8
ALPHA
 10
1240.230366
 20
146.829941
 30
0.0
  0
VERTEX
  5
782B
  8
ALPHA
 10
1240.540752
 20
147.179564
 30
0.0
  0
VERTEX
  5
782C
  8
ALPHA
 10
1240.499541
 20
147.661673
 30
0.0
  0
VERTEX
  5
782D
  8
ALPHA
 10
1240.134023
 20
147.955737
 30
0.0
  0
VERTEX
  5
782E
  8
ALPHA
 10
1240.053337
 20
147.984548
 30
0.0
  0
VERTEX
  5
782F
  8
ALPHA
 10
1240.281645
 20
148.066001
 30
0.0
  0
VERTEX
  5
7830
  8
ALPHA
 10
1240.557045
 20
148.446534
 30
0.0
  0
VERTEX
  5
7831
  8
ALPHA
 10
1240.469264
 20
148.919438
 30
0.0
  0
VERTEX
  5
7832
  8
ALPHA
 10
1240.075725
 20
149.17607
 30
0.0
  0
VERTEX
  5
7833
  8
ALPHA
 10
1240.112412
 20
149.202671
 30
0.0
  0
VERTEX
  5
7834
  8
ALPHA
 10
1240.329797
 20
149.305207
 30
0.0
  0
VERTEX
  5
7835
  8
ALPHA
 10
1240.567677
 20
149.711456
 30
0.0
  0
VERTEX
  5
7836
  8
ALPHA
 10
1240.434478
 20
150.172832
 30
0.0
  0
VERTEX
  5
7837
  8
ALPHA
 10
1240.01545
 20
150.39124
 30
0.0
  0
VERTEX
  5
7838
  8
ALPHA
 10
1240.374514
 20
150.54989
 30
0.0
  0
VERTEX
  5
7839
  8
ALPHA
 10
1240.572342
 20
150.981484
 30
0.0
  0
VERTEX
  5
783A
  8
ALPHA
 10
1240.395489
 20
151.424272
 30
0.0
  0
VERTEX
  5
783B
  8
ALPHA
 10
1239.984667
 20
151.601353
 30
0.0
  0
VERTEX
  5
783C
  8
ALPHA
 10
1240.415489
 20
151.798487
 30
0.0
  0
VERTEX
  5
783D
  8
ALPHA
 10
1240.570775
 20
152.25173
 30
0.0
  0
VERTEX
  5
783E
  8
ALPHA
 10
1240.352604
 20
152.671802
 30
0.0
  0
VERTEX
  5
783F
  8
ALPHA
 10
1240.045815
 20
152.814827
 30
0.0
  0
VERTEX
  5
7840
  8
ALPHA
 10
1240.452415
 20
153.052571
 30
0.0
  0
VERTEX
  5
7841
  8
ALPHA
 10
1240.563088
 20
153.521233
 30
0.0
  0
VERTEX
  5
7842
  8
ALPHA
 10
1240.306131
 20
153.916082
 30
0.0
  0
VERTEX
  5
7843
  8
ALPHA
 10
1240.083126
 20
154.008632
 30
0.0
  0
VERTEX
  5
7844
  8
ALPHA
 10
1240.10514
 20
154.034959
 30
0.0
  0
VERTEX
  5
7845
  8
ALPHA
 10
1240.484986
 20
154.310546
 30
0.0
  0
VERTEX
  5
7846
  8
ALPHA
 10
1240.549587
 20
154.788955
 30
0.0
  0
VERTEX
  5
7847
  8
ALPHA
 10
1240.256377
 20
155.154731
 30
0.0
  0
VERTEX
  5
7848
  8
ALPHA
 10
1240.023082
 20
155.225223
 30
0.0
  0
VERTEX
  5
7849
  8
ALPHA
 10
1240.162335
 20
155.259414
 30
0.0
  0
VERTEX
  5
784A
  8
ALPHA
 10
1240.512893
 20
155.570285
 30
0.0
  0
VERTEX
  5
784B
  8
ALPHA
 10
1240.530579
 20
156.054183
 30
0.0
  0
VERTEX
  5
784C
  8
ALPHA
 10
1240.203649
 20
156.389074
 30
0.0
  0
VERTEX
  5
784D
  8
ALPHA
 10
1239.976911
 20
156.436484
 30
0.0
  0
VERTEX
  5
784E
  8
ALPHA
 10
1240.217093
 20
156.489985
 30
0.0
  0
VERTEX
  5
784F
  8
ALPHA
 10
1240.53583
 20
156.833295
 30
0.0
  0
VERTEX
  5
7850
  8
ALPHA
 10
1240.50637
 20
157.316441
 30
0.0
  0
VERTEX
  5
7851
  8
ALPHA
 10
1240.148253
 20
157.618765
 30
0.0
  0
VERTEX
  5
7852
  8
ALPHA
 10
1240.038265
 20
157.649867
 30
0.0
  0
VERTEX
  5
7853
  8
ALPHA
 10
1240.269107
 20
157.726026
 30
0.0
  0
VERTEX
  5
7854
  8
ALPHA
 10
1240.553491
 20
158.098409
 30
0.0
  0
VERTEX
  5
7855
  8
ALPHA
 10
1240.477268
 20
158.574503
 30
0.0
  0
VERTEX
  5
7856
  8
ALPHA
 10
1240.090497
 20
158.841109
 30
0.0
  0
VERTEX
  5
7857
  8
ALPHA
 10
1240.097835
 20
158.867226
 30
0.0
  0
VERTEX
  5
7858
  8
ALPHA
 10
1240.318069
 20
158.96482
 30
0.0
  0
VERTEX
  5
7859
  8
ALPHA
 10
1240.565567
 20
159.365459
 30
0.0
  0
VERTEX
  5
785A
  8
ALPHA
 10
1240.44358
 20
159.829969
 30
0.0
  0
VERTEX
  5
785B
  8
ALPHA
 10
1240.030687
 20
160.05712
 30
0.0
  0
VERTEX
  5
785C
  8
ALPHA
 10
1240.363674
 20
160.208286
 30
0.0
  0
VERTEX
  5
785D
  8
ALPHA
 10
1240.571752
 20
160.634592
 30
0.0
  0
VERTEX
  5
785E
  8
ALPHA
 10
1240.405613
 20
161.082775
 30
0.0
  0
VERTEX
  5
785F
  8
ALPHA
 10
1239.969131
 20
161.270377
 30
0.0
  0
SEQEND
  5
7860
  8
ALPHA
  0
POLYLINE
  5
6CB4
  8
ALPHA
 66
     1
 10
0.0
 20
0.0
 30
0.0
 70
   128
  0
VERTEX
  5
7861
  8
ALPHA
 10
1239.969131
 20
161.270377
 30
0.0
  0
VERTEX
  5
7862
  8
ALPHA
 10
1239.692355
 20
161.240418
 30
0.0
  0
VERTEX
  5
7863
  8
ALPHA
 10
1238.966111
 20
161.161808
 30
0.0
  0
VERTEX
  5
7864
  8
ALPHA
 10
1236.789748
 20
160.926235
 30
0.0
  0
VERTEX
  5
7865
  8
ALPHA
 10
1234.689084
 20
160.698855
 30
0.0
  0
VERTEX
  5
7866
  8
ALPHA
 10
1234.057466
 20
160.630488
 30
0.0
  0
VERTEX
  5
7867
  8
ALPHA
 10
1233.863899
 20
160.612114
 30
0.0
  0
VERTEX
  5
7868
  8
ALPHA
 10
1233.437805
 20
160.403599
 30
0.0
  0
VERTEX
  5
7869
  8
ALPHA
 10
1233.293379
 20
159.94537
 30
0.0
  0
VERTEX
  5
786A
  8
ALPHA
 10
1233.521741
 20
159.532169
 30
0.0
  0
VERTEX
  5
786B
  8
ALPHA
 10
1233.802958
 20
159.395823
 30
0.0
  0
VERTEX
  5
786C
  8
ALPHA
 10
1233.401895
 20
159.1493
 30
0.0
  0
VERTEX
  5
786D
  8
ALPHA
 10
1233.30255
 20
158.678229
 30
0.0
  0
VERTEX
  5
786E
  8
ALPHA
 10
1233.569156
 20
158.291067
 30
0.0
  0
VERTEX
  5
786F
  8
ALPHA
 10
1233.795469
 20
158.204079
 30
0.0
  0
VERTEX
  5
7870
  8
ALPHA
 10
1233.743945
 20
158.176967
 30
0.0
  0
VERTEX
  5
7871
  8
ALPHA
 10
1233.370429
 20
157.893293
 30
0.0
  0
VERTEX
  5
7872
  8
ALPHA
 10
1233.317463
 20
157.413326
 30
0.0
  0
VERTEX
  5
7873
  8
ALPHA
 10
1233.619796
 20
157.053599
 30
0.0
  0
VERTEX
  5
7874
  8
ALPHA
 10
1233.856186
 20
156.988345
 30
0.0
  0
VERTEX
  5
7875
  8
ALPHA
 10
1233.687165
 20
156.950484
 30
0.0
  0
VERTEX
  5
7876
  8
ALPHA
 10
1233.343713
 20
156.632216
 30
0.0
  0
VERTEX
  5
7877
  8
ALPHA
 10
1233.337812
 20
156.148977
 30
0.0
  0
VERTEX
  5
7878
  8
ALPHA
 10
1233.673355
 20
155.82103
 30
0.0
  0
VERTEX
  5
7879
  8
ALPHA
 10
1233.871637
 20
155.778518
 30
0.0
  0
VERTEX
  5
787A
  8
ALPHA
 10
1233.632924
 20
155.719511
 30
0.0
  0
VERTEX
  5
787B
  8
ALPHA
 10
1233.322053
 20
155.368596
 30
0.0
  0
VERTEX
  5
787C
  8
ALPHA
 10
1233.363293
 20
154.886519
 30
0.0
  0
VERTEX
  5
787D
  8
ALPHA
 10
1233.729529
 20
154.593096
 30
0.0
  0
VERTEX
  5
787E
  8
ALPHA
 10
1233.810476
 20
154.564281
 30
0.0
  0
VERTEX
  5
787F
  8
ALPHA
 10
1233.581525
 20
154.48266
 30
0.0
  0
VERTEX
  5
7880
  8
ALPHA
 10
1233.305752
 20
154.101677
 30
0.0
  0
VERTEX
  5
7881
  8
ALPHA
 10
1233.3936
 20
153.627518
 30
0.0
  0
VERTEX
  5
7882
  8
ALPHA
 10
1233.788012
 20
153.370127
 30
0.0
  0
VERTEX
  5
7883
  8
ALPHA
 10
1233.751206
 20
153.343423
 30
0.0
  0
VERTEX
  5
7884
  8
ALPHA
 10
1233.533276
 20
153.240484
 30
0.0
  0
VERTEX
  5
7885
  8
ALPHA
 10
1233.295117
 20
152.833405
 30
0.0
  0
VERTEX
  5
7886
  8
ALPHA
 10
1233.428428
 20
152.372007
 30
0.0
  0
VERTEX
  5
7887
  8
ALPHA
 10
1233.8485
 20
152.153599
 30
0.0
  0
VERTEX
  5
7888
  8
ALPHA
 10
1233.488479
 20
151.994948
 30
0.0
  0
VERTEX
  5
7889
  8
ALPHA
 10
1233.290451
 20
151.563355
 30
0.0
  0
VERTEX
  5
788A
  8
ALPHA
 10
1233.467472
 20
151.120816
 30
0.0
  0
VERTEX
  5
788B
  8
ALPHA
 10
1233.8794
 20
150.943484
 30
0.0
  0
VERTEX
  5
788C
  8
ALPHA
 10
1233.447442
 20
150.745556
 30
0.0
  0
VERTEX
  5
788D
  8
ALPHA
 10
1233.292019
 20
150.293112
 30
0.0
  0
VERTEX
  5
788E
  8
ALPHA
 10
1233.510427
 20
149.873432
 30
0.0
  0
VERTEX
  5
788F
  8
ALPHA
 10
1233.818024
 20
149.730668
 30
0.0
  0
VERTEX
  5
7890
  8
ALPHA
 10
1233.410467
 20
149.492787
 30
0.0
  0
VERTEX
  5
7891
  8
ALPHA
 10
1233.299707
 20
149.02518
 30
0.0
  0
VERTEX
  5
7892
  8
ALPHA
 10
1233.556988
 20
148.631636
 30
0.0
  0
VERTEX
  5
7893
  8
ALPHA
 10
1233.780586
 20
148.539492
 30
0.0
  0
VERTEX
  5
7894
  8
ALPHA
 10
1233.758501
 20
148.513215
 30
0.0
  0
VERTEX
  5
7895
  8
ALPHA
 10
1233.377862
 20
148.237441
 30
0.0
  0
VERTEX
  5
7896
  8
ALPHA
 10
1233.313213
 20
147.758605
 30
0.0
  0
VERTEX
  5
7897
  8
ALPHA
 10
1233.60685
 20
147.39329
 30
0.0
  0
VERTEX
  5
7898
  8
ALPHA
 10
1233.840839
 20
147.322947
 30
0.0
  0
VERTEX
  5
7899
  8
ALPHA
 10
1233.701134
 20
147.288905
 30
0.0
  0
VERTEX
  5
789A
  8
ALPHA
 10
1233.34993
 20
146.978969
 30
0.0
  0
VERTEX
  5
789B
  8
ALPHA
 10
1233.332232
 20
146.49551
 30
0.0
  0
VERTEX
  5
789C
  8
ALPHA
 10
1233.659708
 20
146.159967
 30
0.0
  0
VERTEX
  5
789D
  8
ALPHA
 10
1233.887187
 20
146.11236
 30
0.0
  0
VERTEX
  5
789E
  8
ALPHA
 10
1233.646229
 20
146.059182
 30
0.0
  0
VERTEX
  5
789F
  8
ALPHA
 10
1233.326977
 20
145.716669
 30
0.0
  0
VERTEX
  5
78A0
  8
ALPHA
 10
1233.356458
 20
145.23467
 30
0.0
  0
VERTEX
  5
78A1
  8
ALPHA
 10
1233.715257
 20
144.932792
 30
0.0
  0
VERTEX
  5
78A2
  8
ALPHA
 10
1233.825601
 20
144.901645
 30
0.0
  0
VERTEX
  5
78A3
  8
ALPHA
 10
1233.594092
 20
144.825417
 30
0.0
  0
VERTEX
  5
78A4
  8
ALPHA
 10
1233.309308
 20
144.451901
 30
0.0
  0
VERTEX
  5
78A5
  8
ALPHA
 10
1233.385587
 20
143.976385
 30
0.0
  0
VERTEX
  5
78A6
  8
ALPHA
 10
1233.773191
 20
143.711011
 30
0.0
  0
VERTEX
  5
78A7
  8
ALPHA
 10
1233.765829
 20
143.684922
 30
0.0
  0
VERTEX
  5
78A8
  8
ALPHA
 10
1233.545026
 20
143.587134
 30
0.0
  0
VERTEX
  5
78A9
  8
ALPHA
 10
1233.297228
 20
143.186071
 30
0.0
  0
VERTEX
  5
78AA
  8
ALPHA
 10
1233.419313
 20
142.721288
 30
0.0
  0
VERTEX
  5
78AB
  8
ALPHA
 10
1233.833206
 20
142.493733
 30
0.0
  0
VERTEX
  5
78AC
  8
ALPHA
 10
1233.499338
 20
142.343072
 30
0.0
  0
VERTEX
  5
78AD
  8
ALPHA
 10
1233.291041
 20
141.916978
 30
0.0
  0
VERTEX
  5
78AE
  8
ALPHA
 10
1233.457332
 20
141.469374
 30
0.0
  0
VERTEX
  5
78AF
  8
ALPHA
 10
1233.894997
 20
141.282471
 30
0.0
  0
SEQEND
  5
78B0
  8
ALPHA
  0
POLYLINE
  5
6CB5
  8
ALPHA
 66
     1
 10
0.0
 20
0.0
 30
0.0
 70
   128
  0
VERTEX
  5
78B1
  8
ALPHA
 10
1233.894997
 20
141.282471
 30
0.0
  0
VERTEX
  5
78B2
  8
ALPHA
 10
1234.171713
 20
141.3124
 30
0.0
  0
VERTEX
  5
78B3
  8
ALPHA
 10
1234.897796
 20
141.39093
 30
0.0
  0
VERTEX
  5
78B4
  8
ALPHA
 10
1237.073682
 20
141.626264
 30
0.0
  0
VERTEX
  5
78B5
  8
ALPHA
 10
1239.173884
 20
141.853413
 30
0.0
  0
VERTEX
  5
78B6
  8
ALPHA
 10
1239.805364
 20
141.921711
 30
0.0
  0
VERTEX
  5
78B7
  8
ALPHA
 10
1239.998895
 20
141.940066
 30
0.0
  0
VERTEX
  5
78B8
  8
ALPHA
 10
1240.424988
 20
142.148145
 30
0.0
  0
VERTEX
  5
78B9
  8
ALPHA
 10
1240.569415
 20
142.604478
 30
0.0
  0
VERTEX
  5
78BA
  8
ALPHA
 10
1240.341053
 20
143.018371
 30
0.0
  0
VERTEX
  5
78BB
  8
ALPHA
 10
1240.059836
 20
143.154371
 30
0.0
  0
VERTEX
  5
78BC
  8
ALPHA
 10
1240.460899
 20
143.40132
 30
0.0
  0
VERTEX
  5
78BD
  8
ALPHA
 10
1240.560246
 20
143.872588
 30
0.0
  0
VERTEX
  5
78BE
  8
ALPHA
 10
1240.293989
 20
144.259308
 30
0.0
  0
VERTEX
  5
78BF
  8
ALPHA
 10
1240.068292
 20
144.346118
 30
0.0
  0
VERTEX
  5
78C0
  8
ALPHA
 10
1240.11965
 20
144.373302
 30
0.0
  0
VERTEX
  5
78C1
  8
ALPHA
 10
1240.492412
 20
144.658085
 30
0.0
  0
VERTEX
  5
78C2
  8
ALPHA
 10
1240.545339
 20
145.138608
 30
0.0
  0
VERTEX
  5
78C3
  8
ALPHA
 10
1240.243462
 20
145.496478
 30
0.0
  0
VERTEX
  5
78C4
  8
ALPHA
 10
1240.007792
 20
145.561177
 30
0.0
  0
VERTEX
  5
78C5
  8
ALPHA
 10
1240.176265
 20
145.598959
 30
0.0
  0
VERTEX
  5
78C6
  8
ALPHA
 10
1240.519105
 20
145.917273
 30
0.0
  0
VERTEX
  5
78C7
  8
ALPHA
 10
1240.525002
 20
146.401097
 30
0.0
  0
VERTEX
  5
78C8
  8
ALPHA
 10
1240.190038
 20
146.728573
 30
0.0
  0
VERTEX
  5
78C9
  8
ALPHA
 10
1239.9924
 20
146.770993
 30
0.0
  0
VERTEX
  5
78CA
  8
ALPHA
 10
1240.230366
 20
146.829941
 30
0.0
  0
VERTEX
  5
78CB
  8
ALPHA
 10
1240.540752
 20
147.179564
 30
0.0
  0
VERTEX
  5
78CC
  8
ALPHA
 10
1240.499541
 20
147.661673
 30
0.0
  0
VERTEX
  5
78CD
  8
ALPHA
 10
1240.134023
 20
147.955737
 30
0.0
  0
VERTEX
  5
78CE
  8
ALPHA
 10
1240.053337
 20
147.984548
 30
0.0
  0
VERTEX
  5
78CF
  8
ALPHA
 10
1240.281645
 20
148.066001
 30
0.0
  0
VERTEX
  5
78D0
  8
ALPHA
 10
1240.557045
 20
148.446534
 30
0.0
  0
VERTEX
  5
78D1
  8
ALPHA
 10
1240.469264
 20
148.919438
 30
0.0
  0
VERTEX
  5
78D2
  8
ALPHA
 10
1240.075725
 20
149.17607
 30
0.0
  0
VERTEX
  5
78D3
  8
ALPHA
 10
1240.112412
 20
149.202671
 30
0.0
  0
VERTEX
  5
78D4
  8
ALPHA
 10
1240.329797
 20
149.305207
 30
0.0
  0
VERTEX
  5
78D5
  8
ALPHA
 10
1240.567677
 20
149.711456
 30
0.0
  0
VERTEX
  5
78D6
  8
ALPHA
 10
1240.434478
 20
150.172832
 30
0.0
  0
VERTEX
  5
78D7
  8
ALPHA
 10
1240.01545
 20
150.39124
 30
0.0
  0
VERTEX
  5
78D8
  8
ALPHA
 10
1240.374514
 20
150.54989
 30
0.0
  0
VERTEX
  5
78D9
  8
ALPHA
 10
1240.572342
 20
150.981484
 30
0.0
  0
VERTEX
  5
78DA
  8
ALPHA
 10
1240.395489
 20
151.424272
 30
0.0
  0
VERTEX
  5
78DB
  8
ALPHA
 10
1239.984667
 20
151.601353
 30
0.0
  0
VERTEX
  5
78DC
  8
ALPHA
 10
1240.415489
 20
151.798487
 30
0.0
  0
VERTEX
  5
78DD
  8
ALPHA
 10
1240.570775
 20
152.25173
 30
0.0
  0
VERTEX
  5
78DE
  8
ALPHA
 10
1240.352604
 20
152.671802
 30
0.0
  0
VERTEX
  5
78DF
  8
ALPHA
 10
1240.045815
 20
152.814827
 30
0.0
  0
VERTEX
  5
78E0
  8
ALPHA
 10
1240.452415
 20
153.052571
 30
0.0
  0
VERTEX
  5
78E1
  8
ALPHA
 10
1240.563088
 20
153.521233
 30
0.0
  0
VERTEX
  5
78E2
  8
ALPHA
 10
1240.306131
 20
153.916082
 30
0.0
  0
VERTEX
  5
78E3
  8
ALPHA
 10
1240.083126
 20
154.008632
 30
0.0
  0
VERTEX
  5
78E4
  8
ALPHA
 10
1240.10514
 20
154.034959
 30
0.0
  0
VERTEX
  5
78E5
  8
ALPHA
 10
1240.484986
 20
154.310546
 30
0.0
  0
VERTEX
  5
78E6
  8
ALPHA
 10
1240.549587
 20
154.788955
 30
0.0
  0
VERTEX
  5
78E7
  8
ALPHA
 10
1240.256377
 20
155.154731
 30
0.0
  0
VERTEX
  5
78E8
  8
ALPHA
 10
1240.023082
 20
155.225223
 30
0.0
  0
VERTEX
  5
78E9
  8
ALPHA
 10
1240.162335
 20
155.259414
 30
0.0
  0
VERTEX
  5
78EA
  8
ALPHA
 10
1240.512893
 20
155.570285
 30
0.0
  0
VERTEX
  5
78EB
  8
ALPHA
 10
1240.530579
 20
156.054183
 30
0.0
  0
VERTEX
  5
78EC
  8
ALPHA
 10
1240.203649
 20
156.389074
 30
0.0
  0
VERTEX
  5
78ED
  8
ALPHA
 10
1239.976911
 20
156.436484
 30
0.0
  0
VERTEX
  5
78EE
  8
ALPHA
 10
1240.217093
 20
156.489985
 30
0.0
  0
VERTEX
  5
78EF
  8
ALPHA
 10
1240.53583
 20
156.833295
 30
0.0
  0
VERTEX
  5
78F0
  8
ALPHA
 10
1240.50637
 20
157.316441
 30
0.0
  0
VERTEX
  5
78F1
  8
ALPHA
 10
1240.148253
 20
157.618765
 30
0.0
  0
VERTEX
  5
78F2
  8
ALPHA
 10
1240.038265
 20
157.649867
 30
0.0
  0
VERTEX
  5
78F3
  8
ALPHA
 10
1240.269107
 20
157.726026
 30
0.0
  0
VERTEX
  5
78F4
  8
ALPHA
 10
1240.553491
 20
158.098409
 30
0.0
  0
VERTEX
  5
78F5
  8
ALPHA
 10
1240.477268
 20
158.574503
 30
0.0
  0
VERTEX
  5
78F6
  8
ALPHA
 10
1240.090497
 20
158.841109
 30
0.0
  0
VERTEX
  5
78F7
  8
ALPHA
 10
1240.097835
 20
158.867226
 30
0.0
  0
VERTEX
  5
78F8
  8
ALPHA
 10
1240.318069
 20
158.96482
 30
0.0
  0
VERTEX
  5
78F9
  8
ALPHA
 10
1240.565567
 20
159.365459
 30
0.0
  0
VERTEX
  5
78FA
  8
ALPHA
 10
1240.44358
 20
159.829969
 30
0.0
  0
VERTEX
  5
78FB
  8
ALPHA
 10
1240.030687
 20
160.05712
 30
0.0
  0
VERTEX
  5
78FC
  8
ALPHA
 10
1240.363674
 20
160.208286
 30
0.0
  0
VERTEX
  5
78FD
  8
ALPHA
 10
1240.571752
 20
160.634592
 30
0.0
  0
VERTEX
  5
78FE
  8
ALPHA
 10
1240.405613
 20
161.082775
 30
0.0
  0
VERTEX
  5
78FF
  8
ALPHA
 10
1239.969131
 20
161.270377
 30
0.0
  0
SEQEND
  5
7900
  8
ALPHA
  0
POLYLINE
  5
6CB6
  8
ALPHA
 66
     1
 10
0.0
 20
0.0
 30
0.0
 70
   128
  0
VERTEX
  5
7901
  8
ALPHA
 10
1237.252458
 20
163.748757
 30
0.0
  0
VERTEX
  5
7902
  8
ALPHA
 10
1237.252458
 20
164.226814
 30
0.0
  0
VERTEX
  5
7903
  8
ALPHA
 10
1237.252458
 20
165.487144
 30
0.0
  0
VERTEX
  5
7904
  8
ALPHA
 10
1237.252458
 20
169.311596
 30
0.0
  0
VERTEX
  5
7905
  8
ALPHA
 10
1237.252458
 20
173.136047
 30
0.0
  0
VERTEX
  5
7906
  8
ALPHA
 10
1237.252458
 20
174.396378
 30
0.0
  0
VERTEX
  5
7907
  8
ALPHA
 10
1237.252458
 20
174.874435
 30
0.0
  0
SEQEND
  5
7908
  8
ALPHA
  0
POLYLINE
  5
6CB7
  8
ALPHA
 66
     1
 10
0.0
 20
0.0
 30
0.0
 70
   128
  0
VERTEX
  5
7909
  8
ALPHA
 10
1238.451265
 20
175.350353
 30
0.0
  0
VERTEX
  5
790A
  8
ALPHA
 10
1238.451265
 20
174.854887
 30
0.0
  0
VERTEX
  5
790B
  8
ALPHA
 10
1238.451265
 20
173.548659
 30
0.0
  0
VERTEX
  5
790C
  8
ALPHA
 10
1238.451265
 20
171.701922
 30
0.0
  0
VERTEX
  5
790D
  8
ALPHA
 10
1238.451265
 20
169.584932
 30
0.0
  0
VERTEX
  5
790E
  8
ALPHA
 10
1238.451265
 20
167.467941
 30
0.0
  0
VERTEX
  5
790F
  8
ALPHA
 10
1238.451265
 20
165.621205
 30
0.0
  0
VERTEX
  5
7910
  8
ALPHA
 10
1238.451265
 20
164.314977
 30
0.0
  0
VERTEX
  5
7911
  8
ALPHA
 10
1238.451265
 20
163.819511
 30
0.0
  0
VERTEX
  5
7912
  8
ALPHA
 10
1238.301206
 20
162.514406
 30
0.0
  0
VERTEX
  5
7913
  8
ALPHA
 10
1237.69834
 20
161.581259
 30
0.0
  0
VERTEX
  5
7914
  8
ALPHA
 10
1236.828145
 20
161.02082
 30
0.0
  0
VERTEX
  5
7915
  8
ALPHA
 10
1235.876099
 20
160.83384
 30
0.0
  0
SEQEND
  5
7916
  8
ALPHA
  0
POLYLINE
  5
6CB8
  8
ALPHA
 66
     1
 10
0.0
 20
0.0
 30
0.0
 70
   128
  0
VERTEX
  5
7917
  8
ALPHA
 10
1237.252458
 20
163.748757
 30
0.0
  0
VERTEX
  5
7918
  8
ALPHA
 10
1237.252458
 20
164.226814
 30
0.0
  0
VERTEX
  5
7919
  8
ALPHA
 10
1237.252458
 20
165.487144
 30
0.0
  0
VERTEX
  5
791A
  8
ALPHA
 10
1237.252458
 20
169.311596
 30
0.0
  0
VERTEX
  5
791B
  8
ALPHA
 10
1237.252458
 20
173.136047
 30
0.0
  0
VERTEX
  5
791C
  8
ALPHA
 10
1237.252458
 20
174.396378
 30
0.0
  0
VERTEX
  5
791D
  8
ALPHA
 10
1237.252458
 20
174.874435
 30
0.0
  0
SEQEND
  5
791E
  8
ALPHA
  0
POLYLINE
  5
6CB9
  8
ALPHA
 66
     1
 10
0.0
 20
0.0
 30
0.0
 70
   128
  0
VERTEX
  5
791F
  8
ALPHA
 10
1238.451265
 20
175.350353
 30
0.0
  0
VERTEX
  5
7920
  8
ALPHA
 10
1238.451265
 20
174.854887
 30
0.0
  0
VERTEX
  5
7921
  8
ALPHA
 10
1238.451265
 20
173.548659
 30
0.0
  0
VERTEX
  5
7922
  8
ALPHA
 10
1238.451265
 20
171.701922
 30
0.0
  0
VERTEX
  5
7923
  8
ALPHA
 10
1238.451265
 20
169.584932
 30
0.0
  0
VERTEX
  5
7924
  8
ALPHA
 10
1238.451265
 20
167.467941
 30
0.0
  0
VERTEX
  5
7925
  8
ALPHA
 10
1238.451265
 20
165.621205
 30
0.0
  0
VERTEX
  5
7926
  8
ALPHA
 10
1238.451265
 20
164.314977
 30
0.0
  0
VERTEX
  5
7927
  8
ALPHA
 10
1238.451265
 20
163.819511
 30
0.0
  0
VERTEX
  5
7928
  8
ALPHA
 10
1238.301206
 20
162.514406
 30
0.0
  0
VERTEX
  5
7929
  8
ALPHA
 10
1237.69834
 20
161.581259
 30
0.0
  0
VERTEX
  5
792A
  8
ALPHA
 10
1236.828145
 20
161.02082
 30
0.0
  0
VERTEX
  5
792B
  8
ALPHA
 10
1235.876099
 20
160.83384
 30
0.0
  0
SEQEND
  5
792C
  8
ALPHA
  0
POLYLINE
  5
6CBA
  8
ALPHA
 66
     1
 10
0.0
 20
0.0
 30
0.0
 70
   128
  0
VERTEX
  5
792D
  8
ALPHA
 10
1235.876099
 20
160.83384
 30
0.0
  0
VERTEX
  5
792E
  8
ALPHA
 10
1235.249266
 20
160.763934
 30
0.0
  0
VERTEX
  5
792F
  8
ALPHA
 10
1234.204544
 20
160.647424
 30
0.0
  0
VERTEX
  5
7930
  8
ALPHA
 10
1233.467472
 20
160.789786
 30
0.0
  0
VERTEX
  5
7931
  8
ALPHA
 10
1233.337812
 20
161.451881
 30
0.0
  0
VERTEX
  5
7932
  8
ALPHA
 10
1233.894997
 20
161.821054
 30
0.0
  0
SEQEND
  5
7933
  8
ALPHA
  0
POLYLINE
  5
6CBB
  8
ALPHA
 66
     1
 10
0.0
 20
0.0
 30
0.0
 70
   128
  0
VERTEX
  5
7934
  8
ALPHA
 10
1235.876099
 20
160.83384
 30
0.0
  0
VERTEX
  5
7935
  8
ALPHA
 10
1235.249266
 20
160.763934
 30
0.0
  0
VERTEX
  5
7936
  8
ALPHA
 10
1234.204544
 20
160.647424
 30
0.0
  0
VERTEX
  5
7937
  8
ALPHA
 10
1233.467472
 20
160.789786
 30
0.0
  0
VERTEX
  5
7938
  8
ALPHA
 10
1233.337812
 20
161.451881
 30
0.0
  0
VERTEX
  5
7939
  8
ALPHA
 10
1233.894997
 20
161.821054
 30
0.0
  0
SEQEND
  5
793A
  8
ALPHA
  0
POLYLINE
  5
6CBC
  8
ALPHA
 66
     1
 10
0.0
 20
0.0
 30
0.0
 70
   128
  0
VERTEX
  5
793B
  8
ALPHA
 10
1233.894997
 20
161.821054
 30
0.0
  0
VERTEX
  5
793C
  8
ALPHA
 10
1234.20079
 20
161.856097
 30
0.0
  0
VERTEX
  5
793D
  8
ALPHA
 10
1234.873534
 20
161.933192
 30
0.0
  0
VERTEX
  5
793E
  8
ALPHA
 10
1235.546277
 20
162.010287
 30
0.0
  0
VERTEX
  5
793F
  8
ALPHA
 10
1235.85207
 20
162.04533
 30
0.0
  0
VERTEX
  5
7940
  8
ALPHA
 10
1236.595213
 20
162.233488
 30
0.0
  0
VERTEX
  5
7941
  8
ALPHA
 10
1237.018337
 20
162.596924
 30
0.0
  0
VERTEX
  5
7942
  8
ALPHA
 10
1237.252458
 20
163.748757
 30
0.0
  0
SEQEND
  5
7943
  8
ALPHA
  0
POLYLINE
  5
6CBD
  8
ALPHA
 66
     1
 10
0.0
 20
0.0
 30
0.0
 70
   128
  0
VERTEX
  5
7944
  8
ALPHA
 10
1233.894997
 20
161.821054
 30
0.0
  0
VERTEX
  5
7945
  8
ALPHA
 10
1234.20079
 20
161.856097
 30
0.0
  0
VERTEX
  5
7946
  8
ALPHA
 10
1234.873534
 20
161.933192
 30
0.0
  0
VERTEX
  5
7947
  8
ALPHA
 10
1235.546277
 20
162.010287
 30
0.0
  0
VERTEX
  5
7948
  8
ALPHA
 10
1235.85207
 20
162.04533
 30
0.0
  0
VERTEX
  5
7949
  8
ALPHA
 10
1236.595213
 20
162.233488
 30
0.0
  0
VERTEX
  5
794A
  8
ALPHA
 10
1237.018337
 20
162.596924
 30
0.0
  0
VERTEX
  5
794B
  8
ALPHA
 10
1237.252458
 20
163.748757
 30
0.0
  0
SEQEND
  5
794C
  8
ALPHA
  0
LINE
  5
6CC6
  8
AXE
 10
1236.930729
 20
168.531239
 30
0.0
 11
1236.930729
 21
33.728457
 31
0.0
  0
LINE
  5
6CC8
  8
ALPHA
 10
1244.680873
 20
119.518414
 30
0.0
 11
1236.930729
 21
119.518414
 31
0.0
  0
LINE
  5
6CC9
  8
ALPHA
 10
1244.176919
 20
120.021253
 30
0.0
 11
1236.930729
 21
120.021253
 31
0.0
  0
DIMENSION
  5
6CCD
  8
COTATION1
  2
*D5
 10
1201.430729
 20
108.728457
 30
0.0
 11
1201.430729
 21
179.728457
 31
0.0
 70
   128
  1
142
 13
1237.252458
 23
250.728457
 33
0.0
 14
1222.780729
 24
108.728457
 34
0.0
 50
90.0
  0
LINE
  5
6CCE
  8
ALPHA
 10
1238.451267
 20
250.574937
 30
0.0
 11
1238.451265
 21
175.350353
 31
0.0
  0
LINE
  5
6CCF
  8
ALPHA
 10
1237.252458
 20
174.874435
 30
0.0
 11
1237.252458
 21
250.728457
 31
0.0
  0
LINE
  5
6CD0
  8
ALPHA
 10
1238.451267
 20
250.574937
 30
0.0
 11
1238.451267
 21
177.525027
 31
0.0
  0
LINE
  5
6CD1
  8
ALPHA
 10
1237.252458
 20
177.048441
 30
0.0
 11
1237.252458
 21
250.728457
 31
0.0
  0
LINE
  5
6CD2
  8
ALPHA
 10
1233.894995
 20
142.490625
 30
0.0
 11
1239.967795
 21
143.14743
 31
0.0
  0
LINE
  5
6CD3
  8
ALPHA
 10
1243.17124
 20
120.821124
 30
0.0
 11
1243.17124
 21
120.021253
 31
0.0
  0
LINE
  5
6CD4
  8
ALPHA
 10
1230.690217
 20
120.821124
 30
0.0
 11
1230.690217
 21
120.021253
 31
0.0
  0
LINE
  5
6CDA
  8
ALPHA
 10
1229.684538
 20
120.021253
 30
0.0
 11
1236.930729
 21
120.021253
 31
0.0
  0
LINE
  5
6CDB
  8
ALPHA
 10
1229.180584
 20
119.518414
 30
0.0
 11
1229.684538
 21
120.021253
 31
0.0
  0
LINE
  5
6CDC
  8
ALPHA
 10
1229.180584
 20
118.510507
 30
0.0
 11
1229.180584
 21
119.518414
 31
0.0
  0
LINE
  5
6CDD
  8
ALPHA
 10
1229.180584
 20
119.518414
 30
0.0
 11
1229.684538
 21
120.021253
 31
0.0
  0
LINE
  5
6CDE
  8
ALPHA
 10
1229.180584
 20
118.167332
 30
0.0
 11
1229.180584
 21
119.518414
 31
0.0
  0
LINE
  5
6CDF
  8
ALPHA
 10
1229.180584
 20
119.518414
 30
0.0
 11
1236.930729
 21
119.518414
 31
0.0
  0
LINE
  5
6CF4
  8
ALPHA
 10
1243.17124
 20
121.776744
 30
0.0
 11
1243.17124
 21
124.047314
 31
0.0
  0
LINE
  5
6CF5
  8
ALPHA
 10
1243.17124
 20
124.047314
 30
0.0
 11
1236.930729
 21
124.047314
 31
0.0
  0
LINE
  5
6CF6
  8
ALPHA
 10
1239.931329
 20
140.728457
 30
0.0
 11
1233.92889
 21
140.728457
 31
0.0
  0
LINE
  5
6CF7
  8
ALPHA
 10
1230.690217
 20
124.047314
 30
0.0
 11
1236.930729
 21
124.047314
 31
0.0
  0
LINE
  5
6CF8
  8
ALPHA
 10
1239.931329
 20
140.728457
 30
0.0
 11
1233.92889
 21
140.728457
 31
0.0
  0
LINE
  5
6CF9
  8
ALPHA
 10
1233.92889
 20
140.728457
 30
0.0
 11
1233.404789
 21
137.554042
 31
0.0
  0
LINE
  5
6CFA
  8
ALPHA
 10
1234.679194
 20
140.728457
 30
0.0
 11
1239.183497
 21
140.728457
 31
0.0
  0
LINE
  5
6CFB
  8
ALPHA
 10
1240.456668
 20
137.554042
 30
0.0
 11
1239.931329
 21
140.728457
 31
0.0
  0
LINE
  5
6CFC
  8
ALPHA
 10
1230.690217
 20
121.776744
 30
0.0
 11
1230.690217
 21
124.047314
 31
0.0
  0
LINE
  5
6CFD
  8
ALPHA
 10
1239.364387
 20
140.728457
 30
0.0
 11
1239.364387
 21
141.875201
 31
0.0
  0
LINE
  5
6CFE
  8
ALPHA
 10
1234.49974
 20
141.349221
 30
0.0
 11
1234.49974
 21
140.728457
 31
0.0
  0
CIRCLE
  5
6CFF
  8
ALPHA
 10
1240.037215
 20
141.330531
 30
0.0
 40
0.603407
  0
LINE
  5
6D00
  8
ALPHA
 10
1234.49974
 20
141.349221
 30
0.0
 11
1234.49974
 21
140.728457
 31
0.0
  0
LINE
  5
6D01
  8
ALPHA
 10
1239.364387
 20
141.875201
 30
0.0
 11
1239.364387
 21
140.728457
 31
0.0
  0
CIRCLE
  5
6D02
  8
ALPHA
 10
1240.037215
 20
141.330531
 30
0.0
 40
0.603407
  0
LINE
  5
6D03
  8
ALPHA
 10
1239.969132
 20
161.270379
 30
0.0
 11
1237.592877
 21
161.485976
 31
0.0
  0
LINE
  5
6D04
  8
ALPHA
 10
1237.592877
 20
161.485976
 30
0.0
 11
1239.969132
 21
161.270379
 31
0.0
  0
LINE
  5
6D05
  8
ALPHA
 10
1233.894995
 20
159.402749
 30
0.0
 11
1239.969132
 21
160.060224
 31
0.0
  0
LINE
  5
6D06
  8
ALPHA
 10
1233.894995
 20
158.19593
 30
0.0
 11
1239.969132
 21
158.853405
 31
0.0
  0
LINE
  5
6D07
  8
ALPHA
 10
1233.894995
 20
156.987112
 30
0.0
 11
1239.969132
 21
157.645921
 31
0.0
  0
LINE
  5
6D08
  8
ALPHA
 10
1233.894995
 20
155.778961
 30
0.0
 11
1239.969132
 21
156.436436
 31
0.0
  0
LINE
  5
6D09
  8
ALPHA
 10
1233.894995
 20
154.570139
 30
0.0
 11
1239.969132
 21
155.227614
 31
0.0
  0
LINE
  5
6D0A
  8
ALPHA
 10
1233.894995
 20
153.360655
 30
0.0
 11
1239.969132
 21
154.019463
 31
0.0
  0
LINE
  5
6D0B
  8
ALPHA
 10
1233.894995
 20
152.151833
 30
0.0
 11
1239.969132
 21
152.809975
 31
0.0
  0
LINE
  5
6D0C
  8
ALPHA
 10
1233.894995
 20
150.943682
 30
0.0
 11
1239.969132
 21
151.601157
 31
0.0
  0
LINE
  5
6D0D
  8
ALPHA
 10
1233.894995
 20
148.528712
 30
0.0
 11
1239.969132
 21
149.185521
 31
0.0
  0
LINE
  5
6D0E
  8
ALPHA
 10
1233.894995
 20
147.320561
 30
0.0
 11
1239.969132
 21
147.978702
 31
0.0
  0
LINE
  5
6D0F
  8
ALPHA
 10
1233.894995
 20
149.73553
 30
0.0
 11
1239.969132
 21
150.393006
 31
0.0
  0
LINE
  5
6D10
  8
ALPHA
 10
1233.894995
 20
146.112409
 30
0.0
 11
1239.969132
 21
146.770551
 31
0.0
  0
LINE
  5
6D11
  8
ALPHA
 10
1233.894995
 20
144.905591
 30
0.0
 11
1239.969132
 21
145.5624
 31
0.0
  0
LINE
  5
6D12
  8
ALPHA
 10
1233.894995
 20
143.698776
 30
0.0
 11
1239.969132
 21
144.354248
 31
0.0
  0
LINE
  5
6D15
  8
ALPHA
 10
1237.252458
 20
250.728457
 30
0.0
 11
1238.451267
 21
250.574937
 31
0.0
  0
LINE
  5
6D16
  8
ALPHA
 10
1237.252458
 20
250.728457
 30
0.0
 11
1238.451267
 21
250.574937
 31
0.0
  0
LINE
  5
6D17
  8
ALPHA
 10
1244.680873
 20
118.167332
 30
0.0
 11
1244.680873
 21
119.518414
 31
0.0
  0
LINE
  5
6D18
  8
ALPHA
 10
1244.680873
 20
119.518414
 30
0.0
 11
1244.176919
 21
120.021253
 31
0.0
  0
LINE
  5
6D19
  8
ALPHA
 10
1244.680873
 20
118.510507
 30
0.0
 11
1244.680873
 21
119.518414
 31
0.0
  0
LINE
  5
6D1A
  8
ALPHA
 10
1244.680873
 20
119.518414
 30
0.0
 11
1244.176919
 21
120.021253
 31
0.0
  0
DIMENSION
  5
7124
  8
COTATION1
  2
*D3
 10
1247.930729
 20
67.964638
 30
0.0
 11
1236.930729
 21
71.214638
 31
0.0
 13
1225.930729
 23
106.578457
 33
0.0
 14
1247.930729
 24
106.578457
 34
0.0
  0
DIMENSION
  5
7125
  8
COTATION1
  2
*D4
 10
1246.930729
 20
77.138602
 30
0.0
 11
1236.930729
 21
80.388602
 31
0.0
 13
1226.930729
 23
104.578457
 33
0.0
 14
1246.930729
 24
104.578457
 34
0.0
  0
DIMENSION
  5
7236
  8
COTATION1
  2
*D7
 10
1228.538122
 20
58.740228
 30
0.0
 11
1201.329588
 21
39.515317
 31
0.0
 70
   131
  1
2x<>
 15
1226.323335
 25
56.716687
 35
0.0
 40
0.0
1001
ACAD
1000
DSTYLE
1002
{
1070
   288
1070
     1
1002
}
  0
LINE
  5
7237
  8
AXE
 10
1231.930729
 20
57.728457
 30
0.0
 11
1222.930729
 21
57.728457
 31
0.0
  0
LINE
  5
7238
  8
AXE
 10
1227.430729
 20
53.228457
 30
0.0
 11
1227.430729
 21
62.228457
 31
0.0
  0
CIRCLE
  5
7239
  8
POINTILLE_COURT
 10
1227.430729
 20
57.728457
 30
0.0
 40
1.5
  0
CIRCLE
  5
723A
  8
POINTILLE_COURT
 10
1246.430729
 20
57.728457
 30
0.0
 40
1.5
  0
LINE
  5
723B
  8
AXE
 10
1241.930729
 20
57.728457
 30
0.0
 11
1250.930729
 21
57.728457
 31
0.0
  0
LINE
  5
723C
  8
AXE
 10
1246.430729
 20
53.228457
 30
0.0
 11
1246.430729
 21
62.228457
 31
0.0
  0
DIMENSION
  5
723E
  8
COTATION1
  2
*D8
 10
1285.941108
 20
57.728457
 30
0.0
 11
1285.941108
 21
83.228457
 31
0.0
 13
1251.080729
 23
108.728457
 33
0.0
 14
1250.930729
 24
57.728457
 34
0.0
 50
90.0
  0
DIMENSION
  5
723F
  8
COTATION1
  2
*D9
 10
1246.430729
 20
23.728457
 30
0.0
 11
1236.930729
 21
26.978457
 31
0.0
 13
1227.430729
 23
53.228457
 33
0.0
 14
1246.430729
 24
53.228457
 34
0.0
  0
DIMENSION
  5
7240
  8
COTATION1
  2
*D10
 10
1285.941108
 20
108.728457
 30
0.0
 11
1285.941108
 21
113.728457
 31
0.0
 13
1236.930729
 23
118.728457
 33
0.0
 14
1251.080729
 24
108.728457
 34
0.0
 50
90.0
  0
DIMENSION
  5
7241
  8
COTATION1
  2
*D11
 10
1275.941108
 20
108.728457
 30
0.0
 11
1273.107775
 21
100.176735
 31
0.0
 70
   128
 13
1252.080729
 23
110.728457
 33
0.0
 14
1251.080729
 24
108.728457
 34
0.0
 50
90.0
1001
ACAD
1000
DSTYLE
1002
{
1070
   287
1070
     5
1070
   287
1070
     5
1070
   287
1070
     5
1070
   287
1070
     5
1070
   287
1070
     5
1070
   279
1070
     2
1070
   172
1070
     0
1002
}
  0
LINE
  5
7435
  8
ALPHA
 10
1226.080755
 20
50.228457
 30
0.0
 11
1247.780702
 21
50.228457
 31
0.0
  0
LINE
  5
7436
  8
ALPHA
 10
1247.780729
 20
53.728457
 30
0.0
 11
1247.780729
 21
50.228457
 31
0.0
  0
LINE
  5
7437
  8
ALPHA
 10
1226.080729
 20
53.728457
 30
0.0
 11
1226.080729
 21
50.228457
 31
0.0
  0
VIEWPORT
  5
494D
 67
     1
  8
0
 10
4.995325
 20
6.556512
 30
0.0
 40
22.70986
 41
13.988421
 68
    -1
 69
     1
1001
ACAD
1000
MVIEW
1002
{
1070
    16
1010
0.0
1020
0.0
1030
0.0
1010
0.0
1020
0.0
1030
1.0
1040
0.0
1040
13.988421
1040
4.995325
1040
6.556512
1040
50.0
1040
0.0
1040
0.0
1070
     0
1070
   100
1070
     1
1070
     1
1070
     0
1070
     0
1070
     0
1070
     0
1040
0.0
1040
0.0
1040
0.0
1040
10.0
1040
10.0
1040
10.0
1040
10.0
1070
     0
1002
{
1002
}
1002
}
  0
ENDSEC
  0
EOF
