  0
SECTION
  2
HEADER
  9
$ACADVER
  1
AC1009
  9
$INSBASE
 10
402.590624
 20
-1.041018
 30
0.0
  9
$EXTMIN
 10
1103.100991
 20
33.728457
 30
0.0
  9
$EXTMAX
 10
1165.600991
 20
285.228457
 30
0.0
  9
$LIMMIN
 10
-407.970438
 20
-367.832444
  9
$LIMMAX
 10
429.804077
 20
234.370848
  9
$ORTHOMODE
 70
     1
  9
$REGENMODE
 70
     1
  9
$FILLMODE
 70
     1
  9
$QTEXTMODE
 70
     0
  9
$MIRRTEXT
 70
     1
  9
$DRAGMODE
 70
     2
  9
$LTSCALE
 40
10.0
  9
$OSMODE
 70
    35
  9
$ATTMODE
 70
     1
  9
$TEXTSIZE
 40
6.0
  9
$TRACEWID
 40
1.0
  9
$TEXTSTYLE
  7
ROMANS
  9
$CLAYER
  8
ALPHA
  9
$CELTYPE
  6
BYLAYER
  9
$CECOLOR
 62
   256
  9
$DIMSCALE
 40
1.0
  9
$DIMASZ
 40
5.0
  9
$DIMEXO
 40
2.0
  9
$DIMDLI
 40
0.38
  9
$DIMRND
 40
0.0
  9
$DIMDLE
 40
0.0
  9
$DIMEXE
 40
2.5
  9
$DIMTP
 40
0.0
  9
$DIMTM
 40
0.0
  9
$DIMTXT
 40
2.5
  9
$DIMCEN
 40
0.0
  9
$DIMTSZ
 40
0.0
  9
$DIMTOL
 70
     0
  9
$DIMLIM
 70
     0
  9
$DIMTIH
 70
     1
  9
$DIMTOH
 70
     1
  9
$DIMSE1
 70
     0
  9
$DIMSE2
 70
     0
  9
$DIMTAD
 70
     1
  9
$DIMZIN
 70
    12
  9
$DIMBLK
  1
OPEN30
  9
$DIMASO
 70
     1
  9
$DIMSHO
 70
     1
  9
$DIMPOST
  1

  9
$DIMAPOST
  1

  9
$DIMALT
 70
     0
  9
$DIMALTD
 70
     2
  9
$DIMALTF
 40
25.4
  9
$DIMLFAC
 40
1.0
  9
$DIMTOFL
 70
     0
  9
$DIMTVP
 40
0.0
  9
$DIMTIX
 70
     0
  9
$DIMSOXD
 70
     0
  9
$DIMSAH
 70
     0
  9
$DIMBLK1
  1

  9
$DIMBLK2
  1

  9
$DIMSTYLE
  2
SC_DEFAUT
  9
$DIMCLRD
 70
     0
  9
$DIMCLRE
 70
     0
  9
$DIMCLRT
 70
     0
  9
$DIMTFAC
 40
1.0
  9
$DIMGAP
 40
2.0
  9
$LUNITS
 70
     2
  9
$LUPREC
 70
     1
  9
$SKETCHINC
 40
0.1
  9
$FILLETRAD
 40
0.0
  9
$AUNITS
 70
     0
  9
$AUPREC
 70
     0
  9
$MENU
  1
acad
  9
$ELEVATION
 40
0.0
  9
$PELEVATION
 40
0.0
  9
$THICKNESS
 40
0.0
  9
$LIMCHECK
 70
     0
  9
$BLIPMODE
 70
     0
  9
$CHAMFERA
 40
0.0
  9
$CHAMFERB
 40
0.0
  9
$SKPOLY
 70
     0
  9
$TDCREATE
 40
2450373.687919
  9
$TDUPDATE
 40
2453055.343672
  9
$TDINDWG
 40
0.801647
  9
$TDUSRTIMER
 40
0.801647
  9
$USRTIMER
 70
     1
  9
$ANGBASE
 50
0.0
  9
$ANGDIR
 70
     0
  9
$PDMODE
 70
    32
  9
$PDSIZE
 40
0.0
  9
$PLINEWID
 40
0.0
  9
$COORDS
 70
     1
  9
$SPLFRAME
 70
     0
  9
$SPLINETYPE
 70
     6
  9
$SPLINESEGS
 70
     8
  9
$ATTDIA
 70
     0
  9
$ATTREQ
 70
     1
  9
$HANDLING
 70
     1
  9
$HANDSEED
  5
752A
  9
$SURFTAB1
 70
     6
  9
$SURFTAB2
 70
     6
  9
$SURFTYPE
 70
     6
  9
$SURFU
 70
     6
  9
$SURFV
 70
     6
  9
$UCSNAME
  2

  9
$UCSORG
 10
0.0
 20
0.0
 30
0.0
  9
$UCSXDIR
 10
1.0
 20
0.0
 30
0.0
  9
$UCSYDIR
 10
0.0
 20
1.0
 30
0.0
  9
$PUCSNAME
  2

  9
$PUCSORG
 10
0.0
 20
0.0
 30
0.0
  9
$PUCSXDIR
 10
1.0
 20
0.0
 30
0.0
  9
$PUCSYDIR
 10
0.0
 20
1.0
 30
0.0
  9
$USERI1
 70
     0
  9
$USERI2
 70
     0
  9
$USERI3
 70
     0
  9
$USERI4
 70
     0
  9
$USERI5
 70
     0
  9
$USERR1
 40
0.0
  9
$USERR2
 40
0.0
  9
$USERR3
 40
0.0
  9
$USERR4
 40
0.0
  9
$USERR5
 40
0.0
  9
$WORLDVIEW
 70
     1
  9
$SHADEDGE
 70
     3
  9
$SHADEDIF
 70
    70
  9
$TILEMODE
 70
     1
  9
$MAXACTVP
 70
    16
  9
$PLIMCHECK
 70
     0
  9
$PEXTMIN
 10
-1.452248
 20
-0.437698
 30
0.0
  9
$PEXTMAX
 10
12.749749
 20
8.310198
 30
0.0
  9
$PLIMMIN
 10
0.0
 20
0.0
  9
$PLIMMAX
 10
12.0
 20
9.0
  9
$UNITMODE
 70
     0
  9
$VISRETAIN
 70
     0
  9
$PLINEGEN
 70
     0
  9
$PSLTSCALE
 70
     0
  0
ENDSEC
  0
SECTION
  2
TABLES
  0
TABLE
  2
VPORT
 70
     2
  0
VPORT
  2
*ACTIVE
 70
     0
 10
0.0
 20
0.0
 11
1.0
 21
1.0
 12
1134.342943
 22
159.474577
 13
0.0
 23
0.0
 14
1.0
 24
1.0
 15
10.0
 25
10.0
 16
0.0
 26
0.0
 36
1.0
 17
0.0
 27
0.0
 37
0.0
 40
253.342164
 41
1.466346
 42
50.0
 43
0.0
 44
0.0
 50
0.0
 51
0.0
 71
     0
 72
   100
 73
     1
 74
     0
 75
     0
 76
     0
 77
     0
 78
     0
  0
ENDTAB
  0
TABLE
  2
LTYPE
 70
     3
  0
LTYPE
  2
CONTINUOUS
 70
     0
  3
Solid line
 72
    65
 73
     0
 40
0.0
  0
LTYPE
  2
AXES2
 70
     0
  3
___ _ ___ _ ___ _ ___ _ ___ _ ___ _ ___ _ ___ _
 72
    65
 73
     4
 40
1.125
 49
0.75
 49
-0.125
 49
0.125
 49
-0.125
  0
LTYPE
  2
CACHE2
 70
     0
  3
Caché (x.5) _ _ _ _ _ _ _ _ _ _ _ _ _ _ _ _ _
 72
    65
 73
     2
 40
0.1875
 49
0.125
 49
-0.0625
  0
ENDTAB
  0
TABLE
  2
LAYER
 70
     6
  0
LAYER
  2
0
 70
     0
 62
   255
  6
CONTINUOUS
  0
LAYER
  2
COTATION1
 70
     0
 62
     2
  6
CONTINUOUS
  0
LAYER
  2
AXE
 70
     0
 62
    80
  6
AXES2
  0
LAYER
  2
DEFPOINTS
 70
     0
 62
     7
  6
CONTINUOUS
  0
LAYER
  2
ALPHA
 70
     0
 62
   254
  6
CONTINUOUS
  0
LAYER
  2
POINTILLE_COURT
 70
     0
 62
    41
  6
CACHE2
  0
ENDTAB
  0
TABLE
  2
STYLE
 70
     2
  0
STYLE
  2
ROMANS
 70
     0
 40
0.0
 41
1.0
 50
0.0
 71
     0
 42
6.0
  3
romans
  4

  0
STYLE
  2
STANDARD
 70
     0
 40
0.2
 41
1.0
 50
0.0
 71
     0
 42
0.2
  3
txt
  4

  0
ENDTAB
  0
TABLE
  2
VIEW
 70
     0
  0
ENDTAB
  0
TABLE
  2
UCS
 70
     0
  0
ENDTAB
  0
TABLE
  2
APPID
 70
     1
  0
APPID
  2
ACAD
 70
     0
  0
ENDTAB
  0
TABLE
  2
DIMSTYLE
 70
     1
  0
DIMSTYLE
  2
SC_DEFAUT
 70
     0
  3

  4

  5
OPEN30
  6

  7

 40
1.0
 41
5.0
 42
2.0
 43
0.38
 44
2.5
 45
0.0
 46
0.0
 47
0.0
 48
0.0
140
2.5
141
0.0
142
0.0
143
25.4
144
1.0
145
0.0
146
1.0
147
2.0
 71
     0
 72
     0
 73
     1
 74
     1
 75
     0
 76
     0
 77
     1
 78
    12
170
     0
171
     2
172
     0
173
     0
174
     0
175
     0
176
     0
177
     0
178
     0
  0
ENDTAB
  0
ENDSEC
  0
SECTION
  2
BLOCKS
  0
BLOCK
  8
0
  2
$MODEL_SPACE
 70
     0
 10
0.0
 20
0.0
 30
0.0
  3
$MODEL_SPACE
  1

  0
ENDBLK
  5
7339
  8
0
  0
BLOCK
 67
     1
  8
0
  2
$PAPER_SPACE
 70
     0
 10
0.0
 20
0.0
 30
0.0
  3
$PAPER_SPACE
  1

  0
ENDBLK
  5
7337
 67
     1
  8
0
  0
BLOCK
  8
0
  2
COTE
 70
     0
 10
0.0
 20
0.0
 30
0.0
  3
COTE
  1

  0
ENDBLK
  5
F
  8
0
  0
BLOCK
  8
0
  2
FOND
 70
     0
 10
0.0
 20
0.0
 30
0.0
  3
FOND
  1

  0
ENDBLK
  5
75
  8
0
  0
BLOCK
  8
0
  2
_OPEN30
 70
     0
 10
0.0
 20
0.0
 30
0.0
  3
_OPEN30
  1

  0
LINE
  5
4B05
  8
COTATION1
 62
     0
 10
-1.0
 20
0.267949
 30
0.0
 11
0.0
 21
0.0
 31
0.0
1001
ACAD
1000
RTLwPs
1070
   158
  0
LINE
  5
4B06
  8
COTATION1
 62
     0
 10
0.0
 20
0.0
 30
0.0
 11
-1.0
 21
-0.267949
 31
0.0
1001
ACAD
1000
RTLwPs
1070
   158
  0
LINE
  5
4B07
  8
COTATION1
 62
     0
 10
0.0
 20
0.0
 30
0.0
 11
-1.0
 21
0.0
 31
0.0
1001
ACAD
1000
RTLwPs
1070
   158
  0
ENDBLK
  5
4B09
  8
0
  0
BLOCK
  8
0
  2
*D3
 70
     1
 10
0.0
 20
0.0
 30
0.0
  3
*D3
  1

  0
LINE
  5
7028
  8
COTATION1
 62
     0
 10
1134.100991
 20
59.728457
 30
0.0
 11
1134.100991
 21
74.087159
 31
0.0
1001
ACAD
1000
RTLwPs
1070
   158
  0
LINE
  5
7029
  8
COTATION1
 62
     0
 10
1138.100991
 20
61.728457
 30
0.0
 11
1138.100991
 21
74.087159
 31
0.0
1001
ACAD
1000
RTLwPs
1070
   158
  0
LINE
  5
702A
  8
COTATION1
 62
     0
 10
1129.100991
 20
71.587159
 30
0.0
 11
1124.100991
 21
71.587159
 31
0.0
1001
ACAD
1000
RTLwPs
1070
   158
  0
LINE
  5
702B
  8
COTATION1
 62
     0
 10
1143.100991
 20
71.587159
 30
0.0
 11
1148.100991
 21
71.587159
 31
0.0
1001
ACAD
1000
RTLwPs
1070
   158
  0
TEXT
  5
702C
  8
COTATION1
 62
     0
 10
1145.610505
 20
72.574117
 30
0.0
 40
2.5
  1
4
1001
ACAD
1000
MTEXTBEGIN
1070
    73
1070
     1
1070
    44
1040
1.0
1070
    74
1070
     0
1000
MTEXTEND
  0
INSERT
  5
702D
  8
COTATION1
 62
     0
  2
_OPEN30
 10
1134.100991
 20
71.587159
 30
0.0
 41
5.0
 42
5.0
 43
5.0
1001
ACAD
1000
RTLwPs
1070
   158
  0
INSERT
  5
702E
  8
COTATION1
 62
     0
  2
_OPEN30
 10
1138.100991
 20
71.587159
 30
0.0
 41
5.0
 42
5.0
 43
5.0
 50
180.0
1001
ACAD
1000
RTLwPs
1070
   158
  0
POINT
  5
702F
  8
DEFPOINTS
 62
     0
 10
1134.100991
 20
57.728457
 30
0.0
  0
POINT
  5
7030
  8
DEFPOINTS
 62
     0
 10
1138.100991
 20
59.728457
 30
0.0
  0
POINT
  5
7031
  8
DEFPOINTS
 62
     0
 10
1138.100991
 20
71.587159
 30
0.0
  0
ENDBLK
  5
701D
  8
0
  0
BLOCK
  8
0
  2
*D4
 70
     1
 10
0.0
 20
0.0
 30
0.0
  3
*D4
  1

  0
LINE
  5
7034
  8
COTATION1
 62
     0
 10
1125.600991
 20
168.851068
 30
0.0
 11
1125.600991
 21
273.228457
 31
0.0
1001
ACAD
1000
RTLwPs
1070
   158
  0
LINE
  5
7035
  8
COTATION1
 62
     0
 10
1138.100991
 20
120.728457
 30
0.0
 11
1138.100991
 21
273.228457
 31
0.0
1001
ACAD
1000
RTLwPs
1070
   158
  0
LINE
  5
7036
  8
COTATION1
 62
     0
 10
1120.600991
 20
270.728457
 30
0.0
 11
1115.600991
 21
270.728457
 31
0.0
1001
ACAD
1000
RTLwPs
1070
   158
  0
LINE
  5
7037
  8
COTATION1
 62
     0
 10
1143.100991
 20
270.728457
 30
0.0
 11
1148.100991
 21
270.728457
 31
0.0
1001
ACAD
1000
RTLwPs
1070
   158
  0
INSERT
  5
7038
  8
COTATION1
 62
     0
  2
_OPEN30
 10
1125.600991
 20
270.728457
 30
0.0
 41
5.0
 42
5.0
 43
5.0
1001
ACAD
1000
RTLwPs
1070
   158
  0
INSERT
  5
7039
  8
COTATION1
 62
     0
  2
_OPEN30
 10
1138.100991
 20
270.728457
 30
0.0
 41
5.0
 42
5.0
 43
5.0
 50
180.0
1001
ACAD
1000
RTLwPs
1070
   158
  0
TEXT
  5
703A
  8
COTATION1
 62
     0
 10
1127.505753
 20
272.728457
 30
0.0
 40
2.5
  1
12.5
1001
ACAD
1000
MTEXTBEGIN
1070
    73
1070
     1
1070
    44
1040
1.0
1070
    74
1070
     0
1000
MTEXTEND
  0
POINT
  5
703B
  8
DEFPOINTS
 62
     0
 10
1125.600991
 20
166.851068
 30
0.0
  0
POINT
  5
703C
  8
DEFPOINTS
 62
     0
 10
1138.100991
 20
118.728457
 30
0.0
  0
POINT
  5
703D
  8
DEFPOINTS
 62
     0
 10
1138.100991
 20
270.728457
 30
0.0
  0
ENDBLK
  5
703F
  8
0
  0
BLOCK
  8
0
  2
*D5
 70
     1
 10
0.0
 20
0.0
 30
0.0
  3
*D5
  1

  0
LINE
  5
70D6
  8
COTATION1
 62
     0
 10
1123.742918
 20
250.728457
 30
0.0
 11
1163.100991
 21
250.728457
 31
0.0
1001
ACAD
1000
RTLwPs
1070
   158
  0
LINE
  5
70D7
  8
COTATION1
 62
     0
 10
1138.450991
 20
50.228457
 30
0.0
 11
1163.100991
 21
50.228457
 31
0.0
1001
ACAD
1000
RTLwPs
1070
   158
  0
LINE
  5
70D8
  8
COTATION1
 62
     0
 10
1160.600991
 20
245.728457
 30
0.0
 11
1160.600991
 21
153.728457
 31
0.0
1001
ACAD
1000
RTLwPs
1070
   158
  0
LINE
  5
70D9
  8
COTATION1
 62
     0
 10
1160.600991
 20
55.228457
 30
0.0
 11
1160.600991
 21
147.228457
 31
0.0
1001
ACAD
1000
RTLwPs
1070
   158
  0
INSERT
  5
70DA
  8
COTATION1
 62
     0
  2
_OPEN30
 10
1160.600991
 20
250.728457
 30
0.0
 41
5.0
 42
5.0
 43
5.0
 50
90.0
1001
ACAD
1000
RTLwPs
1070
   158
  0
INSERT
  5
70DB
  8
COTATION1
 62
     0
  2
_OPEN30
 10
1160.600991
 20
50.228457
 30
0.0
 41
5.0
 42
5.0
 43
5.0
 50
270.0
1001
ACAD
1000
RTLwPs
1070
   158
  0
TEXT
  5
70DC
  8
COTATION1
 62
     0
 10
1155.243848
 20
149.228457
 30
0.0
 40
2.5
  1
200.5
1001
ACAD
1000
MTEXTBEGIN
1070
    73
1070
     1
1070
    44
1040
1.0
1070
    74
1070
     0
1000
MTEXTEND
  0
POINT
  5
70DD
  8
DEFPOINTS
 62
     0
 10
1121.742918
 20
250.728457
 30
0.0
  0
POINT
  5
70DE
  8
DEFPOINTS
 62
     0
 10
1136.450991
 20
50.228457
 30
0.0
  0
POINT
  5
70DF
  8
DEFPOINTS
 62
     0
 10
1160.600991
 20
50.228457
 30
0.0
  0
ENDBLK
  5
704C
  8
0
  0
BLOCK
  8
0
  2
*D6
 70
     1
 10
0.0
 20
0.0
 30
0.0
  3
*D6
  1

  0
LINE
  5
704E
  8
COTATION1
 62
     0
 10
1108.100991
 20
108.204829
 30
0.0
 11
1108.100991
 21
283.228457
 31
0.0
1001
ACAD
1000
RTLwPs
1070
   158
  0
LINE
  5
704F
  8
COTATION1
 62
     0
 10
1138.100991
 20
120.728457
 30
0.0
 11
1138.100991
 21
283.228457
 31
0.0
1001
ACAD
1000
RTLwPs
1070
   158
  0
LINE
  5
7050
  8
COTATION1
 62
     0
 10
1113.100991
 20
280.728457
 30
0.0
 11
1133.100991
 21
280.728457
 31
0.0
1001
ACAD
1000
RTLwPs
1070
   158
  0
INSERT
  5
7051
  8
COTATION1
 62
     0
  2
_OPEN30
 10
1108.100991
 20
280.728457
 30
0.0
 41
5.0
 42
5.0
 43
5.0
 50
180.0
1001
ACAD
1000
RTLwPs
1070
   158
  0
INSERT
  5
7052
  8
COTATION1
 62
     0
  2
_OPEN30
 10
1138.100991
 20
280.728457
 30
0.0
 41
5.0
 42
5.0
 43
5.0
1001
ACAD
1000
RTLwPs
1070
   158
  0
TEXT
  5
7053
  8
COTATION1
 62
     0
 10
1120.720039
 20
282.728457
 30
0.0
 40
2.5
  1
30
1001
ACAD
1000
MTEXTBEGIN
1070
    73
1070
     1
1070
    44
1040
1.0
1070
    74
1070
     0
1000
MTEXTEND
  0
POINT
  5
7054
  8
DEFPOINTS
 62
     0
 10
1108.100991
 20
106.204829
 30
0.0
  0
POINT
  5
7055
  8
DEFPOINTS
 62
     0
 10
1138.100991
 20
118.728457
 30
0.0
  0
POINT
  5
7056
  8
DEFPOINTS
 62
     0
 10
1138.100991
 20
280.728457
 30
0.0
  0
ENDBLK
  5
7058
  8
0
  0
BLOCK
  8
0
  2
*D7
 70
     1
 10
0.0
 20
0.0
 30
0.0
  3
*D7
  1

  0
LINE
  5
707A
  8
COTATION1
 62
     0
 10
1121.742918
 20
252.728457
 30
0.0
 11
1121.742918
 21
263.228457
 31
0.0
1001
ACAD
1000
RTLwPs
1070
   158
  0
LINE
  5
707B
  8
COTATION1
 62
     0
 10
1122.941727
 20
252.574937
 30
0.0
 11
1122.941727
 21
263.228457
 31
0.0
1001
ACAD
1000
RTLwPs
1070
   158
  0
LINE
  5
707C
  8
COTATION1
 62
     0
 10
1116.742918
 20
260.728457
 30
0.0
 11
1111.742918
 21
260.728457
 31
0.0
1001
ACAD
1000
RTLwPs
1070
   158
  0
LINE
  5
707D
  8
COTATION1
 62
     0
 10
1127.941727
 20
260.728457
 30
0.0
 11
1132.941727
 21
260.728457
 31
0.0
1001
ACAD
1000
RTLwPs
1070
   158
  0
TEXT
  5
707E
  8
COTATION1
 62
     0
 10
1108.357361
 20
261.057372
 30
0.0
 40
2.5
  1
%%c
1001
ACAD
1000
MTEXTBEGIN
1070
    73
1070
     1
1070
    44
1040
1.0
1070
    74
1070
     0
1000
MTEXTEND
  0
TEXT
  5
7306
  8
COTATION1
 62
     0
 10
1110.619266
 20
261.057372
 30
0.0
 40
2.5
  1
1.2
1001
ACAD
1000
R13OBJECT
1002
{
1005
707E
1002
}
  0
INSERT
  5
707F
  8
COTATION1
 62
     0
  2
_OPEN30
 10
1121.742918
 20
260.728457
 30
0.0
 41
5.0
 42
5.0
 43
5.0
1001
ACAD
1000
RTLwPs
1070
   158
  0
INSERT
  5
7080
  8
COTATION1
 62
     0
  2
_OPEN30
 10
1122.941727
 20
260.728457
 30
0.0
 41
5.0
 42
5.0
 43
5.0
 50
180.0
1001
ACAD
1000
RTLwPs
1070
   158
  0
POINT
  5
7081
  8
DEFPOINTS
 62
     0
 10
1121.742918
 20
250.728457
 30
0.0
  0
POINT
  5
7082
  8
DEFPOINTS
 62
     0
 10
1122.941727
 20
250.574937
 30
0.0
  0
POINT
  5
7083
  8
DEFPOINTS
 62
     0
 10
1122.941727
 20
260.728457
 30
0.0
  0
ENDBLK
  5
7065
  8
0
  0
ENDSEC
  0
SECTION
  2
ENTITIES
  0
INSERT
  5
A
  8
0
  2
COTE
 10
0.0
 20
0.0
 30
0.0
  0
INSERT
  5
17
  8
0
  2
COTE
 10
284.010391
 20
6.373258
 30
0.0
  0
INSERT
  5
72
  8
0
  2
FOND
 10
0.0
 20
0.0
 30
0.0
  0
POLYLINE
  5
662C
  8
ALPHA
 66
     1
 10
0.0
 20
0.0
 30
0.0
 70
   128
210
0.0
220
0.0
230
-1.0
  0
VERTEX
  5
733F
  8
ALPHA
 10
-1126.147734
 20
58.413808
 30
0.0
  0
VERTEX
  5
7340
  8
ALPHA
 10
-1126.887576
 20
58.413808
 30
0.0
  0
VERTEX
  5
7341
  8
ALPHA
 10
-1127.337529
 20
58.282761
 30
0.0
  0
VERTEX
  5
7342
  8
ALPHA
 10
-1127.730024
 20
57.699099
 30
0.0
  0
VERTEX
  5
7343
  8
ALPHA
 10
-1128.12566
 20
56.893738
 30
0.0
  0
VERTEX
  5
7344
  8
ALPHA
 10
-1128.340684
 20
56.440208
 30
0.0
  0
SEQEND
  5
7345
  8
ALPHA
  0
POLYLINE
  5
662D
  8
ALPHA
 66
     1
 10
0.0
 20
0.0
 30
0.0
 70
   128
210
0.0
220
0.0
230
-1.0
  0
VERTEX
  5
7346
  8
ALPHA
 10
-1120.923893
 20
54.728457
 30
0.0
  0
VERTEX
  5
7347
  8
ALPHA
 10
-1119.236833
 20
54.883982
 30
0.0
  0
VERTEX
  5
7348
  8
ALPHA
 10
-1117.323207
 20
55.250769
 30
0.0
  0
VERTEX
  5
7349
  8
ALPHA
 10
-1113.340514
 20
56.356367
 30
0.0
  0
VERTEX
  5
734A
  8
ALPHA
 10
-1111.533574
 20
56.964297
 30
0.0
  0
VERTEX
  5
734B
  8
ALPHA
 10
-1110.024324
 20
57.521728
 30
0.0
  0
VERTEX
  5
734C
  8
ALPHA
 10
-1108.943826
 20
57.963219
 30
0.0
  0
VERTEX
  5
734D
  8
ALPHA
 10
-1108.423144
 20
58.22333
 30
0.0
  0
SEQEND
  5
734E
  8
ALPHA
  0
LINE
  5
662E
  8
ALPHA
 10
1108.423144
 20
58.22333
 30
0.0
 11
1108.100991
 21
58.780776
 31
0.0
  0
POLYLINE
  5
662F
  8
ALPHA
 66
     1
 10
0.0
 20
0.0
 30
0.0
 70
   128
  0
VERTEX
  5
734F
  8
ALPHA
 10
1122.585142
 20
56.728457
 30
0.0
  0
VERTEX
  5
7350
  8
ALPHA
 10
1121.779375
 20
69.214045
 30
0.0
  0
VERTEX
  5
7351
  8
ALPHA
 10
1120.150045
 20
81.073691
 30
0.0
  0
VERTEX
  5
7352
  8
ALPHA
 10
1117.940614
 20
92.082127
 30
0.0
  0
VERTEX
  5
7353
  8
ALPHA
 10
1116.694443
 20
97.196747
 30
0.0
  0
VERTEX
  5
7354
  8
ALPHA
 10
1115.394545
 20
102.014089
 30
0.0
  0
SEQEND
  5
7355
  8
ALPHA
  0
POLYLINE
  5
6630
  8
ALPHA
 66
     1
 10
0.0
 20
0.0
 30
0.0
 70
   128
210
0.0
220
0.0
230
-1.0
  0
VERTEX
  5
7356
  8
ALPHA
 10
-1125.490234
 20
57.976207
 30
0.0
  0
VERTEX
  5
7357
  8
ALPHA
 10
-1125.752808
 20
58.342615
 30
0.0
  0
VERTEX
  5
7358
  8
ALPHA
 10
-1126.147734
 20
58.413808
 30
0.0
  0
SEQEND
  5
7359
  8
ALPHA
  0
POLYLINE
  5
6631
  8
ALPHA
 66
     1
 10
0.0
 20
0.0
 30
0.0
 70
   128
210
0.0
220
0.0
230
-1.0
  0
VERTEX
  5
735A
  8
ALPHA
 10
-1128.340684
 20
56.440208
 30
0.0
  0
VERTEX
  5
735B
  8
ALPHA
 10
-1128.570362
 20
55.94747
 30
0.0
  0
VERTEX
  5
735C
  8
ALPHA
 10
-1128.648426
 20
55.37562
 30
0.0
  0
VERTEX
  5
735D
  8
ALPHA
 10
-1128.331238
 20
54.728457
 30
0.0
  0
SEQEND
  5
735E
  8
ALPHA
  0
DIMENSION
  5
6642
  8
COTATION1
  2
*D6
 10
1138.100991
 20
280.728457
 30
0.0
 11
1123.100991
 21
283.978457
 31
0.0
 13
1108.100991
 23
106.204829
 33
0.0
 14
1138.100991
 24
118.728457
 34
0.0
  0
LINE
  5
6651
  8
AXE
 10
1103.100991
 20
86.228457
 30
0.0
 11
1153.100991
 21
86.228457
 31
0.0
  0
LINE
  5
6653
  8
ALPHA
 10
1113.100991
 20
118.728457
 30
0.0
 11
1117.850991
 21
118.728457
 31
0.0
  0
LINE
  5
6654
  8
ALPHA
 10
1113.100991
 20
116.028457
 30
0.0
 11
1138.100991
 21
116.028457
 31
0.0
  0
LINE
  5
6655
  8
ALPHA
 10
1114.100991
 20
53.728457
 30
0.0
 11
1138.100991
 21
53.728457
 31
0.0
  0
ARC
  5
6656
  8
ALPHA
 10
963.75876
 20
55.387689
 30
0.0
 40
156.451664
 50
0.857269
 51
18.449068
  0
LINE
  5
6657
  8
ALPHA
 10
1108.100991
 20
102.228457
 30
0.0
 11
1108.100991
 21
58.780776
 31
0.0
  0
LINE
  5
6658
  8
ALPHA
 10
1113.450516
 20
56.331078
 30
0.0
 11
1114.100991
 21
53.728457
 31
0.0
  0
ARC
  5
6659
  8
ALPHA
 10
1141.770578
 20
106.515651
 30
0.0
 40
33.671021
 50
166.958519
 51
180.528913
  0
LINE
  5
665A
  8
ALPHA
 10
1113.100991
 20
118.728457
 30
0.0
 11
1113.100991
 21
102.014089
 31
0.0
  0
LINE
  5
665B
  8
ALPHA
 10
1113.100991
 20
104.898623
 30
0.0
 11
1112.169644
 21
104.898623
 31
0.0
  0
LINE
  5
665C
  8
ALPHA
 10
1113.100991
 20
102.014089
 30
0.0
 11
1115.394545
 21
102.014089
 31
0.0
  0
LINE
  5
665D
  8
ALPHA
 10
1108.100991
 20
103.014089
 30
0.0
 11
1112.785097
 21
103.014089
 31
0.0
  0
LINE
  5
665E
  8
ALPHA
 10
1108.100991
 20
102.228457
 30
0.0
 11
1108.100991
 21
106.204829
 31
0.0
  0
ARC
  5
665F
  8
ALPHA
 10
1110.437819
 20
113.814173
 30
0.0
 40
1.5
 50
90.0
 51
168.480193
  0
LINE
  5
6660
  8
ALPHA
 10
1110.437819
 20
115.314173
 30
0.0
 11
1113.100991
 21
115.314173
 31
0.0
  0
DIMENSION
  5
6661
  8
COTATION1
  2
*D5
 10
1160.600991
 20
50.228457
 30
0.0
 11
1160.600991
 21
150.478457
 31
0.0
 13
1121.742918
 23
250.728457
 33
0.0
 14
1136.450991
 24
50.228457
 34
0.0
 50
90.0
  0
LINE
  5
6663
  8
ALPHA
 10
1138.100991
 20
118.728457
 30
0.0
 11
1138.100991
 21
53.728457
 31
0.0
  0
TEXT
  5
6665
  8
AXE
 10
1118.124801
 20
33.728457
 30
0.0
 40
8.0
  1
Y
 72
     2
 11
1124.600991
 21
33.728457
 31
0.0
  0
LINE
  5
6666
  8
ALPHA
 10
1126.074747
 20
59.728457
 30
0.0
 11
1138.100991
 21
59.728457
 31
0.0
  0
LINE
  5
6667
  8
ALPHA
 10
1120.923893
 20
54.728457
 30
0.0
 11
1138.100991
 21
54.728457
 31
0.0
  0
LINE
  5
6668
  8
ALPHA
 10
1122.585142
 20
56.728457
 30
0.0
 11
1125.074011
 21
56.728457
 31
0.0
  0
LINE
  5
6669
  8
ALPHA
 10
1120.192912
 20
57.728457
 30
0.0
 11
1122.55724
 21
57.728457
 31
0.0
  0
LINE
  5
666A
  8
ALPHA
 10
1126.074747
 20
59.728457
 30
0.0
 11
1125.074011
 21
56.728457
 31
0.0
  0
TEXT
  5
667F
  8
AXE
 10
1146.624801
 20
87.228457
 30
0.0
 40
8.0
  1
Z
 72
     2
 11
1153.100991
 21
87.228457
 31
0.0
  0
LINE
  5
6680
  8
ALPHA
 10
1133.350991
 20
118.728457
 30
0.0
 11
1138.100991
 21
118.728457
 31
0.0
  0
LINE
  5
6C65
  8
ALPHA
 10
1123.927601
 20
140.87664
 30
0.0
 11
1123.633907
 21
142.051418
 31
0.0
  0
POLYLINE
  5
6C66
  8
ALPHA
 66
     1
 10
0.0
 20
0.0
 30
0.0
 70
   128
  0
VERTEX
  5
735F
  8
ALPHA
 10
1128.638726
 20
141.385266
 30
0.0
  0
VERTEX
  5
7360
  8
ALPHA
 10
1128.436295
 20
141.363411
 30
0.0
  0
VERTEX
  5
7361
  8
ALPHA
 10
1127.902613
 20
141.305793
 30
0.0
  0
VERTEX
  5
7362
  8
ALPHA
 10
1126.283164
 20
141.130953
 30
0.0
  0
VERTEX
  5
7363
  8
ALPHA
 10
1124.663715
 20
140.956113
 30
0.0
  0
VERTEX
  5
7364
  8
ALPHA
 10
1124.130033
 20
140.898495
 30
0.0
  0
VERTEX
  5
7365
  8
ALPHA
 10
1123.927601
 20
140.87664
 30
0.0
  0
SEQEND
  5
7366
  8
ALPHA
  0
POLYLINE
  5
6C67
  8
ALPHA
 66
     1
 10
0.0
 20
0.0
 30
0.0
 70
   128
  0
VERTEX
  5
7367
  8
ALPHA
 10
1123.633907
 20
142.051418
 30
0.0
  0
VERTEX
  5
7368
  8
ALPHA
 10
1124.098919
 20
142.100328
 30
0.0
  0
VERTEX
  5
7369
  8
ALPHA
 10
1125.228234
 20
142.219108
 30
0.0
  0
VERTEX
  5
736A
  8
ALPHA
 10
1127.885446
 20
142.498593
 30
0.0
  0
VERTEX
  5
736B
  8
ALPHA
 10
1128.61618
 20
142.575451
 30
0.0
  0
VERTEX
  5
736C
  8
ALPHA
 10
1128.793466
 20
142.569623
 30
0.0
  0
VERTEX
  5
736D
  8
ALPHA
 10
1129.08344
 20
142.410192
 30
0.0
  0
VERTEX
  5
736E
  8
ALPHA
 10
1129.195348
 20
141.753593
 30
0.0
  0
VERTEX
  5
736F
  8
ALPHA
 10
1128.638726
 20
141.385266
 30
0.0
  0
SEQEND
  5
7370
  8
ALPHA
  0
POLYLINE
  5
6C68
  8
ALPHA
 66
     1
 10
0.0
 20
0.0
 30
0.0
 70
   128
  0
VERTEX
  5
7371
  8
ALPHA
 10
1122.941725
 20
175.350634
 30
0.0
  0
VERTEX
  5
7372
  8
ALPHA
 10
1122.941725
 20
171.948234
 30
0.0
  0
VERTEX
  5
7373
  8
ALPHA
 10
1122.941725
 20
168.839883
 30
0.0
  0
VERTEX
  5
7374
  8
ALPHA
 10
1122.941725
 20
166.262922
 30
0.0
  0
VERTEX
  5
7375
  8
ALPHA
 10
1122.941725
 20
164.454692
 30
0.0
  0
VERTEX
  5
7376
  8
ALPHA
 10
1122.941725
 20
163.652534
 30
0.0
  0
VERTEX
  5
7377
  8
ALPHA
 10
1122.96714
 20
163.496689
 30
0.0
  0
VERTEX
  5
7378
  8
ALPHA
 10
1123.033682
 20
163.170706
 30
0.0
  0
VERTEX
  5
7379
  8
ALPHA
 10
1123.260654
 20
162.589171
 30
0.0
  0
VERTEX
  5
737A
  8
ALPHA
 10
1123.754725
 20
162.199522
 30
0.0
  0
SEQEND
  5
737B
  8
ALPHA
  0
POLYLINE
  5
6C69
  8
ALPHA
 66
     1
 10
0.0
 20
0.0
 30
0.0
 70
   128
210
0.0
220
0.0
230
-1.0
  0
VERTEX
  5
737C
  8
ALPHA
 10
-1123.506419
 20
161.3685
 30
0.0
  0
VERTEX
  5
737D
  8
ALPHA
 10
-1122.645997
 20
161.763611
 30
0.0
  0
VERTEX
  5
737E
  8
ALPHA
 10
-1122.116294
 20
162.322172
 30
0.0
  0
VERTEX
  5
737F
  8
ALPHA
 10
-1121.742918
 20
163.785471
 30
0.0
  0
SEQEND
  5
7380
  8
ALPHA
  0
POLYLINE
  5
6C6A
  8
ALPHA
 66
     1
 10
0.0
 20
0.0
 30
0.0
 70
   128
  0
VERTEX
  5
7381
  8
ALPHA
 10
1122.56526
 20
141.935275
 30
0.0
  0
VERTEX
  5
7382
  8
ALPHA
 10
1122.841976
 20
141.965203
 30
0.0
  0
VERTEX
  5
7383
  8
ALPHA
 10
1123.568059
 20
142.043733
 30
0.0
  0
VERTEX
  5
7384
  8
ALPHA
 10
1125.743944
 20
142.279068
 30
0.0
  0
VERTEX
  5
7385
  8
ALPHA
 10
1127.844147
 20
142.506216
 30
0.0
  0
VERTEX
  5
7386
  8
ALPHA
 10
1128.475626
 20
142.574515
 30
0.0
  0
VERTEX
  5
7387
  8
ALPHA
 10
1128.669157
 20
142.59287
 30
0.0
  0
VERTEX
  5
7388
  8
ALPHA
 10
1129.095251
 20
142.800948
 30
0.0
  0
VERTEX
  5
7389
  8
ALPHA
 10
1129.239678
 20
143.257282
 30
0.0
  0
VERTEX
  5
738A
  8
ALPHA
 10
1128.730098
 20
143.807175
 30
0.0
  0
VERTEX
  5
738B
  8
ALPHA
 10
1129.131162
 20
144.054124
 30
0.0
  0
VERTEX
  5
738C
  8
ALPHA
 10
1129.230509
 20
144.525392
 30
0.0
  0
VERTEX
  5
738D
  8
ALPHA
 10
1128.964251
 20
144.912111
 30
0.0
  0
VERTEX
  5
738E
  8
ALPHA
 10
1128.738555
 20
144.998922
 30
0.0
  0
VERTEX
  5
738F
  8
ALPHA
 10
1128.789913
 20
145.026106
 30
0.0
  0
VERTEX
  5
7390
  8
ALPHA
 10
1129.162674
 20
145.310889
 30
0.0
  0
VERTEX
  5
7391
  8
ALPHA
 10
1129.215602
 20
145.791412
 30
0.0
  0
VERTEX
  5
7392
  8
ALPHA
 10
1128.913725
 20
146.149282
 30
0.0
  0
VERTEX
  5
7393
  8
ALPHA
 10
1128.678055
 20
146.213981
 30
0.0
  0
VERTEX
  5
7394
  8
ALPHA
 10
1128.846528
 20
146.251763
 30
0.0
  0
VERTEX
  5
7395
  8
ALPHA
 10
1129.189368
 20
146.570076
 30
0.0
  0
VERTEX
  5
7396
  8
ALPHA
 10
1129.195265
 20
147.053901
 30
0.0
  0
VERTEX
  5
7397
  8
ALPHA
 10
1128.860301
 20
147.381377
 30
0.0
  0
VERTEX
  5
7398
  8
ALPHA
 10
1128.662663
 20
147.423797
 30
0.0
  0
VERTEX
  5
7399
  8
ALPHA
 10
1128.900628
 20
147.482745
 30
0.0
  0
VERTEX
  5
739A
  8
ALPHA
 10
1129.211015
 20
147.832368
 30
0.0
  0
VERTEX
  5
739B
  8
ALPHA
 10
1129.169804
 20
148.314477
 30
0.0
  0
VERTEX
  5
739C
  8
ALPHA
 10
1128.804286
 20
148.608541
 30
0.0
  0
VERTEX
  5
739D
  8
ALPHA
 10
1128.723599
 20
148.637352
 30
0.0
  0
VERTEX
  5
739E
  8
ALPHA
 10
1128.951908
 20
148.718805
 30
0.0
  0
VERTEX
  5
739F
  8
ALPHA
 10
1129.227308
 20
149.099338
 30
0.0
  0
VERTEX
  5
73A0
  8
ALPHA
 10
1129.139527
 20
149.572242
 30
0.0
  0
VERTEX
  5
73A1
  8
ALPHA
 10
1128.745987
 20
149.828874
 30
0.0
  0
VERTEX
  5
73A2
  8
ALPHA
 10
1129.00006
 20
149.958011
 30
0.0
  0
VERTEX
  5
73A3
  8
ALPHA
 10
1129.23794
 20
150.36426
 30
0.0
  0
VERTEX
  5
73A4
  8
ALPHA
 10
1129.10474
 20
150.825636
 30
0.0
  0
VERTEX
  5
73A5
  8
ALPHA
 10
1128.685713
 20
151.044044
 30
0.0
  0
VERTEX
  5
73A6
  8
ALPHA
 10
1129.044777
 20
151.202694
 30
0.0
  0
VERTEX
  5
73A7
  8
ALPHA
 10
1129.242605
 20
151.634288
 30
0.0
  0
VERTEX
  5
73A8
  8
ALPHA
 10
1129.065751
 20
152.077076
 30
0.0
  0
VERTEX
  5
73A9
  8
ALPHA
 10
1128.65493
 20
152.254157
 30
0.0
  0
VERTEX
  5
73AA
  8
ALPHA
 10
1129.085752
 20
152.451291
 30
0.0
  0
VERTEX
  5
73AB
  8
ALPHA
 10
1129.241038
 20
152.904534
 30
0.0
  0
VERTEX
  5
73AC
  8
ALPHA
 10
1129.022867
 20
153.324606
 30
0.0
  0
VERTEX
  5
73AD
  8
ALPHA
 10
1128.716078
 20
153.467631
 30
0.0
  0
VERTEX
  5
73AE
  8
ALPHA
 10
1129.122678
 20
153.705375
 30
0.0
  0
VERTEX
  5
73AF
  8
ALPHA
 10
1129.233351
 20
154.174037
 30
0.0
  0
VERTEX
  5
73B0
  8
ALPHA
 10
1128.976394
 20
154.568886
 30
0.0
  0
VERTEX
  5
73B1
  8
ALPHA
 10
1128.753389
 20
154.661436
 30
0.0
  0
VERTEX
  5
73B2
  8
ALPHA
 10
1128.775403
 20
154.687763
 30
0.0
  0
VERTEX
  5
73B3
  8
ALPHA
 10
1129.155248
 20
154.96335
 30
0.0
  0
VERTEX
  5
73B4
  8
ALPHA
 10
1129.21985
 20
155.441759
 30
0.0
  0
VERTEX
  5
73B5
  8
ALPHA
 10
1128.92664
 20
155.807535
 30
0.0
  0
VERTEX
  5
73B6
  8
ALPHA
 10
1128.693345
 20
155.878027
 30
0.0
  0
VERTEX
  5
73B7
  8
ALPHA
 10
1128.832598
 20
155.912218
 30
0.0
  0
VERTEX
  5
73B8
  8
ALPHA
 10
1129.183156
 20
156.223089
 30
0.0
  0
VERTEX
  5
73B9
  8
ALPHA
 10
1129.200841
 20
156.706987
 30
0.0
  0
VERTEX
  5
73BA
  8
ALPHA
 10
1128.873911
 20
157.041878
 30
0.0
  0
VERTEX
  5
73BB
  8
ALPHA
 10
1128.647173
 20
157.089288
 30
0.0
  0
VERTEX
  5
73BC
  8
ALPHA
 10
1128.887356
 20
157.142789
 30
0.0
  0
VERTEX
  5
73BD
  8
ALPHA
 10
1129.206093
 20
157.486099
 30
0.0
  0
VERTEX
  5
73BE
  8
ALPHA
 10
1129.176633
 20
157.969245
 30
0.0
  0
VERTEX
  5
73BF
  8
ALPHA
 10
1128.818516
 20
158.271569
 30
0.0
  0
VERTEX
  5
73C0
  8
ALPHA
 10
1128.708528
 20
158.302671
 30
0.0
  0
VERTEX
  5
73C1
  8
ALPHA
 10
1128.939369
 20
158.378829
 30
0.0
  0
VERTEX
  5
73C2
  8
ALPHA
 10
1129.223753
 20
158.751213
 30
0.0
  0
VERTEX
  5
73C3
  8
ALPHA
 10
1129.147531
 20
159.227307
 30
0.0
  0
VERTEX
  5
73C4
  8
ALPHA
 10
1128.760759
 20
159.493913
 30
0.0
  0
VERTEX
  5
73C5
  8
ALPHA
 10
1128.768097
 20
159.52003
 30
0.0
  0
VERTEX
  5
73C6
  8
ALPHA
 10
1128.988332
 20
159.617624
 30
0.0
  0
VERTEX
  5
73C7
  8
ALPHA
 10
1129.23583
 20
160.018263
 30
0.0
  0
VERTEX
  5
73C8
  8
ALPHA
 10
1129.113843
 20
160.482773
 30
0.0
  0
VERTEX
  5
73C9
  8
ALPHA
 10
1128.70095
 20
160.709924
 30
0.0
  0
VERTEX
  5
73CA
  8
ALPHA
 10
1129.033937
 20
160.86109
 30
0.0
  0
VERTEX
  5
73CB
  8
ALPHA
 10
1129.242015
 20
161.287396
 30
0.0
  0
VERTEX
  5
73CC
  8
ALPHA
 10
1129.075876
 20
161.735579
 30
0.0
  0
VERTEX
  5
73CD
  8
ALPHA
 10
1128.639394
 20
161.923181
 30
0.0
  0
SEQEND
  5
73CE
  8
ALPHA
  0
POLYLINE
  5
6C6B
  8
ALPHA
 66
     1
 10
0.0
 20
0.0
 30
0.0
 70
   128
  0
VERTEX
  5
73CF
  8
ALPHA
 10
1128.639394
 20
161.923181
 30
0.0
  0
VERTEX
  5
73D0
  8
ALPHA
 10
1128.362617
 20
161.893222
 30
0.0
  0
VERTEX
  5
73D1
  8
ALPHA
 10
1127.636374
 20
161.814612
 30
0.0
  0
VERTEX
  5
73D2
  8
ALPHA
 10
1125.460011
 20
161.579039
 30
0.0
  0
VERTEX
  5
73D3
  8
ALPHA
 10
1123.359347
 20
161.351659
 30
0.0
  0
VERTEX
  5
73D4
  8
ALPHA
 10
1122.727728
 20
161.283292
 30
0.0
  0
VERTEX
  5
73D5
  8
ALPHA
 10
1122.534162
 20
161.264918
 30
0.0
  0
VERTEX
  5
73D6
  8
ALPHA
 10
1122.108068
 20
161.056403
 30
0.0
  0
VERTEX
  5
73D7
  8
ALPHA
 10
1121.963641
 20
160.598174
 30
0.0
  0
VERTEX
  5
73D8
  8
ALPHA
 10
1122.473221
 20
160.048627
 30
0.0
  0
VERTEX
  5
73D9
  8
ALPHA
 10
1122.072157
 20
159.802104
 30
0.0
  0
VERTEX
  5
73DA
  8
ALPHA
 10
1121.972813
 20
159.331033
 30
0.0
  0
VERTEX
  5
73DB
  8
ALPHA
 10
1122.239419
 20
158.943871
 30
0.0
  0
VERTEX
  5
73DC
  8
ALPHA
 10
1122.465732
 20
158.856883
 30
0.0
  0
VERTEX
  5
73DD
  8
ALPHA
 10
1122.414208
 20
158.82977
 30
0.0
  0
VERTEX
  5
73DE
  8
ALPHA
 10
1122.040692
 20
158.546097
 30
0.0
  0
VERTEX
  5
73DF
  8
ALPHA
 10
1121.987726
 20
158.06613
 30
0.0
  0
VERTEX
  5
73E0
  8
ALPHA
 10
1122.290058
 20
157.706403
 30
0.0
  0
VERTEX
  5
73E1
  8
ALPHA
 10
1122.526449
 20
157.641149
 30
0.0
  0
VERTEX
  5
73E2
  8
ALPHA
 10
1122.357428
 20
157.603288
 30
0.0
  0
VERTEX
  5
73E3
  8
ALPHA
 10
1122.013976
 20
157.28502
 30
0.0
  0
VERTEX
  5
73E4
  8
ALPHA
 10
1122.008075
 20
156.801781
 30
0.0
  0
VERTEX
  5
73E5
  8
ALPHA
 10
1122.343618
 20
156.473834
 30
0.0
  0
VERTEX
  5
73E6
  8
ALPHA
 10
1122.5419
 20
156.431321
 30
0.0
  0
VERTEX
  5
73E7
  8
ALPHA
 10
1122.303186
 20
156.372315
 30
0.0
  0
VERTEX
  5
73E8
  8
ALPHA
 10
1121.992315
 20
156.0214
 30
0.0
  0
VERTEX
  5
73E9
  8
ALPHA
 10
1122.033556
 20
155.539323
 30
0.0
  0
VERTEX
  5
73EA
  8
ALPHA
 10
1122.399791
 20
155.2459
 30
0.0
  0
VERTEX
  5
73EB
  8
ALPHA
 10
1122.480739
 20
155.217085
 30
0.0
  0
VERTEX
  5
73EC
  8
ALPHA
 10
1122.251788
 20
155.135464
 30
0.0
  0
VERTEX
  5
73ED
  8
ALPHA
 10
1121.976015
 20
154.754481
 30
0.0
  0
VERTEX
  5
73EE
  8
ALPHA
 10
1122.063862
 20
154.280321
 30
0.0
  0
VERTEX
  5
73EF
  8
ALPHA
 10
1122.458275
 20
154.022931
 30
0.0
  0
VERTEX
  5
73F0
  8
ALPHA
 10
1122.203538
 20
153.893288
 30
0.0
  0
VERTEX
  5
73F1
  8
ALPHA
 10
1121.965379
 20
153.486209
 30
0.0
  0
VERTEX
  5
73F2
  8
ALPHA
 10
1122.09869
 20
153.02481
 30
0.0
  0
VERTEX
  5
73F3
  8
ALPHA
 10
1122.518762
 20
152.806402
 30
0.0
  0
VERTEX
  5
73F4
  8
ALPHA
 10
1122.158742
 20
152.647752
 30
0.0
  0
VERTEX
  5
73F5
  8
ALPHA
 10
1121.960714
 20
152.216159
 30
0.0
  0
VERTEX
  5
73F6
  8
ALPHA
 10
1122.137734
 20
151.77362
 30
0.0
  0
VERTEX
  5
73F7
  8
ALPHA
 10
1122.549663
 20
151.596288
 30
0.0
  0
VERTEX
  5
73F8
  8
ALPHA
 10
1122.117704
 20
151.39836
 30
0.0
  0
VERTEX
  5
73F9
  8
ALPHA
 10
1121.962281
 20
150.945916
 30
0.0
  0
VERTEX
  5
73FA
  8
ALPHA
 10
1122.18069
 20
150.526236
 30
0.0
  0
VERTEX
  5
73FB
  8
ALPHA
 10
1122.488287
 20
150.383471
 30
0.0
  0
VERTEX
  5
73FC
  8
ALPHA
 10
1122.08073
 20
150.145591
 30
0.0
  0
VERTEX
  5
73FD
  8
ALPHA
 10
1121.96997
 20
149.677984
 30
0.0
  0
VERTEX
  5
73FE
  8
ALPHA
 10
1122.227251
 20
149.28444
 30
0.0
  0
VERTEX
  5
73FF
  8
ALPHA
 10
1122.450848
 20
149.192296
 30
0.0
  0
VERTEX
  5
7400
  8
ALPHA
 10
1122.428763
 20
149.166018
 30
0.0
  0
VERTEX
  5
7401
  8
ALPHA
 10
1122.048125
 20
148.890245
 30
0.0
  0
VERTEX
  5
7402
  8
ALPHA
 10
1121.983476
 20
148.411409
 30
0.0
  0
VERTEX
  5
7403
  8
ALPHA
 10
1122.277113
 20
148.046094
 30
0.0
  0
VERTEX
  5
7404
  8
ALPHA
 10
1122.511102
 20
147.975751
 30
0.0
  0
VERTEX
  5
7405
  8
ALPHA
 10
1122.371397
 20
147.941709
 30
0.0
  0
VERTEX
  5
7406
  8
ALPHA
 10
1122.020193
 20
147.631773
 30
0.0
  0
VERTEX
  5
7407
  8
ALPHA
 10
1122.002495
 20
147.148314
 30
0.0
  0
VERTEX
  5
7408
  8
ALPHA
 10
1122.329971
 20
146.812771
 30
0.0
  0
VERTEX
  5
7409
  8
ALPHA
 10
1122.557449
 20
146.765164
 30
0.0
  0
VERTEX
  5
740A
  8
ALPHA
 10
1122.316492
 20
146.711986
 30
0.0
  0
VERTEX
  5
740B
  8
ALPHA
 10
1121.99724
 20
146.369473
 30
0.0
  0
VERTEX
  5
740C
  8
ALPHA
 10
1122.026721
 20
145.887474
 30
0.0
  0
VERTEX
  5
740D
  8
ALPHA
 10
1122.385519
 20
145.585596
 30
0.0
  0
VERTEX
  5
740E
  8
ALPHA
 10
1122.495864
 20
145.554449
 30
0.0
  0
VERTEX
  5
740F
  8
ALPHA
 10
1122.264354
 20
145.478221
 30
0.0
  0
VERTEX
  5
7410
  8
ALPHA
 10
1121.979571
 20
145.104705
 30
0.0
  0
VERTEX
  5
7411
  8
ALPHA
 10
1122.05585
 20
144.629188
 30
0.0
  0
VERTEX
  5
7412
  8
ALPHA
 10
1122.443454
 20
144.363815
 30
0.0
  0
VERTEX
  5
7413
  8
ALPHA
 10
1122.436092
 20
144.337726
 30
0.0
  0
VERTEX
  5
7414
  8
ALPHA
 10
1122.215289
 20
144.239938
 30
0.0
  0
VERTEX
  5
7415
  8
ALPHA
 10
1121.96749
 20
143.838875
 30
0.0
  0
VERTEX
  5
7416
  8
ALPHA
 10
1122.089576
 20
143.374092
 30
0.0
  0
VERTEX
  5
7417
  8
ALPHA
 10
1122.503469
 20
143.146537
 30
0.0
  0
VERTEX
  5
7418
  8
ALPHA
 10
1122.169601
 20
142.995876
 30
0.0
  0
VERTEX
  5
7419
  8
ALPHA
 10
1121.961304
 20
142.569782
 30
0.0
  0
VERTEX
  5
741A
  8
ALPHA
 10
1122.127595
 20
142.122178
 30
0.0
  0
VERTEX
  5
741B
  8
ALPHA
 10
1122.56526
 20
141.935275
 30
0.0
  0
SEQEND
  5
741C
  8
ALPHA
  0
POLYLINE
  5
6C6C
  8
ALPHA
 66
     1
 10
0.0
 20
0.0
 30
0.0
 70
   128
  0
VERTEX
  5
741D
  8
ALPHA
 10
1122.56526
 20
141.935275
 30
0.0
  0
VERTEX
  5
741E
  8
ALPHA
 10
1122.841976
 20
141.965203
 30
0.0
  0
VERTEX
  5
741F
  8
ALPHA
 10
1123.568059
 20
142.043733
 30
0.0
  0
VERTEX
  5
7420
  8
ALPHA
 10
1125.743944
 20
142.279068
 30
0.0
  0
VERTEX
  5
7421
  8
ALPHA
 10
1127.844147
 20
142.506216
 30
0.0
  0
VERTEX
  5
7422
  8
ALPHA
 10
1128.475626
 20
142.574515
 30
0.0
  0
VERTEX
  5
7423
  8
ALPHA
 10
1128.669157
 20
142.59287
 30
0.0
  0
VERTEX
  5
7424
  8
ALPHA
 10
1129.095251
 20
142.800948
 30
0.0
  0
VERTEX
  5
7425
  8
ALPHA
 10
1129.239678
 20
143.257282
 30
0.0
  0
VERTEX
  5
7426
  8
ALPHA
 10
1128.730098
 20
143.807175
 30
0.0
  0
VERTEX
  5
7427
  8
ALPHA
 10
1129.131162
 20
144.054124
 30
0.0
  0
VERTEX
  5
7428
  8
ALPHA
 10
1129.230509
 20
144.525392
 30
0.0
  0
VERTEX
  5
7429
  8
ALPHA
 10
1128.964251
 20
144.912111
 30
0.0
  0
VERTEX
  5
742A
  8
ALPHA
 10
1128.738555
 20
144.998922
 30
0.0
  0
VERTEX
  5
742B
  8
ALPHA
 10
1128.789913
 20
145.026106
 30
0.0
  0
VERTEX
  5
742C
  8
ALPHA
 10
1129.162674
 20
145.310889
 30
0.0
  0
VERTEX
  5
742D
  8
ALPHA
 10
1129.215602
 20
145.791412
 30
0.0
  0
VERTEX
  5
742E
  8
ALPHA
 10
1128.913725
 20
146.149282
 30
0.0
  0
VERTEX
  5
742F
  8
ALPHA
 10
1128.678055
 20
146.213981
 30
0.0
  0
VERTEX
  5
7430
  8
ALPHA
 10
1128.846528
 20
146.251763
 30
0.0
  0
VERTEX
  5
7431
  8
ALPHA
 10
1129.189368
 20
146.570076
 30
0.0
  0
VERTEX
  5
7432
  8
ALPHA
 10
1129.195265
 20
147.053901
 30
0.0
  0
VERTEX
  5
7433
  8
ALPHA
 10
1128.860301
 20
147.381377
 30
0.0
  0
VERTEX
  5
7434
  8
ALPHA
 10
1128.662663
 20
147.423797
 30
0.0
  0
VERTEX
  5
7435
  8
ALPHA
 10
1128.900628
 20
147.482745
 30
0.0
  0
VERTEX
  5
7436
  8
ALPHA
 10
1129.211015
 20
147.832368
 30
0.0
  0
VERTEX
  5
7437
  8
ALPHA
 10
1129.169804
 20
148.314477
 30
0.0
  0
VERTEX
  5
7438
  8
ALPHA
 10
1128.804286
 20
148.608541
 30
0.0
  0
VERTEX
  5
7439
  8
ALPHA
 10
1128.723599
 20
148.637352
 30
0.0
  0
VERTEX
  5
743A
  8
ALPHA
 10
1128.951908
 20
148.718805
 30
0.0
  0
VERTEX
  5
743B
  8
ALPHA
 10
1129.227308
 20
149.099338
 30
0.0
  0
VERTEX
  5
743C
  8
ALPHA
 10
1129.139527
 20
149.572242
 30
0.0
  0
VERTEX
  5
743D
  8
ALPHA
 10
1128.745987
 20
149.828874
 30
0.0
  0
VERTEX
  5
743E
  8
ALPHA
 10
1129.00006
 20
149.958011
 30
0.0
  0
VERTEX
  5
743F
  8
ALPHA
 10
1129.23794
 20
150.36426
 30
0.0
  0
VERTEX
  5
7440
  8
ALPHA
 10
1129.10474
 20
150.825636
 30
0.0
  0
VERTEX
  5
7441
  8
ALPHA
 10
1128.685713
 20
151.044044
 30
0.0
  0
VERTEX
  5
7442
  8
ALPHA
 10
1129.044777
 20
151.202694
 30
0.0
  0
VERTEX
  5
7443
  8
ALPHA
 10
1129.242605
 20
151.634288
 30
0.0
  0
VERTEX
  5
7444
  8
ALPHA
 10
1129.065751
 20
152.077076
 30
0.0
  0
VERTEX
  5
7445
  8
ALPHA
 10
1128.65493
 20
152.254157
 30
0.0
  0
VERTEX
  5
7446
  8
ALPHA
 10
1129.085752
 20
152.451291
 30
0.0
  0
VERTEX
  5
7447
  8
ALPHA
 10
1129.241038
 20
152.904534
 30
0.0
  0
VERTEX
  5
7448
  8
ALPHA
 10
1129.022867
 20
153.324606
 30
0.0
  0
VERTEX
  5
7449
  8
ALPHA
 10
1128.716078
 20
153.467631
 30
0.0
  0
VERTEX
  5
744A
  8
ALPHA
 10
1129.122678
 20
153.705375
 30
0.0
  0
VERTEX
  5
744B
  8
ALPHA
 10
1129.233351
 20
154.174037
 30
0.0
  0
VERTEX
  5
744C
  8
ALPHA
 10
1128.976394
 20
154.568886
 30
0.0
  0
VERTEX
  5
744D
  8
ALPHA
 10
1128.753389
 20
154.661436
 30
0.0
  0
VERTEX
  5
744E
  8
ALPHA
 10
1128.775403
 20
154.687763
 30
0.0
  0
VERTEX
  5
744F
  8
ALPHA
 10
1129.155248
 20
154.96335
 30
0.0
  0
VERTEX
  5
7450
  8
ALPHA
 10
1129.21985
 20
155.441759
 30
0.0
  0
VERTEX
  5
7451
  8
ALPHA
 10
1128.92664
 20
155.807535
 30
0.0
  0
VERTEX
  5
7452
  8
ALPHA
 10
1128.693345
 20
155.878027
 30
0.0
  0
VERTEX
  5
7453
  8
ALPHA
 10
1128.832598
 20
155.912218
 30
0.0
  0
VERTEX
  5
7454
  8
ALPHA
 10
1129.183156
 20
156.223089
 30
0.0
  0
VERTEX
  5
7455
  8
ALPHA
 10
1129.200841
 20
156.706987
 30
0.0
  0
VERTEX
  5
7456
  8
ALPHA
 10
1128.873911
 20
157.041878
 30
0.0
  0
VERTEX
  5
7457
  8
ALPHA
 10
1128.647173
 20
157.089288
 30
0.0
  0
VERTEX
  5
7458
  8
ALPHA
 10
1128.887356
 20
157.142789
 30
0.0
  0
VERTEX
  5
7459
  8
ALPHA
 10
1129.206093
 20
157.486099
 30
0.0
  0
VERTEX
  5
745A
  8
ALPHA
 10
1129.176633
 20
157.969245
 30
0.0
  0
VERTEX
  5
745B
  8
ALPHA
 10
1128.818516
 20
158.271569
 30
0.0
  0
VERTEX
  5
745C
  8
ALPHA
 10
1128.708528
 20
158.302671
 30
0.0
  0
VERTEX
  5
745D
  8
ALPHA
 10
1128.939369
 20
158.378829
 30
0.0
  0
VERTEX
  5
745E
  8
ALPHA
 10
1129.223753
 20
158.751213
 30
0.0
  0
VERTEX
  5
745F
  8
ALPHA
 10
1129.147531
 20
159.227307
 30
0.0
  0
VERTEX
  5
7460
  8
ALPHA
 10
1128.760759
 20
159.493913
 30
0.0
  0
VERTEX
  5
7461
  8
ALPHA
 10
1128.768097
 20
159.52003
 30
0.0
  0
VERTEX
  5
7462
  8
ALPHA
 10
1128.988332
 20
159.617624
 30
0.0
  0
VERTEX
  5
7463
  8
ALPHA
 10
1129.23583
 20
160.018263
 30
0.0
  0
VERTEX
  5
7464
  8
ALPHA
 10
1129.113843
 20
160.482773
 30
0.0
  0
VERTEX
  5
7465
  8
ALPHA
 10
1128.70095
 20
160.709924
 30
0.0
  0
VERTEX
  5
7466
  8
ALPHA
 10
1129.033937
 20
160.86109
 30
0.0
  0
VERTEX
  5
7467
  8
ALPHA
 10
1129.242015
 20
161.287396
 30
0.0
  0
VERTEX
  5
7468
  8
ALPHA
 10
1129.075876
 20
161.735579
 30
0.0
  0
VERTEX
  5
7469
  8
ALPHA
 10
1128.639394
 20
161.923181
 30
0.0
  0
SEQEND
  5
746A
  8
ALPHA
  0
POLYLINE
  5
6C6D
  8
ALPHA
 66
     1
 10
0.0
 20
0.0
 30
0.0
 70
   128
  0
VERTEX
  5
746B
  8
ALPHA
 10
1128.639394
 20
161.923181
 30
0.0
  0
VERTEX
  5
746C
  8
ALPHA
 10
1128.362617
 20
161.893222
 30
0.0
  0
VERTEX
  5
746D
  8
ALPHA
 10
1127.636374
 20
161.814612
 30
0.0
  0
VERTEX
  5
746E
  8
ALPHA
 10
1125.460011
 20
161.579039
 30
0.0
  0
VERTEX
  5
746F
  8
ALPHA
 10
1123.359347
 20
161.351659
 30
0.0
  0
VERTEX
  5
7470
  8
ALPHA
 10
1122.727728
 20
161.283292
 30
0.0
  0
VERTEX
  5
7471
  8
ALPHA
 10
1122.534162
 20
161.264918
 30
0.0
  0
VERTEX
  5
7472
  8
ALPHA
 10
1122.108068
 20
161.056403
 30
0.0
  0
VERTEX
  5
7473
  8
ALPHA
 10
1121.963641
 20
160.598174
 30
0.0
  0
VERTEX
  5
7474
  8
ALPHA
 10
1122.473221
 20
160.048627
 30
0.0
  0
VERTEX
  5
7475
  8
ALPHA
 10
1122.072157
 20
159.802104
 30
0.0
  0
VERTEX
  5
7476
  8
ALPHA
 10
1121.972813
 20
159.331033
 30
0.0
  0
VERTEX
  5
7477
  8
ALPHA
 10
1122.239419
 20
158.943871
 30
0.0
  0
VERTEX
  5
7478
  8
ALPHA
 10
1122.465732
 20
158.856883
 30
0.0
  0
VERTEX
  5
7479
  8
ALPHA
 10
1122.414208
 20
158.82977
 30
0.0
  0
VERTEX
  5
747A
  8
ALPHA
 10
1122.040692
 20
158.546097
 30
0.0
  0
VERTEX
  5
747B
  8
ALPHA
 10
1121.987726
 20
158.06613
 30
0.0
  0
VERTEX
  5
747C
  8
ALPHA
 10
1122.290058
 20
157.706403
 30
0.0
  0
VERTEX
  5
747D
  8
ALPHA
 10
1122.526449
 20
157.641149
 30
0.0
  0
VERTEX
  5
747E
  8
ALPHA
 10
1122.357428
 20
157.603288
 30
0.0
  0
VERTEX
  5
747F
  8
ALPHA
 10
1122.013976
 20
157.28502
 30
0.0
  0
VERTEX
  5
7480
  8
ALPHA
 10
1122.008075
 20
156.801781
 30
0.0
  0
VERTEX
  5
7481
  8
ALPHA
 10
1122.343618
 20
156.473834
 30
0.0
  0
VERTEX
  5
7482
  8
ALPHA
 10
1122.5419
 20
156.431321
 30
0.0
  0
VERTEX
  5
7483
  8
ALPHA
 10
1122.303186
 20
156.372315
 30
0.0
  0
VERTEX
  5
7484
  8
ALPHA
 10
1121.992315
 20
156.0214
 30
0.0
  0
VERTEX
  5
7485
  8
ALPHA
 10
1122.033556
 20
155.539323
 30
0.0
  0
VERTEX
  5
7486
  8
ALPHA
 10
1122.399791
 20
155.2459
 30
0.0
  0
VERTEX
  5
7487
  8
ALPHA
 10
1122.480739
 20
155.217085
 30
0.0
  0
VERTEX
  5
7488
  8
ALPHA
 10
1122.251788
 20
155.135464
 30
0.0
  0
VERTEX
  5
7489
  8
ALPHA
 10
1121.976015
 20
154.754481
 30
0.0
  0
VERTEX
  5
748A
  8
ALPHA
 10
1122.063862
 20
154.280321
 30
0.0
  0
VERTEX
  5
748B
  8
ALPHA
 10
1122.458275
 20
154.022931
 30
0.0
  0
VERTEX
  5
748C
  8
ALPHA
 10
1122.203538
 20
153.893288
 30
0.0
  0
VERTEX
  5
748D
  8
ALPHA
 10
1121.965379
 20
153.486209
 30
0.0
  0
VERTEX
  5
748E
  8
ALPHA
 10
1122.09869
 20
153.02481
 30
0.0
  0
VERTEX
  5
748F
  8
ALPHA
 10
1122.518762
 20
152.806402
 30
0.0
  0
VERTEX
  5
7490
  8
ALPHA
 10
1122.158742
 20
152.647752
 30
0.0
  0
VERTEX
  5
7491
  8
ALPHA
 10
1121.960714
 20
152.216159
 30
0.0
  0
VERTEX
  5
7492
  8
ALPHA
 10
1122.137734
 20
151.77362
 30
0.0
  0
VERTEX
  5
7493
  8
ALPHA
 10
1122.549663
 20
151.596288
 30
0.0
  0
VERTEX
  5
7494
  8
ALPHA
 10
1122.117704
 20
151.39836
 30
0.0
  0
VERTEX
  5
7495
  8
ALPHA
 10
1121.962281
 20
150.945916
 30
0.0
  0
VERTEX
  5
7496
  8
ALPHA
 10
1122.18069
 20
150.526236
 30
0.0
  0
VERTEX
  5
7497
  8
ALPHA
 10
1122.488287
 20
150.383471
 30
0.0
  0
VERTEX
  5
7498
  8
ALPHA
 10
1122.08073
 20
150.145591
 30
0.0
  0
VERTEX
  5
7499
  8
ALPHA
 10
1121.96997
 20
149.677984
 30
0.0
  0
VERTEX
  5
749A
  8
ALPHA
 10
1122.227251
 20
149.28444
 30
0.0
  0
VERTEX
  5
749B
  8
ALPHA
 10
1122.450848
 20
149.192296
 30
0.0
  0
VERTEX
  5
749C
  8
ALPHA
 10
1122.428763
 20
149.166018
 30
0.0
  0
VERTEX
  5
749D
  8
ALPHA
 10
1122.048125
 20
148.890245
 30
0.0
  0
VERTEX
  5
749E
  8
ALPHA
 10
1121.983476
 20
148.411409
 30
0.0
  0
VERTEX
  5
749F
  8
ALPHA
 10
1122.277113
 20
148.046094
 30
0.0
  0
VERTEX
  5
74A0
  8
ALPHA
 10
1122.511102
 20
147.975751
 30
0.0
  0
VERTEX
  5
74A1
  8
ALPHA
 10
1122.371397
 20
147.941709
 30
0.0
  0
VERTEX
  5
74A2
  8
ALPHA
 10
1122.020193
 20
147.631773
 30
0.0
  0
VERTEX
  5
74A3
  8
ALPHA
 10
1122.002495
 20
147.148314
 30
0.0
  0
VERTEX
  5
74A4
  8
ALPHA
 10
1122.329971
 20
146.812771
 30
0.0
  0
VERTEX
  5
74A5
  8
ALPHA
 10
1122.557449
 20
146.765164
 30
0.0
  0
VERTEX
  5
74A6
  8
ALPHA
 10
1122.316492
 20
146.711986
 30
0.0
  0
VERTEX
  5
74A7
  8
ALPHA
 10
1121.99724
 20
146.369473
 30
0.0
  0
VERTEX
  5
74A8
  8
ALPHA
 10
1122.026721
 20
145.887474
 30
0.0
  0
VERTEX
  5
74A9
  8
ALPHA
 10
1122.385519
 20
145.585596
 30
0.0
  0
VERTEX
  5
74AA
  8
ALPHA
 10
1122.495864
 20
145.554449
 30
0.0
  0
VERTEX
  5
74AB
  8
ALPHA
 10
1122.264354
 20
145.478221
 30
0.0
  0
VERTEX
  5
74AC
  8
ALPHA
 10
1121.979571
 20
145.104705
 30
0.0
  0
VERTEX
  5
74AD
  8
ALPHA
 10
1122.05585
 20
144.629188
 30
0.0
  0
VERTEX
  5
74AE
  8
ALPHA
 10
1122.443454
 20
144.363815
 30
0.0
  0
VERTEX
  5
74AF
  8
ALPHA
 10
1122.436092
 20
144.337726
 30
0.0
  0
VERTEX
  5
74B0
  8
ALPHA
 10
1122.215289
 20
144.239938
 30
0.0
  0
VERTEX
  5
74B1
  8
ALPHA
 10
1121.96749
 20
143.838875
 30
0.0
  0
VERTEX
  5
74B2
  8
ALPHA
 10
1122.089576
 20
143.374092
 30
0.0
  0
VERTEX
  5
74B3
  8
ALPHA
 10
1122.503469
 20
143.146537
 30
0.0
  0
VERTEX
  5
74B4
  8
ALPHA
 10
1122.169601
 20
142.995876
 30
0.0
  0
VERTEX
  5
74B5
  8
ALPHA
 10
1121.961304
 20
142.569782
 30
0.0
  0
VERTEX
  5
74B6
  8
ALPHA
 10
1122.127595
 20
142.122178
 30
0.0
  0
VERTEX
  5
74B7
  8
ALPHA
 10
1122.56526
 20
141.935275
 30
0.0
  0
SEQEND
  5
74B8
  8
ALPHA
  0
POLYLINE
  5
6C6E
  8
ALPHA
 66
     1
 10
0.0
 20
0.0
 30
0.0
 70
   128
210
0.0
220
0.0
230
-1.0
  0
VERTEX
  5
74B9
  8
ALPHA
 10
-1119.362705
 20
120.795538
 30
0.0
  0
VERTEX
  5
74BA
  8
ALPHA
 10
-1119.00699
 20
120.942664
 30
0.0
  0
VERTEX
  5
74BB
  8
ALPHA
 10
-1118.859865
 20
121.298379
 30
0.0
  0
VERTEX
  5
74BC
  8
ALPHA
 10
-1119.00699
 20
121.65465
 30
0.0
  0
VERTEX
  5
74BD
  8
ALPHA
 10
-1119.362705
 20
121.802332
 30
0.0
  0
SEQEND
  5
74BE
  8
ALPHA
  0
POLYLINE
  5
6C6F
  8
ALPHA
 66
     1
 10
0.0
 20
0.0
 30
0.0
 70
   128
  0
VERTEX
  5
74BF
  8
ALPHA
 10
1125.600991
 20
120.795538
 30
0.0
  0
VERTEX
  5
74C0
  8
ALPHA
 10
1123.308506
 20
120.795538
 30
0.0
  0
VERTEX
  5
74C1
  8
ALPHA
 10
1121.310512
 20
120.795538
 30
0.0
  0
VERTEX
  5
74C2
  8
ALPHA
 10
1119.898186
 20
120.795538
 30
0.0
  0
VERTEX
  5
74C3
  8
ALPHA
 10
1119.362705
 20
120.795538
 30
0.0
  0
SEQEND
  5
74C4
  8
ALPHA
  0
POLYLINE
  5
6C70
  8
ALPHA
 66
     1
 10
0.0
 20
0.0
 30
0.0
 70
   128
  0
VERTEX
  5
74C5
  8
ALPHA
 10
1119.362705
 20
121.802332
 30
0.0
  0
VERTEX
  5
74C6
  8
ALPHA
 10
1119.898186
 20
121.802332
 30
0.0
  0
VERTEX
  5
74C7
  8
ALPHA
 10
1121.310512
 20
121.802332
 30
0.0
  0
VERTEX
  5
74C8
  8
ALPHA
 10
1123.308506
 20
121.802332
 30
0.0
  0
VERTEX
  5
74C9
  8
ALPHA
 10
1125.600991
 20
121.802332
 30
0.0
  0
SEQEND
  5
74CA
  8
ALPHA
  0
POLYLINE
  5
6C71
  8
ALPHA
 66
     1
 10
0.0
 20
0.0
 30
0.0
 70
   128
  0
VERTEX
  5
74CB
  8
ALPHA
 10
1131.839278
 20
121.802332
 30
0.0
  0
VERTEX
  5
74CC
  8
ALPHA
 10
1131.303796
 20
121.802332
 30
0.0
  0
VERTEX
  5
74CD
  8
ALPHA
 10
1129.891471
 20
121.802332
 30
0.0
  0
VERTEX
  5
74CE
  8
ALPHA
 10
1127.893477
 20
121.802332
 30
0.0
  0
VERTEX
  5
74CF
  8
ALPHA
 10
1125.600991
 20
121.802332
 30
0.0
  0
SEQEND
  5
74D0
  8
ALPHA
  0
POLYLINE
  5
6C72
  8
ALPHA
 66
     1
 10
0.0
 20
0.0
 30
0.0
 70
   128
  0
VERTEX
  5
74D1
  8
ALPHA
 10
1125.600991
 20
120.795538
 30
0.0
  0
VERTEX
  5
74D2
  8
ALPHA
 10
1127.893477
 20
120.795538
 30
0.0
  0
VERTEX
  5
74D3
  8
ALPHA
 10
1129.891471
 20
120.795538
 30
0.0
  0
VERTEX
  5
74D4
  8
ALPHA
 10
1131.303796
 20
120.795538
 30
0.0
  0
VERTEX
  5
74D5
  8
ALPHA
 10
1131.839278
 20
120.795538
 30
0.0
  0
SEQEND
  5
74D6
  8
ALPHA
  0
POLYLINE
  5
6C73
  8
ALPHA
 66
     1
 10
0.0
 20
0.0
 30
0.0
 70
   128
  0
VERTEX
  5
74D7
  8
ALPHA
 10
1131.839278
 20
120.795538
 30
0.0
  0
VERTEX
  5
74D8
  8
ALPHA
 10
1132.194993
 20
120.942664
 30
0.0
  0
VERTEX
  5
74D9
  8
ALPHA
 10
1132.342118
 20
121.298379
 30
0.0
  0
VERTEX
  5
74DA
  8
ALPHA
 10
1132.194993
 20
121.65465
 30
0.0
  0
VERTEX
  5
74DB
  8
ALPHA
 10
1131.839278
 20
121.802332
 30
0.0
  0
SEQEND
  5
74DC
  8
ALPHA
  0
POLYLINE
  5
6C74
  8
ALPHA
 66
     1
 10
0.0
 20
0.0
 30
0.0
 70
   128
  0
VERTEX
  5
74DD
  8
ALPHA
 10
1129.107153
 20
137.554042
 30
0.0
  0
VERTEX
  5
74DE
  8
ALPHA
 10
1128.932836
 20
137.554042
 30
0.0
  0
VERTEX
  5
74DF
  8
ALPHA
 10
1128.456369
 20
137.554042
 30
0.0
  0
VERTEX
  5
74E0
  8
ALPHA
 10
1126.875895
 20
137.554042
 30
0.0
  0
VERTEX
  5
74E1
  8
ALPHA
 10
1123.15713
 20
137.554042
 30
0.0
  0
VERTEX
  5
74E2
  8
ALPHA
 10
1122.13447
 20
137.554042
 30
0.0
  0
VERTEX
  5
74E3
  8
ALPHA
 10
1121.893554
 20
137.441144
 30
0.0
  0
VERTEX
  5
74E4
  8
ALPHA
 10
1121.426839
 20
137.071272
 30
0.0
  0
VERTEX
  5
74E5
  8
ALPHA
 10
1119.904482
 20
135.191879
 30
0.0
  0
VERTEX
  5
74E6
  8
ALPHA
 10
1119.11636
 20
132.855673
 30
0.0
  0
VERTEX
  5
74E7
  8
ALPHA
 10
1119.062654
 20
132.228845
 30
0.0
  0
VERTEX
  5
74E8
  8
ALPHA
 10
1119.059648
 20
131.92435
 30
0.0
  0
VERTEX
  5
74E9
  8
ALPHA
 10
1119.069331
 20
131.646413
 30
0.0
  0
VERTEX
  5
74EA
  8
ALPHA
 10
1119.219689
 20
130.566439
 30
0.0
  0
SEQEND
  5
74EB
  8
ALPHA
  0
POLYLINE
  5
6C75
  8
ALPHA
 66
     1
 10
0.0
 20
0.0
 30
0.0
 70
   128
  0
VERTEX
  5
74EC
  8
ALPHA
 10
1129.107153
 20
137.554042
 30
0.0
  0
VERTEX
  5
74ED
  8
ALPHA
 10
1128.932836
 20
137.554042
 30
0.0
  0
VERTEX
  5
74EE
  8
ALPHA
 10
1128.456369
 20
137.554042
 30
0.0
  0
VERTEX
  5
74EF
  8
ALPHA
 10
1126.875895
 20
137.554042
 30
0.0
  0
VERTEX
  5
74F0
  8
ALPHA
 10
1123.15713
 20
137.554042
 30
0.0
  0
VERTEX
  5
74F1
  8
ALPHA
 10
1122.13447
 20
137.554042
 30
0.0
  0
VERTEX
  5
74F2
  8
ALPHA
 10
1121.893554
 20
137.441144
 30
0.0
  0
VERTEX
  5
74F3
  8
ALPHA
 10
1121.426839
 20
137.071272
 30
0.0
  0
VERTEX
  5
74F4
  8
ALPHA
 10
1119.904482
 20
135.191879
 30
0.0
  0
VERTEX
  5
74F5
  8
ALPHA
 10
1119.11636
 20
132.855673
 30
0.0
  0
VERTEX
  5
74F6
  8
ALPHA
 10
1119.062654
 20
132.228845
 30
0.0
  0
VERTEX
  5
74F7
  8
ALPHA
 10
1119.059648
 20
131.92435
 30
0.0
  0
VERTEX
  5
74F8
  8
ALPHA
 10
1119.069331
 20
131.646413
 30
0.0
  0
VERTEX
  5
74F9
  8
ALPHA
 10
1119.219689
 20
130.566439
 30
0.0
  0
SEQEND
  5
74FA
  8
ALPHA
  0
POLYLINE
  5
6C76
  8
ALPHA
 66
     1
 10
0.0
 20
0.0
 30
0.0
 70
   128
  0
VERTEX
  5
74FB
  8
ALPHA
 10
1129.605297
 20
124.047314
 30
0.0
  0
VERTEX
  5
74FC
  8
ALPHA
 10
1129.663993
 20
124.208431
 30
0.0
  0
VERTEX
  5
74FD
  8
ALPHA
 10
1129.82443
 20
124.648818
 30
0.0
  0
VERTEX
  5
74FE
  8
ALPHA
 10
1130.356611
 20
126.109615
 30
0.0
  0
VERTEX
  5
74FF
  8
ALPHA
 10
1131.608801
 20
129.546783
 30
0.0
  0
VERTEX
  5
7500
  8
ALPHA
 10
1131.953154
 20
130.492004
 30
0.0
  0
VERTEX
  5
7501
  8
ALPHA
 10
1132.017654
 20
130.740923
 30
0.0
  0
VERTEX
  5
7502
  8
ALPHA
 10
1132.101112
 20
131.278889
 30
0.0
  0
VERTEX
  5
7503
  8
ALPHA
 10
1132.139201
 20
131.830935
 30
0.0
  0
VERTEX
  5
7504
  8
ALPHA
 10
1132.141589
 20
131.970826
 30
0.0
  0
VERTEX
  5
7505
  8
ALPHA
 10
1132.127835
 20
132.451225
 30
0.0
  0
VERTEX
  5
7506
  8
ALPHA
 10
1131.925722
 20
133.703127
 30
0.0
  0
VERTEX
  5
7507
  8
ALPHA
 10
1130.873974
 20
135.907443
 30
0.0
  0
VERTEX
  5
7508
  8
ALPHA
 10
1129.107153
 20
137.554042
 30
0.0
  0
SEQEND
  5
7509
  8
ALPHA
  0
POLYLINE
  5
6C77
  8
ALPHA
 66
     1
 10
0.0
 20
0.0
 30
0.0
 70
   128
  0
VERTEX
  5
750A
  8
ALPHA
 10
1129.605297
 20
124.047314
 30
0.0
  0
VERTEX
  5
750B
  8
ALPHA
 10
1129.663993
 20
124.208431
 30
0.0
  0
VERTEX
  5
750C
  8
ALPHA
 10
1129.82443
 20
124.648818
 30
0.0
  0
VERTEX
  5
750D
  8
ALPHA
 10
1130.356611
 20
126.109615
 30
0.0
  0
VERTEX
  5
750E
  8
ALPHA
 10
1131.608801
 20
129.546783
 30
0.0
  0
VERTEX
  5
750F
  8
ALPHA
 10
1131.953154
 20
130.492004
 30
0.0
  0
VERTEX
  5
7510
  8
ALPHA
 10
1132.017654
 20
130.740923
 30
0.0
  0
VERTEX
  5
7511
  8
ALPHA
 10
1132.101112
 20
131.278889
 30
0.0
  0
VERTEX
  5
7512
  8
ALPHA
 10
1132.139201
 20
131.830935
 30
0.0
  0
VERTEX
  5
7513
  8
ALPHA
 10
1132.141589
 20
131.970826
 30
0.0
  0
VERTEX
  5
7514
  8
ALPHA
 10
1132.127835
 20
132.451225
 30
0.0
  0
VERTEX
  5
7515
  8
ALPHA
 10
1131.925722
 20
133.703127
 30
0.0
  0
VERTEX
  5
7516
  8
ALPHA
 10
1130.873974
 20
135.907443
 30
0.0
  0
VERTEX
  5
7517
  8
ALPHA
 10
1129.107153
 20
137.554042
 30
0.0
  0
SEQEND
  5
7518
  8
ALPHA
  0
POLYLINE
  5
6C78
  8
ALPHA
 66
     1
 10
0.0
 20
0.0
 30
0.0
 70
   128
  0
VERTEX
  5
7519
  8
ALPHA
 10
1119.219689
 20
130.566439
 30
0.0
  0
VERTEX
  5
751A
  8
ALPHA
 10
1119.321826
 20
130.286321
 30
0.0
  0
VERTEX
  5
751B
  8
ALPHA
 10
1119.591095
 20
129.547826
 30
0.0
  0
VERTEX
  5
751C
  8
ALPHA
 10
1120.408187
 20
127.306876
 30
0.0
  0
VERTEX
  5
751D
  8
ALPHA
 10
1121.22528
 20
125.065927
 30
0.0
  0
VERTEX
  5
751E
  8
ALPHA
 10
1121.494549
 20
124.327432
 30
0.0
  0
VERTEX
  5
751F
  8
ALPHA
 10
1121.596686
 20
124.047314
 30
0.0
  0
SEQEND
  5
7520
  8
ALPHA
  0
POLYLINE
  5
6C79
  8
ALPHA
 66
     1
 10
0.0
 20
0.0
 30
0.0
 70
   128
  0
VERTEX
  5
7521
  8
ALPHA
 10
1119.219689
 20
130.566439
 30
0.0
  0
VERTEX
  5
7522
  8
ALPHA
 10
1119.321826
 20
130.286321
 30
0.0
  0
VERTEX
  5
7523
  8
ALPHA
 10
1119.591095
 20
129.547826
 30
0.0
  0
VERTEX
  5
7524
  8
ALPHA
 10
1120.408187
 20
127.306876
 30
0.0
  0
VERTEX
  5
7525
  8
ALPHA
 10
1121.22528
 20
125.065927
 30
0.0
  0
VERTEX
  5
7526
  8
ALPHA
 10
1121.494549
 20
124.327432
 30
0.0
  0
VERTEX
  5
7527
  8
ALPHA
 10
1121.596686
 20
124.047314
 30
0.0
  0
SEQEND
  5
7528
  8
ALPHA
  0
LINE
  5
6C7A
  8
AXE
 10
1125.600991
 20
166.851068
 30
0.0
 11
1125.600991
 21
33.728457
 31
0.0
  0
LINE
  5
6C7C
  8
ALPHA
 10
1122.941727
 20
250.574937
 30
0.0
 11
1122.941725
 21
175.350634
 31
0.0
  0
LINE
  5
6C7D
  8
ALPHA
 10
1121.742918
 20
174.873934
 30
0.0
 11
1121.742918
 21
250.728457
 31
0.0
  0
LINE
  5
6C7E
  8
ALPHA
 10
1122.941727
 20
250.574937
 30
0.0
 11
1122.941727
 21
177.525027
 31
0.0
  0
LINE
  5
6C7F
  8
ALPHA
 10
1121.742918
 20
177.048441
 30
0.0
 11
1121.742918
 21
250.728457
 31
0.0
  0
DIMENSION
  5
6C80
  8
COTATION1
  2
*D4
 10
1138.100991
 20
270.728457
 30
0.0
 11
1131.850991
 21
273.978457
 31
0.0
 13
1125.600991
 23
166.851068
 33
0.0
 14
1138.100991
 24
118.728457
 34
0.0
  0
LINE
  5
6C85
  8
ALPHA
 10
1119.360479
 20
120.821124
 30
0.0
 11
1119.360479
 21
120.021253
 31
0.0
  0
LINE
  5
6C86
  8
ALPHA
 10
1131.841503
 20
120.821124
 30
0.0
 11
1131.841503
 21
120.021253
 31
0.0
  0
LINE
  5
6C92
  8
ALPHA
 10
1117.850847
 20
118.167332
 30
0.0
 11
1117.850847
 21
119.518414
 31
0.0
  0
LINE
  5
6C93
  8
ALPHA
 10
1117.850847
 20
119.518414
 30
0.0
 11
1118.354801
 21
120.021253
 31
0.0
  0
LINE
  5
6C94
  8
ALPHA
 10
1117.850847
 20
118.510507
 30
0.0
 11
1117.850847
 21
119.518414
 31
0.0
  0
LINE
  5
6C95
  8
ALPHA
 10
1117.850847
 20
119.518414
 30
0.0
 11
1125.600991
 21
119.518414
 31
0.0
  0
LINE
  5
6C96
  8
ALPHA
 10
1117.850847
 20
119.518414
 30
0.0
 11
1118.354801
 21
120.021253
 31
0.0
  0
LINE
  5
6C97
  8
ALPHA
 10
1118.354801
 20
120.021253
 30
0.0
 11
1125.600991
 21
120.021253
 31
0.0
  0
LINE
  5
6C98
  8
ALPHA
 10
1132.847182
 20
120.021253
 30
0.0
 11
1125.600991
 21
120.021253
 31
0.0
  0
LINE
  5
6C99
  8
ALPHA
 10
1133.351135
 20
119.518414
 30
0.0
 11
1132.847182
 21
120.021253
 31
0.0
  0
LINE
  5
6C9A
  8
ALPHA
 10
1133.351135
 20
119.518414
 30
0.0
 11
1125.600991
 21
119.518414
 31
0.0
  0
LINE
  5
6C9B
  8
ALPHA
 10
1133.351135
 20
118.510507
 30
0.0
 11
1133.351135
 21
119.518414
 31
0.0
  0
LINE
  5
6C9C
  8
ALPHA
 10
1133.351135
 20
119.518414
 30
0.0
 11
1132.847182
 21
120.021253
 31
0.0
  0
LINE
  5
6C9D
  8
ALPHA
 10
1133.351135
 20
118.167332
 30
0.0
 11
1133.351135
 21
119.518414
 31
0.0
  0
LINE
  5
6C9E
  8
ALPHA
 10
1133.350991
 20
118.17456
 30
0.0
 11
1117.850991
 21
118.17456
 31
0.0
  0
LINE
  5
6C9F
  8
ALPHA
 10
1123.169335
 20
141.988673
 30
0.0
 11
1123.169335
 21
140.728457
 31
0.0
  0
LINE
  5
6CA0
  8
ALPHA
 10
1128.034649
 20
141.318515
 30
0.0
 11
1128.034649
 21
140.728457
 31
0.0
  0
LINE
  5
6CA1
  8
ALPHA
 10
1123.170002
 20
142.002024
 30
0.0
 11
1123.170002
 21
141.381261
 31
0.0
  0
LINE
  5
6CA2
  8
ALPHA
 10
1123.170002
 20
142.002024
 30
0.0
 11
1123.170002
 21
141.381261
 31
0.0
  0
LINE
  5
6CA3
  8
ALPHA
 10
1128.601592
 20
140.728457
 30
0.0
 11
1122.599153
 21
140.728457
 31
0.0
  0
LINE
  5
6CA4
  8
ALPHA
 10
1128.601592
 20
140.728457
 30
0.0
 11
1122.599153
 21
140.728457
 31
0.0
  0
LINE
  5
6CA5
  8
ALPHA
 10
1123.170002
 20
142.002024
 30
0.0
 11
1123.170002
 21
141.381261
 31
0.0
  0
LINE
  5
6CA6
  8
ALPHA
 10
1123.170002
 20
142.002024
 30
0.0
 11
1123.170002
 21
141.381261
 31
0.0
  0
LINE
  5
6CA7
  8
ALPHA
 10
1119.360479
 20
121.776744
 30
0.0
 11
1119.360479
 21
124.047314
 31
0.0
  0
LINE
  5
6CA8
  8
ALPHA
 10
1119.360479
 20
124.047314
 30
0.0
 11
1125.600991
 21
124.047314
 31
0.0
  0
LINE
  5
6CA9
  8
ALPHA
 10
1131.841503
 20
124.047314
 30
0.0
 11
1125.600991
 21
124.047314
 31
0.0
  0
LINE
  5
6CAA
  8
ALPHA
 10
1131.841503
 20
121.776744
 30
0.0
 11
1131.841503
 21
124.047314
 31
0.0
  0
LINE
  5
6CAB
  8
ALPHA
 10
1122.599153
 20
140.728457
 30
0.0
 11
1122.075052
 21
137.554042
 31
0.0
  0
LINE
  5
6CAC
  8
ALPHA
 10
1129.126931
 20
137.554042
 30
0.0
 11
1128.601592
 21
140.728457
 31
0.0
  0
LINE
  5
6CAD
  8
ALPHA
 10
1128.601592
 20
140.728457
 30
0.0
 11
1122.599153
 21
140.728457
 31
0.0
  0
LINE
  5
6CAE
  8
ALPHA
 10
1128.601592
 20
140.728457
 30
0.0
 11
1122.599153
 21
140.728457
 31
0.0
  0
LINE
  5
6CB1
  8
ALPHA
 10
1121.742918
 20
163.785471
 30
0.0
 11
1121.742918
 21
174.873934
 31
0.0
  0
LINE
  5
6CB2
  8
ALPHA
 10
1122.565258
 20
149.181516
 30
0.0
 11
1128.639394
 21
149.838325
 31
0.0
  0
LINE
  5
6CB3
  8
ALPHA
 10
1122.565258
 20
147.973365
 30
0.0
 11
1128.639394
 21
148.631506
 31
0.0
  0
LINE
  5
6CB4
  8
ALPHA
 10
1122.565258
 20
144.35158
 30
0.0
 11
1128.639394
 21
145.007052
 31
0.0
  0
LINE
  5
6CB5
  8
ALPHA
 10
1122.565258
 20
145.558395
 30
0.0
 11
1128.639394
 21
146.215203
 31
0.0
  0
LINE
  5
6CB6
  8
ALPHA
 10
1122.565258
 20
146.765213
 30
0.0
 11
1128.639394
 21
147.423355
 31
0.0
  0
LINE
  5
6CB7
  8
ALPHA
 10
1122.565258
 20
150.388334
 30
0.0
 11
1128.639394
 21
151.045809
 31
0.0
  0
LINE
  5
6CB8
  8
ALPHA
 10
1122.565258
 20
151.596486
 30
0.0
 11
1128.639394
 21
152.253961
 31
0.0
  0
LINE
  5
6CB9
  8
ALPHA
 10
1122.565258
 20
152.804637
 30
0.0
 11
1128.639394
 21
153.462779
 31
0.0
  0
LINE
  5
6CBA
  8
ALPHA
 10
1122.565258
 20
154.013459
 30
0.0
 11
1128.639394
 21
154.672267
 31
0.0
  0
LINE
  5
6CBB
  8
ALPHA
 10
1122.565258
 20
155.222943
 30
0.0
 11
1128.639394
 21
155.880418
 31
0.0
  0
LINE
  5
6CBC
  8
ALPHA
 10
1122.565258
 20
156.431765
 30
0.0
 11
1128.639394
 21
157.08924
 31
0.0
  0
LINE
  5
6CBD
  8
ALPHA
 10
1122.565258
 20
157.639916
 30
0.0
 11
1128.639394
 21
158.298724
 31
0.0
  0
LINE
  5
6CBE
  8
ALPHA
 10
1122.565258
 20
158.848734
 30
0.0
 11
1128.639394
 21
159.506209
 31
0.0
  0
LINE
  5
6CBF
  8
ALPHA
 10
1122.565258
 20
160.055553
 30
0.0
 11
1128.639394
 21
160.713028
 31
0.0
  0
LINE
  5
6CC0
  8
ALPHA
 10
1123.754725
 20
162.199522
 30
0.0
 11
1128.639394
 21
161.923182
 31
0.0
  0
LINE
  5
6CC1
  8
ALPHA
 10
1122.565258
 20
143.143429
 30
0.0
 11
1128.638057
 21
143.800234
 31
0.0
  0
LINE
  5
6CC2
  8
ALPHA
 10
1122.565258
 20
143.143429
 30
0.0
 11
1128.638057
 21
143.800234
 31
0.0
  0
DIMENSION
  5
6CC5
  8
COTATION1
  2
*D7
 10
1122.941727
 20
260.728457
 30
0.0
 11
1112.345456
 21
262.307372
 31
0.0
 70
   128
  1
%%c1.2
 13
1121.742918
 23
250.728457
 33
0.0
 14
1122.941727
 24
250.574937
 34
0.0
  0
LINE
  5
6CC6
  8
ALPHA
 10
1121.742918
 20
250.728457
 30
0.0
 11
1122.941727
 21
250.574937
 31
0.0
  0
LINE
  5
6CC7
  8
ALPHA
 10
1121.742918
 20
250.728457
 30
0.0
 11
1122.941727
 21
250.574937
 31
0.0
  0
DIMENSION
  5
700C
  8
COTATION1
  2
*D3
 10
1138.100991
 20
71.587159
 30
0.0
 11
1146.860505
 21
73.824117
 31
0.0
 70
   128
 13
1134.100991
 23
57.728457
 33
0.0
 14
1138.100991
 24
59.728457
 34
0.0
  0
LINE
  5
700D
  8
POINTILLE_COURT
 10
1138.100991
 20
59.228457
 30
0.0
 11
1135.600991
 21
59.228457
 31
0.0
  0
LINE
  5
700E
  8
POINTILLE_COURT
 10
1138.100991
 20
56.228457
 30
0.0
 11
1135.600991
 21
56.228457
 31
0.0
  0
ARC
  5
700F
  8
POINTILLE_COURT
 10
1135.600991
 20
57.728457
 30
0.0
 40
1.5
 50
90.0
 51
270.0
  0
LINE
  5
70D2
  8
ALPHA
 10
1114.750991
 20
50.228457
 30
0.0
 11
1114.750991
 21
53.728457
 31
0.0
  0
LINE
  5
70D3
  8
ALPHA
 10
1114.750991
 20
50.228457
 30
0.0
 11
1136.450991
 21
50.228457
 31
0.0
  0
LINE
  5
70D4
  8
ALPHA
 10
1136.450991
 20
53.728457
 30
0.0
 11
1136.450991
 21
50.228457
 31
0.0
  0
VIEWPORT
  5
494D
 67
     1
  8
0
 10
4.995325
 20
6.556512
 30
0.0
 40
22.70986
 41
13.988421
 68
    -1
 69
     1
1001
ACAD
1000
MVIEW
1002
{
1070
    16
1010
0.0
1020
0.0
1030
0.0
1010
0.0
1020
0.0
1030
1.0
1040
0.0
1040
13.988421
1040
4.995325
1040
6.556512
1040
50.0
1040
0.0
1040
0.0
1070
     0
1070
   100
1070
     1
1070
     1
1070
     0
1070
     0
1070
     0
1070
     0
1040
0.0
1040
0.0
1040
0.0
1040
10.0
1040
10.0
1040
10.0
1040
10.0
1070
     0
1002
{
1002
}
1002
}
  0
ENDSEC
  0
EOF
