  0
SECTION
  2
HEADER
  9
$ACADVER
  1
AC1009
  9
$INSBASE
 10
402.590624
 20
-1.041018
 30
0.0
  9
$EXTMIN
 10
182.844237
 20
46.511053
 30
0.0
  9
$EXTMAX
 10
273.535759
 20
281.011053
 30
0.0
  9
$LIMMIN
 10
-407.970438
 20
-367.832444
  9
$LIMMAX
 10
429.804077
 20
234.370848
  9
$ORTHOMODE
 70
     1
  9
$REGENMODE
 70
     1
  9
$FILLMODE
 70
     1
  9
$QTEXTMODE
 70
     0
  9
$MIRRTEXT
 70
     1
  9
$DRAGMODE
 70
     2
  9
$LTSCALE
 40
10.0
  9
$OSMODE
 70
    33
  9
$ATTMODE
 70
     1
  9
$TEXTSIZE
 40
6.0
  9
$TRACEWID
 40
1.0
  9
$TEXTSTYLE
  7
ROMANS
  9
$CLAYER
  8
ALPHA
  9
$CELTYPE
  6
BYLAYER
  9
$CECOLOR
 62
   256
  9
$DIMSCALE
 40
1.0
  9
$DIMASZ
 40
5.0
  9
$DIMEXO
 40
2.0
  9
$DIMDLI
 40
0.38
  9
$DIMRND
 40
0.0
  9
$DIMDLE
 40
0.0
  9
$DIMEXE
 40
2.5
  9
$DIMTP
 40
0.0
  9
$DIMTM
 40
0.0
  9
$DIMTXT
 40
2.5
  9
$DIMCEN
 40
0.0
  9
$DIMTSZ
 40
0.0
  9
$DIMTOL
 70
     0
  9
$DIMLIM
 70
     0
  9
$DIMTIH
 70
     1
  9
$DIMTOH
 70
     1
  9
$DIMSE1
 70
     0
  9
$DIMSE2
 70
     0
  9
$DIMTAD
 70
     1
  9
$DIMZIN
 70
    12
  9
$DIMBLK
  1
OPEN30
  9
$DIMASO
 70
     1
  9
$DIMSHO
 70
     1
  9
$DIMPOST
  1

  9
$DIMAPOST
  1

  9
$DIMALT
 70
     0
  9
$DIMALTD
 70
     2
  9
$DIMALTF
 40
25.4
  9
$DIMLFAC
 40
1.0
  9
$DIMTOFL
 70
     0
  9
$DIMTVP
 40
0.0
  9
$DIMTIX
 70
     0
  9
$DIMSOXD
 70
     0
  9
$DIMSAH
 70
     0
  9
$DIMBLK1
  1

  9
$DIMBLK2
  1

  9
$DIMSTYLE
  2
SC_DEFAUT
  9
$DIMCLRD
 70
     0
  9
$DIMCLRE
 70
     0
  9
$DIMCLRT
 70
     0
  9
$DIMTFAC
 40
1.0
  9
$DIMGAP
 40
2.0
  9
$LUNITS
 70
     2
  9
$LUPREC
 70
     1
  9
$SKETCHINC
 40
0.1
  9
$FILLETRAD
 40
0.0
  9
$AUNITS
 70
     0
  9
$AUPREC
 70
     0
  9
$MENU
  1
acad
  9
$ELEVATION
 40
0.0
  9
$PELEVATION
 40
0.0
  9
$THICKNESS
 40
0.0
  9
$LIMCHECK
 70
     0
  9
$BLIPMODE
 70
     0
  9
$CHAMFERA
 40
0.0
  9
$CHAMFERB
 40
0.0
  9
$SKPOLY
 70
     0
  9
$TDCREATE
 40
2450373.687919
  9
$TDUPDATE
 40
2452838.692569
  9
$TDINDWG
 40
1.64097
  9
$TDUSRTIMER
 40
1.64097
  9
$USRTIMER
 70
     1
  9
$ANGBASE
 50
0.0
  9
$ANGDIR
 70
     0
  9
$PDMODE
 70
    32
  9
$PDSIZE
 40
0.0
  9
$PLINEWID
 40
0.0
  9
$COORDS
 70
     1
  9
$SPLFRAME
 70
     0
  9
$SPLINETYPE
 70
     6
  9
$SPLINESEGS
 70
     8
  9
$ATTDIA
 70
     0
  9
$ATTREQ
 70
     1
  9
$HANDLING
 70
     1
  9
$HANDSEED
  5
136ED
  9
$SURFTAB1
 70
     6
  9
$SURFTAB2
 70
     6
  9
$SURFTYPE
 70
     6
  9
$SURFU
 70
     6
  9
$SURFV
 70
     6
  9
$UCSNAME
  2

  9
$UCSORG
 10
0.0
 20
0.0
 30
0.0
  9
$UCSXDIR
 10
1.0
 20
0.0
 30
0.0
  9
$UCSYDIR
 10
0.0
 20
1.0
 30
0.0
  9
$PUCSNAME
  2

  9
$PUCSORG
 10
0.0
 20
0.0
 30
0.0
  9
$PUCSXDIR
 10
1.0
 20
0.0
 30
0.0
  9
$PUCSYDIR
 10
0.0
 20
1.0
 30
0.0
  9
$USERI1
 70
     0
  9
$USERI2
 70
     0
  9
$USERI3
 70
     0
  9
$USERI4
 70
     0
  9
$USERI5
 70
     0
  9
$USERR1
 40
0.0
  9
$USERR2
 40
0.0
  9
$USERR3
 40
0.0
  9
$USERR4
 40
0.0
  9
$USERR5
 40
0.0
  9
$WORLDVIEW
 70
     1
  9
$SHADEDGE
 70
     3
  9
$SHADEDIF
 70
    70
  9
$TILEMODE
 70
     1
  9
$MAXACTVP
 70
    16
  9
$PLIMCHECK
 70
     0
  9
$PEXTMIN
 10
-1.452248
 20
-0.437698
 30
0.0
  9
$PEXTMAX
 10
12.749749
 20
8.310198
 30
0.0
  9
$PLIMMIN
 10
0.0
 20
0.0
  9
$PLIMMAX
 10
12.0
 20
9.0
  9
$UNITMODE
 70
     0
  9
$VISRETAIN
 70
     0
  9
$PLINEGEN
 70
     0
  9
$PSLTSCALE
 70
     0
  0
ENDSEC
  0
SECTION
  2
TABLES
  0
TABLE
  2
VPORT
 70
     2
  0
VPORT
  2
*ACTIVE
 70
     0
 10
0.0
 20
0.0
 11
1.0
 21
1.0
 12
228.171123
 22
163.760453
 13
0.0
 23
0.0
 14
1.0
 24
1.0
 15
10.0
 25
10.0
 16
0.0
 26
0.0
 36
1.0
 17
0.0
 27
0.0
 37
0.0
 40
236.552724
 41
1.56
 42
50.0
 43
0.0
 44
0.0
 50
0.0
 51
0.0
 71
     0
 72
   100
 73
     1
 74
     0
 75
     0
 76
     0
 77
     0
 78
     0
  0
ENDTAB
  0
TABLE
  2
LTYPE
 70
     2
  0
LTYPE
  2
CONTINUOUS
 70
     0
  3
Solid line
 72
    65
 73
     0
 40
0.0
  0
LTYPE
  2
AXES2
 70
     0
  3
___ _ ___ _ ___ _ ___ _ ___ _ ___ _ ___ _ ___ _
 72
    65
 73
     4
 40
1.125
 49
0.75
 49
-0.125
 49
0.125
 49
-0.125
  0
ENDTAB
  0
TABLE
  2
LAYER
 70
     5
  0
LAYER
  2
0
 70
     0
 62
   255
  6
CONTINUOUS
  0
LAYER
  2
COTATION1
 70
     0
 62
     2
  6
CONTINUOUS
  0
LAYER
  2
AXE
 70
     0
 62
    80
  6
AXES2
  0
LAYER
  2
DEFPOINTS
 70
     0
 62
     7
  6
CONTINUOUS
  0
LAYER
  2
ALPHA
 70
     0
 62
   254
  6
CONTINUOUS
  0
ENDTAB
  0
TABLE
  2
STYLE
 70
     2
  0
STYLE
  2
ROMANS
 70
     0
 40
0.0
 41
1.0
 50
0.0
 71
     0
 42
6.0
  3
romans
  4

  0
STYLE
  2
STANDARD
 70
     0
 40
0.2
 41
1.0
 50
0.0
 71
     0
 42
0.2
  3
txt
  4

  0
ENDTAB
  0
TABLE
  2
VIEW
 70
     0
  0
ENDTAB
  0
TABLE
  2
UCS
 70
     0
  0
ENDTAB
  0
TABLE
  2
APPID
 70
     1
  0
APPID
  2
ACAD
 70
     0
  0
ENDTAB
  0
TABLE
  2
DIMSTYLE
 70
     1
  0
DIMSTYLE
  2
SC_DEFAUT
 70
     0
  3

  4

  5
OPEN30
  6

  7

 40
1.0
 41
5.0
 42
2.0
 43
0.38
 44
2.5
 45
0.0
 46
0.0
 47
0.0
 48
0.0
140
2.5
141
0.0
142
0.0
143
25.4
144
1.0
145
0.0
146
1.0
147
2.0
 71
     0
 72
     0
 73
     1
 74
     1
 75
     0
 76
     0
 77
     1
 78
    12
170
     0
171
     2
172
     0
173
     0
174
     0
175
     0
176
     0
177
     0
178
     0
  0
ENDTAB
  0
ENDSEC
  0
SECTION
  2
BLOCKS
  0
BLOCK
  8
0
  2
$MODEL_SPACE
 70
     0
 10
0.0
 20
0.0
 30
0.0
  3
$MODEL_SPACE
  1

  0
ENDBLK
  5
133D2
  8
0
  0
BLOCK
 67
     1
  8
0
  2
$PAPER_SPACE
 70
     0
 10
0.0
 20
0.0
 30
0.0
  3
$PAPER_SPACE
  1

  0
ENDBLK
  5
133D0
 67
     1
  8
0
  0
BLOCK
  8
0
  2
COTE
 70
     0
 10
0.0
 20
0.0
 30
0.0
  3
COTE
  1

  0
ENDBLK
  5
F
  8
0
  0
BLOCK
  8
0
  2
FOND
 70
     0
 10
0.0
 20
0.0
 30
0.0
  3
FOND
  1

  0
ENDBLK
  5
75
  8
0
  0
BLOCK
  8
0
  2
_OPEN30
 70
     0
 10
0.0
 20
0.0
 30
0.0
  3
_OPEN30
  1

  0
LINE
  5
4B05
  8
COTATION1
 62
     0
 10
-1.0
 20
0.267949
 30
0.0
 11
0.0
 21
0.0
 31
0.0
1001
ACAD
1000
RTLwPs
1070
   158
  0
LINE
  5
4B06
  8
COTATION1
 62
     0
 10
0.0
 20
0.0
 30
0.0
 11
-1.0
 21
-0.267949
 31
0.0
1001
ACAD
1000
RTLwPs
1070
   158
  0
LINE
  5
4B07
  8
COTATION1
 62
     0
 10
0.0
 20
0.0
 30
0.0
 11
-1.0
 21
0.0
 31
0.0
1001
ACAD
1000
RTLwPs
1070
   158
  0
ENDBLK
  5
4B09
  8
0
  0
BLOCK
  8
0
  2
*D3
 70
     1
 10
0.0
 20
0.0
 30
0.0
  3
*D3
  1

  0
LINE
  5
12669
  8
COTATION1
 62
     0
 10
252.927802
 20
96.704887
 30
0.0
 11
239.02304
 21
96.704887
 31
0.0
1001
ACAD
1000
RTLwPs
1070
   158
  0
LINE
  5
1266A
  8
COTATION1
 62
     0
 10
239.02304
 20
96.704887
 30
0.0
 11
214.611908
 21
127.881452
 31
0.0
1001
ACAD
1000
RTLwPs
1070
   158
  0
TEXT
  5
1266B
  8
COTATION1
 62
     0
 10
240.665897
 20
98.704887
 30
0.0
 40
2.5
  1
2x%%c4.3
1001
ACAD
1000
MTEXTBEGIN
1070
    73
1070
     1
1070
    44
1040
1.0
1070
    74
1070
     0
1000
MTEXTEND
1000
MTEXTBEGIN
1070
    73
1070
     1
1070
    44
1040
1.0
1070
    74
1070
     0
1000
MTEXTEND
1000
MTEXTBEGIN
1070
    73
1070
     1
1070
    44
1040
1.0
1070
    74
1070
     0
1000
MTEXTEND
  0
INSERT
  5
1266C
  8
COTATION1
 62
     0
  2
_OPEN30
 10
211.52942
 20
131.818236
 30
0.0
 41
5.0
 42
5.0
 43
5.0
 50
128.060809
1001
ACAD
1000
RTLwPs
1070
   158
  0
POINT
  5
1266D
  8
DEFPOINTS
 62
     0
 10
211.52942
 20
131.818236
 30
0.0
  0
POINT
  5
1266E
  8
DEFPOINTS
 62
     0
 10
208.878481
 20
135.203871
 30
0.0
  0
ENDBLK
  5
12607
  8
0
  0
BLOCK
  8
0
  2
*D4
 70
     1
 10
0.0
 20
0.0
 30
0.0
  3
*D4
  1

  0
LINE
  5
1307C
  8
COTATION1
 62
     0
 10
237.353951
 20
135.511053
 30
0.0
 11
261.214331
 21
135.511053
 31
0.0
  0
LINE
  5
1307D
  8
COTATION1
 62
     0
 10
236.353951
 20
133.511053
 30
0.0
 11
261.214331
 21
133.511053
 31
0.0
  0
LINE
  5
1307E
  8
COTATION1
 62
     0
 10
258.714331
 20
140.511053
 30
0.0
 11
258.714331
 21
145.511053
 31
0.0
  0
LINE
  5
1307F
  8
COTATION1
 62
     0
 10
258.714331
 20
128.511053
 30
0.0
 11
258.714331
 21
123.511053
 31
0.0
  0
TEXT
  5
13080
  8
COTATION1
 62
     0
 10
254.690521
 20
124.209332
 30
0.0
 40
2.5
  1
2
  0
INSERT
  5
13081
  8
COTATION1
 62
     0
  2
_OPEN30
 10
258.714331
 20
135.511053
 30
0.0
 41
5.0
 42
5.0
 43
5.0
 50
270.0
  0
INSERT
  5
13082
  8
COTATION1
 62
     0
  2
_OPEN30
 10
258.714331
 20
133.511053
 30
0.0
 41
5.0
 42
5.0
 43
5.0
 50
90.0
  0
POINT
  5
13083
  8
DEFPOINTS
 62
     0
 10
235.353951
 20
135.511053
 30
0.0
  0
POINT
  5
13084
  8
DEFPOINTS
 62
     0
 10
234.353951
 20
133.511053
 30
0.0
  0
POINT
  5
13085
  8
DEFPOINTS
 62
     0
 10
258.714331
 20
133.511053
 30
0.0
  0
ENDBLK
  5
12614
  8
0
  0
BLOCK
  8
0
  2
*D5
 70
     1
 10
0.0
 20
0.0
 30
0.0
  3
*D5
  1

  0
LINE
  5
12F92
  8
COTATION1
 62
     0
 10
225.403951
 20
261.511053
 30
0.0
 11
271.214331
 21
261.511053
 31
0.0
1001
ACAD
1000
RTLwPs
1070
   158
  0
LINE
  5
12F93
  8
COTATION1
 62
     0
 10
237.203951
 20
79.011053
 30
0.0
 11
271.214331
 21
79.011053
 31
0.0
1001
ACAD
1000
RTLwPs
1070
   158
  0
LINE
  5
12F94
  8
COTATION1
 62
     0
 10
268.714331
 20
256.511053
 30
0.0
 11
268.714331
 21
173.511053
 31
0.0
1001
ACAD
1000
RTLwPs
1070
   158
  0
LINE
  5
12F95
  8
COTATION1
 62
     0
 10
268.714331
 20
84.011053
 30
0.0
 11
268.714331
 21
167.011053
 31
0.0
1001
ACAD
1000
RTLwPs
1070
   158
  0
INSERT
  5
12F96
  8
COTATION1
 62
     0
  2
_OPEN30
 10
268.714331
 20
261.511053
 30
0.0
 41
5.0
 42
5.0
 43
5.0
 50
90.0
1001
ACAD
1000
RTLwPs
1070
   158
  0
INSERT
  5
12F97
  8
COTATION1
 62
     0
  2
_OPEN30
 10
268.714331
 20
79.011053
 30
0.0
 41
5.0
 42
5.0
 43
5.0
 50
270.0
1001
ACAD
1000
RTLwPs
1070
   158
  0
TEXT
  5
12F98
  8
COTATION1
 62
     0
 10
263.178617
 20
169.011053
 30
0.0
 40
2.5
  1
182.5
1001
ACAD
1000
MTEXTBEGIN
1070
    73
1070
     1
1070
    44
1040
1.0
1070
    74
1070
     0
1000
MTEXTEND
  0
POINT
  5
12F99
  8
DEFPOINTS
 62
     0
 10
223.403951
 20
261.511053
 30
0.0
  0
POINT
  5
12F9A
  8
DEFPOINTS
 62
     0
 10
235.203951
 20
79.011053
 30
0.0
  0
POINT
  5
12F9B
  8
DEFPOINTS
 62
     0
 10
268.714331
 20
79.011053
 30
0.0
  0
ENDBLK
  5
12621
  8
0
  0
BLOCK
  8
0
  2
*D6
 70
     1
 10
0.0
 20
0.0
 30
0.0
  3
*D6
  1

  0
LINE
  5
12683
  8
COTATION1
 62
     0
 10
205.203951
 20
77.011053
 30
0.0
 11
205.203951
 21
46.511053
 31
0.0
1001
ACAD
1000
RTLwPs
1070
   158
  0
LINE
  5
12684
  8
COTATION1
 62
     0
 10
235.203951
 20
77.011053
 30
0.0
 11
235.203951
 21
46.511053
 31
0.0
1001
ACAD
1000
RTLwPs
1070
   158
  0
LINE
  5
12685
  8
COTATION1
 62
     0
 10
210.203951
 20
49.011053
 30
0.0
 11
230.203951
 21
49.011053
 31
0.0
1001
ACAD
1000
RTLwPs
1070
   158
  0
INSERT
  5
12686
  8
COTATION1
 62
     0
  2
_OPEN30
 10
205.203951
 20
49.011053
 30
0.0
 41
5.0
 42
5.0
 43
5.0
 50
180.0
1001
ACAD
1000
RTLwPs
1070
   158
  0
INSERT
  5
12687
  8
COTATION1
 62
     0
  2
_OPEN30
 10
235.203951
 20
49.011053
 30
0.0
 41
5.0
 42
5.0
 43
5.0
1001
ACAD
1000
RTLwPs
1070
   158
  0
TEXT
  5
12688
  8
COTATION1
 62
     0
 10
217.822999
 20
51.011053
 30
0.0
 40
2.5
  1
30
1001
ACAD
1000
MTEXTBEGIN
1070
    73
1070
     1
1070
    44
1040
1.0
1070
    74
1070
     0
1000
MTEXTEND
1000
MTEXTBEGIN
1070
    73
1070
     1
1070
    44
1040
1.0
1070
    74
1070
     0
1000
MTEXTEND
1000
MTEXTBEGIN
1070
    73
1070
     1
1070
    44
1040
1.0
1070
    74
1070
     0
1000
MTEXTEND
  0
POINT
  5
12689
  8
DEFPOINTS
 62
     0
 10
205.203951
 20
79.011053
 30
0.0
  0
POINT
  5
1268A
  8
DEFPOINTS
 62
     0
 10
235.203951
 20
79.011053
 30
0.0
  0
POINT
  5
1268B
  8
DEFPOINTS
 62
     0
 10
235.203951
 20
49.011053
 30
0.0
  0
ENDBLK
  5
1262D
  8
0
  0
BLOCK
  8
0
  2
*D7
 70
     1
 10
0.0
 20
0.0
 30
0.0
  3
*D7
  1

  0
LINE
  5
12E3C
  8
COTATION1
 62
     0
 10
210.203951
 20
127.361053
 30
0.0
 11
210.203951
 21
99.726812
 31
0.0
1001
ACAD
1000
RTLwPs
1070
   158
  0
LINE
  5
12E3D
  8
COTATION1
 62
     0
 10
230.203951
 20
127.361053
 30
0.0
 11
230.203951
 21
99.726812
 31
0.0
1001
ACAD
1000
RTLwPs
1070
   158
  0
LINE
  5
12E3E
  8
COTATION1
 62
     0
 10
215.203951
 20
102.226812
 30
0.0
 11
225.203951
 21
102.226812
 31
0.0
1001
ACAD
1000
RTLwPs
1070
   158
  0
INSERT
  5
12E3F
  8
COTATION1
 62
     0
  2
_OPEN30
 10
210.203951
 20
102.226812
 30
0.0
 41
5.0
 42
5.0
 43
5.0
 50
180.0
1001
ACAD
1000
RTLwPs
1070
   158
  0
INSERT
  5
12E40
  8
COTATION1
 62
     0
  2
_OPEN30
 10
230.203951
 20
102.226812
 30
0.0
 41
5.0
 42
5.0
 43
5.0
1001
ACAD
1000
RTLwPs
1070
   158
  0
TEXT
  5
12E41
  8
COTATION1
 62
     0
 10
217.822999
 20
104.226812
 30
0.0
 40
2.5
  1
20
1001
ACAD
1000
MTEXTBEGIN
1070
    73
1070
     1
1070
    44
1040
1.0
1070
    74
1070
     0
1000
MTEXTEND
  0
POINT
  5
12E42
  8
DEFPOINTS
 62
     0
 10
210.203951
 20
129.361053
 30
0.0
  0
POINT
  5
12E43
  8
DEFPOINTS
 62
     0
 10
230.203951
 20
129.361053
 30
0.0
  0
POINT
  5
12E44
  8
DEFPOINTS
 62
     0
 10
230.203951
 20
102.226812
 30
0.0
  0
ENDBLK
  5
12646
  8
0
  0
BLOCK
  8
0
  2
*D8
 70
     1
 10
0.0
 20
0.0
 30
0.0
  3
*D8
  1

  0
LINE
  5
12E33
  8
COTATION1
 62
     0
 10
209.203951
 20
129.361053
 30
0.0
 11
209.203951
 21
89.462439
 31
0.0
1001
ACAD
1000
RTLwPs
1070
   158
  0
LINE
  5
12E34
  8
COTATION1
 62
     0
 10
231.203951
 20
129.361053
 30
0.0
 11
231.203951
 21
89.462439
 31
0.0
1001
ACAD
1000
RTLwPs
1070
   158
  0
LINE
  5
12E35
  8
COTATION1
 62
     0
 10
214.203951
 20
91.962439
 30
0.0
 11
226.203951
 21
91.962439
 31
0.0
1001
ACAD
1000
RTLwPs
1070
   158
  0
INSERT
  5
12E36
  8
COTATION1
 62
     0
  2
_OPEN30
 10
209.203951
 20
91.962439
 30
0.0
 41
5.0
 42
5.0
 43
5.0
 50
180.0
1001
ACAD
1000
RTLwPs
1070
   158
  0
INSERT
  5
12E37
  8
COTATION1
 62
     0
  2
_OPEN30
 10
231.203951
 20
91.962439
 30
0.0
 41
5.0
 42
5.0
 43
5.0
1001
ACAD
1000
RTLwPs
1070
   158
  0
TEXT
  5
12E38
  8
COTATION1
 62
     0
 10
217.822999
 20
93.962439
 30
0.0
 40
2.5
  1
22
1001
ACAD
1000
MTEXTBEGIN
1070
    73
1070
     1
1070
    44
1040
1.0
1070
    74
1070
     0
1000
MTEXTEND
  0
POINT
  5
12E39
  8
DEFPOINTS
 62
     0
 10
209.203951
 20
131.361053
 30
0.0
  0
POINT
  5
12E3A
  8
DEFPOINTS
 62
     0
 10
231.203951
 20
131.361053
 30
0.0
  0
POINT
  5
12E3B
  8
DEFPOINTS
 62
     0
 10
231.203951
 20
91.962439
 30
0.0
  0
ENDBLK
  5
12652
  8
0
  0
BLOCK
  8
0
  2
*D9
 70
     1
 10
0.0
 20
0.0
 30
0.0
  3
*D9
  1

  0
LINE
  5
12F9C
  8
COTATION1
 62
     0
 10
217.003951
 20
263.511053
 30
0.0
 11
217.003951
 21
279.011053
 31
0.0
1001
ACAD
1000
RTLwPs
1070
   158
  0
LINE
  5
12F9D
  8
COTATION1
 62
     0
 10
223.403951
 20
263.511053
 30
0.0
 11
223.403951
 21
279.011053
 31
0.0
1001
ACAD
1000
RTLwPs
1070
   158
  0
LINE
  5
12F9E
  8
COTATION1
 62
     0
 10
212.003951
 20
276.511053
 30
0.0
 11
207.003951
 21
276.511053
 31
0.0
1001
ACAD
1000
RTLwPs
1070
   158
  0
LINE
  5
12F9F
  8
COTATION1
 62
     0
 10
228.403951
 20
276.511053
 30
0.0
 11
245.022999
 21
276.511053
 31
0.0
1001
ACAD
1000
RTLwPs
1070
   158
  0
INSERT
  5
12FA0
  8
COTATION1
 62
     0
  2
_OPEN30
 10
217.003951
 20
276.511053
 30
0.0
 41
5.0
 42
5.0
 43
5.0
1001
ACAD
1000
RTLwPs
1070
   158
  0
INSERT
  5
12FA1
  8
COTATION1
 62
     0
  2
_OPEN30
 10
223.403951
 20
276.511053
 30
0.0
 41
5.0
 42
5.0
 43
5.0
 50
180.0
1001
ACAD
1000
RTLwPs
1070
   158
  0
TEXT
  5
12FA2
  8
COTATION1
 62
     0
 10
235.165856
 20
278.511053
 30
0.0
 40
2.5
  1
%%c
1001
ACAD
1000
MTEXTBEGIN
1070
    73
1070
     1
1070
    44
1040
1.0
1070
    74
1070
     0
1000
MTEXTEND
  0
TEXT
  5
1339D
  8
COTATION1
 62
     0
 10
237.42776
 20
278.511053
 30
0.0
 40
2.5
  1
6.4
1001
ACAD
1000
R13OBJECT
1002
{
1005
12FA2
1002
}
  0
POINT
  5
12FA3
  8
DEFPOINTS
 62
     0
 10
217.003951
 20
261.511053
 30
0.0
  0
POINT
  5
12FA4
  8
DEFPOINTS
 62
     0
 10
223.403951
 20
261.511053
 30
0.0
  0
POINT
  5
12FA5
  8
DEFPOINTS
 62
     0
 10
223.403951
 20
276.511053
 30
0.0
  0
ENDBLK
  5
1265F
  8
0
  0
BLOCK
  8
0
  2
*D10
 70
     1
 10
0.0
 20
0.0
 30
0.0
  3
*D10
  1

  0
LINE
  5
126B2
  8
COTATION1
 62
     0
 10
261.230927
 20
156.543842
 30
0.0
 11
239.349975
 21
156.543842
 31
0.0
1001
ACAD
1000
RTLwPs
1070
   158
  0
LINE
  5
126B3
  8
COTATION1
 62
     0
 10
239.349975
 20
156.543842
 30
0.0
 11
233.786244
 21
142.178456
 31
0.0
1001
ACAD
1000
RTLwPs
1070
   158
  0
TEXT
  5
126B4
  8
COTATION1
 62
     0
 10
240.992832
 20
158.543842
 30
0.0
 40
2.5
  1
2x%%c4.3x6.3
1001
ACAD
1000
MTEXTBEGIN
1070
    73
1070
     1
1070
    44
1040
1.0
1070
    74
1070
     0
1000
MTEXTEND
1000
MTEXTBEGIN
1070
    73
1070
     1
1070
    44
1040
1.0
1070
    74
1070
     0
1000
MTEXTEND
1000
MTEXTBEGIN
1070
    73
1070
     1
1070
    44
1040
1.0
1070
    74
1070
     0
1000
MTEXTEND
  0
INSERT
  5
126B5
  8
COTATION1
 62
     0
  2
_OPEN30
 10
231.980445
 20
137.515937
 30
0.0
 41
5.0
 42
5.0
 43
5.0
 50
248.828555
1001
ACAD
1000
RTLwPs
1070
   158
  0
POINT
  5
126B6
  8
DEFPOINTS
 62
     0
 10
231.980445
 20
137.515937
 30
0.0
  0
POINT
  5
126B7
  8
DEFPOINTS
 62
     0
 10
230.427457
 20
133.50617
 30
0.0
  0
ENDBLK
  5
12668
  8
0
  0
BLOCK
  8
0
  2
*D11
 70
     1
 10
0.0
 20
0.0
 30
0.0
  3
*D11
  1

  0
LINE
  5
12F88
  8
COTATION1
 62
     0
 10
215.003951
 20
261.511053
 30
0.0
 11
183.379951
 21
261.511053
 31
0.0
1001
ACAD
1000
RTLwPs
1070
   158
  0
LINE
  5
12F89
  8
COTATION1
 62
     0
 10
204.053951
 20
133.511053
 30
0.0
 11
183.379951
 21
133.511053
 31
0.0
1001
ACAD
1000
RTLwPs
1070
   158
  0
LINE
  5
12F8A
  8
COTATION1
 62
     0
 10
185.879951
 20
256.511053
 30
0.0
 11
185.879951
 21
200.761053
 31
0.0
1001
ACAD
1000
RTLwPs
1070
   158
  0
LINE
  5
12F8B
  8
COTATION1
 62
     0
 10
185.879951
 20
138.511053
 30
0.0
 11
185.879951
 21
194.261053
 31
0.0
1001
ACAD
1000
RTLwPs
1070
   158
  0
INSERT
  5
12F8C
  8
COTATION1
 62
     0
  2
_OPEN30
 10
185.879951
 20
261.511053
 30
0.0
 41
5.0
 42
5.0
 43
5.0
 50
90.0
1001
ACAD
1000
RTLwPs
1070
   158
  0
INSERT
  5
12F8D
  8
COTATION1
 62
     0
  2
_OPEN30
 10
185.879951
 20
133.511053
 30
0.0
 41
5.0
 42
5.0
 43
5.0
 50
270.0
1001
ACAD
1000
RTLwPs
1070
   158
  0
TEXT
  5
12F8E
  8
COTATION1
 62
     0
 10
182.129951
 20
196.261053
 30
0.0
 40
2.5
  1
128
1001
ACAD
1000
MTEXTBEGIN
1070
    73
1070
     1
1070
    44
1040
1.0
1070
    74
1070
     0
1000
MTEXTEND
  0
POINT
  5
12F8F
  8
DEFPOINTS
 62
     0
 10
217.003951
 20
261.511053
 30
0.0
  0
POINT
  5
12F90
  8
DEFPOINTS
 62
     0
 10
206.053951
 20
133.511053
 30
0.0
  0
POINT
  5
12F91
  8
DEFPOINTS
 62
     0
 10
185.879951
 20
133.511053
 30
0.0
  0
ENDBLK
  5
12E52
  8
0
  0
ENDSEC
  0
SECTION
  2
ENTITIES
  0
INSERT
  5
A
  8
0
  2
COTE
 10
0.0
 20
0.0
 30
0.0
  0
INSERT
  5
17
  8
0
  2
COTE
 10
284.010391
 20
6.373258
 30
0.0
  0
INSERT
  5
72
  8
0
  2
FOND
 10
0.0
 20
0.0
 30
0.0
  0
LINE
  5
125BA
  8
ALPHA
 10
235.203951
 20
125.567538
 30
0.0
 11
229.705142
 21
127.062869
 31
0.0
  0
POLYLINE
  5
125BB
  8
ALPHA
 66
     1
 10
0.0
 20
0.0
 30
0.0
 70
   128
210
0.0
220
0.0
230
-1.0
  0
VERTEX
  5
133D8
  8
ALPHA
 10
-229.705142
 20
127.062869
 30
0.0
  0
VERTEX
  5
133D9
  8
ALPHA
 10
-227.47795
 20
128.189843
 30
0.0
  0
VERTEX
  5
133DA
  8
ALPHA
 10
-226.078484
 20
130.231071
 30
0.0
  0
SEQEND
  5
133DB
  8
ALPHA
  0
POLYLINE
  5
125BC
  8
ALPHA
 66
     1
 10
0.0
 20
0.0
 30
0.0
 70
   128
  0
VERTEX
  5
133DC
  8
ALPHA
 10
226.078484
 20
130.231071
 30
0.0
  0
VERTEX
  5
133DD
  8
ALPHA
 10
226.00621
 20
130.440849
 30
0.0
  0
VERTEX
  5
133DE
  8
ALPHA
 10
225.815669
 20
130.993899
 30
0.0
  0
VERTEX
  5
133DF
  8
ALPHA
 10
225.237476
 20
132.67212
 30
0.0
  0
VERTEX
  5
133E0
  8
ALPHA
 10
224.659283
 20
134.350341
 30
0.0
  0
VERTEX
  5
133E1
  8
ALPHA
 10
224.468742
 20
134.903391
 30
0.0
  0
VERTEX
  5
133E2
  8
ALPHA
 10
224.396468
 20
135.113169
 30
0.0
  0
SEQEND
  5
133E3
  8
ALPHA
  0
POLYLINE
  5
125BD
  8
ALPHA
 66
     1
 10
0.0
 20
0.0
 30
0.0
 70
   128
  0
VERTEX
  5
133E4
  8
ALPHA
 10
221.828661
 20
138.466574
 30
0.0
  0
VERTEX
  5
133E5
  8
ALPHA
 10
220.255186
 20
139.095053
 30
0.0
  0
VERTEX
  5
133E6
  8
ALPHA
 10
218.678676
 20
138.466574
 30
0.0
  0
SEQEND
  5
133E7
  8
ALPHA
  0
LINE
  5
125BE
  8
ALPHA
 10
224.396468
 20
135.113169
 30
0.0
 11
223.28828
 21
136.865016
 31
0.0
  0
POLYLINE
  5
125BF
  8
ALPHA
 66
     1
 10
0.0
 20
0.0
 30
0.0
 70
   128
  0
VERTEX
  5
133E8
  8
ALPHA
 10
223.28828
 20
136.865016
 30
0.0
  0
VERTEX
  5
133E9
  8
ALPHA
 10
223.060215
 20
137.115259
 30
0.0
  0
VERTEX
  5
133EA
  8
ALPHA
 10
222.558471
 20
137.665795
 30
0.0
  0
VERTEX
  5
133EB
  8
ALPHA
 10
222.056726
 20
138.216331
 30
0.0
  0
VERTEX
  5
133EC
  8
ALPHA
 10
221.828661
 20
138.466574
 30
0.0
  0
SEQEND
  5
133ED
  8
ALPHA
  0
POLYLINE
  5
125C0
  8
ALPHA
 66
     1
 10
0.0
 20
0.0
 30
0.0
 70
   128
  0
VERTEX
  5
133EE
  8
ALPHA
 10
218.678676
 20
138.466574
 30
0.0
  0
VERTEX
  5
133EF
  8
ALPHA
 10
218.450373
 20
138.216331
 30
0.0
  0
VERTEX
  5
133F0
  8
ALPHA
 10
217.948107
 20
137.665795
 30
0.0
  0
VERTEX
  5
133F1
  8
ALPHA
 10
217.445841
 20
137.115259
 30
0.0
  0
VERTEX
  5
133F2
  8
ALPHA
 10
217.217538
 20
136.865016
 30
0.0
  0
SEQEND
  5
133F3
  8
ALPHA
  0
LINE
  5
125C1
  8
ALPHA
 10
217.217538
 20
136.865016
 30
0.0
 11
216.110868
 21
135.113169
 31
0.0
  0
LINE
  5
125C2
  8
ALPHA
 10
210.815098
 20
127.058315
 30
0.0
 11
205.203951
 21
125.500098
 31
0.0
  0
POLYLINE
  5
125C3
  8
ALPHA
 66
     1
 10
0.0
 20
0.0
 30
0.0
 70
   128
  0
VERTEX
  5
133F4
  8
ALPHA
 10
216.110868
 20
135.113169
 30
0.0
  0
VERTEX
  5
133F5
  8
ALPHA
 10
216.038529
 20
134.903391
 30
0.0
  0
VERTEX
  5
133F6
  8
ALPHA
 10
215.847816
 20
134.350341
 30
0.0
  0
VERTEX
  5
133F7
  8
ALPHA
 10
215.269101
 20
132.67212
 30
0.0
  0
VERTEX
  5
133F8
  8
ALPHA
 10
214.690386
 20
130.993899
 30
0.0
  0
VERTEX
  5
133F9
  8
ALPHA
 10
214.499674
 20
130.440849
 30
0.0
  0
VERTEX
  5
133FA
  8
ALPHA
 10
214.427334
 20
130.231071
 30
0.0
  0
SEQEND
  5
133FB
  8
ALPHA
  0
POLYLINE
  5
125C4
  8
ALPHA
 66
     1
 10
0.0
 20
0.0
 30
0.0
 70
   128
210
0.0
220
0.0
230
-1.0
  0
VERTEX
  5
133FC
  8
ALPHA
 10
-214.427334
 20
130.231071
 30
0.0
  0
VERTEX
  5
133FD
  8
ALPHA
 10
-213.036217
 20
128.186996
 30
0.0
  0
VERTEX
  5
133FE
  8
ALPHA
 10
-210.815098
 20
127.058315
 30
0.0
  0
SEQEND
  5
133FF
  8
ALPHA
  0
POLYLINE
  5
125C5
  8
ALPHA
 66
     1
 10
0.0
 20
0.0
 30
0.0
 70
   128
  0
VERTEX
  5
13400
  8
ALPHA
 10
229.720322
 20
127.082604
 30
0.0
  0
VERTEX
  5
13401
  8
ALPHA
 10
225.079123
 20
127.809567
 30
0.0
  0
VERTEX
  5
13402
  8
ALPHA
 10
220.293897
 20
128.057202
 30
0.0
  0
VERTEX
  5
13403
  8
ALPHA
 10
215.484097
 20
127.806911
 30
0.0
  0
VERTEX
  5
13404
  8
ALPHA
 10
210.816616
 20
127.070459
 30
0.0
  0
SEQEND
  5
13405
  8
ALPHA
  0
CIRCLE
  5
125C6
  8
ALPHA
 10
220.203951
 20
134.011053
 30
0.0
 40
2.492187
  0
DIMENSION
  5
125C7
  8
COTATION1
  2
*D3
 10
208.878481
 20
135.203871
 30
0.0
 11
246.975421
 21
96.704887
 31
0.0
 70
   131
  1
2x<>
 15
211.52942
 25
131.818236
 35
0.0
 40
0.0
1001
ACAD
1000
DSTYLE
1002
{
1070
   288
1070
     1
1002
}
  0
DIMENSION
  5
125C8
  8
COTATION1
  2
*D4
 10
258.714331
 20
133.511053
 30
0.0
 11
255.880998
 21
125.459332
 31
0.0
 70
   128
 13
235.353951
 23
135.511053
 33
0.0
 14
234.353951
 24
133.511053
 34
0.0
 50
90.0
1001
ACAD
1000
DSTYLE
1002
{
1070
   287
1070
     5
1070
   287
1070
     5
1070
   287
1070
     5
1070
   287
1070
     5
1070
   287
1070
     5
1070
   279
1070
     2
1070
   289
1070
     3
1002
}
  0
DIMENSION
  5
125C9
  8
COTATION1
  2
*D5
 10
268.714331
 20
79.011053
 30
0.0
 11
268.714331
 21
170.261053
 31
0.0
 13
223.403951
 23
261.511053
 33
0.0
 14
235.203951
 24
79.011053
 34
0.0
 50
90.0
  0
LINE
  5
125CA
  8
AXE
 10
230.203951
 20
129.361053
 30
0.0
 11
230.203951
 21
137.661053
 31
0.0
  0
LINE
  5
125CB
  8
AXE
 10
231.203951
 20
131.361053
 30
0.0
 11
231.203951
 21
139.661053
 31
0.0
  0
ARC
  5
125CC
  8
ALPHA
 10
230.203951
 20
133.511053
 30
0.0
 40
2.15
 50
122.336026
 51
270.0
  0
ARC
  5
125CD
  8
ALPHA
 10
231.203951
 20
133.511053
 30
0.0
 40
2.15
 50
270.0
 51
0.0
  0
ARC
  5
125CE
  8
ALPHA
 10
209.203951
 20
133.511053
 30
0.0
 40
2.15
 50
180.0
 51
270.0
  0
LINE
  5
125CF
  8
AXE
 10
210.203951
 20
129.361053
 30
0.0
 11
210.203951
 21
137.661053
 31
0.0
  0
LINE
  5
125D0
  8
AXE
 10
209.203951
 20
131.361053
 30
0.0
 11
209.203951
 21
139.661053
 31
0.0
  0
ARC
  5
125D1
  8
ALPHA
 10
210.203951
 20
133.511053
 30
0.0
 40
2.15
 50
270.0
 51
57.663974
  0
LINE
  5
125D2
  8
ALPHA
 10
235.203951
 20
139.511053
 30
0.0
 11
235.203951
 21
79.011053
 31
0.0
  0
LINE
  5
125D3
  8
AXE
 10
220.203951
 20
266.511053
 30
0.0
 11
220.203951
 21
63.011053
 31
0.0
  0
LINE
  5
125D4
  8
ALPHA
 10
205.203951
 20
79.011053
 30
0.0
 11
205.203951
 21
139.511053
 31
0.0
  0
LINE
  5
125D5
  8
AXE
 10
200.703951
 20
111.011053
 30
0.0
 11
250.703951
 21
111.011053
 31
0.0
  0
DIMENSION
  5
125D6
  8
COTATION1
  2
*D6
 10
235.203951
 20
49.011053
 30
0.0
 11
220.203951
 21
52.261053
 31
0.0
 13
205.203951
 23
79.011053
 33
0.0
 14
235.203951
 24
79.011053
 34
0.0
  0
TEXT
  5
125D7
  8
AXE
 10
212.72776
 20
63.011053
 30
0.0
 40
8.0
  1
Y
 72
     2
 11
219.203951
 21
63.011053
 31
0.0
  0
LINE
  5
125D8
  8
ALPHA
 10
205.203951
 20
79.011053
 30
0.0
 11
235.203951
 21
79.011053
 31
0.0
  0
LINE
  5
125D9
  8
ALPHA
 10
209.203951
 20
131.361053
 30
0.0
 11
210.203951
 21
131.361053
 31
0.0
  0
TEXT
  5
125DA
  8
AXE
 10
244.22776
 20
112.011053
 30
0.0
 40
8.0
  1
X
 72
     2
 11
250.703951
 21
112.011053
 31
0.0
  0
LINE
  5
125DB
  8
ALPHA
 10
231.203951
 20
131.361053
 30
0.0
 11
230.203951
 21
131.361053
 31
0.0
  0
DIMENSION
  5
125DD
  8
COTATION1
  2
*D7
 10
230.203951
 20
102.226812
 30
0.0
 11
220.203951
 21
105.476812
 31
0.0
 13
210.203951
 23
129.361053
 33
0.0
 14
230.203951
 24
129.361053
 34
0.0
  0
DIMENSION
  5
125DE
  8
COTATION1
  2
*D8
 10
231.203951
 20
91.962439
 30
0.0
 11
220.203951
 21
95.212439
 31
0.0
 13
209.203951
 23
131.361053
 33
0.0
 14
231.203951
 24
131.361053
 34
0.0
  0
LINE
  5
125DF
  8
ALPHA
 10
207.703951
 20
148.011053
 30
0.0
 11
220.203951
 21
148.011053
 31
0.0
  0
LINE
  5
125E0
  8
ALPHA
 10
207.703951
 20
146.511053
 30
0.0
 11
220.203951
 21
146.511053
 31
0.0
  0
LINE
  5
125E1
  8
ALPHA
 10
214.703951
 20
139.511053
 30
0.0
 11
220.203951
 21
139.511053
 31
0.0
  0
DIMENSION
  5
125E4
  8
COTATION1
  2
*D9
 10
223.403951
 20
276.511053
 30
0.0
 11
239.213475
 21
276.511053
 31
0.0
 70
   128
  1
%%c<>
 13
217.003951
 23
261.511053
 33
0.0
 14
223.403951
 24
261.511053
 34
0.0
  0
LINE
  5
125E5
  8
ALPHA
 10
207.703951
 20
148.011053
 30
0.0
 11
207.703951
 21
139.511053
 31
0.0
  0
LINE
  5
125E6
  8
AXE
 10
205.053951
 20
135.511053
 30
0.0
 11
213.353951
 21
135.511053
 31
0.0
  0
LINE
  5
125E7
  8
AXE
 10
206.053951
 20
133.511053
 30
0.0
 11
214.353951
 21
133.511053
 31
0.0
  0
ARC
  5
125E8
  8
ALPHA
 10
209.203951
 20
135.511053
 30
0.0
 40
2.15
 50
0.0
 51
180.0
  0
LINE
  5
125E9
  8
ALPHA
 10
207.703951
 20
143.511053
 30
0.0
 11
214.703951
 21
143.511053
 31
0.0
  0
LINE
  5
125EA
  8
ALPHA
 10
207.053951
 20
135.511053
 30
0.0
 11
207.053951
 21
133.511053
 31
0.0
  0
LINE
  5
125EB
  8
ALPHA
 10
205.203951
 20
139.511053
 30
0.0
 11
207.703951
 21
139.511053
 31
0.0
  0
LINE
  5
125EC
  8
ALPHA
 10
211.353951
 20
135.511053
 30
0.0
 11
211.353951
 21
135.327644
 31
0.0
  0
LINE
  5
125ED
  8
ALPHA
 10
214.703951
 20
143.511053
 30
0.0
 11
214.703951
 21
139.511053
 31
0.0
  0
DIMENSION
  5
125EF
  8
COTATION1
  2
*D10
 10
230.427457
 20
133.50617
 30
0.0
 11
251.290451
 21
156.543842
 31
0.0
 70
   131
  1
2x<>x6.3
 15
231.980445
 25
137.515937
 35
0.0
 40
0.0
1001
ACAD
1000
DSTYLE
1002
{
1070
   288
1070
     1
1002
}
  0
LINE
  5
125F0
  8
AXE
 10
235.353951
 20
135.511053
 30
0.0
 11
227.053951
 21
135.511053
 31
0.0
  0
LINE
  5
125F1
  8
AXE
 10
234.353951
 20
133.511053
 30
0.0
 11
226.053951
 21
133.511053
 31
0.0
  0
ARC
  5
125F2
  8
ALPHA
 10
231.203951
 20
135.511053
 30
0.0
 40
2.15
 50
0.0
 51
180.0
  0
LINE
  5
125F3
  8
ALPHA
 10
232.703951
 20
143.511053
 30
0.0
 11
225.703951
 21
143.511053
 31
0.0
  0
LINE
  5
125F4
  8
ALPHA
 10
232.703951
 20
146.511053
 30
0.0
 11
220.203951
 21
146.511053
 31
0.0
  0
LINE
  5
125F5
  8
ALPHA
 10
232.703951
 20
148.011053
 30
0.0
 11
220.203951
 21
148.011053
 31
0.0
  0
LINE
  5
125F6
  8
ALPHA
 10
225.703951
 20
139.511053
 30
0.0
 11
220.203951
 21
139.511053
 31
0.0
  0
LINE
  5
125F7
  8
ALPHA
 10
217.785067
 20
133.411053
 30
0.0
 11
222.622834
 21
133.411053
 31
0.0
  0
LINE
  5
125F8
  8
ALPHA
 10
217.785067
 20
134.611053
 30
0.0
 11
222.622834
 21
134.611053
 31
0.0
  0
LINE
  5
125F9
  8
ALPHA
 10
229.053951
 20
135.511053
 30
0.0
 11
229.053951
 21
135.327644
 31
0.0
  0
LINE
  5
125FA
  8
ALPHA
 10
225.703951
 20
143.511053
 30
0.0
 11
225.703951
 21
139.511053
 31
0.0
  0
LINE
  5
125FC
  8
ALPHA
 10
232.703951
 20
148.011053
 30
0.0
 11
232.703951
 21
139.511053
 31
0.0
  0
LINE
  5
125FD
  8
ALPHA
 10
233.353951
 20
135.511053
 30
0.0
 11
233.353951
 21
133.511053
 31
0.0
  0
LINE
  5
125FE
  8
ALPHA
 10
235.203951
 20
139.511053
 30
0.0
 11
232.703951
 21
139.511053
 31
0.0
  0
DIMENSION
  5
12E45
  8
COTATION1
  2
*D11
 10
185.879951
 20
133.511053
 30
0.0
 11
185.879951
 21
197.511053
 31
0.0
 13
217.003951
 23
261.511053
 33
0.0
 14
206.053951
 24
133.511053
 34
0.0
 50
90.0
  0
LINE
  5
12E85
  8
ALPHA
 10
222.76481
 20
259.259427
 30
0.0
 11
223.336548
 21
259.611053
 31
0.0
  0
POLYLINE
  5
12E86
  8
ALPHA
 66
     1
 10
0.0
 20
0.0
 30
0.0
 70
   128
  0
VERTEX
  5
13406
  8
ALPHA
 10
222.76481
 20
257.972309
 30
0.0
  0
VERTEX
  5
13407
  8
ALPHA
 10
223.219026
 20
258.161179
 30
0.0
  0
VERTEX
  5
13408
  8
ALPHA
 10
223.4061
 20
258.616624
 30
0.0
  0
VERTEX
  5
13409
  8
ALPHA
 10
223.219026
 20
259.071313
 30
0.0
  0
VERTEX
  5
1340A
  8
ALPHA
 10
222.76481
 20
259.259427
 30
0.0
  0
SEQEND
  5
1340B
  8
ALPHA
  0
POLYLINE
  5
12E87
  8
ALPHA
 66
     1
 10
0.0
 20
0.0
 30
0.0
 70
   128
  0
VERTEX
  5
1340C
  8
ALPHA
 10
222.76481
 20
256.683677
 30
0.0
  0
VERTEX
  5
1340D
  8
ALPHA
 10
223.219026
 20
256.871981
 30
0.0
  0
VERTEX
  5
1340E
  8
ALPHA
 10
223.4061
 20
257.327993
 30
0.0
  0
VERTEX
  5
1340F
  8
ALPHA
 10
223.219026
 20
257.783438
 30
0.0
  0
VERTEX
  5
13410
  8
ALPHA
 10
222.76481
 20
257.972309
 30
0.0
  0
SEQEND
  5
13411
  8
ALPHA
  0
POLYLINE
  5
12E88
  8
ALPHA
 66
     1
 10
0.0
 20
0.0
 30
0.0
 70
   128
  0
VERTEX
  5
13412
  8
ALPHA
 10
222.76481
 20
255.393534
 30
0.0
  0
VERTEX
  5
13413
  8
ALPHA
 10
223.219026
 20
255.58335
 30
0.0
  0
VERTEX
  5
13414
  8
ALPHA
 10
223.4061
 20
256.040874
 30
0.0
  0
VERTEX
  5
13415
  8
ALPHA
 10
223.219026
 20
256.495563
 30
0.0
  0
VERTEX
  5
13416
  8
ALPHA
 10
222.76481
 20
256.683677
 30
0.0
  0
SEQEND
  5
13417
  8
ALPHA
  0
POLYLINE
  5
12E89
  8
ALPHA
 66
     1
 10
0.0
 20
0.0
 30
0.0
 70
   128
  0
VERTEX
  5
13418
  8
ALPHA
 10
222.76481
 20
254.106415
 30
0.0
  0
VERTEX
  5
13419
  8
ALPHA
 10
223.219026
 20
254.295097
 30
0.0
  0
VERTEX
  5
1341A
  8
ALPHA
 10
223.4061
 20
254.749218
 30
0.0
  0
VERTEX
  5
1341B
  8
ALPHA
 10
223.219026
 20
255.20523
 30
0.0
  0
VERTEX
  5
1341C
  8
ALPHA
 10
222.76481
 20
255.393534
 30
0.0
  0
SEQEND
  5
1341D
  8
ALPHA
  0
POLYLINE
  5
12E8A
  8
ALPHA
 66
     1
 10
0.0
 20
0.0
 30
0.0
 70
   128
  0
VERTEX
  5
1341E
  8
ALPHA
 10
222.76481
 20
252.816271
 30
0.0
  0
VERTEX
  5
1341F
  8
ALPHA
 10
223.219026
 20
253.004575
 30
0.0
  0
VERTEX
  5
13420
  8
ALPHA
 10
223.4061
 20
253.460587
 30
0.0
  0
VERTEX
  5
13421
  8
ALPHA
 10
223.219026
 20
253.917922
 30
0.0
  0
VERTEX
  5
13422
  8
ALPHA
 10
222.76481
 20
254.106415
 30
0.0
  0
SEQEND
  5
13423
  8
ALPHA
  0
POLYLINE
  5
12E8B
  8
ALPHA
 66
     1
 10
0.0
 20
0.0
 30
0.0
 70
   128
  0
VERTEX
  5
13424
  8
ALPHA
 10
222.76481
 20
251.52764
 30
0.0
  0
VERTEX
  5
13425
  8
ALPHA
 10
223.219026
 20
251.717078
 30
0.0
  0
VERTEX
  5
13426
  8
ALPHA
 10
223.4061
 20
252.171956
 30
0.0
  0
VERTEX
  5
13427
  8
ALPHA
 10
223.219026
 20
252.627968
 30
0.0
  0
VERTEX
  5
13428
  8
ALPHA
 10
222.76481
 20
252.816271
 30
0.0
  0
SEQEND
  5
13429
  8
ALPHA
  0
POLYLINE
  5
12E8C
  8
ALPHA
 66
     1
 10
0.0
 20
0.0
 30
0.0
 70
   128
  0
VERTEX
  5
1342A
  8
ALPHA
 10
222.76481
 20
250.242034
 30
0.0
  0
VERTEX
  5
1342B
  8
ALPHA
 10
223.219026
 20
250.429959
 30
0.0
  0
VERTEX
  5
1342C
  8
ALPHA
 10
223.4061
 20
250.883325
 30
0.0
  0
VERTEX
  5
1342D
  8
ALPHA
 10
223.219026
 20
251.339337
 30
0.0
  0
VERTEX
  5
1342E
  8
ALPHA
 10
222.76481
 20
251.52764
 30
0.0
  0
SEQEND
  5
1342F
  8
ALPHA
  0
POLYLINE
  5
12E8D
  8
ALPHA
 66
     1
 10
0.0
 20
0.0
 30
0.0
 70
   128
  0
VERTEX
  5
13430
  8
ALPHA
 10
222.76481
 20
248.954915
 30
0.0
  0
VERTEX
  5
13431
  8
ALPHA
 10
223.219026
 20
249.142462
 30
0.0
  0
VERTEX
  5
13432
  8
ALPHA
 10
223.4061
 20
249.597718
 30
0.0
  0
VERTEX
  5
13433
  8
ALPHA
 10
223.219026
 20
250.052596
 30
0.0
  0
VERTEX
  5
13434
  8
ALPHA
 10
222.76481
 20
250.242034
 30
0.0
  0
SEQEND
  5
13435
  8
ALPHA
  0
POLYLINE
  5
12E8E
  8
ALPHA
 66
     1
 10
0.0
 20
0.0
 30
0.0
 70
   128
  0
VERTEX
  5
13436
  8
ALPHA
 10
222.76481
 20
247.667796
 30
0.0
  0
VERTEX
  5
13437
  8
ALPHA
 10
223.219026
 20
247.855722
 30
0.0
  0
VERTEX
  5
13438
  8
ALPHA
 10
223.4061
 20
248.309087
 30
0.0
  0
VERTEX
  5
13439
  8
ALPHA
 10
223.219026
 20
248.765855
 30
0.0
  0
VERTEX
  5
1343A
  8
ALPHA
 10
222.76481
 20
248.954915
 30
0.0
  0
SEQEND
  5
1343B
  8
ALPHA
  0
POLYLINE
  5
12E8F
  8
ALPHA
 66
     1
 10
0.0
 20
0.0
 30
0.0
 70
   128
  0
VERTEX
  5
1343C
  8
ALPHA
 10
222.76481
 20
246.377653
 30
0.0
  0
VERTEX
  5
1343D
  8
ALPHA
 10
223.219026
 20
246.565956
 30
0.0
  0
VERTEX
  5
1343E
  8
ALPHA
 10
223.4061
 20
247.021968
 30
0.0
  0
VERTEX
  5
1343F
  8
ALPHA
 10
223.219026
 20
247.478169
 30
0.0
  0
VERTEX
  5
13440
  8
ALPHA
 10
222.76481
 20
247.667796
 30
0.0
  0
SEQEND
  5
13441
  8
ALPHA
  0
POLYLINE
  5
12E90
  8
ALPHA
 66
     1
 10
0.0
 20
0.0
 30
0.0
 70
   128
  0
VERTEX
  5
13442
  8
ALPHA
 10
222.76481
 20
245.090534
 30
0.0
  0
VERTEX
  5
13443
  8
ALPHA
 10
223.219026
 20
245.278837
 30
0.0
  0
VERTEX
  5
13444
  8
ALPHA
 10
223.4061
 20
245.73485
 30
0.0
  0
VERTEX
  5
13445
  8
ALPHA
 10
223.219026
 20
246.188971
 30
0.0
  0
VERTEX
  5
13446
  8
ALPHA
 10
222.76481
 20
246.377653
 30
0.0
  0
SEQEND
  5
13447
  8
ALPHA
  0
POLYLINE
  5
12E91
  8
ALPHA
 66
     1
 10
0.0
 20
0.0
 30
0.0
 70
   128
  0
VERTEX
  5
13448
  8
ALPHA
 10
222.76481
 20
243.804928
 30
0.0
  0
VERTEX
  5
13449
  8
ALPHA
 10
223.219026
 20
243.992853
 30
0.0
  0
VERTEX
  5
1344A
  8
ALPHA
 10
223.4061
 20
244.446218
 30
0.0
  0
VERTEX
  5
1344B
  8
ALPHA
 10
223.219026
 20
244.901663
 30
0.0
  0
VERTEX
  5
1344C
  8
ALPHA
 10
222.76481
 20
245.090534
 30
0.0
  0
SEQEND
  5
1344D
  8
ALPHA
  0
POLYLINE
  5
12E92
  8
ALPHA
 66
     1
 10
0.0
 20
0.0
 30
0.0
 70
   128
  0
VERTEX
  5
1344E
  8
ALPHA
 10
222.76481
 20
242.517809
 30
0.0
  0
VERTEX
  5
1344F
  8
ALPHA
 10
223.219026
 20
242.705167
 30
0.0
  0
VERTEX
  5
13450
  8
ALPHA
 10
223.4061
 20
243.1591
 30
0.0
  0
VERTEX
  5
13451
  8
ALPHA
 10
223.219026
 20
243.615301
 30
0.0
  0
VERTEX
  5
13452
  8
ALPHA
 10
222.76481
 20
243.804928
 30
0.0
  0
SEQEND
  5
13453
  8
ALPHA
  0
POLYLINE
  5
12E93
  8
ALPHA
 66
     1
 10
0.0
 20
0.0
 30
0.0
 70
   128
  0
VERTEX
  5
13454
  8
ALPHA
 10
222.76481
 20
241.229178
 30
0.0
  0
VERTEX
  5
13455
  8
ALPHA
 10
223.219026
 20
241.416725
 30
0.0
  0
VERTEX
  5
13456
  8
ALPHA
 10
223.4061
 20
241.871981
 30
0.0
  0
VERTEX
  5
13457
  8
ALPHA
 10
223.219026
 20
242.328182
 30
0.0
  0
VERTEX
  5
13458
  8
ALPHA
 10
222.76481
 20
242.517809
 30
0.0
  0
SEQEND
  5
13459
  8
ALPHA
  0
POLYLINE
  5
12E94
  8
ALPHA
 66
     1
 10
0.0
 20
0.0
 30
0.0
 70
   128
  0
VERTEX
  5
1345A
  8
ALPHA
 10
217.639778
 20
240.524363
 30
0.0
  0
VERTEX
  5
1345B
  8
ALPHA
 10
217.859994
 20
240.554648
 30
0.0
  0
VERTEX
  5
1345C
  8
ALPHA
 10
218.440564
 20
240.63449
 30
0.0
  0
VERTEX
  5
1345D
  8
ALPHA
 10
220.202294
 20
240.87677
 30
0.0
  0
VERTEX
  5
1345E
  8
ALPHA
 10
221.964023
 20
241.11905
 30
0.0
  0
VERTEX
  5
1345F
  8
ALPHA
 10
222.544593
 20
241.198893
 30
0.0
  0
VERTEX
  5
13460
  8
ALPHA
 10
222.76481
 20
241.229178
 30
0.0
  0
SEQEND
  5
13461
  8
ALPHA
  0
POLYLINE
  5
12E95
  8
ALPHA
 66
     1
 10
0.0
 20
0.0
 30
0.0
 70
   128
  0
VERTEX
  5
13462
  8
ALPHA
 10
217.143018
 20
259.611053
 30
0.0
  0
VERTEX
  5
13463
  8
ALPHA
 10
217.165806
 20
258.757373
 30
0.0
  0
VERTEX
  5
13464
  8
ALPHA
 10
217.573223
 20
258.554945
 30
0.0
  0
VERTEX
  5
13465
  8
ALPHA
 10
217.258778
 20
258.429694
 30
0.0
  0
VERTEX
  5
13466
  8
ALPHA
 10
217.072647
 20
257.598952
 30
0.0
  0
VERTEX
  5
13467
  8
ALPHA
 10
217.413032
 20
257.306407
 30
0.0
  0
VERTEX
  5
13468
  8
ALPHA
 10
217.631594
 20
257.265931
 30
0.0
  0
VERTEX
  5
13469
  8
ALPHA
 10
217.398655
 20
257.220028
 30
0.0
  0
VERTEX
  5
1346A
  8
ALPHA
 10
217.013086
 20
256.459336
 30
0.0
  0
VERTEX
  5
1346B
  8
ALPHA
 10
217.557334
 20
255.972235
 30
0.0
  0
VERTEX
  5
1346C
  8
ALPHA
 10
216.992441
 20
255.335302
 30
0.0
  0
VERTEX
  5
1346D
  8
ALPHA
 10
217.55293
 20
254.691461
 30
0.0
  0
VERTEX
  5
1346E
  8
ALPHA
 10
217.014186
 20
254.209806
 30
0.0
  0
VERTEX
  5
1346F
  8
ALPHA
 10
217.394682
 20
253.447216
 30
0.0
  0
VERTEX
  5
13470
  8
ALPHA
 10
217.627046
 20
253.400208
 30
0.0
  0
VERTEX
  5
13471
  8
ALPHA
 10
217.417066
 20
253.360958
 30
0.0
  0
VERTEX
  5
13472
  8
ALPHA
 10
217.074706
 20
253.069662
 30
0.0
  0
VERTEX
  5
13473
  8
ALPHA
 10
217.255375
 20
252.235813
 30
0.0
  0
VERTEX
  5
13474
  8
ALPHA
 10
217.577669
 20
252.107037
 30
0.0
  0
VERTEX
  5
13475
  8
ALPHA
 10
217.168684
 20
251.907602
 30
0.0
  0
VERTEX
  5
13476
  8
ALPHA
 10
217.140327
 20
251.055293
 30
0.0
  0
VERTEX
  5
13477
  8
ALPHA
 10
217.532839
 20
250.831472
 30
0.0
  0
VERTEX
  5
13478
  8
ALPHA
 10
217.290803
 20
250.721349
 30
0.0
  0
VERTEX
  5
13479
  8
ALPHA
 10
217.054855
 20
249.901242
 30
0.0
  0
VERTEX
  5
1347A
  8
ALPHA
 10
217.376611
 20
249.590232
 30
0.0
  0
VERTEX
  5
1347B
  8
ALPHA
 10
217.606272
 20
249.536536
 30
0.0
  0
VERTEX
  5
1347C
  8
ALPHA
 10
217.435745
 20
249.502926
 30
0.0
  0
VERTEX
  5
1347D
  8
ALPHA
 10
217.004276
 20
248.766379
 30
0.0
  0
VERTEX
  5
1347E
  8
ALPHA
 10
217.598195
 20
248.244285
 30
0.0
  0
VERTEX
  5
1347F
  8
ALPHA
 10
216.993877
 20
247.647813
 30
0.0
  0
VERTEX
  5
13480
  8
ALPHA
 10
217.512959
 20
246.973573
 30
0.0
  0
VERTEX
  5
13481
  8
ALPHA
 10
217.025548
 20
246.519525
 30
0.0
  0
VERTEX
  5
13482
  8
ALPHA
 10
217.358831
 20
245.735685
 30
0.0
  0
VERTEX
  5
13483
  8
ALPHA
 10
217.585674
 20
245.675018
 30
0.0
  0
VERTEX
  5
13484
  8
ALPHA
 10
217.454684
 20
245.646136
 30
0.0
  0
VERTEX
  5
13485
  8
ALPHA
 10
217.0947
 20
245.375644
 30
0.0
  0
VERTEX
  5
13486
  8
ALPHA
 10
217.224939
 20
244.533695
 30
0.0
  0
VERTEX
  5
13487
  8
ALPHA
 10
217.618901
 20
244.385391
 30
0.0
  0
VERTEX
  5
13488
  8
ALPHA
 10
217.196016
 20
244.2106
 30
0.0
  0
VERTEX
  5
13489
  8
ALPHA
 10
217.116599
 20
243.360539
 30
0.0
  0
VERTEX
  5
1348A
  8
ALPHA
 10
217.493301
 20
243.112048
 30
0.0
  0
VERTEX
  5
1348B
  8
ALPHA
 10
217.545048
 20
243.088774
 30
0.0
  0
VERTEX
  5
1348C
  8
ALPHA
 10
217.324179
 20
243.01438
 30
0.0
  0
VERTEX
  5
1348D
  8
ALPHA
 10
217.03913
 20
242.212555
 30
0.0
  0
VERTEX
  5
1348E
  8
ALPHA
 10
217.341351
 20
241.881776
 30
0.0
  0
VERTEX
  5
1348F
  8
ALPHA
 10
217.565263
 20
241.814141
 30
0.0
  0
VERTEX
  5
13490
  8
ALPHA
 10
217.473872
 20
241.788738
 30
0.0
  0
VERTEX
  5
13491
  8
ALPHA
 10
216.997847
 20
241.081884
 30
0.0
  0
VERTEX
  5
13492
  8
ALPHA
 10
217.639778
 20
240.524363
 30
0.0
  0
SEQEND
  5
13493
  8
ALPHA
  0
POLYLINE
  5
12E96
  8
ALPHA
 66
     1
 10
0.0
 20
0.0
 30
0.0
 70
   128
  0
VERTEX
  5
13494
  8
ALPHA
 10
222.76481
 20
241.229178
 30
0.0
  0
VERTEX
  5
13495
  8
ALPHA
 10
222.53128
 20
241.196924
 30
0.0
  0
VERTEX
  5
13496
  8
ALPHA
 10
221.918515
 20
241.112292
 30
0.0
  0
VERTEX
  5
13497
  8
ALPHA
 10
220.082215
 20
240.858673
 30
0.0
  0
VERTEX
  5
13498
  8
ALPHA
 10
218.309786
 20
240.613876
 30
0.0
  0
VERTEX
  5
13499
  8
ALPHA
 10
217.77686
 20
240.540271
 30
0.0
  0
VERTEX
  5
1349A
  8
ALPHA
 10
217.606317
 20
240.520503
 30
0.0
  0
VERTEX
  5
1349B
  8
ALPHA
 10
217.149721
 20
240.298879
 30
0.0
  0
VERTEX
  5
1349C
  8
ALPHA
 10
216.995761
 20
239.810216
 30
0.0
  0
VERTEX
  5
1349D
  8
ALPHA
 10
217.540802
 20
239.225347
 30
0.0
  0
VERTEX
  5
1349E
  8
ALPHA
 10
217.111395
 20
238.962856
 30
0.0
  0
VERTEX
  5
1349F
  8
ALPHA
 10
217.00552
 20
238.460105
 30
0.0
  0
VERTEX
  5
134A0
  8
ALPHA
 10
217.290117
 20
238.04613
 30
0.0
  0
VERTEX
  5
134A1
  8
ALPHA
 10
217.532757
 20
237.952826
 30
0.0
  0
VERTEX
  5
134A2
  8
ALPHA
 10
217.477431
 20
237.923964
 30
0.0
  0
VERTEX
  5
134A3
  8
ALPHA
 10
217.077834
 20
237.622551
 30
0.0
  0
VERTEX
  5
134A4
  8
ALPHA
 10
217.021395
 20
237.111339
 30
0.0
  0
VERTEX
  5
134A5
  8
ALPHA
 10
217.344328
 20
236.729034
 30
0.0
  0
VERTEX
  5
134A6
  8
ALPHA
 10
217.598021
 20
236.659779
 30
0.0
  0
VERTEX
  5
134A7
  8
ALPHA
 10
217.416521
 20
236.619326
 30
0.0
  0
VERTEX
  5
134A8
  8
ALPHA
 10
217.049358
 20
236.279136
 30
0.0
  0
VERTEX
  5
134A9
  8
ALPHA
 10
217.04307
 20
235.763532
 30
0.0
  0
VERTEX
  5
134AA
  8
ALPHA
 10
217.401715
 20
235.414582
 30
0.0
  0
VERTEX
  5
134AB
  8
ALPHA
 10
217.614641
 20
235.369367
 30
0.0
  0
VERTEX
  5
134AC
  8
ALPHA
 10
217.358389
 20
235.306489
 30
0.0
  0
VERTEX
  5
134AD
  8
ALPHA
 10
217.026283
 20
234.932599
 30
0.0
  0
VERTEX
  5
134AE
  8
ALPHA
 10
217.070226
 20
234.417885
 30
0.0
  0
VERTEX
  5
134AF
  8
ALPHA
 10
217.46196
 20
234.102892
 30
0.0
  0
VERTEX
  5
134B0
  8
ALPHA
 10
217.548881
 20
234.071985
 30
0.0
  0
VERTEX
  5
134B1
  8
ALPHA
 10
217.303355
 20
233.985571
 30
0.0
  0
VERTEX
  5
134B2
  8
ALPHA
 10
217.008927
 20
233.58115
 30
0.0
  0
VERTEX
  5
134B3
  8
ALPHA
 10
217.102546
 20
233.075132
 30
0.0
  0
VERTEX
  5
134B4
  8
ALPHA
 10
217.524746
 20
232.802554
 30
0.0
  0
VERTEX
  5
134B5
  8
ALPHA
 10
217.251735
 20
232.663906
 30
0.0
  0
VERTEX
  5
134B6
  8
ALPHA
 10
216.99761
 20
232.228754
 30
0.0
  0
VERTEX
  5
134B7
  8
ALPHA
 10
217.13971
 20
231.737703
 30
0.0
  0
VERTEX
  5
134B8
  8
ALPHA
 10
217.589755
 20
231.504323
 30
0.0
  0
VERTEX
  5
134B9
  8
ALPHA
 10
217.203847
 20
231.334594
 30
0.0
  0
VERTEX
  5
134BA
  8
ALPHA
 10
216.992648
 20
230.871842
 30
0.0
  0
VERTEX
  5
134BB
  8
ALPHA
 10
217.181403
 20
230.40305
 30
0.0
  0
VERTEX
  5
134BC
  8
ALPHA
 10
217.622993
 20
230.215102
 30
0.0
  0
VERTEX
  5
134BD
  8
ALPHA
 10
217.16001
 20
230.003684
 30
0.0
  0
VERTEX
  5
134BE
  8
ALPHA
 10
216.994314
 20
229.52241
 30
0.0
  0
VERTEX
  5
134BF
  8
ALPHA
 10
217.227305
 20
229.073993
 30
0.0
  0
VERTEX
  5
134C0
  8
ALPHA
 10
217.556993
 20
228.922959
 30
0.0
  0
VERTEX
  5
134C1
  8
ALPHA
 10
217.120542
 20
228.667589
 30
0.0
  0
VERTEX
  5
134C2
  8
ALPHA
 10
217.002494
 20
228.16842
 30
0.0
  0
VERTEX
  5
134C3
  8
ALPHA
 10
217.277098
 20
227.748199
 30
0.0
  0
VERTEX
  5
134C4
  8
ALPHA
 10
217.51677
 20
227.649595
 30
0.0
  0
VERTEX
  5
134C5
  8
ALPHA
 10
217.493056
 20
227.621771
 30
0.0
  0
VERTEX
  5
134C6
  8
ALPHA
 10
217.08576
 20
227.330523
 30
0.0
  0
VERTEX
  5
134C7
  8
ALPHA
 10
217.01687
 20
226.819566
 30
0.0
  0
VERTEX
  5
134C8
  8
ALPHA
 10
217.330465
 20
226.430846
 30
0.0
  0
VERTEX
  5
134C9
  8
ALPHA
 10
217.581518
 20
226.356474
 30
0.0
  0
VERTEX
  5
134CA
  8
ALPHA
 10
217.4315
 20
226.319752
 30
0.0
  0
VERTEX
  5
134CB
  8
ALPHA
 10
217.055983
 20
225.986919
 30
0.0
  0
VERTEX
  5
134CC
  8
ALPHA
 10
217.037125
 20
225.471632
 30
0.0
  0
VERTEX
  5
134CD
  8
ALPHA
 10
217.387088
 20
225.115569
 30
0.0
  0
VERTEX
  5
134CE
  8
ALPHA
 10
217.631372
 20
225.065273
 30
0.0
  0
VERTEX
  5
134CF
  8
ALPHA
 10
217.372644
 20
225.008082
 30
0.0
  0
VERTEX
  5
134D0
  8
ALPHA
 10
217.031528
 20
224.641055
 30
0.0
  0
VERTEX
  5
134D1
  8
ALPHA
 10
217.062941
 20
224.126996
 30
0.0
  0
VERTEX
  5
134D2
  8
ALPHA
 10
217.446649
 20
223.806931
 30
0.0
  0
VERTEX
  5
134D3
  8
ALPHA
 10
217.565136
 20
223.77398
 30
0.0
  0
VERTEX
  5
134D4
  8
ALPHA
 10
217.316806
 20
223.692478
 30
0.0
  0
VERTEX
  5
134D5
  8
ALPHA
 10
217.012713
 20
223.295182
 30
0.0
  0
VERTEX
  5
134D6
  8
ALPHA
 10
217.093999
 20
222.786078
 30
0.0
  0
VERTEX
  5
134D7
  8
ALPHA
 10
217.508829
 20
222.501177
 30
0.0
  0
VERTEX
  5
134D8
  8
ALPHA
 10
216.999856
 20
221.944027
 30
0.0
  0
VERTEX
  5
134D9
  8
ALPHA
 10
217.129982
 20
221.448516
 30
0.0
  0
VERTEX
  5
134DA
  8
ALPHA
 10
217.573312
 20
221.205772
 30
0.0
  0
VERTEX
  5
134DB
  8
ALPHA
 10
216.993275
 20
220.591262
 30
0.0
  0
VERTEX
  5
134DC
  8
ALPHA
 10
217.170573
 20
220.115204
 30
0.0
  0
VERTEX
  5
134DD
  8
ALPHA
 10
217.639778
 20
219.916851
 30
0.0
  0
SEQEND
  5
134DE
  8
ALPHA
  0
POLYLINE
  5
12E97
  8
ALPHA
 66
     1
 10
0.0
 20
0.0
 30
0.0
 70
   128
  0
VERTEX
  5
134DF
  8
ALPHA
 10
217.639778
 20
219.916851
 30
0.0
  0
VERTEX
  5
134E0
  8
ALPHA
 10
217.873307
 20
219.948967
 30
0.0
  0
VERTEX
  5
134E1
  8
ALPHA
 10
218.486073
 20
220.033237
 30
0.0
  0
VERTEX
  5
134E2
  8
ALPHA
 10
220.322373
 20
220.285772
 30
0.0
  0
VERTEX
  5
134E3
  8
ALPHA
 10
222.094801
 20
220.529524
 30
0.0
  0
VERTEX
  5
134E4
  8
ALPHA
 10
222.627727
 20
220.602814
 30
0.0
  0
VERTEX
  5
134E5
  8
ALPHA
 10
222.797987
 20
220.622497
 30
0.0
  0
VERTEX
  5
134E6
  8
ALPHA
 10
223.250398
 20
220.843016
 30
0.0
  0
VERTEX
  5
134E7
  8
ALPHA
 10
223.402811
 20
221.330295
 30
0.0
  0
VERTEX
  5
134E8
  8
ALPHA
 10
222.862937
 20
221.917656
 30
0.0
  0
VERTEX
  5
134E9
  8
ALPHA
 10
223.288347
 20
222.179805
 30
0.0
  0
VERTEX
  5
134EA
  8
ALPHA
 10
223.393154
 20
222.681386
 30
0.0
  0
VERTEX
  5
134EB
  8
ALPHA
 10
223.11135
 20
223.095361
 30
0.0
  0
VERTEX
  5
134EC
  8
ALPHA
 10
222.870912
 20
223.188666
 30
0.0
  0
VERTEX
  5
134ED
  8
ALPHA
 10
222.92575
 20
223.217621
 30
0.0
  0
VERTEX
  5
134EE
  8
ALPHA
 10
223.321574
 20
223.519613
 30
0.0
  0
VERTEX
  5
134EF
  8
ALPHA
 10
223.377442
 20
224.030153
 30
0.0
  0
VERTEX
  5
134F0
  8
ALPHA
 10
223.057645
 20
224.412457
 30
0.0
  0
VERTEX
  5
134F1
  8
ALPHA
 10
222.806212
 20
224.481713
 30
0.0
  0
VERTEX
  5
134F2
  8
ALPHA
 10
222.986113
 20
224.521996
 30
0.0
  0
VERTEX
  5
134F3
  8
ALPHA
 10
223.349764
 20
224.861706
 30
0.0
  0
VERTEX
  5
134F4
  8
ALPHA
 10
223.355988
 20
225.377086
 30
0.0
  0
VERTEX
  5
134F5
  8
ALPHA
 10
223.000785
 20
225.725416
 30
0.0
  0
VERTEX
  5
134F6
  8
ALPHA
 10
222.789734
 20
225.770612
 30
0.0
  0
VERTEX
  5
134F7
  8
ALPHA
 10
223.043713
 20
225.83349
 30
0.0
  0
VERTEX
  5
134F8
  8
ALPHA
 10
223.372604
 20
226.20738
 30
0.0
  0
VERTEX
  5
134F9
  8
ALPHA
 10
223.329105
 20
226.721743
 30
0.0
  0
VERTEX
  5
134FA
  8
ALPHA
 10
222.941083
 20
227.035693
 30
0.0
  0
VERTEX
  5
134FB
  8
ALPHA
 10
222.854929
 20
227.066511
 30
0.0
  0
VERTEX
  5
134FC
  8
ALPHA
 10
223.098236
 20
227.153186
 30
0.0
  0
VERTEX
  5
134FD
  8
ALPHA
 10
223.389781
 20
227.556827
 30
0.0
  0
VERTEX
  5
134FE
  8
ALPHA
 10
223.297109
 20
228.06278
 30
0.0
  0
VERTEX
  5
134FF
  8
ALPHA
 10
222.878853
 20
228.337324
 30
0.0
  0
VERTEX
  5
13500
  8
ALPHA
 10
223.149369
 20
228.474537
 30
0.0
  0
VERTEX
  5
13501
  8
ALPHA
 10
223.400982
 20
228.907951
 30
0.0
  0
VERTEX
  5
13502
  8
ALPHA
 10
223.260311
 20
229.399251
 30
0.0
  0
VERTEX
  5
13503
  8
ALPHA
 10
222.814408
 20
229.632631
 30
0.0
  0
VERTEX
  5
13504
  8
ALPHA
 10
223.196798
 20
229.801207
 30
0.0
  0
VERTEX
  5
13505
  8
ALPHA
 10
223.405892
 20
230.259272
 30
0.0
  0
VERTEX
  5
13506
  8
ALPHA
 10
223.219026
 20
230.731825
 30
0.0
  0
VERTEX
  5
13507
  8
ALPHA
 10
222.781453
 20
230.92034
 30
0.0
  0
VERTEX
  5
13508
  8
ALPHA
 10
223.24021
 20
231.131985
 30
0.0
  0
VERTEX
  5
13509
  8
ALPHA
 10
223.404243
 20
231.614158
 30
0.0
  0
VERTEX
  5
1350A
  8
ALPHA
 10
223.173566
 20
232.061984
 30
0.0
  0
VERTEX
  5
1350B
  8
ALPHA
 10
222.846888
 20
232.213917
 30
0.0
  0
VERTEX
  5
1350C
  8
ALPHA
 10
223.27929
 20
232.467098
 30
0.0
  0
VERTEX
  5
1350D
  8
ALPHA
 10
223.396148
 20
232.96786
 30
0.0
  0
VERTEX
  5
1350E
  8
ALPHA
 10
223.124246
 20
233.389074
 30
0.0
  0
VERTEX
  5
1350F
  8
ALPHA
 10
222.886759
 20
233.487412
 30
0.0
  0
VERTEX
  5
13510
  8
ALPHA
 10
222.910264
 20
233.515419
 30
0.0
  0
VERTEX
  5
13511
  8
ALPHA
 10
223.313727
 20
233.808874
 30
0.0
  0
VERTEX
  5
13512
  8
ALPHA
 10
223.38192
 20
234.318484
 30
0.0
  0
VERTEX
  5
13513
  8
ALPHA
 10
223.071379
 20
234.708478
 30
0.0
  0
VERTEX
  5
13514
  8
ALPHA
 10
222.822574
 20
234.783479
 30
0.0
  0
VERTEX
  5
13515
  8
ALPHA
 10
222.971269
 20
234.820091
 30
0.0
  0
VERTEX
  5
13516
  8
ALPHA
 10
223.343205
 20
235.152963
 30
0.0
  0
VERTEX
  5
13517
  8
ALPHA
 10
223.361872
 20
235.669236
 30
0.0
  0
VERTEX
  5
13518
  8
ALPHA
 10
223.015278
 20
236.02571
 30
0.0
  0
VERTEX
  5
13519
  8
ALPHA
 10
222.773145
 20
236.076218
 30
0.0
  0
VERTEX
  5
1351A
  8
ALPHA
 10
223.029589
 20
236.132911
 30
0.0
  0
VERTEX
  5
1351B
  8
ALPHA
 10
223.367413
 20
236.498503
 30
0.0
  0
VERTEX
  5
1351C
  8
ALPHA
 10
223.336318
 20
237.013625
 30
0.0
  0
VERTEX
  5
1351D
  8
ALPHA
 10
222.956257
 20
237.335794
 30
0.0
  0
VERTEX
  5
1351E
  8
ALPHA
 10
222.838814
 20
237.369004
 30
0.0
  0
VERTEX
  5
1351F
  8
ALPHA
 10
223.084911
 20
237.450251
 30
0.0
  0
VERTEX
  5
13520
  8
ALPHA
 10
223.386035
 20
237.848226
 30
0.0
  0
VERTEX
  5
13521
  8
ALPHA
 10
223.30557
 20
238.355763
 30
0.0
  0
VERTEX
  5
13522
  8
ALPHA
 10
222.89463
 20
238.638873
 30
0.0
  0
VERTEX
  5
13523
  8
ALPHA
 10
223.398759
 20
239.198204
 30
0.0
  0
VERTEX
  5
13524
  8
ALPHA
 10
223.269943
 20
239.693908
 30
0.0
  0
VERTEX
  5
13525
  8
ALPHA
 10
222.83071
 20
239.935737
 30
0.0
  0
VERTEX
  5
13526
  8
ALPHA
 10
223.405271
 20
240.550363
 30
0.0
  0
VERTEX
  5
13527
  8
ALPHA
 10
223.22975
 20
241.029035
 30
0.0
  0
VERTEX
  5
13528
  8
ALPHA
 10
222.76481
 20
241.229178
 30
0.0
  0
SEQEND
  5
13529
  8
ALPHA
  0
POLYLINE
  5
12E98
  8
ALPHA
 66
     1
 10
0.0
 20
0.0
 30
0.0
 70
   128
  0
VERTEX
  5
1352A
  8
ALPHA
 10
217.639778
 20
199.309339
 30
0.0
  0
VERTEX
  5
1352B
  8
ALPHA
 10
217.873307
 20
199.341455
 30
0.0
  0
VERTEX
  5
1352C
  8
ALPHA
 10
218.486073
 20
199.425725
 30
0.0
  0
VERTEX
  5
1352D
  8
ALPHA
 10
220.322373
 20
199.67826
 30
0.0
  0
VERTEX
  5
1352E
  8
ALPHA
 10
222.094801
 20
199.922012
 30
0.0
  0
VERTEX
  5
1352F
  8
ALPHA
 10
222.627727
 20
199.995302
 30
0.0
  0
VERTEX
  5
13530
  8
ALPHA
 10
222.797987
 20
200.014985
 30
0.0
  0
VERTEX
  5
13531
  8
ALPHA
 10
223.250398
 20
200.235504
 30
0.0
  0
VERTEX
  5
13532
  8
ALPHA
 10
223.402811
 20
200.722783
 30
0.0
  0
VERTEX
  5
13533
  8
ALPHA
 10
222.862937
 20
201.310144
 30
0.0
  0
VERTEX
  5
13534
  8
ALPHA
 10
223.288347
 20
201.572293
 30
0.0
  0
VERTEX
  5
13535
  8
ALPHA
 10
223.393154
 20
202.073874
 30
0.0
  0
VERTEX
  5
13536
  8
ALPHA
 10
223.11135
 20
202.487849
 30
0.0
  0
VERTEX
  5
13537
  8
ALPHA
 10
222.870912
 20
202.581154
 30
0.0
  0
VERTEX
  5
13538
  8
ALPHA
 10
222.92575
 20
202.610109
 30
0.0
  0
VERTEX
  5
13539
  8
ALPHA
 10
223.321574
 20
202.912101
 30
0.0
  0
VERTEX
  5
1353A
  8
ALPHA
 10
223.377442
 20
203.422641
 30
0.0
  0
VERTEX
  5
1353B
  8
ALPHA
 10
223.057645
 20
203.804945
 30
0.0
  0
VERTEX
  5
1353C
  8
ALPHA
 10
222.806212
 20
203.874201
 30
0.0
  0
VERTEX
  5
1353D
  8
ALPHA
 10
222.986113
 20
203.914484
 30
0.0
  0
VERTEX
  5
1353E
  8
ALPHA
 10
223.349764
 20
204.254194
 30
0.0
  0
VERTEX
  5
1353F
  8
ALPHA
 10
223.355988
 20
204.769574
 30
0.0
  0
VERTEX
  5
13540
  8
ALPHA
 10
223.000785
 20
205.117904
 30
0.0
  0
VERTEX
  5
13541
  8
ALPHA
 10
222.789734
 20
205.1631
 30
0.0
  0
VERTEX
  5
13542
  8
ALPHA
 10
223.043713
 20
205.225978
 30
0.0
  0
VERTEX
  5
13543
  8
ALPHA
 10
223.372604
 20
205.599868
 30
0.0
  0
VERTEX
  5
13544
  8
ALPHA
 10
223.329105
 20
206.114231
 30
0.0
  0
VERTEX
  5
13545
  8
ALPHA
 10
222.941083
 20
206.428181
 30
0.0
  0
VERTEX
  5
13546
  8
ALPHA
 10
222.854929
 20
206.458999
 30
0.0
  0
VERTEX
  5
13547
  8
ALPHA
 10
223.098236
 20
206.545674
 30
0.0
  0
VERTEX
  5
13548
  8
ALPHA
 10
223.389781
 20
206.949315
 30
0.0
  0
VERTEX
  5
13549
  8
ALPHA
 10
223.297109
 20
207.455268
 30
0.0
  0
VERTEX
  5
1354A
  8
ALPHA
 10
222.878853
 20
207.729812
 30
0.0
  0
VERTEX
  5
1354B
  8
ALPHA
 10
223.149369
 20
207.867025
 30
0.0
  0
VERTEX
  5
1354C
  8
ALPHA
 10
223.400982
 20
208.300439
 30
0.0
  0
VERTEX
  5
1354D
  8
ALPHA
 10
223.260311
 20
208.791739
 30
0.0
  0
VERTEX
  5
1354E
  8
ALPHA
 10
222.814408
 20
209.025119
 30
0.0
  0
VERTEX
  5
1354F
  8
ALPHA
 10
223.196798
 20
209.193695
 30
0.0
  0
VERTEX
  5
13550
  8
ALPHA
 10
223.405892
 20
209.65176
 30
0.0
  0
VERTEX
  5
13551
  8
ALPHA
 10
223.219026
 20
210.124313
 30
0.0
  0
VERTEX
  5
13552
  8
ALPHA
 10
222.781453
 20
210.312828
 30
0.0
  0
VERTEX
  5
13553
  8
ALPHA
 10
223.24021
 20
210.524473
 30
0.0
  0
VERTEX
  5
13554
  8
ALPHA
 10
223.404243
 20
211.006646
 30
0.0
  0
VERTEX
  5
13555
  8
ALPHA
 10
223.173566
 20
211.454472
 30
0.0
  0
VERTEX
  5
13556
  8
ALPHA
 10
222.846888
 20
211.606405
 30
0.0
  0
VERTEX
  5
13557
  8
ALPHA
 10
223.27929
 20
211.859586
 30
0.0
  0
VERTEX
  5
13558
  8
ALPHA
 10
223.396148
 20
212.360348
 30
0.0
  0
VERTEX
  5
13559
  8
ALPHA
 10
223.124246
 20
212.781562
 30
0.0
  0
VERTEX
  5
1355A
  8
ALPHA
 10
222.886759
 20
212.8799
 30
0.0
  0
VERTEX
  5
1355B
  8
ALPHA
 10
222.910264
 20
212.907907
 30
0.0
  0
VERTEX
  5
1355C
  8
ALPHA
 10
223.313727
 20
213.201362
 30
0.0
  0
VERTEX
  5
1355D
  8
ALPHA
 10
223.38192
 20
213.710972
 30
0.0
  0
VERTEX
  5
1355E
  8
ALPHA
 10
223.071379
 20
214.100966
 30
0.0
  0
VERTEX
  5
1355F
  8
ALPHA
 10
222.822574
 20
214.175967
 30
0.0
  0
VERTEX
  5
13560
  8
ALPHA
 10
222.971269
 20
214.212579
 30
0.0
  0
VERTEX
  5
13561
  8
ALPHA
 10
223.343205
 20
214.545451
 30
0.0
  0
VERTEX
  5
13562
  8
ALPHA
 10
223.361872
 20
215.061724
 30
0.0
  0
VERTEX
  5
13563
  8
ALPHA
 10
223.015278
 20
215.418198
 30
0.0
  0
VERTEX
  5
13564
  8
ALPHA
 10
222.773145
 20
215.468706
 30
0.0
  0
VERTEX
  5
13565
  8
ALPHA
 10
223.029589
 20
215.525399
 30
0.0
  0
VERTEX
  5
13566
  8
ALPHA
 10
223.367413
 20
215.890992
 30
0.0
  0
VERTEX
  5
13567
  8
ALPHA
 10
223.336318
 20
216.406113
 30
0.0
  0
VERTEX
  5
13568
  8
ALPHA
 10
222.956257
 20
216.728282
 30
0.0
  0
VERTEX
  5
13569
  8
ALPHA
 10
222.838814
 20
216.761492
 30
0.0
  0
VERTEX
  5
1356A
  8
ALPHA
 10
223.084911
 20
216.842739
 30
0.0
  0
VERTEX
  5
1356B
  8
ALPHA
 10
223.386035
 20
217.240714
 30
0.0
  0
VERTEX
  5
1356C
  8
ALPHA
 10
223.30557
 20
217.748251
 30
0.0
  0
VERTEX
  5
1356D
  8
ALPHA
 10
222.89463
 20
218.031361
 30
0.0
  0
VERTEX
  5
1356E
  8
ALPHA
 10
223.398759
 20
218.590692
 30
0.0
  0
VERTEX
  5
1356F
  8
ALPHA
 10
223.269943
 20
219.086396
 30
0.0
  0
VERTEX
  5
13570
  8
ALPHA
 10
222.83071
 20
219.328225
 30
0.0
  0
VERTEX
  5
13571
  8
ALPHA
 10
223.405271
 20
219.942851
 30
0.0
  0
VERTEX
  5
13572
  8
ALPHA
 10
223.22975
 20
220.421523
 30
0.0
  0
VERTEX
  5
13573
  8
ALPHA
 10
222.76481
 20
220.621666
 30
0.0
  0
SEQEND
  5
13574
  8
ALPHA
  0
POLYLINE
  5
12E99
  8
ALPHA
 66
     1
 10
0.0
 20
0.0
 30
0.0
 70
   128
  0
VERTEX
  5
13575
  8
ALPHA
 10
222.76481
 20
220.621666
 30
0.0
  0
VERTEX
  5
13576
  8
ALPHA
 10
222.53128
 20
220.589412
 30
0.0
  0
VERTEX
  5
13577
  8
ALPHA
 10
221.918515
 20
220.50478
 30
0.0
  0
VERTEX
  5
13578
  8
ALPHA
 10
220.082215
 20
220.251161
 30
0.0
  0
VERTEX
  5
13579
  8
ALPHA
 10
218.309786
 20
220.006364
 30
0.0
  0
VERTEX
  5
1357A
  8
ALPHA
 10
217.77686
 20
219.932759
 30
0.0
  0
VERTEX
  5
1357B
  8
ALPHA
 10
217.606317
 20
219.912991
 30
0.0
  0
VERTEX
  5
1357C
  8
ALPHA
 10
217.149721
 20
219.691367
 30
0.0
  0
VERTEX
  5
1357D
  8
ALPHA
 10
216.995761
 20
219.202704
 30
0.0
  0
VERTEX
  5
1357E
  8
ALPHA
 10
217.540802
 20
218.617835
 30
0.0
  0
VERTEX
  5
1357F
  8
ALPHA
 10
217.111395
 20
218.355344
 30
0.0
  0
VERTEX
  5
13580
  8
ALPHA
 10
217.00552
 20
217.852593
 30
0.0
  0
VERTEX
  5
13581
  8
ALPHA
 10
217.290117
 20
217.438618
 30
0.0
  0
VERTEX
  5
13582
  8
ALPHA
 10
217.532757
 20
217.345314
 30
0.0
  0
VERTEX
  5
13583
  8
ALPHA
 10
217.477431
 20
217.316452
 30
0.0
  0
VERTEX
  5
13584
  8
ALPHA
 10
217.077834
 20
217.015039
 30
0.0
  0
VERTEX
  5
13585
  8
ALPHA
 10
217.021395
 20
216.503827
 30
0.0
  0
VERTEX
  5
13586
  8
ALPHA
 10
217.344328
 20
216.121522
 30
0.0
  0
VERTEX
  5
13587
  8
ALPHA
 10
217.598021
 20
216.052267
 30
0.0
  0
VERTEX
  5
13588
  8
ALPHA
 10
217.416521
 20
216.011814
 30
0.0
  0
VERTEX
  5
13589
  8
ALPHA
 10
217.049358
 20
215.671624
 30
0.0
  0
VERTEX
  5
1358A
  8
ALPHA
 10
217.04307
 20
215.15602
 30
0.0
  0
VERTEX
  5
1358B
  8
ALPHA
 10
217.401715
 20
214.80707
 30
0.0
  0
VERTEX
  5
1358C
  8
ALPHA
 10
217.614641
 20
214.761855
 30
0.0
  0
VERTEX
  5
1358D
  8
ALPHA
 10
217.358389
 20
214.698977
 30
0.0
  0
VERTEX
  5
1358E
  8
ALPHA
 10
217.026283
 20
214.325087
 30
0.0
  0
VERTEX
  5
1358F
  8
ALPHA
 10
217.070226
 20
213.810373
 30
0.0
  0
VERTEX
  5
13590
  8
ALPHA
 10
217.46196
 20
213.49538
 30
0.0
  0
VERTEX
  5
13591
  8
ALPHA
 10
217.548881
 20
213.464473
 30
0.0
  0
VERTEX
  5
13592
  8
ALPHA
 10
217.303355
 20
213.378059
 30
0.0
  0
VERTEX
  5
13593
  8
ALPHA
 10
217.008927
 20
212.973639
 30
0.0
  0
VERTEX
  5
13594
  8
ALPHA
 10
217.102546
 20
212.46762
 30
0.0
  0
VERTEX
  5
13595
  8
ALPHA
 10
217.524746
 20
212.195042
 30
0.0
  0
VERTEX
  5
13596
  8
ALPHA
 10
217.251735
 20
212.056394
 30
0.0
  0
VERTEX
  5
13597
  8
ALPHA
 10
216.99761
 20
211.621242
 30
0.0
  0
VERTEX
  5
13598
  8
ALPHA
 10
217.13971
 20
211.130191
 30
0.0
  0
VERTEX
  5
13599
  8
ALPHA
 10
217.589755
 20
210.896811
 30
0.0
  0
VERTEX
  5
1359A
  8
ALPHA
 10
217.203847
 20
210.727082
 30
0.0
  0
VERTEX
  5
1359B
  8
ALPHA
 10
216.992648
 20
210.26433
 30
0.0
  0
VERTEX
  5
1359C
  8
ALPHA
 10
217.181403
 20
209.795538
 30
0.0
  0
VERTEX
  5
1359D
  8
ALPHA
 10
217.622993
 20
209.60759
 30
0.0
  0
VERTEX
  5
1359E
  8
ALPHA
 10
217.16001
 20
209.396172
 30
0.0
  0
VERTEX
  5
1359F
  8
ALPHA
 10
216.994314
 20
208.914898
 30
0.0
  0
VERTEX
  5
135A0
  8
ALPHA
 10
217.227305
 20
208.466481
 30
0.0
  0
VERTEX
  5
135A1
  8
ALPHA
 10
217.556993
 20
208.315447
 30
0.0
  0
VERTEX
  5
135A2
  8
ALPHA
 10
217.120542
 20
208.060078
 30
0.0
  0
VERTEX
  5
135A3
  8
ALPHA
 10
217.002494
 20
207.560908
 30
0.0
  0
VERTEX
  5
135A4
  8
ALPHA
 10
217.277098
 20
207.140687
 30
0.0
  0
VERTEX
  5
135A5
  8
ALPHA
 10
217.51677
 20
207.042083
 30
0.0
  0
VERTEX
  5
135A6
  8
ALPHA
 10
217.493056
 20
207.014259
 30
0.0
  0
VERTEX
  5
135A7
  8
ALPHA
 10
217.08576
 20
206.723011
 30
0.0
  0
VERTEX
  5
135A8
  8
ALPHA
 10
217.01687
 20
206.212054
 30
0.0
  0
VERTEX
  5
135A9
  8
ALPHA
 10
217.330465
 20
205.823334
 30
0.0
  0
VERTEX
  5
135AA
  8
ALPHA
 10
217.581518
 20
205.748962
 30
0.0
  0
VERTEX
  5
135AB
  8
ALPHA
 10
217.4315
 20
205.71224
 30
0.0
  0
VERTEX
  5
135AC
  8
ALPHA
 10
217.055983
 20
205.379407
 30
0.0
  0
VERTEX
  5
135AD
  8
ALPHA
 10
217.037125
 20
204.86412
 30
0.0
  0
VERTEX
  5
135AE
  8
ALPHA
 10
217.387088
 20
204.508057
 30
0.0
  0
VERTEX
  5
135AF
  8
ALPHA
 10
217.631372
 20
204.457761
 30
0.0
  0
VERTEX
  5
135B0
  8
ALPHA
 10
217.372644
 20
204.40057
 30
0.0
  0
VERTEX
  5
135B1
  8
ALPHA
 10
217.031528
 20
204.033543
 30
0.0
  0
VERTEX
  5
135B2
  8
ALPHA
 10
217.062941
 20
203.519484
 30
0.0
  0
VERTEX
  5
135B3
  8
ALPHA
 10
217.446649
 20
203.199419
 30
0.0
  0
VERTEX
  5
135B4
  8
ALPHA
 10
217.565136
 20
203.166468
 30
0.0
  0
VERTEX
  5
135B5
  8
ALPHA
 10
217.316806
 20
203.084966
 30
0.0
  0
VERTEX
  5
135B6
  8
ALPHA
 10
217.012713
 20
202.68767
 30
0.0
  0
VERTEX
  5
135B7
  8
ALPHA
 10
217.093999
 20
202.178566
 30
0.0
  0
VERTEX
  5
135B8
  8
ALPHA
 10
217.508829
 20
201.893665
 30
0.0
  0
VERTEX
  5
135B9
  8
ALPHA
 10
216.999856
 20
201.336515
 30
0.0
  0
VERTEX
  5
135BA
  8
ALPHA
 10
217.129982
 20
200.841004
 30
0.0
  0
VERTEX
  5
135BB
  8
ALPHA
 10
217.573312
 20
200.59826
 30
0.0
  0
VERTEX
  5
135BC
  8
ALPHA
 10
216.993275
 20
199.98375
 30
0.0
  0
VERTEX
  5
135BD
  8
ALPHA
 10
217.170573
 20
199.507692
 30
0.0
  0
VERTEX
  5
135BE
  8
ALPHA
 10
217.639778
 20
199.309339
 30
0.0
  0
SEQEND
  5
135BF
  8
ALPHA
  0
POLYLINE
  5
12E9A
  8
ALPHA
 66
     1
 10
0.0
 20
0.0
 30
0.0
 70
   128
  0
VERTEX
  5
135C0
  8
ALPHA
 10
222.76481
 20
200.014154
 30
0.0
  0
VERTEX
  5
135C1
  8
ALPHA
 10
222.53128
 20
199.9819
 30
0.0
  0
VERTEX
  5
135C2
  8
ALPHA
 10
221.918515
 20
199.897269
 30
0.0
  0
VERTEX
  5
135C3
  8
ALPHA
 10
220.082215
 20
199.643649
 30
0.0
  0
VERTEX
  5
135C4
  8
ALPHA
 10
218.309786
 20
199.398852
 30
0.0
  0
VERTEX
  5
135C5
  8
ALPHA
 10
217.77686
 20
199.325247
 30
0.0
  0
VERTEX
  5
135C6
  8
ALPHA
 10
217.606317
 20
199.305479
 30
0.0
  0
VERTEX
  5
135C7
  8
ALPHA
 10
217.149721
 20
199.083855
 30
0.0
  0
VERTEX
  5
135C8
  8
ALPHA
 10
216.995761
 20
198.595192
 30
0.0
  0
VERTEX
  5
135C9
  8
ALPHA
 10
217.540802
 20
198.010323
 30
0.0
  0
VERTEX
  5
135CA
  8
ALPHA
 10
217.111395
 20
197.747832
 30
0.0
  0
VERTEX
  5
135CB
  8
ALPHA
 10
217.00552
 20
197.245081
 30
0.0
  0
VERTEX
  5
135CC
  8
ALPHA
 10
217.290117
 20
196.831106
 30
0.0
  0
VERTEX
  5
135CD
  8
ALPHA
 10
217.532757
 20
196.737802
 30
0.0
  0
VERTEX
  5
135CE
  8
ALPHA
 10
217.477431
 20
196.70894
 30
0.0
  0
VERTEX
  5
135CF
  8
ALPHA
 10
217.077834
 20
196.407527
 30
0.0
  0
VERTEX
  5
135D0
  8
ALPHA
 10
217.021395
 20
195.896315
 30
0.0
  0
VERTEX
  5
135D1
  8
ALPHA
 10
217.344328
 20
195.51401
 30
0.0
  0
VERTEX
  5
135D2
  8
ALPHA
 10
217.598021
 20
195.444755
 30
0.0
  0
VERTEX
  5
135D3
  8
ALPHA
 10
217.416521
 20
195.404302
 30
0.0
  0
VERTEX
  5
135D4
  8
ALPHA
 10
217.049358
 20
195.064112
 30
0.0
  0
VERTEX
  5
135D5
  8
ALPHA
 10
217.04307
 20
194.548508
 30
0.0
  0
VERTEX
  5
135D6
  8
ALPHA
 10
217.401715
 20
194.199558
 30
0.0
  0
VERTEX
  5
135D7
  8
ALPHA
 10
217.614641
 20
194.154344
 30
0.0
  0
VERTEX
  5
135D8
  8
ALPHA
 10
217.358389
 20
194.091465
 30
0.0
  0
VERTEX
  5
135D9
  8
ALPHA
 10
217.026283
 20
193.717575
 30
0.0
  0
VERTEX
  5
135DA
  8
ALPHA
 10
217.070226
 20
193.202861
 30
0.0
  0
VERTEX
  5
135DB
  8
ALPHA
 10
217.46196
 20
192.887868
 30
0.0
  0
VERTEX
  5
135DC
  8
ALPHA
 10
217.548881
 20
192.856961
 30
0.0
  0
VERTEX
  5
135DD
  8
ALPHA
 10
217.303355
 20
192.770547
 30
0.0
  0
VERTEX
  5
135DE
  8
ALPHA
 10
217.008927
 20
192.366127
 30
0.0
  0
VERTEX
  5
135DF
  8
ALPHA
 10
217.102546
 20
191.860108
 30
0.0
  0
VERTEX
  5
135E0
  8
ALPHA
 10
217.524746
 20
191.58753
 30
0.0
  0
VERTEX
  5
135E1
  8
ALPHA
 10
217.251735
 20
191.448882
 30
0.0
  0
VERTEX
  5
135E2
  8
ALPHA
 10
216.99761
 20
191.01373
 30
0.0
  0
VERTEX
  5
135E3
  8
ALPHA
 10
217.13971
 20
190.522679
 30
0.0
  0
VERTEX
  5
135E4
  8
ALPHA
 10
217.589755
 20
190.289299
 30
0.0
  0
VERTEX
  5
135E5
  8
ALPHA
 10
217.203847
 20
190.11957
 30
0.0
  0
VERTEX
  5
135E6
  8
ALPHA
 10
216.992648
 20
189.656819
 30
0.0
  0
VERTEX
  5
135E7
  8
ALPHA
 10
217.181403
 20
189.188026
 30
0.0
  0
VERTEX
  5
135E8
  8
ALPHA
 10
217.622993
 20
189.000078
 30
0.0
  0
VERTEX
  5
135E9
  8
ALPHA
 10
217.16001
 20
188.78866
 30
0.0
  0
VERTEX
  5
135EA
  8
ALPHA
 10
216.994314
 20
188.307386
 30
0.0
  0
VERTEX
  5
135EB
  8
ALPHA
 10
217.227305
 20
187.858969
 30
0.0
  0
VERTEX
  5
135EC
  8
ALPHA
 10
217.556993
 20
187.707935
 30
0.0
  0
VERTEX
  5
135ED
  8
ALPHA
 10
217.120542
 20
187.452566
 30
0.0
  0
VERTEX
  5
135EE
  8
ALPHA
 10
217.002494
 20
186.953396
 30
0.0
  0
VERTEX
  5
135EF
  8
ALPHA
 10
217.277098
 20
186.533175
 30
0.0
  0
VERTEX
  5
135F0
  8
ALPHA
 10
217.51677
 20
186.434571
 30
0.0
  0
VERTEX
  5
135F1
  8
ALPHA
 10
217.493056
 20
186.406747
 30
0.0
  0
VERTEX
  5
135F2
  8
ALPHA
 10
217.08576
 20
186.115499
 30
0.0
  0
VERTEX
  5
135F3
  8
ALPHA
 10
217.01687
 20
185.604542
 30
0.0
  0
VERTEX
  5
135F4
  8
ALPHA
 10
217.330465
 20
185.215822
 30
0.0
  0
VERTEX
  5
135F5
  8
ALPHA
 10
217.581518
 20
185.14145
 30
0.0
  0
VERTEX
  5
135F6
  8
ALPHA
 10
217.4315
 20
185.104728
 30
0.0
  0
VERTEX
  5
135F7
  8
ALPHA
 10
217.055983
 20
184.771895
 30
0.0
  0
VERTEX
  5
135F8
  8
ALPHA
 10
217.037125
 20
184.256608
 30
0.0
  0
VERTEX
  5
135F9
  8
ALPHA
 10
217.387088
 20
183.900545
 30
0.0
  0
VERTEX
  5
135FA
  8
ALPHA
 10
217.631372
 20
183.850249
 30
0.0
  0
VERTEX
  5
135FB
  8
ALPHA
 10
217.372644
 20
183.793058
 30
0.0
  0
VERTEX
  5
135FC
  8
ALPHA
 10
217.031528
 20
183.426031
 30
0.0
  0
VERTEX
  5
135FD
  8
ALPHA
 10
217.062941
 20
182.911972
 30
0.0
  0
VERTEX
  5
135FE
  8
ALPHA
 10
217.446649
 20
182.591907
 30
0.0
  0
VERTEX
  5
135FF
  8
ALPHA
 10
217.565136
 20
182.558956
 30
0.0
  0
VERTEX
  5
13600
  8
ALPHA
 10
217.316806
 20
182.477454
 30
0.0
  0
VERTEX
  5
13601
  8
ALPHA
 10
217.012713
 20
182.080158
 30
0.0
  0
VERTEX
  5
13602
  8
ALPHA
 10
217.093999
 20
181.571054
 30
0.0
  0
VERTEX
  5
13603
  8
ALPHA
 10
217.508829
 20
181.286153
 30
0.0
  0
VERTEX
  5
13604
  8
ALPHA
 10
216.999856
 20
180.729003
 30
0.0
  0
VERTEX
  5
13605
  8
ALPHA
 10
217.129982
 20
180.233492
 30
0.0
  0
VERTEX
  5
13606
  8
ALPHA
 10
217.573312
 20
179.990748
 30
0.0
  0
VERTEX
  5
13607
  8
ALPHA
 10
216.993275
 20
179.376238
 30
0.0
  0
VERTEX
  5
13608
  8
ALPHA
 10
217.170573
 20
178.90018
 30
0.0
  0
VERTEX
  5
13609
  8
ALPHA
 10
217.639778
 20
178.701827
 30
0.0
  0
SEQEND
  5
1360A
  8
ALPHA
  0
POLYLINE
  5
12E9B
  8
ALPHA
 66
     1
 10
0.0
 20
0.0
 30
0.0
 70
   128
  0
VERTEX
  5
1360B
  8
ALPHA
 10
217.639778
 20
178.701827
 30
0.0
  0
VERTEX
  5
1360C
  8
ALPHA
 10
217.873307
 20
178.733943
 30
0.0
  0
VERTEX
  5
1360D
  8
ALPHA
 10
218.486073
 20
178.818213
 30
0.0
  0
VERTEX
  5
1360E
  8
ALPHA
 10
220.322373
 20
179.070748
 30
0.0
  0
VERTEX
  5
1360F
  8
ALPHA
 10
222.094801
 20
179.3145
 30
0.0
  0
VERTEX
  5
13610
  8
ALPHA
 10
222.627727
 20
179.38779
 30
0.0
  0
VERTEX
  5
13611
  8
ALPHA
 10
222.797987
 20
179.407473
 30
0.0
  0
VERTEX
  5
13612
  8
ALPHA
 10
223.250398
 20
179.627992
 30
0.0
  0
VERTEX
  5
13613
  8
ALPHA
 10
223.402811
 20
180.115271
 30
0.0
  0
VERTEX
  5
13614
  8
ALPHA
 10
222.862937
 20
180.702632
 30
0.0
  0
VERTEX
  5
13615
  8
ALPHA
 10
223.288347
 20
180.964781
 30
0.0
  0
VERTEX
  5
13616
  8
ALPHA
 10
223.393154
 20
181.466362
 30
0.0
  0
VERTEX
  5
13617
  8
ALPHA
 10
223.11135
 20
181.880337
 30
0.0
  0
VERTEX
  5
13618
  8
ALPHA
 10
222.870912
 20
181.973642
 30
0.0
  0
VERTEX
  5
13619
  8
ALPHA
 10
222.92575
 20
182.002597
 30
0.0
  0
VERTEX
  5
1361A
  8
ALPHA
 10
223.321574
 20
182.304589
 30
0.0
  0
VERTEX
  5
1361B
  8
ALPHA
 10
223.377442
 20
182.815129
 30
0.0
  0
VERTEX
  5
1361C
  8
ALPHA
 10
223.057645
 20
183.197433
 30
0.0
  0
VERTEX
  5
1361D
  8
ALPHA
 10
222.806212
 20
183.266689
 30
0.0
  0
VERTEX
  5
1361E
  8
ALPHA
 10
222.986113
 20
183.306972
 30
0.0
  0
VERTEX
  5
1361F
  8
ALPHA
 10
223.349764
 20
183.646682
 30
0.0
  0
VERTEX
  5
13620
  8
ALPHA
 10
223.355988
 20
184.162062
 30
0.0
  0
VERTEX
  5
13621
  8
ALPHA
 10
223.000785
 20
184.510392
 30
0.0
  0
VERTEX
  5
13622
  8
ALPHA
 10
222.789734
 20
184.555588
 30
0.0
  0
VERTEX
  5
13623
  8
ALPHA
 10
223.043713
 20
184.618466
 30
0.0
  0
VERTEX
  5
13624
  8
ALPHA
 10
223.372604
 20
184.992356
 30
0.0
  0
VERTEX
  5
13625
  8
ALPHA
 10
223.329105
 20
185.506719
 30
0.0
  0
VERTEX
  5
13626
  8
ALPHA
 10
222.941083
 20
185.820669
 30
0.0
  0
VERTEX
  5
13627
  8
ALPHA
 10
222.854929
 20
185.851487
 30
0.0
  0
VERTEX
  5
13628
  8
ALPHA
 10
223.098236
 20
185.938162
 30
0.0
  0
VERTEX
  5
13629
  8
ALPHA
 10
223.389781
 20
186.341803
 30
0.0
  0
VERTEX
  5
1362A
  8
ALPHA
 10
223.297109
 20
186.847756
 30
0.0
  0
VERTEX
  5
1362B
  8
ALPHA
 10
222.878853
 20
187.1223
 30
0.0
  0
VERTEX
  5
1362C
  8
ALPHA
 10
223.149369
 20
187.259513
 30
0.0
  0
VERTEX
  5
1362D
  8
ALPHA
 10
223.400982
 20
187.692927
 30
0.0
  0
VERTEX
  5
1362E
  8
ALPHA
 10
223.260311
 20
188.184227
 30
0.0
  0
VERTEX
  5
1362F
  8
ALPHA
 10
222.814408
 20
188.417607
 30
0.0
  0
VERTEX
  5
13630
  8
ALPHA
 10
223.196798
 20
188.586183
 30
0.0
  0
VERTEX
  5
13631
  8
ALPHA
 10
223.405892
 20
189.044248
 30
0.0
  0
VERTEX
  5
13632
  8
ALPHA
 10
223.219026
 20
189.516801
 30
0.0
  0
VERTEX
  5
13633
  8
ALPHA
 10
222.781453
 20
189.705316
 30
0.0
  0
VERTEX
  5
13634
  8
ALPHA
 10
223.24021
 20
189.916961
 30
0.0
  0
VERTEX
  5
13635
  8
ALPHA
 10
223.404243
 20
190.399134
 30
0.0
  0
VERTEX
  5
13636
  8
ALPHA
 10
223.173566
 20
190.84696
 30
0.0
  0
VERTEX
  5
13637
  8
ALPHA
 10
222.846888
 20
190.998893
 30
0.0
  0
VERTEX
  5
13638
  8
ALPHA
 10
223.27929
 20
191.252074
 30
0.0
  0
VERTEX
  5
13639
  8
ALPHA
 10
223.396148
 20
191.752836
 30
0.0
  0
VERTEX
  5
1363A
  8
ALPHA
 10
223.124246
 20
192.17405
 30
0.0
  0
VERTEX
  5
1363B
  8
ALPHA
 10
222.886759
 20
192.272388
 30
0.0
  0
VERTEX
  5
1363C
  8
ALPHA
 10
222.910264
 20
192.300395
 30
0.0
  0
VERTEX
  5
1363D
  8
ALPHA
 10
223.313727
 20
192.59385
 30
0.0
  0
VERTEX
  5
1363E
  8
ALPHA
 10
223.38192
 20
193.10346
 30
0.0
  0
VERTEX
  5
1363F
  8
ALPHA
 10
223.071379
 20
193.493454
 30
0.0
  0
VERTEX
  5
13640
  8
ALPHA
 10
222.822574
 20
193.568455
 30
0.0
  0
VERTEX
  5
13641
  8
ALPHA
 10
222.971269
 20
193.605067
 30
0.0
  0
VERTEX
  5
13642
  8
ALPHA
 10
223.343205
 20
193.937939
 30
0.0
  0
VERTEX
  5
13643
  8
ALPHA
 10
223.361872
 20
194.454212
 30
0.0
  0
VERTEX
  5
13644
  8
ALPHA
 10
223.015278
 20
194.810686
 30
0.0
  0
VERTEX
  5
13645
  8
ALPHA
 10
222.773145
 20
194.861194
 30
0.0
  0
VERTEX
  5
13646
  8
ALPHA
 10
223.029589
 20
194.917887
 30
0.0
  0
VERTEX
  5
13647
  8
ALPHA
 10
223.367413
 20
195.28348
 30
0.0
  0
VERTEX
  5
13648
  8
ALPHA
 10
223.336318
 20
195.798601
 30
0.0
  0
VERTEX
  5
13649
  8
ALPHA
 10
222.956257
 20
196.12077
 30
0.0
  0
VERTEX
  5
1364A
  8
ALPHA
 10
222.838814
 20
196.15398
 30
0.0
  0
VERTEX
  5
1364B
  8
ALPHA
 10
223.084911
 20
196.235227
 30
0.0
  0
VERTEX
  5
1364C
  8
ALPHA
 10
223.386035
 20
196.633202
 30
0.0
  0
VERTEX
  5
1364D
  8
ALPHA
 10
223.30557
 20
197.140739
 30
0.0
  0
VERTEX
  5
1364E
  8
ALPHA
 10
222.89463
 20
197.423849
 30
0.0
  0
VERTEX
  5
1364F
  8
ALPHA
 10
223.398759
 20
197.98318
 30
0.0
  0
VERTEX
  5
13650
  8
ALPHA
 10
223.269943
 20
198.478884
 30
0.0
  0
VERTEX
  5
13651
  8
ALPHA
 10
222.83071
 20
198.720713
 30
0.0
  0
VERTEX
  5
13652
  8
ALPHA
 10
223.405271
 20
199.335339
 30
0.0
  0
VERTEX
  5
13653
  8
ALPHA
 10
223.22975
 20
199.814011
 30
0.0
  0
VERTEX
  5
13654
  8
ALPHA
 10
222.76481
 20
200.014154
 30
0.0
  0
SEQEND
  5
13655
  8
ALPHA
  0
POLYLINE
  5
12E9C
  8
ALPHA
 66
     1
 10
0.0
 20
0.0
 30
0.0
 70
   128
  0
VERTEX
  5
13656
  8
ALPHA
 10
222.76481
 20
179.406642
 30
0.0
  0
VERTEX
  5
13657
  8
ALPHA
 10
222.53128
 20
179.374388
 30
0.0
  0
VERTEX
  5
13658
  8
ALPHA
 10
221.918515
 20
179.289757
 30
0.0
  0
VERTEX
  5
13659
  8
ALPHA
 10
220.082215
 20
179.036137
 30
0.0
  0
VERTEX
  5
1365A
  8
ALPHA
 10
218.309786
 20
178.79134
 30
0.0
  0
VERTEX
  5
1365B
  8
ALPHA
 10
217.77686
 20
178.717735
 30
0.0
  0
VERTEX
  5
1365C
  8
ALPHA
 10
217.606317
 20
178.697967
 30
0.0
  0
VERTEX
  5
1365D
  8
ALPHA
 10
217.149721
 20
178.476343
 30
0.0
  0
VERTEX
  5
1365E
  8
ALPHA
 10
216.995761
 20
177.98768
 30
0.0
  0
VERTEX
  5
1365F
  8
ALPHA
 10
217.540802
 20
177.402811
 30
0.0
  0
VERTEX
  5
13660
  8
ALPHA
 10
217.111395
 20
177.14032
 30
0.0
  0
VERTEX
  5
13661
  8
ALPHA
 10
217.00552
 20
176.637569
 30
0.0
  0
VERTEX
  5
13662
  8
ALPHA
 10
217.290117
 20
176.223594
 30
0.0
  0
VERTEX
  5
13663
  8
ALPHA
 10
217.532757
 20
176.13029
 30
0.0
  0
VERTEX
  5
13664
  8
ALPHA
 10
217.477431
 20
176.101428
 30
0.0
  0
VERTEX
  5
13665
  8
ALPHA
 10
217.077834
 20
175.800015
 30
0.0
  0
VERTEX
  5
13666
  8
ALPHA
 10
217.021395
 20
175.288803
 30
0.0
  0
VERTEX
  5
13667
  8
ALPHA
 10
217.344328
 20
174.906498
 30
0.0
  0
VERTEX
  5
13668
  8
ALPHA
 10
217.598021
 20
174.837243
 30
0.0
  0
VERTEX
  5
13669
  8
ALPHA
 10
217.416521
 20
174.79679
 30
0.0
  0
VERTEX
  5
1366A
  8
ALPHA
 10
217.049358
 20
174.4566
 30
0.0
  0
VERTEX
  5
1366B
  8
ALPHA
 10
217.04307
 20
173.940996
 30
0.0
  0
VERTEX
  5
1366C
  8
ALPHA
 10
217.401715
 20
173.592046
 30
0.0
  0
VERTEX
  5
1366D
  8
ALPHA
 10
217.614641
 20
173.546832
 30
0.0
  0
VERTEX
  5
1366E
  8
ALPHA
 10
217.358389
 20
173.483953
 30
0.0
  0
VERTEX
  5
1366F
  8
ALPHA
 10
217.026283
 20
173.110063
 30
0.0
  0
VERTEX
  5
13670
  8
ALPHA
 10
217.070226
 20
172.595349
 30
0.0
  0
VERTEX
  5
13671
  8
ALPHA
 10
217.46196
 20
172.280356
 30
0.0
  0
VERTEX
  5
13672
  8
ALPHA
 10
217.548881
 20
172.249449
 30
0.0
  0
VERTEX
  5
13673
  8
ALPHA
 10
217.303355
 20
172.163035
 30
0.0
  0
VERTEX
  5
13674
  8
ALPHA
 10
217.008927
 20
171.758615
 30
0.0
  0
VERTEX
  5
13675
  8
ALPHA
 10
217.102546
 20
171.252596
 30
0.0
  0
VERTEX
  5
13676
  8
ALPHA
 10
217.524746
 20
170.980018
 30
0.0
  0
VERTEX
  5
13677
  8
ALPHA
 10
217.251735
 20
170.84137
 30
0.0
  0
VERTEX
  5
13678
  8
ALPHA
 10
216.99761
 20
170.406218
 30
0.0
  0
VERTEX
  5
13679
  8
ALPHA
 10
217.13971
 20
169.915167
 30
0.0
  0
VERTEX
  5
1367A
  8
ALPHA
 10
217.589755
 20
169.681787
 30
0.0
  0
VERTEX
  5
1367B
  8
ALPHA
 10
217.203847
 20
169.512058
 30
0.0
  0
VERTEX
  5
1367C
  8
ALPHA
 10
216.992648
 20
169.049307
 30
0.0
  0
VERTEX
  5
1367D
  8
ALPHA
 10
217.181403
 20
168.580514
 30
0.0
  0
VERTEX
  5
1367E
  8
ALPHA
 10
217.622993
 20
168.392566
 30
0.0
  0
VERTEX
  5
1367F
  8
ALPHA
 10
217.16001
 20
168.181148
 30
0.0
  0
VERTEX
  5
13680
  8
ALPHA
 10
216.994314
 20
167.699874
 30
0.0
  0
VERTEX
  5
13681
  8
ALPHA
 10
217.227305
 20
167.251457
 30
0.0
  0
VERTEX
  5
13682
  8
ALPHA
 10
217.556993
 20
167.100423
 30
0.0
  0
VERTEX
  5
13683
  8
ALPHA
 10
217.120542
 20
166.845054
 30
0.0
  0
VERTEX
  5
13684
  8
ALPHA
 10
217.002494
 20
166.345884
 30
0.0
  0
VERTEX
  5
13685
  8
ALPHA
 10
217.277098
 20
165.925663
 30
0.0
  0
VERTEX
  5
13686
  8
ALPHA
 10
217.51677
 20
165.827059
 30
0.0
  0
VERTEX
  5
13687
  8
ALPHA
 10
217.493056
 20
165.799235
 30
0.0
  0
VERTEX
  5
13688
  8
ALPHA
 10
217.08576
 20
165.507987
 30
0.0
  0
VERTEX
  5
13689
  8
ALPHA
 10
217.01687
 20
164.99703
 30
0.0
  0
VERTEX
  5
1368A
  8
ALPHA
 10
217.330465
 20
164.60831
 30
0.0
  0
VERTEX
  5
1368B
  8
ALPHA
 10
217.581518
 20
164.533938
 30
0.0
  0
VERTEX
  5
1368C
  8
ALPHA
 10
217.4315
 20
164.497216
 30
0.0
  0
VERTEX
  5
1368D
  8
ALPHA
 10
217.055983
 20
164.164383
 30
0.0
  0
VERTEX
  5
1368E
  8
ALPHA
 10
217.037125
 20
163.649096
 30
0.0
  0
VERTEX
  5
1368F
  8
ALPHA
 10
217.387088
 20
163.293033
 30
0.0
  0
VERTEX
  5
13690
  8
ALPHA
 10
217.631372
 20
163.242737
 30
0.0
  0
VERTEX
  5
13691
  8
ALPHA
 10
217.372644
 20
163.185546
 30
0.0
  0
VERTEX
  5
13692
  8
ALPHA
 10
217.031528
 20
162.818519
 30
0.0
  0
VERTEX
  5
13693
  8
ALPHA
 10
217.062941
 20
162.30446
 30
0.0
  0
VERTEX
  5
13694
  8
ALPHA
 10
217.446649
 20
161.984395
 30
0.0
  0
VERTEX
  5
13695
  8
ALPHA
 10
217.565136
 20
161.951444
 30
0.0
  0
VERTEX
  5
13696
  8
ALPHA
 10
217.316806
 20
161.869942
 30
0.0
  0
VERTEX
  5
13697
  8
ALPHA
 10
217.012713
 20
161.472646
 30
0.0
  0
VERTEX
  5
13698
  8
ALPHA
 10
217.093999
 20
160.963542
 30
0.0
  0
VERTEX
  5
13699
  8
ALPHA
 10
217.508829
 20
160.678641
 30
0.0
  0
VERTEX
  5
1369A
  8
ALPHA
 10
216.999856
 20
160.121491
 30
0.0
  0
VERTEX
  5
1369B
  8
ALPHA
 10
217.129982
 20
159.62598
 30
0.0
  0
VERTEX
  5
1369C
  8
ALPHA
 10
217.573312
 20
159.383236
 30
0.0
  0
VERTEX
  5
1369D
  8
ALPHA
 10
216.993275
 20
158.768726
 30
0.0
  0
VERTEX
  5
1369E
  8
ALPHA
 10
217.170573
 20
158.292668
 30
0.0
  0
VERTEX
  5
1369F
  8
ALPHA
 10
217.639778
 20
158.094315
 30
0.0
  0
SEQEND
  5
136A0
  8
ALPHA
  0
POLYLINE
  5
12E9D
  8
ALPHA
 66
     1
 10
0.0
 20
0.0
 30
0.0
 70
   128
  0
VERTEX
  5
136A1
  8
ALPHA
 10
217.639778
 20
158.094315
 30
0.0
  0
VERTEX
  5
136A2
  8
ALPHA
 10
217.873307
 20
158.126431
 30
0.0
  0
VERTEX
  5
136A3
  8
ALPHA
 10
218.486073
 20
158.210701
 30
0.0
  0
VERTEX
  5
136A4
  8
ALPHA
 10
220.322373
 20
158.463236
 30
0.0
  0
VERTEX
  5
136A5
  8
ALPHA
 10
222.094801
 20
158.706988
 30
0.0
  0
VERTEX
  5
136A6
  8
ALPHA
 10
222.627727
 20
158.780278
 30
0.0
  0
VERTEX
  5
136A7
  8
ALPHA
 10
222.797987
 20
158.799961
 30
0.0
  0
VERTEX
  5
136A8
  8
ALPHA
 10
223.250398
 20
159.02048
 30
0.0
  0
VERTEX
  5
136A9
  8
ALPHA
 10
223.402811
 20
159.507759
 30
0.0
  0
VERTEX
  5
136AA
  8
ALPHA
 10
222.862937
 20
160.09512
 30
0.0
  0
VERTEX
  5
136AB
  8
ALPHA
 10
223.288347
 20
160.35727
 30
0.0
  0
VERTEX
  5
136AC
  8
ALPHA
 10
223.393154
 20
160.85885
 30
0.0
  0
VERTEX
  5
136AD
  8
ALPHA
 10
223.11135
 20
161.272825
 30
0.0
  0
VERTEX
  5
136AE
  8
ALPHA
 10
222.870912
 20
161.36613
 30
0.0
  0
VERTEX
  5
136AF
  8
ALPHA
 10
222.92575
 20
161.395085
 30
0.0
  0
VERTEX
  5
136B0
  8
ALPHA
 10
223.321574
 20
161.697077
 30
0.0
  0
VERTEX
  5
136B1
  8
ALPHA
 10
223.377442
 20
162.207617
 30
0.0
  0
VERTEX
  5
136B2
  8
ALPHA
 10
223.057645
 20
162.589921
 30
0.0
  0
VERTEX
  5
136B3
  8
ALPHA
 10
222.806212
 20
162.659177
 30
0.0
  0
VERTEX
  5
136B4
  8
ALPHA
 10
222.986113
 20
162.69946
 30
0.0
  0
VERTEX
  5
136B5
  8
ALPHA
 10
223.349764
 20
163.03917
 30
0.0
  0
VERTEX
  5
136B6
  8
ALPHA
 10
223.355988
 20
163.55455
 30
0.0
  0
VERTEX
  5
136B7
  8
ALPHA
 10
223.000785
 20
163.90288
 30
0.0
  0
VERTEX
  5
136B8
  8
ALPHA
 10
222.789734
 20
163.948076
 30
0.0
  0
VERTEX
  5
136B9
  8
ALPHA
 10
223.043713
 20
164.010954
 30
0.0
  0
VERTEX
  5
136BA
  8
ALPHA
 10
223.372604
 20
164.384844
 30
0.0
  0
VERTEX
  5
136BB
  8
ALPHA
 10
223.329105
 20
164.899207
 30
0.0
  0
VERTEX
  5
136BC
  8
ALPHA
 10
222.941083
 20
165.213157
 30
0.0
  0
VERTEX
  5
136BD
  8
ALPHA
 10
222.854929
 20
165.243975
 30
0.0
  0
VERTEX
  5
136BE
  8
ALPHA
 10
223.098236
 20
165.33065
 30
0.0
  0
VERTEX
  5
136BF
  8
ALPHA
 10
223.389781
 20
165.734291
 30
0.0
  0
VERTEX
  5
136C0
  8
ALPHA
 10
223.297109
 20
166.240244
 30
0.0
  0
VERTEX
  5
136C1
  8
ALPHA
 10
222.878853
 20
166.514789
 30
0.0
  0
VERTEX
  5
136C2
  8
ALPHA
 10
223.149369
 20
166.652001
 30
0.0
  0
VERTEX
  5
136C3
  8
ALPHA
 10
223.400982
 20
167.085415
 30
0.0
  0
VERTEX
  5
136C4
  8
ALPHA
 10
223.260311
 20
167.576715
 30
0.0
  0
VERTEX
  5
136C5
  8
ALPHA
 10
222.814408
 20
167.810095
 30
0.0
  0
VERTEX
  5
136C6
  8
ALPHA
 10
223.196798
 20
167.978671
 30
0.0
  0
VERTEX
  5
136C7
  8
ALPHA
 10
223.405892
 20
168.436736
 30
0.0
  0
VERTEX
  5
136C8
  8
ALPHA
 10
223.219026
 20
168.909289
 30
0.0
  0
VERTEX
  5
136C9
  8
ALPHA
 10
222.781453
 20
169.097804
 30
0.0
  0
VERTEX
  5
136CA
  8
ALPHA
 10
223.24021
 20
169.309449
 30
0.0
  0
VERTEX
  5
136CB
  8
ALPHA
 10
223.404243
 20
169.791622
 30
0.0
  0
VERTEX
  5
136CC
  8
ALPHA
 10
223.173566
 20
170.239448
 30
0.0
  0
VERTEX
  5
136CD
  8
ALPHA
 10
222.846888
 20
170.391381
 30
0.0
  0
VERTEX
  5
136CE
  8
ALPHA
 10
223.27929
 20
170.644562
 30
0.0
  0
VERTEX
  5
136CF
  8
ALPHA
 10
223.396148
 20
171.145324
 30
0.0
  0
VERTEX
  5
136D0
  8
ALPHA
 10
223.124246
 20
171.566538
 30
0.0
  0
VERTEX
  5
136D1
  8
ALPHA
 10
222.886759
 20
171.664876
 30
0.0
  0
VERTEX
  5
136D2
  8
ALPHA
 10
222.910264
 20
171.692883
 30
0.0
  0
VERTEX
  5
136D3
  8
ALPHA
 10
223.313727
 20
171.986338
 30
0.0
  0
VERTEX
  5
136D4
  8
ALPHA
 10
223.38192
 20
172.495948
 30
0.0
  0
VERTEX
  5
136D5
  8
ALPHA
 10
223.071379
 20
172.885942
 30
0.0
  0
VERTEX
  5
136D6
  8
ALPHA
 10
222.822574
 20
172.960943
 30
0.0
  0
VERTEX
  5
136D7
  8
ALPHA
 10
222.971269
 20
172.997555
 30
0.0
  0
VERTEX
  5
136D8
  8
ALPHA
 10
223.343205
 20
173.330427
 30
0.0
  0
VERTEX
  5
136D9
  8
ALPHA
 10
223.361872
 20
173.8467
 30
0.0
  0
VERTEX
  5
136DA
  8
ALPHA
 10
223.015278
 20
174.203174
 30
0.0
  0
VERTEX
  5
136DB
  8
ALPHA
 10
222.773145
 20
174.253682
 30
0.0
  0
VERTEX
  5
136DC
  8
ALPHA
 10
223.029589
 20
174.310375
 30
0.0
  0
VERTEX
  5
136DD
  8
ALPHA
 10
223.367413
 20
174.675968
 30
0.0
  0
VERTEX
  5
136DE
  8
ALPHA
 10
223.336318
 20
175.191089
 30
0.0
  0
VERTEX
  5
136DF
  8
ALPHA
 10
222.956257
 20
175.513258
 30
0.0
  0
VERTEX
  5
136E0
  8
ALPHA
 10
222.838814
 20
175.546468
 30
0.0
  0
VERTEX
  5
136E1
  8
ALPHA
 10
223.084911
 20
175.627715
 30
0.0
  0
VERTEX
  5
136E2
  8
ALPHA
 10
223.386035
 20
176.02569
 30
0.0
  0
VERTEX
  5
136E3
  8
ALPHA
 10
223.30557
 20
176.533227
 30
0.0
  0
VERTEX
  5
136E4
  8
ALPHA
 10
222.89463
 20
176.816337
 30
0.0
  0
VERTEX
  5
136E5
  8
ALPHA
 10
223.398759
 20
177.375668
 30
0.0
  0
VERTEX
  5
136E6
  8
ALPHA
 10
223.269943
 20
177.871372
 30
0.0
  0
VERTEX
  5
136E7
  8
ALPHA
 10
222.83071
 20
178.113201
 30
0.0
  0
VERTEX
  5
136E8
  8
ALPHA
 10
223.405271
 20
178.727827
 30
0.0
  0
VERTEX
  5
136E9
  8
ALPHA
 10
223.22975
 20
179.206499
 30
0.0
  0
VERTEX
  5
136EA
  8
ALPHA
 10
222.76481
 20
179.406642
 30
0.0
  0
SEQEND
  5
136EB
  8
ALPHA
  0
LINE
  5
12E9E
  8
ALPHA
 10
220.203951
 20
155.608356
 30
0.0
 11
220.203951
 21
172.319908
 31
0.0
  0
LINE
  5
12E9F
  8
ALPHA
 10
225.703951
 20
154.011053
 30
0.0
 11
224.203951
 21
155.511053
 31
0.0
  0
LINE
  5
12EA0
  8
ALPHA
 10
214.703951
 20
154.011053
 30
0.0
 11
216.203951
 21
155.511053
 31
0.0
  0
LINE
  5
12EA1
  8
ALPHA
 10
214.703951
 20
154.011053
 30
0.0
 11
220.203951
 21
154.011053
 31
0.0
  0
LINE
  5
12EA2
  8
ALPHA
 10
214.703951
 20
154.011053
 30
0.0
 11
214.703951
 21
148.011053
 31
0.0
  0
LINE
  5
12EA3
  8
ALPHA
 10
225.703951
 20
154.011053
 30
0.0
 11
225.703951
 21
148.011053
 31
0.0
  0
LINE
  5
12EA4
  8
ALPHA
 10
225.703951
 20
154.011053
 30
0.0
 11
220.203951
 21
154.011053
 31
0.0
  0
LINE
  5
12EA5
  8
ALPHA
 10
218.203951
 20
157.511053
 30
0.0
 11
222.203951
 21
157.511053
 31
0.0
  0
LINE
  5
12EA6
  8
ALPHA
 10
217.639777
 20
167.10566
 30
0.0
 11
222.76481
 21
167.811987
 31
0.0
  0
LINE
  5
12EA7
  8
ALPHA
 10
217.639777
 20
164.531419
 30
0.0
 11
222.76481
 21
165.237747
 31
0.0
  0
LINE
  5
12EA8
  8
ALPHA
 10
217.639777
 20
163.242789
 30
0.0
 11
222.76481
 21
163.947606
 31
0.0
  0
LINE
  5
12EA9
  8
ALPHA
 10
217.639777
 20
161.955673
 30
0.0
 11
222.76481
 21
162.660486
 31
0.0
  0
LINE
  5
12EAA
  8
ALPHA
 10
217.639777
 20
160.665528
 30
0.0
 11
222.76481
 21
161.37488
 31
0.0
  0
LINE
  5
12EAB
  8
ALPHA
 10
217.639777
 20
159.379922
 30
0.0
 11
222.76481
 21
160.087759
 31
0.0
  0
LINE
  5
12EAC
  8
ALPHA
 10
217.639777
 20
165.815515
 30
0.0
 11
222.76481
 21
166.524867
 31
0.0
  0
LINE
  5
12EAD
  8
ALPHA
 10
216.203951
 20
155.511053
 30
0.0
 11
220.203951
 21
155.511053
 31
0.0
  0
LINE
  5
12EAE
  8
ALPHA
 10
218.203951
 20
157.511053
 30
0.0
 11
218.203951
 21
158.171902
 31
0.0
  0
LINE
  5
12EAF
  8
ALPHA
 10
217.203951
 20
155.511053
 30
0.0
 11
218.203951
 21
157.511053
 31
0.0
  0
LINE
  5
12EB0
  8
ALPHA
 10
222.203951
 20
157.511053
 30
0.0
 11
222.203951
 21
158.721998
 31
0.0
  0
CIRCLE
  5
12EB1
  8
ALPHA
 10
222.839299
 20
158.148764
 30
0.0
 40
0.642423
  0
CIRCLE
  5
12EB2
  8
ALPHA
 10
222.839299
 20
158.148764
 30
0.0
 40
0.642423
  0
LINE
  5
12EB3
  8
ALPHA
 10
224.203951
 20
155.511053
 30
0.0
 11
220.203951
 21
155.511053
 31
0.0
  0
LINE
  5
12EB4
  8
ALPHA
 10
223.203951
 20
155.511053
 30
0.0
 11
222.203951
 21
157.511053
 31
0.0
  0
LINE
  5
12EB5
  8
ALPHA
 10
217.639777
 20
179.987434
 30
0.0
 11
222.76481
 21
180.695271
 31
0.0
  0
LINE
  5
12EB6
  8
ALPHA
 10
217.639777
 20
174.835934
 30
0.0
 11
222.76481
 21
175.542261
 31
0.0
  0
LINE
  5
12EB7
  8
ALPHA
 10
217.639777
 20
173.547303
 30
0.0
 11
222.76481
 21
174.25363
 31
0.0
  0
LINE
  5
12EB8
  8
ALPHA
 10
217.639777
 20
172.255647
 30
0.0
 11
222.76481
 21
172.963485
 31
0.0
  0
LINE
  5
12EB9
  8
ALPHA
 10
217.639777
 20
170.970042
 30
0.0
 11
222.76481
 21
171.676369
 31
0.0
  0
LINE
  5
12EBA
  8
ALPHA
 10
217.639777
 20
169.679896
 30
0.0
 11
222.76481
 21
170.386224
 31
0.0
  0
LINE
  5
12EBB
  8
ALPHA
 10
217.639777
 20
177.41017
 30
0.0
 11
222.76481
 21
178.116497
 31
0.0
  0
LINE
  5
12EBC
  8
ALPHA
 10
217.639777
 20
176.121539
 30
0.0
 11
222.76481
 21
176.829381
 31
0.0
  0
LINE
  5
12EBD
  8
ALPHA
 10
217.639777
 20
168.392776
 30
0.0
 11
222.76481
 21
169.097593
 31
0.0
  0
LINE
  5
12EBE
  8
ALPHA
 10
217.639777
 20
192.863159
 30
0.0
 11
222.76481
 21
193.570997
 31
0.0
  0
LINE
  5
12EBF
  8
ALPHA
 10
217.639777
 20
191.577554
 30
0.0
 11
222.76481
 21
192.283881
 31
0.0
  0
LINE
  5
12EC0
  8
ALPHA
 10
217.639777
 20
190.287408
 30
0.0
 11
222.76481
 21
190.993736
 31
0.0
  0
LINE
  5
12EC1
  8
ALPHA
 10
217.639777
 20
189.000288
 30
0.0
 11
222.76481
 21
189.705105
 31
0.0
  0
LINE
  5
12EC2
  8
ALPHA
 10
217.639777
 20
185.138931
 30
0.0
 11
222.76481
 21
185.845259
 31
0.0
  0
LINE
  5
12EC3
  8
ALPHA
 10
217.639777
 20
183.850301
 30
0.0
 11
222.76481
 21
184.555118
 31
0.0
  0
LINE
  5
12EC4
  8
ALPHA
 10
217.639777
 20
182.563185
 30
0.0
 11
222.76481
 21
183.267997
 31
0.0
  0
LINE
  5
12EC5
  8
ALPHA
 10
217.639777
 20
181.273039
 30
0.0
 11
222.76481
 21
181.982392
 31
0.0
  0
LINE
  5
12EC6
  8
ALPHA
 10
217.639777
 20
186.423027
 30
0.0
 11
222.76481
 21
187.132379
 31
0.0
  0
LINE
  5
12EC7
  8
ALPHA
 10
217.639777
 20
187.713172
 30
0.0
 11
222.76481
 21
188.419499
 31
0.0
  0
LINE
  5
12EC8
  8
ALPHA
 10
217.639777
 20
200.594946
 30
0.0
 11
222.76481
 21
201.302783
 31
0.0
  0
LINE
  5
12EC9
  8
ALPHA
 10
217.639777
 20
201.880551
 30
0.0
 11
222.76481
 21
202.589904
 31
0.0
  0
LINE
  5
12ECA
  8
ALPHA
 10
217.639777
 20
203.170697
 30
0.0
 11
222.76481
 21
203.875509
 31
0.0
  0
LINE
  5
12ECB
  8
ALPHA
 10
217.639777
 20
204.457813
 30
0.0
 11
222.76481
 21
205.16263
 31
0.0
  0
LINE
  5
12ECC
  8
ALPHA
 10
217.639777
 20
205.746443
 30
0.0
 11
222.76481
 21
206.452771
 31
0.0
  0
LINE
  5
12ECD
  8
ALPHA
 10
217.639777
 20
195.443446
 30
0.0
 11
222.76481
 21
196.149773
 31
0.0
  0
LINE
  5
12ECE
  8
ALPHA
 10
217.639777
 20
194.154815
 30
0.0
 11
222.76481
 21
194.861142
 31
0.0
  0
LINE
  5
12ECF
  8
ALPHA
 10
217.639777
 20
198.017682
 30
0.0
 11
222.76481
 21
198.724009
 31
0.0
  0
LINE
  5
12ED0
  8
ALPHA
 10
217.639777
 20
196.729051
 30
0.0
 11
222.76481
 21
197.436893
 31
0.0
  0
LINE
  5
12ED1
  8
ALPHA
 10
217.639777
 20
209.6078
 30
0.0
 11
222.76481
 21
210.312617
 31
0.0
  0
LINE
  5
12ED2
  8
ALPHA
 10
217.639777
 20
217.336563
 30
0.0
 11
222.76481
 21
218.044405
 31
0.0
  0
LINE
  5
12ED3
  8
ALPHA
 10
217.639777
 20
218.625194
 30
0.0
 11
222.76481
 21
219.331521
 31
0.0
  0
LINE
  5
12ED4
  8
ALPHA
 10
217.639777
 20
210.89492
 30
0.0
 11
222.76481
 21
211.601248
 31
0.0
  0
LINE
  5
12ED5
  8
ALPHA
 10
217.639777
 20
212.185066
 30
0.0
 11
222.76481
 21
212.891393
 31
0.0
  0
LINE
  5
12ED6
  8
ALPHA
 10
217.639777
 20
213.470671
 30
0.0
 11
222.76481
 21
214.178509
 31
0.0
  0
LINE
  5
12ED7
  8
ALPHA
 10
217.639777
 20
214.762327
 30
0.0
 11
222.76481
 21
215.468654
 31
0.0
  0
LINE
  5
12ED8
  8
ALPHA
 10
217.639777
 20
216.050957
 30
0.0
 11
222.76481
 21
216.757285
 31
0.0
  0
LINE
  5
12ED9
  8
ALPHA
 10
217.639777
 20
207.030539
 30
0.0
 11
222.76481
 21
207.739891
 31
0.0
  0
LINE
  5
12EDA
  8
ALPHA
 10
217.639777
 20
208.320684
 30
0.0
 11
222.76481
 21
209.027011
 31
0.0
  0
LINE
  5
12EDB
  8
ALPHA
 10
217.639777
 20
231.502432
 30
0.0
 11
222.76481
 21
232.20876
 31
0.0
  0
LINE
  5
12EDC
  8
ALPHA
 10
217.639777
 20
230.215312
 30
0.0
 11
222.76481
 21
230.920129
 31
0.0
  0
LINE
  5
12EDD
  8
ALPHA
 10
217.639777
 20
228.928196
 30
0.0
 11
222.76481
 21
229.634523
 31
0.0
  0
LINE
  5
12EDE
  8
ALPHA
 10
217.639777
 20
226.353955
 30
0.0
 11
222.76481
 21
227.060283
 31
0.0
  0
LINE
  5
12EDF
  8
ALPHA
 10
217.639777
 20
225.065325
 30
0.0
 11
222.76481
 21
225.770142
 31
0.0
  0
LINE
  5
12EE0
  8
ALPHA
 10
217.639777
 20
223.778209
 30
0.0
 11
222.76481
 21
224.483021
 31
0.0
  0
LINE
  5
12EE1
  8
ALPHA
 10
217.639777
 20
222.488063
 30
0.0
 11
222.76481
 21
223.197416
 31
0.0
  0
LINE
  5
12EE2
  8
ALPHA
 10
217.639777
 20
221.202458
 30
0.0
 11
222.76481
 21
221.910295
 31
0.0
  0
LINE
  5
12EE3
  8
ALPHA
 10
217.639777
 20
227.638051
 30
0.0
 11
222.76481
 21
228.347403
 31
0.0
  0
LINE
  5
12EE4
  8
ALPHA
 10
217.639777
 20
244.385721
 30
0.0
 11
222.76481
 21
245.090533
 31
0.0
  0
LINE
  5
12EE5
  8
ALPHA
 10
217.639777
 20
241.80997
 30
0.0
 11
222.76481
 21
242.517807
 31
0.0
  0
LINE
  5
12EE6
  8
ALPHA
 10
217.639777
 20
243.095575
 30
0.0
 11
222.76481
 21
243.804928
 31
0.0
  0
LINE
  5
12EE7
  8
ALPHA
 10
217.639777
 20
236.658469
 30
0.0
 11
222.76481
 21
237.364797
 31
0.0
  0
LINE
  5
12EE8
  8
ALPHA
 10
217.639777
 20
235.369839
 30
0.0
 11
222.76481
 21
236.076166
 31
0.0
  0
LINE
  5
12EE9
  8
ALPHA
 10
217.639777
 20
234.078183
 30
0.0
 11
222.76481
 21
234.786021
 31
0.0
  0
LINE
  5
12EEA
  8
ALPHA
 10
217.639777
 20
232.792578
 30
0.0
 11
222.76481
 21
233.498905
 31
0.0
  0
LINE
  5
12EEB
  8
ALPHA
 10
217.639777
 20
239.232706
 30
0.0
 11
222.76481
 21
239.939033
 31
0.0
  0
LINE
  5
12EEC
  8
ALPHA
 10
217.639777
 20
237.944075
 30
0.0
 11
222.76481
 21
238.651917
 31
0.0
  0
LINE
  5
12EED
  8
ALPHA
 10
217.639777
 20
257.265981
 30
0.0
 11
222.76481
 21
257.972309
 31
0.0
  0
LINE
  5
12EEE
  8
ALPHA
 10
217.639777
 20
248.245563
 30
0.0
 11
222.76481
 21
248.954915
 31
0.0
  0
LINE
  5
12EEF
  8
ALPHA
 10
217.639777
 20
245.672837
 30
0.0
 11
222.76481
 21
246.377654
 31
0.0
  0
LINE
  5
12EF0
  8
ALPHA
 10
217.639777
 20
246.961467
 30
0.0
 11
222.76481
 21
247.667795
 31
0.0
  0
LINE
  5
12EF1
  8
ALPHA
 10
217.639777
 20
249.535708
 30
0.0
 11
222.76481
 21
250.242035
 31
0.0
  0
LINE
  5
12EF2
  8
ALPHA
 10
217.639777
 20
250.822824
 30
0.0
 11
222.76481
 21
251.527641
 31
0.0
  0
LINE
  5
12EF3
  8
ALPHA
 10
217.639777
 20
252.109944
 30
0.0
 11
222.76481
 21
252.816272
 31
0.0
  0
LINE
  5
12EF4
  8
ALPHA
 10
217.639777
 20
253.40009
 30
0.0
 11
222.76481
 21
254.106417
 31
0.0
  0
LINE
  5
12EF5
  8
ALPHA
 10
217.639777
 20
254.685695
 30
0.0
 11
222.76481
 21
255.393533
 31
0.0
  0
LINE
  5
12EF6
  8
ALPHA
 10
217.639777
 20
255.977351
 30
0.0
 11
222.76481
 21
256.683678
 31
0.0
  0
LINE
  5
12EF7
  8
ALPHA
 10
217.639777
 20
258.551587
 30
0.0
 11
222.76481
 21
259.259429
 31
0.0
  0
LINE
  5
12EF8
  8
ALPHA
 10
220.203951
 20
259.611053
 30
0.0
 11
217.003951
 21
259.611053
 31
0.0
  0
LINE
  5
12EF9
  8
ALPHA
 10
220.203951
 20
261.511053
 30
0.0
 11
217.003951
 21
261.511053
 31
0.0
  0
LINE
  5
12EFA
  8
ALPHA
 10
217.003951
 20
261.511053
 30
0.0
 11
217.003951
 21
259.611053
 31
0.0
  0
LINE
  5
12EFB
  8
ALPHA
 10
223.403951
 20
261.511053
 30
0.0
 11
223.403951
 21
259.611053
 31
0.0
  0
LINE
  5
12EFC
  8
ALPHA
 10
220.203951
 20
261.511053
 30
0.0
 11
223.403951
 21
261.511053
 31
0.0
  0
LINE
  5
12EFD
  8
ALPHA
 10
220.203951
 20
259.611053
 30
0.0
 11
223.403951
 21
259.611053
 31
0.0
  0
VIEWPORT
  5
494D
 67
     1
  8
0
 10
4.995325
 20
6.556512
 30
0.0
 40
22.70986
 41
13.988421
 68
    -1
 69
     1
1001
ACAD
1000
MVIEW
1002
{
1070
    16
1010
0.0
1020
0.0
1030
0.0
1010
0.0
1020
0.0
1030
1.0
1040
0.0
1040
13.988421
1040
4.995325
1040
6.556512
1040
50.0
1040
0.0
1040
0.0
1070
     0
1070
   100
1070
     1
1070
     1
1070
     0
1070
     0
1070
     0
1070
     0
1040
0.0
1040
0.0
1040
0.0
1040
10.0
1040
10.0
1040
10.0
1040
10.0
1070
     0
1002
{
1002
}
1002
}
  0
ENDSEC
  0
EOF
