  0
SECTION
  2
HEADER
  9
$ACADVER
  1
AC1009
  9
$INSBASE
 10
402.590624
 20
-1.041018
 30
0.0
  9
$EXTMIN
 10
108.043467
 20
40.511053
 30
0.0
  9
$EXTMAX
 10
170.709357
 20
275.511053
 30
0.0
  9
$LIMMIN
 10
-407.970438
 20
-367.832444
  9
$LIMMAX
 10
429.804077
 20
234.370848
  9
$ORTHOMODE
 70
     1
  9
$REGENMODE
 70
     1
  9
$FILLMODE
 70
     1
  9
$QTEXTMODE
 70
     0
  9
$MIRRTEXT
 70
     1
  9
$DRAGMODE
 70
     2
  9
$LTSCALE
 40
10.0
  9
$OSMODE
 70
    37
  9
$ATTMODE
 70
     1
  9
$TEXTSIZE
 40
6.0
  9
$TRACEWID
 40
1.0
  9
$TEXTSTYLE
  7
ROMANS
  9
$CLAYER
  8
ALPHA
  9
$CELTYPE
  6
BYLAYER
  9
$CECOLOR
 62
   256
  9
$DIMSCALE
 40
1.0
  9
$DIMASZ
 40
5.0
  9
$DIMEXO
 40
2.0
  9
$DIMDLI
 40
0.38
  9
$DIMRND
 40
0.0
  9
$DIMDLE
 40
0.0
  9
$DIMEXE
 40
2.5
  9
$DIMTP
 40
0.0
  9
$DIMTM
 40
0.0
  9
$DIMTXT
 40
2.5
  9
$DIMCEN
 40
0.0
  9
$DIMTSZ
 40
0.0
  9
$DIMTOL
 70
     0
  9
$DIMLIM
 70
     0
  9
$DIMTIH
 70
     1
  9
$DIMTOH
 70
     1
  9
$DIMSE1
 70
     0
  9
$DIMSE2
 70
     0
  9
$DIMTAD
 70
     1
  9
$DIMZIN
 70
    12
  9
$DIMBLK
  1
OPEN30
  9
$DIMASO
 70
     1
  9
$DIMSHO
 70
     1
  9
$DIMPOST
  1

  9
$DIMAPOST
  1

  9
$DIMALT
 70
     0
  9
$DIMALTD
 70
     2
  9
$DIMALTF
 40
25.4
  9
$DIMLFAC
 40
1.0
  9
$DIMTOFL
 70
     0
  9
$DIMTVP
 40
0.0
  9
$DIMTIX
 70
     0
  9
$DIMSOXD
 70
     0
  9
$DIMSAH
 70
     0
  9
$DIMBLK1
  1

  9
$DIMBLK2
  1

  9
$DIMSTYLE
  2
SC_DEFAUT
  9
$DIMCLRD
 70
     0
  9
$DIMCLRE
 70
     0
  9
$DIMCLRT
 70
     0
  9
$DIMTFAC
 40
1.0
  9
$DIMGAP
 40
2.0
  9
$LUNITS
 70
     2
  9
$LUPREC
 70
     1
  9
$SKETCHINC
 40
0.1
  9
$FILLETRAD
 40
0.0
  9
$AUNITS
 70
     0
  9
$AUPREC
 70
     0
  9
$MENU
  1
acad
  9
$ELEVATION
 40
0.0
  9
$PELEVATION
 40
0.0
  9
$THICKNESS
 40
0.0
  9
$LIMCHECK
 70
     0
  9
$BLIPMODE
 70
     0
  9
$CHAMFERA
 40
0.0
  9
$CHAMFERB
 40
0.0
  9
$SKPOLY
 70
     0
  9
$TDCREATE
 40
2450373.687919
  9
$TDUPDATE
 40
2452851.687634
  9
$TDINDWG
 40
1.650257
  9
$TDUSRTIMER
 40
1.650257
  9
$USRTIMER
 70
     1
  9
$ANGBASE
 50
0.0
  9
$ANGDIR
 70
     0
  9
$PDMODE
 70
    32
  9
$PDSIZE
 40
0.0
  9
$PLINEWID
 40
0.0
  9
$COORDS
 70
     1
  9
$SPLFRAME
 70
     0
  9
$SPLINETYPE
 70
     6
  9
$SPLINESEGS
 70
     8
  9
$ATTDIA
 70
     0
  9
$ATTREQ
 70
     1
  9
$HANDLING
 70
     1
  9
$HANDSEED
  5
1408C
  9
$SURFTAB1
 70
     6
  9
$SURFTAB2
 70
     6
  9
$SURFTYPE
 70
     6
  9
$SURFU
 70
     6
  9
$SURFV
 70
     6
  9
$UCSNAME
  2

  9
$UCSORG
 10
0.0
 20
0.0
 30
0.0
  9
$UCSXDIR
 10
1.0
 20
0.0
 30
0.0
  9
$UCSYDIR
 10
0.0
 20
1.0
 30
0.0
  9
$PUCSNAME
  2

  9
$PUCSORG
 10
0.0
 20
0.0
 30
0.0
  9
$PUCSXDIR
 10
1.0
 20
0.0
 30
0.0
  9
$PUCSYDIR
 10
0.0
 20
1.0
 30
0.0
  9
$USERI1
 70
     0
  9
$USERI2
 70
     0
  9
$USERI3
 70
     0
  9
$USERI4
 70
     0
  9
$USERI5
 70
     0
  9
$USERR1
 40
0.0
  9
$USERR2
 40
0.0
  9
$USERR3
 40
0.0
  9
$USERR4
 40
0.0
  9
$USERR5
 40
0.0
  9
$WORLDVIEW
 70
     1
  9
$SHADEDGE
 70
     3
  9
$SHADEDIF
 70
    70
  9
$TILEMODE
 70
     1
  9
$MAXACTVP
 70
    16
  9
$PLIMCHECK
 70
     0
  9
$PEXTMIN
 10
-1.452248
 20
-0.437698
 30
0.0
  9
$PEXTMAX
 10
12.749749
 20
8.310198
 30
0.0
  9
$PLIMMIN
 10
0.0
 20
0.0
  9
$PLIMMAX
 10
12.0
 20
9.0
  9
$UNITMODE
 70
     0
  9
$VISRETAIN
 70
     0
  9
$PLINEGEN
 70
     0
  9
$PSLTSCALE
 70
     0
  0
ENDSEC
  0
SECTION
  2
TABLES
  0
TABLE
  2
VPORT
 70
     2
  0
VPORT
  2
*ACTIVE
 70
     0
 10
0.0
 20
0.0
 11
1.0
 21
1.0
 12
139.35828
 22
159.13687
 13
0.0
 23
0.0
 14
1.0
 24
1.0
 15
10.0
 25
10.0
 16
0.0
 26
0.0
 36
1.0
 17
0.0
 27
0.0
 37
0.0
 40
239.295046
 41
1.56
 42
50.0
 43
0.0
 44
0.0
 50
0.0
 51
0.0
 71
     0
 72
   100
 73
     1
 74
     0
 75
     0
 76
     0
 77
     0
 78
     0
  0
ENDTAB
  0
TABLE
  2
LTYPE
 70
     2
  0
LTYPE
  2
CONTINUOUS
 70
     0
  3
Solid line
 72
    65
 73
     0
 40
0.0
  0
LTYPE
  2
AXES2
 70
     0
  3
___ _ ___ _ ___ _ ___ _ ___ _ ___ _ ___ _ ___ _
 72
    65
 73
     4
 40
1.125
 49
0.75
 49
-0.125
 49
0.125
 49
-0.125
  0
ENDTAB
  0
TABLE
  2
LAYER
 70
     5
  0
LAYER
  2
0
 70
     0
 62
   255
  6
CONTINUOUS
  0
LAYER
  2
COTATION1
 70
     0
 62
     2
  6
CONTINUOUS
  0
LAYER
  2
AXE
 70
     0
 62
    80
  6
AXES2
  0
LAYER
  2
DEFPOINTS
 70
     0
 62
     7
  6
CONTINUOUS
  0
LAYER
  2
ALPHA
 70
     0
 62
   254
  6
CONTINUOUS
  0
ENDTAB
  0
TABLE
  2
STYLE
 70
     2
  0
STYLE
  2
ROMANS
 70
     0
 40
0.0
 41
1.0
 50
0.0
 71
     0
 42
6.0
  3
romans
  4

  0
STYLE
  2
STANDARD
 70
     0
 40
0.2
 41
1.0
 50
0.0
 71
     0
 42
0.2
  3
txt
  4

  0
ENDTAB
  0
TABLE
  2
VIEW
 70
     0
  0
ENDTAB
  0
TABLE
  2
UCS
 70
     0
  0
ENDTAB
  0
TABLE
  2
APPID
 70
     1
  0
APPID
  2
ACAD
 70
     0
  0
ENDTAB
  0
TABLE
  2
DIMSTYLE
 70
     1
  0
DIMSTYLE
  2
SC_DEFAUT
 70
     0
  3

  4

  5
OPEN30
  6

  7

 40
1.0
 41
5.0
 42
2.0
 43
0.38
 44
2.5
 45
0.0
 46
0.0
 47
0.0
 48
0.0
140
2.5
141
0.0
142
0.0
143
25.4
144
1.0
145
0.0
146
1.0
147
2.0
 71
     0
 72
     0
 73
     1
 74
     1
 75
     0
 76
     0
 77
     1
 78
    12
170
     0
171
     2
172
     0
173
     0
174
     0
175
     0
176
     0
177
     0
178
     0
  0
ENDTAB
  0
ENDSEC
  0
SECTION
  2
BLOCKS
  0
BLOCK
  8
0
  2
$MODEL_SPACE
 70
     0
 10
0.0
 20
0.0
 30
0.0
  3
$MODEL_SPACE
  1

  0
ENDBLK
  5
13EDA
  8
0
  0
BLOCK
 67
     1
  8
0
  2
$PAPER_SPACE
 70
     0
 10
0.0
 20
0.0
 30
0.0
  3
$PAPER_SPACE
  1

  0
ENDBLK
  5
13ED8
 67
     1
  8
0
  0
BLOCK
  8
0
  2
COTE
 70
     0
 10
0.0
 20
0.0
 30
0.0
  3
COTE
  1

  0
ENDBLK
  5
F
  8
0
  0
BLOCK
  8
0
  2
FOND
 70
     0
 10
0.0
 20
0.0
 30
0.0
  3
FOND
  1

  0
ENDBLK
  5
75
  8
0
  0
BLOCK
  8
0
  2
_OPEN30
 70
     0
 10
0.0
 20
0.0
 30
0.0
  3
_OPEN30
  1

  0
LINE
  5
4B05
  8
COTATION1
 62
     0
 10
-1.0
 20
0.267949
 30
0.0
 11
0.0
 21
0.0
 31
0.0
1001
ACAD
1000
RTLwPs
1070
   158
  0
LINE
  5
4B06
  8
COTATION1
 62
     0
 10
0.0
 20
0.0
 30
0.0
 11
-1.0
 21
-0.267949
 31
0.0
1001
ACAD
1000
RTLwPs
1070
   158
  0
LINE
  5
4B07
  8
COTATION1
 62
     0
 10
0.0
 20
0.0
 30
0.0
 11
-1.0
 21
0.0
 31
0.0
1001
ACAD
1000
RTLwPs
1070
   158
  0
ENDBLK
  5
4B09
  8
0
  0
BLOCK
  8
0
  2
*D3
 70
     1
 10
0.0
 20
0.0
 30
0.0
  3
*D3
  1

  0
LINE
  5
13CD4
  8
COTATION1
 62
     0
 10
133.7651
 20
275.511053
 30
0.0
 11
168.387928
 21
275.511053
 31
0.0
1001
ACAD
1000
RTLwPs
1070
   158
  0
LINE
  5
13CD5
  8
COTATION1
 62
     0
 10
145.267597
 20
79.011053
 30
0.0
 11
168.387928
 21
79.011053
 31
0.0
1001
ACAD
1000
RTLwPs
1070
   158
  0
LINE
  5
13CD6
  8
COTATION1
 62
     0
 10
165.887928
 20
270.511053
 30
0.0
 11
165.887928
 21
180.511053
 31
0.0
1001
ACAD
1000
RTLwPs
1070
   158
  0
LINE
  5
13CD7
  8
COTATION1
 62
     0
 10
165.887928
 20
84.011053
 30
0.0
 11
165.887928
 21
174.011053
 31
0.0
1001
ACAD
1000
RTLwPs
1070
   158
  0
INSERT
  5
13CD8
  8
COTATION1
 62
     0
  2
_OPEN30
 10
165.887928
 20
275.511053
 30
0.0
 41
5.0
 42
5.0
 43
5.0
 50
90.0
1001
ACAD
1000
RTLwPs
1070
   158
  0
INSERT
  5
13CD9
  8
COTATION1
 62
     0
  2
_OPEN30
 10
165.887928
 20
79.011053
 30
0.0
 41
5.0
 42
5.0
 43
5.0
 50
270.0
1001
ACAD
1000
RTLwPs
1070
   158
  0
TEXT
  5
13CDA
  8
COTATION1
 62
     0
 10
160.352214
 20
176.011053
 30
0.0
 40
2.5
  1
196.5
1001
ACAD
1000
MTEXTBEGIN
1070
    73
1070
     1
1070
    44
1040
1.0
1070
    74
1070
     0
1000
MTEXTEND
1000
MTEXTBEGIN
1070
    73
1070
     1
1070
    44
1040
1.0
1070
    74
1070
     0
1000
MTEXTEND
  0
POINT
  5
13CDB
  8
DEFPOINTS
 62
     0
 10
131.7651
 20
275.511053
 30
0.0
  0
POINT
  5
13CDC
  8
DEFPOINTS
 62
     0
 10
143.267597
 20
79.011053
 30
0.0
  0
POINT
  5
13CDD
  8
DEFPOINTS
 62
     0
 10
165.887928
 20
79.011053
 30
0.0
  0
ENDBLK
  5
124A4
  8
0
  0
BLOCK
  8
0
  2
*D4
 70
     1
 10
0.0
 20
0.0
 30
0.0
  3
*D4
  1

  0
LINE
  5
12703
  8
COTATION1
 62
     0
 10
118.267597
 20
124.011053
 30
0.0
 11
118.267597
 21
50.511053
 31
0.0
1001
ACAD
1000
RTLwPs
1070
   158
  0
LINE
  5
12704
  8
COTATION1
 62
     0
 10
143.267597
 20
77.011053
 30
0.0
 11
143.267597
 21
50.511053
 31
0.0
1001
ACAD
1000
RTLwPs
1070
   158
  0
LINE
  5
12705
  8
COTATION1
 62
     0
 10
123.267597
 20
53.011053
 30
0.0
 11
138.267597
 21
53.011053
 31
0.0
1001
ACAD
1000
RTLwPs
1070
   158
  0
INSERT
  5
12706
  8
COTATION1
 62
     0
  2
_OPEN30
 10
118.267597
 20
53.011053
 30
0.0
 41
5.0
 42
5.0
 43
5.0
 50
180.0
1001
ACAD
1000
RTLwPs
1070
   158
  0
INSERT
  5
12707
  8
COTATION1
 62
     0
  2
_OPEN30
 10
143.267597
 20
53.011053
 30
0.0
 41
5.0
 42
5.0
 43
5.0
1001
ACAD
1000
RTLwPs
1070
   158
  0
TEXT
  5
12708
  8
COTATION1
 62
     0
 10
128.386645
 20
55.011053
 30
0.0
 40
2.5
  1
25
1001
ACAD
1000
MTEXTBEGIN
1070
    73
1070
     1
1070
    44
1040
1.0
1070
    74
1070
     0
1000
MTEXTEND
1000
MTEXTBEGIN
1070
    73
1070
     1
1070
    44
1040
1.0
1070
    74
1070
     0
1000
MTEXTEND
1000
MTEXTBEGIN
1070
    73
1070
     1
1070
    44
1040
1.0
1070
    74
1070
     0
1000
MTEXTEND
1000
MTEXTBEGIN
1070
    73
1070
     1
1070
    44
1040
1.0
1070
    74
1070
     0
1000
MTEXTEND
1000
MTEXTBEGIN
1070
    73
1070
     1
1070
    44
1040
1.0
1070
    74
1070
     0
1000
MTEXTEND
1000
MTEXTBEGIN
1070
    73
1070
     1
1070
    44
1040
1.0
1070
    74
1070
     0
1000
MTEXTEND
1000
MTEXTBEGIN
1070
    73
1070
     1
1070
    44
1040
1.0
1070
    74
1070
     0
1000
MTEXTEND
  0
POINT
  5
12709
  8
DEFPOINTS
 62
     0
 10
118.267597
 20
126.011053
 30
0.0
  0
POINT
  5
1270A
  8
DEFPOINTS
 62
     0
 10
143.267597
 20
79.011053
 30
0.0
  0
POINT
  5
1270B
  8
DEFPOINTS
 62
     0
 10
143.267597
 20
53.011053
 30
0.0
  0
ENDBLK
  5
124B0
  8
0
  0
BLOCK
  8
0
  2
*D5
 70
     1
 10
0.0
 20
0.0
 30
0.0
  3
*D5
  1

  0
LINE
  5
12716
  8
COTATION1
 62
     0
 10
113.267597
 20
77.011053
 30
0.0
 11
113.267597
 21
40.511053
 31
0.0
1001
ACAD
1000
RTLwPs
1070
   158
  0
LINE
  5
12717
  8
COTATION1
 62
     0
 10
143.267597
 20
77.011053
 30
0.0
 11
143.267597
 21
40.511053
 31
0.0
1001
ACAD
1000
RTLwPs
1070
   158
  0
LINE
  5
12718
  8
COTATION1
 62
     0
 10
118.267597
 20
43.011053
 30
0.0
 11
138.267597
 21
43.011053
 31
0.0
1001
ACAD
1000
RTLwPs
1070
   158
  0
INSERT
  5
12719
  8
COTATION1
 62
     0
  2
_OPEN30
 10
113.267597
 20
43.011053
 30
0.0
 41
5.0
 42
5.0
 43
5.0
 50
180.0
1001
ACAD
1000
RTLwPs
1070
   158
  0
INSERT
  5
1271A
  8
COTATION1
 62
     0
  2
_OPEN30
 10
143.267597
 20
43.011053
 30
0.0
 41
5.0
 42
5.0
 43
5.0
1001
ACAD
1000
RTLwPs
1070
   158
  0
TEXT
  5
1271B
  8
COTATION1
 62
     0
 10
125.886645
 20
45.011053
 30
0.0
 40
2.5
  1
30
1001
ACAD
1000
MTEXTBEGIN
1070
    73
1070
     1
1070
    44
1040
1.0
1070
    74
1070
     0
1000
MTEXTEND
1000
MTEXTBEGIN
1070
    73
1070
     1
1070
    44
1040
1.0
1070
    74
1070
     0
1000
MTEXTEND
1000
MTEXTBEGIN
1070
    73
1070
     1
1070
    44
1040
1.0
1070
    74
1070
     0
1000
MTEXTEND
1000
MTEXTBEGIN
1070
    73
1070
     1
1070
    44
1040
1.0
1070
    74
1070
     0
1000
MTEXTEND
1000
MTEXTBEGIN
1070
    73
1070
     1
1070
    44
1040
1.0
1070
    74
1070
     0
1000
MTEXTEND
1000
MTEXTBEGIN
1070
    73
1070
     1
1070
    44
1040
1.0
1070
    74
1070
     0
1000
MTEXTEND
1000
MTEXTBEGIN
1070
    73
1070
     1
1070
    44
1040
1.0
1070
    74
1070
     0
1000
MTEXTEND
  0
POINT
  5
1271C
  8
DEFPOINTS
 62
     0
 10
113.267597
 20
79.011053
 30
0.0
  0
POINT
  5
1271D
  8
DEFPOINTS
 62
     0
 10
143.267597
 20
79.011053
 30
0.0
  0
POINT
  5
1271E
  8
DEFPOINTS
 62
     0
 10
143.267597
 20
43.011053
 30
0.0
  0
ENDBLK
  5
124BC
  8
0
  0
BLOCK
  8
0
  2
*D7
 70
     1
 10
0.0
 20
0.0
 30
0.0
  3
*D7
  1

  0
LINE
  5
13F31
  8
COTATION1
 62
     0
 10
130.767597
 20
191.077943
 30
0.0
 11
130.767597
 21
217.005223
 31
0.0
  0
LINE
  5
13F32
  8
COTATION1
 62
     0
 10
143.267597
 20
150.011053
 30
0.0
 11
143.267597
 21
217.005223
 31
0.0
  0
LINE
  5
13F33
  8
COTATION1
 62
     0
 10
125.767597
 20
214.505223
 30
0.0
 11
120.767597
 21
214.505223
 31
0.0
  0
LINE
  5
13F34
  8
COTATION1
 62
     0
 10
148.267597
 20
214.505223
 30
0.0
 11
153.267597
 21
214.505223
 31
0.0
  0
LINE
  5
13F35
  8
COTATION1
 62
     0
 10
108.043467
 20
214.505223
 30
0.0
 11
130.767597
 21
214.505223
 31
0.0
  0
TEXT
  8
0
  40
2.5
  5
1408B
  62
0
  72
0
  71
0
 10
108.674
 20
213.330
 30
0.000000
  1
12.5
  0
LINE
  5
13F37
  8
COTATION1
 62
     0
 10
130.767597
 20
214.505223
 30
0.0
 11
143.267597
 21
214.505223
 31
0.0
  0
INSERT
  5
13F38
  8
COTATION1
 62
     0
  2
_OPEN30
 10
130.767597
 20
214.505223
 30
0.0
 41
5.0
 42
5.0
 43
5.0
  0
INSERT
  5
13F39
  8
COTATION1
 62
     0
  2
_OPEN30
 10
143.267597
 20
214.505223
 30
0.0
 41
5.0
 42
5.0
 43
5.0
 50
180.0
  0
POINT
  5
13F3A
  8
DEFPOINTS
 62
     0
 10
130.767597
 20
189.077943
 30
0.0
  0
POINT
  5
13F3B
  8
DEFPOINTS
 62
     0
 10
143.267597
 20
148.011053
 30
0.0
  0
POINT
  5
13F3C
  8
DEFPOINTS
 62
     0
 10
143.267597
 20
214.505223
 30
0.0
  0
ENDBLK
  5
13EEA
  8
0
  0
ENDSEC
  0
SECTION
  2
ENTITIES
  0
INSERT
  5
A
  8
0
  2
COTE
 10
0.0
 20
0.0
 30
0.0
  0
INSERT
  5
17
  8
0
  2
COTE
 10
284.010391
 20
6.373258
 30
0.0
  0
INSERT
  5
72
  8
0
  2
FOND
 10
0.0
 20
0.0
 30
0.0
  0
LINE
  5
1247B
  8
AXE
 10
130.767597
 20
189.077943
 30
0.0
 11
130.767597
 21
63.011053
 31
0.0
  0
DIMENSION
  5
1247C
  8
COTATION1
  2
*D3
 10
165.887928
 20
79.011053
 30
0.0
 11
165.887928
 21
177.261053
 31
0.0
 13
131.7651
 23
275.511053
 33
0.0
 14
143.267597
 24
79.011053
 34
0.0
 50
90.0
  0
ARC
  5
1247D
  8
ALPHA
 10
143.808309
 20
126.816576
 30
0.0
 40
30.551333
 50
157.335498
 51
181.510846
  0
LINE
  5
1247E
  8
ALPHA
 10
116.967597
 20
81.011053
 30
0.0
 11
116.967597
 21
139.511053
 31
0.0
  0
LINE
  5
1247F
  8
ALPHA
 10
118.267597
 20
126.011053
 30
0.0
 11
118.267597
 21
148.011053
 31
0.0
  0
LINE
  5
12480
  8
ALPHA
 10
143.267597
 20
79.011053
 30
0.0
 11
143.267597
 21
148.011053
 31
0.0
  0
LINE
  5
12481
  8
AXE
 10
108.267597
 20
114.011053
 30
0.0
 11
155.767597
 21
114.011053
 31
0.0
  0
DIMENSION
  5
12482
  8
COTATION1
  2
*D4
 10
143.267597
 20
53.011053
 30
0.0
 11
130.767597
 21
56.261053
 31
0.0
 13
118.267597
 23
126.011053
 33
0.0
 14
143.267597
 24
79.011053
 34
0.0
  0
LINE
  5
12483
  8
ALPHA
 10
113.267597
 20
79.011053
 30
0.0
 11
113.267597
 21
126.011053
 31
0.0
  0
DIMENSION
  5
12484
  8
COTATION1
  2
*D5
 10
143.267597
 20
43.011053
 30
0.0
 11
128.267597
 21
46.261053
 31
0.0
 13
113.267597
 23
79.011053
 33
0.0
 14
143.267597
 24
79.011053
 34
0.0
  0
LINE
  5
12485
  8
ALPHA
 10
113.267597
 20
81.011053
 30
0.0
 11
116.967597
 21
81.011053
 31
0.0
  0
LINE
  5
12486
  8
ALPHA
 10
113.267597
 20
79.011053
 30
0.0
 11
143.267597
 21
79.011053
 31
0.0
  0
TEXT
  5
12487
  8
AXE
 10
123.291406
 20
63.011053
 30
0.0
 40
8.0
  1
Y
 72
     2
 11
129.767597
 21
63.011053
 31
0.0
  0
LINE
  5
12488
  8
ALPHA
 10
113.267597
 20
126.011053
 30
0.0
 11
118.267597
 21
126.011053
 31
0.0
  0
TEXT
  5
12489
  8
AXE
 10
149.291406
 20
115.011053
 30
0.0
 40
8.0
  1
Z
 72
     2
 11
155.767597
 21
115.011053
 31
0.0
  0
ARC
  5
1248C
  8
ALPHA
 10
117.001317
 20
138.010303
 30
0.0
 40
1.501129
 50
91.287148
 51
157.32246
  0
LINE
  5
1248D
  8
ALPHA
 10
116.967597
 20
139.511053
 30
0.0
 11
143.267597
 21
139.511053
 31
0.0
  0
LINE
  5
1248E
  8
ALPHA
 10
118.267597
 20
146.511053
 30
0.0
 11
143.267597
 21
146.511053
 31
0.0
  0
LINE
  5
12491
  8
ALPHA
 10
118.267597
 20
148.011053
 30
0.0
 11
143.267597
 21
148.011053
 31
0.0
  0
LINE
  5
12492
  8
ALPHA
 10
118.267597
 20
143.511053
 30
0.0
 11
125.267597
 21
143.511053
 31
0.0
  0
LINE
  5
12493
  8
ALPHA
 10
125.267597
 20
143.511053
 30
0.0
 11
125.267597
 21
139.511053
 31
0.0
  0
LINE
  5
12495
  8
ALPHA
 10
143.267597
 20
143.511053
 30
0.0
 11
136.267597
 21
143.511053
 31
0.0
  0
LINE
  5
12496
  8
ALPHA
 10
136.267597
 20
143.511053
 30
0.0
 11
136.267597
 21
139.511053
 31
0.0
  0
DIMENSION
  5
127CC
  8
COTATION1
  2
*D7
 10
143.267597
 20
214.505223
 30
0.0
 11
113.674419
 21
214.505223
 31
0.0
 70
   128
 13
130.767597
 23
189.077943
 33
0.0
 14
143.267597
 24
148.011053
 34
0.0
1001
ACAD
1000
DSTYLE
1002
{
1070
   287
1070
     4
1070
   279
1070
     1
1002
}
  0
LINE
  5
12875
  8
ALPHA
 10
125.267597
 20
154.011053
 30
0.0
 11
125.267597
 21
148.011053
 31
0.0
  0
LINE
  5
12877
  8
ALPHA
 10
125.267597
 20
154.011053
 30
0.0
 11
130.767597
 21
154.011053
 31
0.0
  0
LINE
  5
12878
  8
ALPHA
 10
126.767597
 20
155.511053
 30
0.0
 11
130.767597
 21
155.511053
 31
0.0
  0
LINE
  5
12879
  8
ALPHA
 10
125.267597
 20
154.011053
 30
0.0
 11
126.767597
 21
155.511053
 31
0.0
  0
LINE
  5
1287B
  8
ALPHA
 10
127.767597
 20
155.511053
 30
0.0
 11
128.767597
 21
157.511053
 31
0.0
  0
LINE
  5
1287E
  8
ALPHA
 10
136.267597
 20
154.011053
 30
0.0
 11
134.767597
 21
155.511053
 31
0.0
  0
LINE
  5
1287F
  8
ALPHA
 10
136.267597
 20
154.011053
 30
0.0
 11
130.767597
 21
154.011053
 31
0.0
  0
LINE
  5
12880
  8
ALPHA
 10
136.267597
 20
154.011053
 30
0.0
 11
136.267597
 21
148.011053
 31
0.0
  0
LINE
  5
12881
  8
ALPHA
 10
133.767597
 20
155.511053
 30
0.0
 11
132.767597
 21
157.511053
 31
0.0
  0
LINE
  5
12882
  8
ALPHA
 10
134.767597
 20
155.511053
 30
0.0
 11
130.767597
 21
155.511053
 31
0.0
  0
LINE
  5
13B3E
  8
ALPHA
 10
132.767597
 20
157.511053
 30
0.0
 11
128.767597
 21
157.511053
 31
0.0
  0
LINE
  5
13B8B
  8
ALPHA
 10
134.026312
 20
177.50954
 30
0.0
 11
133.497688
 21
178.140259
 31
0.0
  0
POLYLINE
  5
13B8C
  8
ALPHA
 66
     1
 10
0.0
 20
0.0
 30
0.0
 70
   128
210
0.0
220
0.0
230
-1.0
  0
VERTEX
  5
13F4B
  8
ALPHA
 10
-133.497688
 20
178.140259
 30
0.0
  0
VERTEX
  5
13F4C
  8
ALPHA
 10
-133.497688
 20
178.159402
 30
0.0
  0
VERTEX
  5
13F4D
  8
ALPHA
 10
-133.875439
 20
178.380939
 30
0.0
  0
VERTEX
  5
13F4E
  8
ALPHA
 10
-133.975985
 20
179.047556
 30
0.0
  0
VERTEX
  5
13F4F
  8
ALPHA
 10
-133.385005
 20
179.442536
 30
0.0
  0
SEQEND
  5
13F50
  8
ALPHA
  0
POLYLINE
  5
13B8D
  8
ALPHA
 66
     1
 10
0.0
 20
0.0
 30
0.0
 70
   128
210
0.0
220
0.0
230
-1.0
  0
VERTEX
  5
13F51
  8
ALPHA
 10
-133.615664
 20
176.822858
 30
0.0
  0
VERTEX
  5
13F52
  8
ALPHA
 10
-133.609614
 20
176.907559
 30
0.0
  0
VERTEX
  5
13F53
  8
ALPHA
 10
-134.026312
 20
177.50954
 30
0.0
  0
SEQEND
  5
13F54
  8
ALPHA
  0
LINE
  5
13B8E
  8
ALPHA
 10
132.739161
 20
157.511053
 30
0.0
 11
132.739161
 21
158.763416
 31
0.0
  0
POLYLINE
  5
13B8F
  8
ALPHA
 66
     1
 10
0.0
 20
0.0
 30
0.0
 70
   128
210
0.0
220
0.0
230
-1.0
  0
VERTEX
  5
13F55
  8
ALPHA
 10
-129.02064
 20
178.975168
 30
0.0
  0
VERTEX
  5
13F56
  8
ALPHA
 10
-128.377443
 20
178.770979
 30
0.0
  0
VERTEX
  5
13F57
  8
ALPHA
 10
-127.801269
 20
178.922798
 30
0.0
  0
VERTEX
  5
13F58
  8
ALPHA
 10
-127.663098
 20
179.629639
 30
0.0
  0
VERTEX
  5
13F59
  8
ALPHA
 10
-128.258332
 20
180.023342
 30
0.0
  0
SEQEND
  5
13F5A
  8
ALPHA
  0
POLYLINE
  5
13B90
  8
ALPHA
 66
     1
 10
0.0
 20
0.0
 30
0.0
 70
   128
210
0.0
220
0.0
230
-1.0
  0
VERTEX
  5
13F5B
  8
ALPHA
 10
-128.258332
 20
180.023342
 30
0.0
  0
VERTEX
  5
13F5C
  8
ALPHA
 10
-128.995684
 20
180.26837
 30
0.0
  0
VERTEX
  5
13F5D
  8
ALPHA
 10
-129.790065
 20
180.469463
 30
0.0
  0
VERTEX
  5
13F5E
  8
ALPHA
 10
-130.249393
 20
180.857306
 30
0.0
  0
VERTEX
  5
13F5F
  8
ALPHA
 10
-130.5651
 20
182.084901
 30
0.0
  0
SEQEND
  5
13F60
  8
ALPHA
  0
LINE
  5
13B91
  8
ALPHA
 10
130.853053
 20
179.669413
 30
0.0
 11
129.316337
 21
179.531774
 31
0.0
  0
LINE
  5
13B92
  8
ALPHA
 10
129.316337
 20
179.531774
 30
0.0
 11
129.316337
 21
178.848117
 31
0.0
  0
LINE
  5
13B94
  8
ALPHA
 10
128.258332
 20
158.128159
 30
0.0
 11
128.899639
 21
158.19471
 31
0.0
  0
LINE
  5
13B95
  8
ALPHA
 10
128.899639
 20
158.19471
 30
0.0
 11
128.899639
 21
157.511053
 31
0.0
  0
POLYLINE
  5
13B96
  8
ALPHA
 66
     1
 10
0.0
 20
0.0
 30
0.0
 70
   128
  0
VERTEX
  5
13F61
  8
ALPHA
 10
129.316337
 20
178.848117
 30
0.0
  0
VERTEX
  5
13F62
  8
ALPHA
 10
128.225007
 20
178.732331
 30
0.0
  0
VERTEX
  5
13F63
  8
ALPHA
 10
127.769635
 20
178.510948
 30
0.0
  0
VERTEX
  5
13F64
  8
ALPHA
 10
127.615811
 20
178.023272
 30
0.0
  0
VERTEX
  5
13F65
  8
ALPHA
 10
128.159741
 20
177.437142
 30
0.0
  0
VERTEX
  5
13F66
  8
ALPHA
 10
127.731358
 20
177.174645
 30
0.0
  0
VERTEX
  5
13F67
  8
ALPHA
 10
127.625567
 20
176.672315
 30
0.0
  0
VERTEX
  5
13F68
  8
ALPHA
 10
127.909777
 20
176.258271
 30
0.0
  0
VERTEX
  5
13F69
  8
ALPHA
 10
128.151724
 20
176.164631
 30
0.0
  0
VERTEX
  5
13F6A
  8
ALPHA
 10
128.096585
 20
176.135726
 30
0.0
  0
VERTEX
  5
13F6B
  8
ALPHA
 10
127.697833
 20
175.834305
 30
0.0
  0
VERTEX
  5
13F6C
  8
ALPHA
 10
127.641436
 20
175.323081
 30
0.0
  0
VERTEX
  5
13F6D
  8
ALPHA
 10
127.963861
 20
174.940766
 30
0.0
  0
VERTEX
  5
13F6E
  8
ALPHA
 10
128.216744
 20
174.871509
 30
0.0
  0
VERTEX
  5
13F6F
  8
ALPHA
 10
128.03586
 20
174.831056
 30
0.0
  0
VERTEX
  5
13F70
  8
ALPHA
 10
127.669381
 20
174.490856
 30
0.0
  0
VERTEX
  5
13F71
  8
ALPHA
 10
127.663098
 20
173.975476
 30
0.0
  0
VERTEX
  5
13F72
  8
ALPHA
 10
128.021097
 20
173.627583
 30
0.0
  0
VERTEX
  5
13F73
  8
ALPHA
 10
128.233298
 20
173.582575
 30
0.0
  0
VERTEX
  5
13F74
  8
ALPHA
 10
127.977887
 20
173.519406
 30
0.0
  0
VERTEX
  5
13F75
  8
ALPHA
 10
127.646321
 20
173.144447
 30
0.0
  0
VERTEX
  5
13F76
  8
ALPHA
 10
127.690232
 20
172.62991
 30
0.0
  0
VERTEX
  5
13F77
  8
ALPHA
 10
128.081163
 20
172.315952
 30
0.0
  0
VERTEX
  5
13F78
  8
ALPHA
 10
128.16779
 20
172.285131
 30
0.0
  0
VERTEX
  5
13F79
  8
ALPHA
 10
127.922985
 20
172.198333
 30
0.0
  0
VERTEX
  5
13F7A
  8
ALPHA
 10
127.628974
 20
171.792885
 30
0.0
  0
VERTEX
  5
13F7B
  8
ALPHA
 10
127.722519
 20
171.286771
 30
0.0
  0
VERTEX
  5
13F7C
  8
ALPHA
 10
128.143741
 20
171.014187
 30
0.0
  0
VERTEX
  5
13F7D
  8
ALPHA
 10
127.871475
 20
170.87598
 30
0.0
  0
VERTEX
  5
13F7E
  8
ALPHA
 10
127.617659
 20
170.440674
 30
0.0
  0
VERTEX
  5
13F7F
  8
ALPHA
 10
127.759638
 20
169.949309
 30
0.0
  0
VERTEX
  5
13F80
  8
ALPHA
 10
128.20851
 20
169.715923
 30
0.0
  0
VERTEX
  5
13F81
  8
ALPHA
 10
127.823676
 20
169.54619
 30
0.0
  0
VERTEX
  5
13F82
  8
ALPHA
 10
127.612698
 20
169.083427
 30
0.0
  0
VERTEX
  5
13F83
  8
ALPHA
 10
127.801269
 20
168.613866
 30
0.0
  0
VERTEX
  5
13F84
  8
ALPHA
 10
128.241616
 20
168.425158
 30
0.0
  0
VERTEX
  5
13F85
  8
ALPHA
 10
127.779909
 20
168.214334
 30
0.0
  0
VERTEX
  5
13F86
  8
ALPHA
 10
127.614364
 20
167.732641
 30
0.0
  0
VERTEX
  5
13F87
  8
ALPHA
 10
127.847091
 20
167.284508
 30
0.0
  0
VERTEX
  5
13F88
  8
ALPHA
 10
128.175872
 20
167.133008
 30
0.0
  0
VERTEX
  5
13F89
  8
ALPHA
 10
127.740494
 20
166.878256
 30
0.0
  0
VERTEX
  5
13F8A
  8
ALPHA
 10
127.622542
 20
166.379311
 30
0.0
  0
VERTEX
  5
13F8B
  8
ALPHA
 10
127.896786
 20
165.961058
 30
0.0
  0
VERTEX
  5
13F8C
  8
ALPHA
 10
128.135793
 20
165.862606
 30
0.0
  0
VERTEX
  5
13F8D
  8
ALPHA
 10
128.112158
 20
165.834709
 30
0.0
  0
VERTEX
  5
13F8E
  8
ALPHA
 10
127.705751
 20
165.542859
 30
0.0
  0
VERTEX
  5
13F8F
  8
ALPHA
 10
127.636913
 20
165.031908
 30
0.0
  0
VERTEX
  5
13F90
  8
ALPHA
 10
127.950032
 20
164.642364
 30
0.0
  0
VERTEX
  5
13F91
  8
ALPHA
 10
128.200305
 20
164.567945
 30
0.0
  0
VERTEX
  5
13F92
  8
ALPHA
 10
128.050796
 20
164.531371
 30
0.0
  0
VERTEX
  5
13F93
  8
ALPHA
 10
127.676001
 20
164.199039
 30
0.0
  0
VERTEX
  5
13F94
  8
ALPHA
 10
127.657157
 20
163.683704
 30
0.0
  0
VERTEX
  5
13F95
  8
ALPHA
 10
128.00651
 20
163.327221
 30
0.0
  0
VERTEX
  5
13F96
  8
ALPHA
 10
128.249961
 20
163.276711
 30
0.0
  0
VERTEX
  5
13F97
  8
ALPHA
 10
127.992105
 20
163.219547
 30
0.0
  0
VERTEX
  5
13F98
  8
ALPHA
 10
127.651563
 20
162.853204
 30
0.0
  0
VERTEX
  5
13F99
  8
ALPHA
 10
127.682953
 20
162.338936
 30
0.0
  0
VERTEX
  5
13F9A
  8
ALPHA
 10
128.065899
 20
162.018347
 30
0.0
  0
VERTEX
  5
13F9B
  8
ALPHA
 10
128.183985
 20
161.985406
 30
0.0
  0
VERTEX
  5
13F9C
  8
ALPHA
 10
127.936405
 20
161.90421
 30
0.0
  0
VERTEX
  5
13F9D
  8
ALPHA
 10
127.632757
 20
161.50708
 30
0.0
  0
VERTEX
  5
13F9E
  8
ALPHA
 10
127.713982
 20
160.997904
 30
0.0
  0
VERTEX
  5
13F9F
  8
ALPHA
 10
128.127879
 20
160.713998
 30
0.0
  0
VERTEX
  5
13FA0
  8
ALPHA
 10
127.619905
 20
160.155424
 30
0.0
  0
VERTEX
  5
13FA1
  8
ALPHA
 10
127.749922
 20
159.660503
 30
0.0
  0
VERTEX
  5
13FA2
  8
ALPHA
 10
128.19213
 20
159.417129
 30
0.0
  0
VERTEX
  5
13FA3
  8
ALPHA
 10
127.613325
 20
158.802587
 30
0.0
  0
VERTEX
  5
13FA4
  8
ALPHA
 10
127.790455
 20
158.326517
 30
0.0
  0
VERTEX
  5
13FA5
  8
ALPHA
 10
128.258332
 20
158.128159
 30
0.0
  0
SEQEND
  5
13FA6
  8
ALPHA
  0
POLYLINE
  5
13B97
  8
ALPHA
 66
     1
 10
0.0
 20
0.0
 30
0.0
 70
   128
  0
VERTEX
  5
13FA7
  8
ALPHA
 10
131.7651
 20
190.787919
 30
0.0
  0
VERTEX
  5
13FA8
  8
ALPHA
 10
131.7651
 20
190.417146
 30
0.0
  0
VERTEX
  5
13FA9
  8
ALPHA
 10
131.7651
 20
189.439653
 30
0.0
  0
VERTEX
  5
13FAA
  8
ALPHA
 10
131.7651
 20
186.473467
 30
0.0
  0
VERTEX
  5
13FAB
  8
ALPHA
 10
131.7651
 20
183.507281
 30
0.0
  0
VERTEX
  5
13FAC
  8
ALPHA
 10
131.7651
 20
182.529788
 30
0.0
  0
VERTEX
  5
13FAD
  8
ALPHA
 10
131.7651
 20
182.159015
 30
0.0
  0
VERTEX
  5
13FAE
  8
ALPHA
 10
131.606723
 20
180.766933
 30
0.0
  0
VERTEX
  5
13FAF
  8
ALPHA
 10
130.964318
 20
179.771886
 30
0.0
  0
VERTEX
  5
13FB0
  8
ALPHA
 10
130.036188
 20
179.174442
 30
0.0
  0
VERTEX
  5
13FB1
  8
ALPHA
 10
129.02064
 20
178.975168
 30
0.0
  0
SEQEND
  5
13FB2
  8
ALPHA
  0
POLYLINE
  5
13B98
  8
ALPHA
 66
     1
 10
0.0
 20
0.0
 30
0.0
 70
   128
  0
VERTEX
  5
13FB3
  8
ALPHA
 10
128.258332
 20
158.128159
 30
0.0
  0
VERTEX
  5
13FB4
  8
ALPHA
 10
128.491936
 20
158.160276
 30
0.0
  0
VERTEX
  5
13FB5
  8
ALPHA
 10
129.104898
 20
158.244548
 30
0.0
  0
VERTEX
  5
13FB6
  8
ALPHA
 10
130.941786
 20
158.49709
 30
0.0
  0
VERTEX
  5
13FB7
  8
ALPHA
 10
132.714782
 20
158.740847
 30
0.0
  0
VERTEX
  5
13FB8
  8
ALPHA
 10
133.247879
 20
158.814139
 30
0.0
  0
VERTEX
  5
13FB9
  8
ALPHA
 10
133.418051
 20
158.833823
 30
0.0
  0
VERTEX
  5
13FBA
  8
ALPHA
 10
133.870096
 20
159.054347
 30
0.0
  0
VERTEX
  5
13FBB
  8
ALPHA
 10
134.023007
 20
159.541639
 30
0.0
  0
VERTEX
  5
13FBC
  8
ALPHA
 10
133.482786
 20
160.129015
 30
0.0
  0
VERTEX
  5
13FBD
  8
ALPHA
 10
133.908134
 20
160.391171
 30
0.0
  0
VERTEX
  5
13FBE
  8
ALPHA
 10
134.013303
 20
160.892764
 30
0.0
  0
VERTEX
  5
13FBF
  8
ALPHA
 10
133.730885
 20
161.30675
 30
0.0
  0
VERTEX
  5
13FC0
  8
ALPHA
 10
133.490738
 20
161.400056
 30
0.0
  0
VERTEX
  5
13FC1
  8
ALPHA
 10
133.545445
 20
161.429013
 30
0.0
  0
VERTEX
  5
13FC2
  8
ALPHA
 10
133.941455
 20
161.731012
 30
0.0
  0
VERTEX
  5
13FC3
  8
ALPHA
 10
133.997523
 20
162.241565
 30
0.0
  0
VERTEX
  5
13FC4
  8
ALPHA
 10
133.677182
 20
162.623879
 30
0.0
  0
VERTEX
  5
13FC5
  8
ALPHA
 10
133.426245
 20
162.693136
 30
0.0
  0
VERTEX
  5
13FC6
  8
ALPHA
 10
133.605709
 20
162.73359
 30
0.0
  0
VERTEX
  5
13FC7
  8
ALPHA
 10
133.969739
 20
163.073789
 30
0.0
  0
VERTEX
  5
13FC8
  8
ALPHA
 10
133.975985
 20
163.588768
 30
0.0
  0
VERTEX
  5
13FC9
  8
ALPHA
 10
133.620363
 20
163.938173
 30
0.0
  0
VERTEX
  5
13FCA
  8
ALPHA
 10
133.409829
 20
163.983577
 30
0.0
  0
VERTEX
  5
13FCB
  8
ALPHA
 10
133.663257
 20
164.046168
 30
0.0
  0
VERTEX
  5
13FCC
  8
ALPHA
 10
133.992666
 20
164.419009
 30
0.0
  0
VERTEX
  5
13FCD
  8
ALPHA
 10
133.949011
 20
164.933223
 30
0.0
  0
VERTEX
  5
13FCE
  8
ALPHA
 10
133.560748
 20
165.247181
 30
0.0
  0
VERTEX
  5
13FCF
  8
ALPHA
 10
133.474801
 20
165.277999
 30
0.0
  0
VERTEX
  5
13FD0
  8
ALPHA
 10
133.717769
 20
165.364615
 30
0.0
  0
VERTEX
  5
13FD1
  8
ALPHA
 10
134.009916
 20
165.767368
 30
0.0
  0
VERTEX
  5
13FD2
  8
ALPHA
 10
133.916919
 20
166.273445
 30
0.0
  0
VERTEX
  5
13FD3
  8
ALPHA
 10
133.498658
 20
166.547381
 30
0.0
  0
VERTEX
  5
13FD4
  8
ALPHA
 10
133.768925
 20
166.685094
 30
0.0
  0
VERTEX
  5
13FD5
  8
ALPHA
 10
134.021168
 20
167.11946
 30
0.0
  0
VERTEX
  5
13FD6
  8
ALPHA
 10
133.880031
 20
167.610183
 30
0.0
  0
VERTEX
  5
13FD7
  8
ALPHA
 10
133.434412
 20
167.842681
 30
0.0
  0
VERTEX
  5
13FD8
  8
ALPHA
 10
133.816404
 20
168.012093
 30
0.0
  0
VERTEX
  5
13FD9
  8
ALPHA
 10
134.026103
 20
168.472283
 30
0.0
  0
VERTEX
  5
13FDA
  8
ALPHA
 10
133.838665
 20
168.943595
 30
0.0
  0
VERTEX
  5
13FDB
  8
ALPHA
 10
133.40158
 20
169.131926
 30
0.0
  0
VERTEX
  5
13FDC
  8
ALPHA
 10
133.859888
 20
169.343576
 30
0.0
  0
VERTEX
  5
13FDD
  8
ALPHA
 10
134.024445
 20
169.825954
 30
0.0
  0
VERTEX
  5
13FDE
  8
ALPHA
 10
133.793144
 20
170.274087
 30
0.0
  0
VERTEX
  5
13FDF
  8
ALPHA
 10
133.466784
 20
170.425562
 30
0.0
  0
VERTEX
  5
13FE0
  8
ALPHA
 10
133.899054
 20
170.67969
 30
0.0
  0
VERTEX
  5
13FE1
  8
ALPHA
 10
134.016311
 20
171.180565
 30
0.0
  0
VERTEX
  5
13FE2
  8
ALPHA
 10
133.743786
 20
171.600802
 30
0.0
  0
VERTEX
  5
13FE3
  8
ALPHA
 10
133.506543
 20
171.699065
 30
0.0
  0
VERTEX
  5
13FE4
  8
ALPHA
 10
133.529992
 20
171.727147
 30
0.0
  0
VERTEX
  5
13FE5
  8
ALPHA
 10
133.933584
 20
172.021204
 30
0.0
  0
VERTEX
  5
13FE6
  8
ALPHA
 10
134.00202
 20
172.530274
 30
0.0
  0
VERTEX
  5
13FE7
  8
ALPHA
 10
133.690912
 20
172.921321
 30
0.0
  0
VERTEX
  5
13FE8
  8
ALPHA
 10
133.442549
 20
172.996662
 30
0.0
  0
VERTEX
  5
13FE9
  8
ALPHA
 10
133.590885
 20
173.033125
 30
0.0
  0
VERTEX
  5
13FEA
  8
ALPHA
 10
133.963158
 20
173.364947
 30
0.0
  0
VERTEX
  5
13FEB
  8
ALPHA
 10
133.981892
 20
173.881565
 30
0.0
  0
VERTEX
  5
13FEC
  8
ALPHA
 10
133.634842
 20
174.237637
 30
0.0
  0
VERTEX
  5
13FED
  8
ALPHA
 10
133.393306
 20
174.287934
 30
0.0
  0
VERTEX
  5
13FEE
  8
ALPHA
 10
133.649142
 20
174.344628
 30
0.0
  0
VERTEX
  5
13FEF
  8
ALPHA
 10
133.987454
 20
174.71023
 30
0.0
  0
VERTEX
  5
13FF0
  8
ALPHA
 10
133.956247
 20
175.225364
 30
0.0
  0
VERTEX
  5
13FF1
  8
ALPHA
 10
133.575896
 20
175.547541
 30
0.0
  0
VERTEX
  5
13FF2
  8
ALPHA
 10
133.458736
 20
175.580752
 30
0.0
  0
VERTEX
  5
13FF3
  8
ALPHA
 10
133.704443
 20
175.662001
 30
0.0
  0
VERTEX
  5
13FF4
  8
ALPHA
 10
134.006153
 20
176.059986
 30
0.0
  0
VERTEX
  5
13FF5
  8
ALPHA
 10
133.925404
 20
176.568651
 30
0.0
  0
VERTEX
  5
13FF6
  8
ALPHA
 10
133.514395
 20
176.852163
 30
0.0
  0
VERTEX
  5
13FF7
  8
ALPHA
 10
134.018935
 20
177.411161
 30
0.0
  0
VERTEX
  5
13FF8
  8
ALPHA
 10
133.889685
 20
177.906007
 30
0.0
  0
VERTEX
  5
13FF9
  8
ALPHA
 10
133.450658
 20
178.14755
 30
0.0
  0
VERTEX
  5
13FFA
  8
ALPHA
 10
134.025479
 20
178.762191
 30
0.0
  0
VERTEX
  5
13FFB
  8
ALPHA
 10
133.849409
 20
179.24218
 30
0.0
  0
VERTEX
  5
13FFC
  8
ALPHA
 10
133.385005
 20
179.442536
 30
0.0
  0
SEQEND
  5
13FFD
  8
ALPHA
  0
POLYLINE
  5
13B99
  8
ALPHA
 66
     1
 10
0.0
 20
0.0
 30
0.0
 70
   128
  0
VERTEX
  5
13FFE
  8
ALPHA
 10
133.385005
 20
179.442536
 30
0.0
  0
VERTEX
  5
13FFF
  8
ALPHA
 10
133.151401
 20
179.410212
 30
0.0
  0
VERTEX
  5
14000
  8
ALPHA
 10
132.538439
 20
179.325398
 30
0.0
  0
VERTEX
  5
14001
  8
ALPHA
 10
130.701551
 20
179.07123
 30
0.0
  0
VERTEX
  5
14002
  8
ALPHA
 10
128.928555
 20
178.825904
 30
0.0
  0
VERTEX
  5
14003
  8
ALPHA
 10
128.395458
 20
178.75214
 30
0.0
  0
VERTEX
  5
14004
  8
ALPHA
 10
128.225007
 20
178.732331
 30
0.0
  0
VERTEX
  5
14005
  8
ALPHA
 10
127.769635
 20
178.510948
 30
0.0
  0
VERTEX
  5
14006
  8
ALPHA
 10
127.615811
 20
178.023272
 30
0.0
  0
VERTEX
  5
14007
  8
ALPHA
 10
128.159741
 20
177.437142
 30
0.0
  0
VERTEX
  5
14008
  8
ALPHA
 10
127.731358
 20
177.174645
 30
0.0
  0
VERTEX
  5
14009
  8
ALPHA
 10
127.625567
 20
176.672315
 30
0.0
  0
VERTEX
  5
1400A
  8
ALPHA
 10
127.909777
 20
176.258271
 30
0.0
  0
VERTEX
  5
1400B
  8
ALPHA
 10
128.151724
 20
176.164631
 30
0.0
  0
VERTEX
  5
1400C
  8
ALPHA
 10
128.096585
 20
176.135726
 30
0.0
  0
VERTEX
  5
1400D
  8
ALPHA
 10
127.697833
 20
175.834305
 30
0.0
  0
VERTEX
  5
1400E
  8
ALPHA
 10
127.641436
 20
175.323081
 30
0.0
  0
VERTEX
  5
1400F
  8
ALPHA
 10
127.963861
 20
174.940766
 30
0.0
  0
VERTEX
  5
14010
  8
ALPHA
 10
128.216744
 20
174.871509
 30
0.0
  0
VERTEX
  5
14011
  8
ALPHA
 10
128.03586
 20
174.831056
 30
0.0
  0
VERTEX
  5
14012
  8
ALPHA
 10
127.669381
 20
174.490856
 30
0.0
  0
VERTEX
  5
14013
  8
ALPHA
 10
127.663098
 20
173.975476
 30
0.0
  0
VERTEX
  5
14014
  8
ALPHA
 10
128.021097
 20
173.627583
 30
0.0
  0
VERTEX
  5
14015
  8
ALPHA
 10
128.233298
 20
173.582575
 30
0.0
  0
VERTEX
  5
14016
  8
ALPHA
 10
127.977887
 20
173.519406
 30
0.0
  0
VERTEX
  5
14017
  8
ALPHA
 10
127.646321
 20
173.144447
 30
0.0
  0
VERTEX
  5
14018
  8
ALPHA
 10
127.690232
 20
172.62991
 30
0.0
  0
VERTEX
  5
14019
  8
ALPHA
 10
128.081163
 20
172.315952
 30
0.0
  0
VERTEX
  5
1401A
  8
ALPHA
 10
128.16779
 20
172.285131
 30
0.0
  0
VERTEX
  5
1401B
  8
ALPHA
 10
127.922985
 20
172.198333
 30
0.0
  0
VERTEX
  5
1401C
  8
ALPHA
 10
127.628974
 20
171.792885
 30
0.0
  0
VERTEX
  5
1401D
  8
ALPHA
 10
127.722519
 20
171.286771
 30
0.0
  0
VERTEX
  5
1401E
  8
ALPHA
 10
128.143741
 20
171.014187
 30
0.0
  0
VERTEX
  5
1401F
  8
ALPHA
 10
127.871475
 20
170.87598
 30
0.0
  0
VERTEX
  5
14020
  8
ALPHA
 10
127.617659
 20
170.440674
 30
0.0
  0
VERTEX
  5
14021
  8
ALPHA
 10
127.759638
 20
169.949309
 30
0.0
  0
VERTEX
  5
14022
  8
ALPHA
 10
128.20851
 20
169.715923
 30
0.0
  0
VERTEX
  5
14023
  8
ALPHA
 10
127.823676
 20
169.54619
 30
0.0
  0
VERTEX
  5
14024
  8
ALPHA
 10
127.612698
 20
169.083427
 30
0.0
  0
VERTEX
  5
14025
  8
ALPHA
 10
127.801269
 20
168.613866
 30
0.0
  0
VERTEX
  5
14026
  8
ALPHA
 10
128.241616
 20
168.425158
 30
0.0
  0
VERTEX
  5
14027
  8
ALPHA
 10
127.779909
 20
168.214334
 30
0.0
  0
VERTEX
  5
14028
  8
ALPHA
 10
127.614364
 20
167.732641
 30
0.0
  0
VERTEX
  5
14029
  8
ALPHA
 10
127.847091
 20
167.284508
 30
0.0
  0
VERTEX
  5
1402A
  8
ALPHA
 10
128.175872
 20
167.133008
 30
0.0
  0
VERTEX
  5
1402B
  8
ALPHA
 10
127.740494
 20
166.878256
 30
0.0
  0
VERTEX
  5
1402C
  8
ALPHA
 10
127.622542
 20
166.379311
 30
0.0
  0
VERTEX
  5
1402D
  8
ALPHA
 10
127.896786
 20
165.961058
 30
0.0
  0
VERTEX
  5
1402E
  8
ALPHA
 10
128.135793
 20
165.862606
 30
0.0
  0
VERTEX
  5
1402F
  8
ALPHA
 10
128.112158
 20
165.834709
 30
0.0
  0
VERTEX
  5
14030
  8
ALPHA
 10
127.705751
 20
165.542859
 30
0.0
  0
VERTEX
  5
14031
  8
ALPHA
 10
127.636913
 20
165.031908
 30
0.0
  0
VERTEX
  5
14032
  8
ALPHA
 10
127.950032
 20
164.642364
 30
0.0
  0
VERTEX
  5
14033
  8
ALPHA
 10
128.200305
 20
164.567945
 30
0.0
  0
VERTEX
  5
14034
  8
ALPHA
 10
128.050796
 20
164.531371
 30
0.0
  0
VERTEX
  5
14035
  8
ALPHA
 10
127.676001
 20
164.199039
 30
0.0
  0
VERTEX
  5
14036
  8
ALPHA
 10
127.657157
 20
163.683704
 30
0.0
  0
VERTEX
  5
14037
  8
ALPHA
 10
128.00651
 20
163.327221
 30
0.0
  0
VERTEX
  5
14038
  8
ALPHA
 10
128.249961
 20
163.276711
 30
0.0
  0
VERTEX
  5
14039
  8
ALPHA
 10
127.992105
 20
163.219547
 30
0.0
  0
VERTEX
  5
1403A
  8
ALPHA
 10
127.651563
 20
162.853204
 30
0.0
  0
VERTEX
  5
1403B
  8
ALPHA
 10
127.682953
 20
162.338936
 30
0.0
  0
VERTEX
  5
1403C
  8
ALPHA
 10
128.065899
 20
162.018347
 30
0.0
  0
VERTEX
  5
1403D
  8
ALPHA
 10
128.183985
 20
161.985406
 30
0.0
  0
VERTEX
  5
1403E
  8
ALPHA
 10
127.936405
 20
161.90421
 30
0.0
  0
VERTEX
  5
1403F
  8
ALPHA
 10
127.632757
 20
161.50708
 30
0.0
  0
VERTEX
  5
14040
  8
ALPHA
 10
127.713982
 20
160.997904
 30
0.0
  0
VERTEX
  5
14041
  8
ALPHA
 10
128.127879
 20
160.713998
 30
0.0
  0
VERTEX
  5
14042
  8
ALPHA
 10
127.619905
 20
160.155424
 30
0.0
  0
VERTEX
  5
14043
  8
ALPHA
 10
127.749922
 20
159.660503
 30
0.0
  0
VERTEX
  5
14044
  8
ALPHA
 10
128.19213
 20
159.417129
 30
0.0
  0
VERTEX
  5
14045
  8
ALPHA
 10
127.613325
 20
158.802587
 30
0.0
  0
VERTEX
  5
14046
  8
ALPHA
 10
127.790455
 20
158.326517
 30
0.0
  0
VERTEX
  5
14047
  8
ALPHA
 10
128.258332
 20
158.128159
 30
0.0
  0
SEQEND
  5
14048
  8
ALPHA
  0
POLYLINE
  5
13B9A
  8
ALPHA
 66
     1
 10
0.0
 20
0.0
 30
0.0
 70
   128
  0
VERTEX
  5
14049
  8
ALPHA
 10
133.385005
 20
179.442536
 30
0.0
  0
VERTEX
  5
1404A
  8
ALPHA
 10
132.989388
 20
179.477985
 30
0.0
  0
VERTEX
  5
1404B
  8
ALPHA
 10
132.119029
 20
179.555975
 30
0.0
  0
VERTEX
  5
1404C
  8
ALPHA
 10
131.248671
 20
179.633964
 30
0.0
  0
VERTEX
  5
1404D
  8
ALPHA
 10
130.853053
 20
179.669413
 30
0.0
  0
SEQEND
  5
1404E
  8
ALPHA
  0
POLYLINE
  5
13B9B
  8
ALPHA
 66
     1
 10
0.0
 20
0.0
 30
0.0
 70
   128
  0
VERTEX
  5
1404F
  8
ALPHA
 10
132.739161
 20
158.763416
 30
0.0
  0
VERTEX
  5
14050
  8
ALPHA
 10
132.222778
 20
158.707406
 30
0.0
  0
VERTEX
  5
14051
  8
ALPHA
 10
131.086737
 20
158.584183
 30
0.0
  0
VERTEX
  5
14052
  8
ALPHA
 10
129.950696
 20
158.46096
 30
0.0
  0
VERTEX
  5
14053
  8
ALPHA
 10
129.434313
 20
158.40495
 30
0.0
  0
SEQEND
  5
14054
  8
ALPHA
  0
POLYLINE
  5
13B9C
  8
ALPHA
 66
     1
 10
0.0
 20
0.0
 30
0.0
 70
   128
  0
VERTEX
  5
14055
  8
ALPHA
 10
129.434313
 20
158.40495
 30
0.0
  0
VERTEX
  5
14056
  8
ALPHA
 10
129.950797
 20
158.460909
 30
0.0
  0
VERTEX
  5
14057
  8
ALPHA
 10
131.13269
 20
158.588962
 30
0.0
  0
VERTEX
  5
14058
  8
ALPHA
 10
132.428653
 20
158.729375
 30
0.0
  0
VERTEX
  5
14059
  8
ALPHA
 10
133.287347
 20
158.822411
 30
0.0
  0
VERTEX
  5
1405A
  8
ALPHA
 10
133.997523
 20
159.283938
 30
0.0
  0
VERTEX
  5
1405B
  8
ALPHA
 10
133.663257
 20
160.057755
 30
0.0
  0
VERTEX
  5
1405C
  8
ALPHA
 10
133.442549
 20
160.119087
 30
0.0
  0
VERTEX
  5
1405D
  8
ALPHA
 10
133.560748
 20
160.145892
 30
0.0
  0
VERTEX
  5
1405E
  8
ALPHA
 10
133.916919
 20
160.403849
 30
0.0
  0
VERTEX
  5
1405F
  8
ALPHA
 10
133.816404
 20
161.240591
 30
0.0
  0
VERTEX
  5
14060
  8
ALPHA
 10
133.40158
 20
161.408595
 30
0.0
  0
VERTEX
  5
14061
  8
ALPHA
 10
133.793144
 20
161.555332
 30
0.0
  0
VERTEX
  5
14062
  8
ALPHA
 10
133.933584
 20
162.384039
 30
0.0
  0
VERTEX
  5
14063
  8
ALPHA
 10
133.590885
 20
162.66055
 30
0.0
  0
VERTEX
  5
14064
  8
ALPHA
 10
133.409829
 20
162.694919
 30
0.0
  0
VERTEX
  5
14065
  8
ALPHA
 10
133.634842
 20
162.745138
 30
0.0
  0
VERTEX
  5
14066
  8
ALPHA
 10
134.006153
 20
163.499163
 30
0.0
  0
VERTEX
  5
14067
  8
ALPHA
 10
133.450658
 20
163.986407
 30
0.0
  0
VERTEX
  5
14068
  8
ALPHA
 10
134.025479
 20
164.592679
 30
0.0
  0
VERTEX
  5
14069
  8
ALPHA
 10
133.514395
 20
165.2586
 30
0.0
  0
VERTEX
  5
1406A
  8
ALPHA
 10
133.987454
 20
165.691958
 30
0.0
  0
VERTEX
  5
1406B
  8
ALPHA
 10
133.690912
 20
166.479819
 30
0.0
  0
VERTEX
  5
1406C
  8
ALPHA
 10
133.474801
 20
166.551182
 30
0.0
  0
VERTEX
  5
1406D
  8
ALPHA
 10
133.529992
 20
166.573855
 30
0.0
  0
VERTEX
  5
1406E
  8
ALPHA
 10
133.899054
 20
166.815757
 30
0.0
  0
VERTEX
  5
1406F
  8
ALPHA
 10
133.838665
 20
167.655876
 30
0.0
  0
VERTEX
  5
14070
  8
ALPHA
 10
133.434412
 20
167.842681
 30
0.0
  0
VERTEX
  5
14071
  8
ALPHA
 10
133.768925
 20
167.97269
 30
0.0
  0
VERTEX
  5
14072
  8
ALPHA
 10
133.949011
 20
168.795487
 30
0.0
  0
VERTEX
  5
14073
  8
ALPHA
 10
133.620363
 20
169.087179
 30
0.0
  0
VERTEX
  5
14074
  8
ALPHA
 10
133.393306
 20
169.131661
 30
0.0
  0
VERTEX
  5
14075
  8
ALPHA
 10
133.605709
 20
169.171028
 30
0.0
  0
VERTEX
  5
14076
  8
ALPHA
 10
134.013303
 20
169.906651
 30
0.0
  0
VERTEX
  5
14077
  8
ALPHA
 10
133.418051
 20
170.421217
 30
0.0
  0
VERTEX
  5
14078
  8
ALPHA
 10
134.023007
 20
171.000145
 30
0.0
  0
VERTEX
  5
14079
  8
ALPHA
 10
133.545445
 20
171.690336
 30
0.0
  0
VERTEX
  5
1407A
  8
ALPHA
 10
133.458736
 20
171.714781
 30
0.0
  0
VERTEX
  5
1407B
  8
ALPHA
 10
133.677182
 20
171.781362
 30
0.0
  0
VERTEX
  5
1407C
  8
ALPHA
 10
133.975985
 20
172.104257
 30
0.0
  0
VERTEX
  5
1407D
  8
ALPHA
 10
133.717769
 20
172.905778
 30
0.0
  0
VERTEX
  5
1407E
  8
ALPHA
 10
133.498658
 20
173.009296
 30
0.0
  0
VERTEX
  5
1407F
  8
ALPHA
 10
133.880031
 20
173.234135
 30
0.0
  0
VERTEX
  5
14080
  8
ALPHA
 10
133.859888
 20
174.078047
 30
0.0
  0
VERTEX
  5
14081
  8
ALPHA
 10
133.466784
 20
174.282749
 30
0.0
  0
VERTEX
  5
14082
  8
ALPHA
 10
133.743786
 20
174.397633
 30
0.0
  0
VERTEX
  5
14083
  8
ALPHA
 10
133.963158
 20
175.211377
 30
0.0
  0
VERTEX
  5
14084
  8
ALPHA
 10
133.649142
 20
175.519562
 30
0.0
  0
VERTEX
  5
14085
  8
ALPHA
 10
133.426245
 20
175.575236
 30
0.0
  0
VERTEX
  5
14086
  8
ALPHA
 10
133.575896
 20
175.605548
 30
0.0
  0
VERTEX
  5
14087
  8
ALPHA
 10
134.021944
 20
176.296295
 30
0.0
  0
VERTEX
  5
14088
  8
ALPHA
 10
133.615664
 20
176.822858
 30
0.0
  0
SEQEND
  5
14089
  8
ALPHA
  0
CIRCLE
  5
13B9D
  8
ALPHA
 10
133.458361
 20
158.184124
 30
0.0
 40
0.642062
  0
LINE
  5
13B9E
  8
ALPHA
 10
132.739161
 20
158.763417
 30
0.0
 11
132.739161
 21
157.539793
 31
0.0
  0
CIRCLE
  5
13B9F
  8
ALPHA
 10
133.458361
 20
158.184124
 30
0.0
 40
0.642062
  0
LINE
  5
13BA0
  8
ALPHA
 10
128.899641
 20
158.194709
 30
0.0
 11
128.899641
 21
157.533738
 31
0.0
  0
LINE
  5
13BA1
  8
ALPHA
 10
128.25833
 20
159.413799
 30
0.0
 11
133.385007
 21
160.121654
 31
0.0
  0
LINE
  5
13BA2
  8
ALPHA
 10
128.25833
 20
160.700947
 30
0.0
 11
133.385007
 21
161.408807
 31
0.0
  0
LINE
  5
13BA3
  8
ALPHA
 10
128.25833
 20
161.989615
 30
0.0
 11
133.385007
 21
162.694445
 31
0.0
  0
LINE
  5
13BA4
  8
ALPHA
 10
128.25833
 20
163.276763
 30
0.0
 11
133.385007
 21
163.983108
 31
0.0
  0
LINE
  5
13BA5
  8
ALPHA
 10
128.25833
 20
164.565426
 30
0.0
 11
133.385007
 21
165.271771
 31
0.0
  0
LINE
  5
13BA6
  8
ALPHA
 10
128.25833
 20
165.851064
 30
0.0
 11
133.385007
 21
166.557409
 31
0.0
  0
LINE
  5
13BA8
  8
ALPHA
 10
128.25833
 20
167.138217
 30
0.0
 11
133.385007
 21
167.844562
 31
0.0
  0
LINE
  5
13BA9
  8
ALPHA
 10
128.25833
 20
168.42537
 30
0.0
 11
133.385007
 21
169.131715
 31
0.0
  0
LINE
  5
13BAA
  8
ALPHA
 10
128.25833
 20
169.714033
 30
0.0
 11
133.385007
 21
170.420378
 31
0.0
  0
LINE
  5
13BAB
  8
ALPHA
 10
128.25833
 20
171.004211
 30
0.0
 11
133.385007
 21
171.710552
 31
0.0
  0
LINE
  5
13BAC
  8
ALPHA
 10
128.25833
 20
172.291359
 30
0.0
 11
133.385007
 21
172.999219
 31
0.0
  0
LINE
  5
13BAD
  8
ALPHA
 10
128.25833
 20
173.583047
 30
0.0
 11
133.385007
 21
174.287882
 31
0.0
  0
LINE
  5
13BAE
  8
ALPHA
 10
128.25833
 20
174.8702
 30
0.0
 11
133.385007
 21
175.576545
 31
0.0
  0
LINE
  5
13BAF
  8
ALPHA
 10
128.25833
 20
176.155838
 30
0.0
 11
133.385007
 21
176.865208
 31
0.0
  0
LINE
  5
13BB0
  8
ALPHA
 10
128.25833
 20
177.444501
 30
0.0
 11
133.385007
 21
178.150846
 31
0.0
  0
LINE
  5
13BB1
  8
ALPHA
 10
130.853055
 20
179.669414
 30
0.0
 11
133.385007
 21
179.442535
 31
0.0
  0
LINE
  5
13C44
  8
ALPHA
 10
131.7651
 20
275.511053
 30
0.0
 11
130.5651
 21
275.511053
 31
0.0
  0
LINE
  5
13C5A
  8
ALPHA
 10
131.7651
 20
190.787919
 30
0.0
 11
131.7651
 21
275.511053
 31
0.0
  0
LINE
  5
13C5B
  8
ALPHA
 10
130.5651
 20
182.084901
 30
0.0
 11
130.5651
 21
275.511053
 31
0.0
  0
VIEWPORT
  5
494D
 67
     1
  8
0
 10
4.995325
 20
6.556512
 30
0.0
 40
22.70986
 41
13.988421
 68
    -1
 69
     1
1001
ACAD
1000
MVIEW
1002
{
1070
    16
1010
0.0
1020
0.0
1030
0.0
1010
0.0
1020
0.0
1030
1.0
1040
0.0
1040
13.988421
1040
4.995325
1040
6.556512
1040
50.0
1040
0.0
1040
0.0
1070
     0
1070
   100
1070
     1
1070
     1
1070
     0
1070
     0
1070
     0
1070
     0
1040
0.0
1040
0.0
1040
0.0
1040
10.0
1040
10.0
1040
10.0
1040
10.0
1070
     0
1002
{
1002
}
1002
}
  0
ENDSEC
  0
EOF
