  0
SECTION
  2
HEADER
  9
$ACADVER
  1
AC1009
  9
$INSBASE
 10
402.590624
 20
-1.041018
 30
0.0
  9
$EXTMIN
 10
-5.722015
 20
6.390838
 30
0.0
  9
$EXTMAX
 10
78.689185
 20
77.073237
 30
0.0
  9
$LIMMIN
 10
-407.970438
 20
-367.832444
  9
$LIMMAX
 10
429.804077
 20
234.370848
  9
$ORTHOMODE
 70
     1
  9
$REGENMODE
 70
     1
  9
$FILLMODE
 70
     1
  9
$QTEXTMODE
 70
     0
  9
$MIRRTEXT
 70
     1
  9
$DRAGMODE
 70
     2
  9
$LTSCALE
 40
10.0
  9
$OSMODE
 70
    39
  9
$ATTMODE
 70
     1
  9
$TEXTSIZE
 40
6.0
  9
$TRACEWID
 40
1.0
  9
$TEXTSTYLE
  7
ROMANS
  9
$CLAYER
  8
ALPHA
  9
$CELTYPE
  6
BYLAYER
  9
$CECOLOR
 62
   256
  9
$DIMSCALE
 40
1.0
  9
$DIMASZ
 40
5.0
  9
$DIMEXO
 40
2.0
  9
$DIMDLI
 40
0.38
  9
$DIMRND
 40
0.0
  9
$DIMDLE
 40
0.0
  9
$DIMEXE
 40
2.5
  9
$DIMTP
 40
0.0
  9
$DIMTM
 40
0.0
  9
$DIMTXT
 40
2.5
  9
$DIMCEN
 40
0.0
  9
$DIMTSZ
 40
0.0
  9
$DIMTOL
 70
     0
  9
$DIMLIM
 70
     0
  9
$DIMTIH
 70
     1
  9
$DIMTOH
 70
     1
  9
$DIMSE1
 70
     0
  9
$DIMSE2
 70
     0
  9
$DIMTAD
 70
     1
  9
$DIMZIN
 70
    12
  9
$DIMBLK
  1
OPEN30
  9
$DIMASO
 70
     1
  9
$DIMSHO
 70
     1
  9
$DIMPOST
  1

  9
$DIMAPOST
  1

  9
$DIMALT
 70
     0
  9
$DIMALTD
 70
     2
  9
$DIMALTF
 40
25.4
  9
$DIMLFAC
 40
1.0
  9
$DIMTOFL
 70
     0
  9
$DIMTVP
 40
0.0
  9
$DIMTIX
 70
     0
  9
$DIMSOXD
 70
     0
  9
$DIMSAH
 70
     0
  9
$DIMBLK1
  1

  9
$DIMBLK2
  1

  9
$DIMSTYLE
  2
SC_DEFAUT
  9
$DIMCLRD
 70
     0
  9
$DIMCLRE
 70
     0
  9
$DIMCLRT
 70
     0
  9
$DIMTFAC
 40
1.0
  9
$DIMGAP
 40
2.0
  9
$LUNITS
 70
     2
  9
$LUPREC
 70
     1
  9
$SKETCHINC
 40
0.1
  9
$FILLETRAD
 40
0.0
  9
$AUNITS
 70
     0
  9
$AUPREC
 70
     0
  9
$MENU
  1
acad
  9
$ELEVATION
 40
0.0
  9
$PELEVATION
 40
0.0
  9
$THICKNESS
 40
0.0
  9
$LIMCHECK
 70
     0
  9
$BLIPMODE
 70
     0
  9
$CHAMFERA
 40
0.0
  9
$CHAMFERB
 40
0.0
  9
$SKPOLY
 70
     0
  9
$TDCREATE
 40
2450373.687919
  9
$TDUPDATE
 40
2452996.49629
  9
$TDINDWG
 40
0.893302
  9
$TDUSRTIMER
 40
0.893302
  9
$USRTIMER
 70
     1
  9
$ANGBASE
 50
0.0
  9
$ANGDIR
 70
     0
  9
$PDMODE
 70
    32
  9
$PDSIZE
 40
0.0
  9
$PLINEWID
 40
0.0
  9
$COORDS
 70
     1
  9
$SPLFRAME
 70
     0
  9
$SPLINETYPE
 70
     6
  9
$SPLINESEGS
 70
     8
  9
$ATTDIA
 70
     0
  9
$ATTREQ
 70
     1
  9
$HANDLING
 70
     1
  9
$HANDSEED
  5
97A0
  9
$SURFTAB1
 70
     6
  9
$SURFTAB2
 70
     6
  9
$SURFTYPE
 70
     6
  9
$SURFU
 70
     6
  9
$SURFV
 70
     6
  9
$UCSNAME
  2

  9
$UCSORG
 10
0.0
 20
0.0
 30
0.0
  9
$UCSXDIR
 10
1.0
 20
0.0
 30
0.0
  9
$UCSYDIR
 10
0.0
 20
1.0
 30
0.0
  9
$PUCSNAME
  2

  9
$PUCSORG
 10
0.0
 20
0.0
 30
0.0
  9
$PUCSXDIR
 10
1.0
 20
0.0
 30
0.0
  9
$PUCSYDIR
 10
0.0
 20
1.0
 30
0.0
  9
$USERI1
 70
     0
  9
$USERI2
 70
     0
  9
$USERI3
 70
     0
  9
$USERI4
 70
     0
  9
$USERI5
 70
     0
  9
$USERR1
 40
0.0
  9
$USERR2
 40
0.0
  9
$USERR3
 40
0.0
  9
$USERR4
 40
0.0
  9
$USERR5
 40
0.0
  9
$WORLDVIEW
 70
     1
  9
$SHADEDGE
 70
     3
  9
$SHADEDIF
 70
    70
  9
$TILEMODE
 70
     1
  9
$MAXACTVP
 70
    16
  9
$PLIMCHECK
 70
     0
  9
$PEXTMIN
 10
-1.452248
 20
-0.437698
 30
0.0
  9
$PEXTMAX
 10
12.749749
 20
8.310198
 30
0.0
  9
$PLIMMIN
 10
0.0
 20
0.0
  9
$PLIMMAX
 10
12.0
 20
9.0
  9
$UNITMODE
 70
     0
  9
$VISRETAIN
 70
     0
  9
$PLINEGEN
 70
     0
  9
$PSLTSCALE
 70
     0
  0
ENDSEC
  0
SECTION
  2
TABLES
  0
TABLE
  2
VPORT
 70
     2
  0
VPORT
  2
*ACTIVE
 70
     0
 10
0.0
 20
0.0
 11
1.0
 21
1.0
 12
36.483671
 22
41.721113
 13
0.0
 23
0.0
 14
1.0
 24
1.0
 15
10.0
 25
10.0
 16
0.0
 26
0.0
 36
1.0
 17
0.0
 27
0.0
 37
0.0
 40
71.217836
 41
1.466346
 42
50.0
 43
0.0
 44
0.0
 50
0.0
 51
0.0
 71
     0
 72
   100
 73
     1
 74
     0
 75
     0
 76
     0
 77
     0
 78
     0
  0
ENDTAB
  0
TABLE
  2
LTYPE
 70
     2
  0
LTYPE
  2
CONTINUOUS
 70
     0
  3
Solid line
 72
    65
 73
     0
 40
0.0
  0
LTYPE
  2
AXES2
 70
     0
  3
___ _ ___ _ ___ _ ___ _ ___ _ ___ _ ___ _ ___ _
 72
    65
 73
     4
 40
1.125
 49
0.75
 49
-0.125
 49
0.125
 49
-0.125
  0
ENDTAB
  0
TABLE
  2
LAYER
 70
     5
  0
LAYER
  2
0
 70
     0
 62
   255
  6
CONTINUOUS
  0
LAYER
  2
COTATION1
 70
     0
 62
     2
  6
CONTINUOUS
  0
LAYER
  2
AXE
 70
     0
 62
    80
  6
AXES2
  0
LAYER
  2
DEFPOINTS
 70
     0
 62
     7
  6
CONTINUOUS
  0
LAYER
  2
ALPHA
 70
     0
 62
   254
  6
CONTINUOUS
  0
ENDTAB
  0
TABLE
  2
STYLE
 70
     2
  0
STYLE
  2
ROMANS
 70
     0
 40
0.0
 41
1.0
 50
0.0
 71
     0
 42
6.0
  3
romans
  4

  0
STYLE
  2
STANDARD
 70
     0
 40
0.0
 41
1.0
 50
0.0
 71
     0
 42
0.2
  3
txt
  4

  0
ENDTAB
  0
TABLE
  2
VIEW
 70
     0
  0
ENDTAB
  0
TABLE
  2
UCS
 70
     0
  0
ENDTAB
  0
TABLE
  2
APPID
 70
     1
  0
APPID
  2
ACAD
 70
     0
  0
ENDTAB
  0
TABLE
  2
DIMSTYLE
 70
     2
  0
DIMSTYLE
  2
SC_DEFAUT
 70
     0
  3

  4

  5
OPEN30
  6

  7

 40
1.0
 41
5.0
 42
2.0
 43
0.38
 44
2.5
 45
0.0
 46
0.0
 47
0.0
 48
0.0
140
2.5
141
0.0
142
0.0
143
25.4
144
1.0
145
0.0
146
1.0
147
2.0
 71
     0
 72
     0
 73
     1
 74
     1
 75
     0
 76
     0
 77
     1
 78
    12
170
     0
171
     2
172
     0
173
     0
174
     0
175
     0
176
     0
177
     0
178
     0
  0
DIMSTYLE
  2
STANDARD
 70
     0
  3

  4

  5

  6

  7

 40
1.0
 41
0.18
 42
0.0625
 43
0.38
 44
0.18
 45
0.0
 46
0.0
 47
0.0
 48
0.0
140
0.18
141
0.09
142
0.0
143
25.4
144
1.0
145
0.0
146
1.0
147
0.09
 71
     0
 72
     0
 73
     1
 74
     1
 75
     0
 76
     0
 77
     0
 78
     0
170
     0
171
     2
172
     0
173
     0
174
     0
175
     0
176
     0
177
     0
178
     0
  0
ENDTAB
  0
ENDSEC
  0
SECTION
  2
BLOCKS
  0
BLOCK
  8
0
  2
$MODEL_SPACE
 70
     0
 10
0.0
 20
0.0
 30
0.0
  3
$MODEL_SPACE
  1

  0
ENDBLK
  5
9657
  8
0
  0
BLOCK
 67
     1
  8
0
  2
$PAPER_SPACE
 70
     0
 10
0.0
 20
0.0
 30
0.0
  3
$PAPER_SPACE
  1

  0
ENDBLK
  5
9655
 67
     1
  8
0
  0
BLOCK
  8
0
  2
COTE
 70
     0
 10
0.0
 20
0.0
 30
0.0
  3
COTE
  1

  0
ENDBLK
  5
F
  8
0
  0
BLOCK
  8
0
  2
FOND
 70
     0
 10
0.0
 20
0.0
 30
0.0
  3
FOND
  1

  0
ENDBLK
  5
75
  8
0
  0
BLOCK
  8
0
  2
_OPEN30
 70
     0
 10
0.0
 20
0.0
 30
0.0
  3
_OPEN30
  1

  0
LINE
  5
4B05
  8
COTATION1
 62
     0
 10
-1.0
 20
0.267949
 30
0.0
 11
0.0
 21
0.0
 31
0.0
1001
ACAD
1000
RTLwPs
1070
   158
  0
LINE
  5
4B06
  8
COTATION1
 62
     0
 10
0.0
 20
0.0
 30
0.0
 11
-1.0
 21
-0.267949
 31
0.0
1001
ACAD
1000
RTLwPs
1070
   158
  0
LINE
  5
4B07
  8
COTATION1
 62
     0
 10
0.0
 20
0.0
 30
0.0
 11
-1.0
 21
0.0
 31
0.0
1001
ACAD
1000
RTLwPs
1070
   158
  0
ENDBLK
  5
4B09
  8
0
  0
BLOCK
  8
0
  2
*D3
 70
     1
 10
0.0
 20
0.0
 30
0.0
  3
*D3
  1

  0
LINE
  5
9457
  8
COTATION1
 62
     0
 10
43.879661
 20
35.190838
 30
0.0
 11
43.879661
 21
6.390838
 31
0.0
1001
ACAD
1000
RTLwPs
1070
   158
  0
LINE
  5
9458
  8
COTATION1
 62
     0
 10
59.879661
 20
35.190838
 30
0.0
 11
59.879661
 21
6.390838
 31
0.0
1001
ACAD
1000
RTLwPs
1070
   158
  0
LINE
  5
9459
  8
COTATION1
 62
     0
 10
48.879661
 20
8.890838
 30
0.0
 11
54.879661
 21
8.890838
 31
0.0
1001
ACAD
1000
RTLwPs
1070
   158
  0
INSERT
  5
945A
  8
COTATION1
 62
     0
  2
_OPEN30
 10
43.879661
 20
8.890838
 30
0.0
 41
5.0
 42
5.0
 43
5.0
 50
180.0
1001
ACAD
1000
RTLwPs
1070
   158
  0
INSERT
  5
945B
  8
COTATION1
 62
     0
  2
_OPEN30
 10
59.879661
 20
8.890838
 30
0.0
 41
5.0
 42
5.0
 43
5.0
1001
ACAD
1000
RTLwPs
1070
   158
  0
TEXT
  5
945C
  8
COTATION1
 62
     0
 10
49.320137
 20
10.890838
 30
0.0
 40
2.5
  1
16
1001
ACAD
1000
MTEXTBEGIN
1070
    73
1070
     1
1070
    44
1040
1.0
1070
    74
1070
     0
1000
MTEXTEND
  0
POINT
  5
945D
  8
DEFPOINTS
 62
     0
 10
43.879661
 20
37.190838
 30
0.0
  0
POINT
  5
945E
  8
DEFPOINTS
 62
     0
 10
59.879661
 20
37.190838
 30
0.0
  0
POINT
  5
945F
  8
DEFPOINTS
 62
     0
 10
59.879661
 20
8.890838
 30
0.0
  0
ENDBLK
  5
7F3E
  8
0
  0
BLOCK
  8
0
  2
*D4
 70
     1
 10
0.0
 20
0.0
 30
0.0
  3
*D4
  1

  0
LINE
  5
9460
  8
COTATION1
 62
     0
 10
43.879661
 20
72.073235
 30
0.0
 11
26.379661
 21
72.073235
 31
0.0
1001
ACAD
1000
RTLwPs
1070
   158
  0
LINE
  5
9461
  8
COTATION1
 62
     0
 10
41.879661
 20
37.190838
 30
0.0
 11
26.379661
 21
37.190838
 31
0.0
1001
ACAD
1000
RTLwPs
1070
   158
  0
LINE
  5
9462
  8
COTATION1
 62
     0
 10
28.879661
 20
67.073235
 30
0.0
 11
28.879661
 21
57.882036
 31
0.0
1001
ACAD
1000
RTLwPs
1070
   158
  0
LINE
  5
9463
  8
COTATION1
 62
     0
 10
28.879661
 20
42.190838
 30
0.0
 11
28.879661
 21
51.382036
 31
0.0
1001
ACAD
1000
RTLwPs
1070
   158
  0
INSERT
  5
9464
  8
COTATION1
 62
     0
  2
_OPEN30
 10
28.879661
 20
72.073235
 30
0.0
 41
5.0
 42
5.0
 43
5.0
 50
90.0
1001
ACAD
1000
RTLwPs
1070
   158
  0
INSERT
  5
9465
  8
COTATION1
 62
     0
  2
_OPEN30
 10
28.879661
 20
37.190838
 30
0.0
 41
5.0
 42
5.0
 43
5.0
 50
270.0
1001
ACAD
1000
RTLwPs
1070
   158
  0
TEXT
  5
9466
  8
COTATION1
 62
     0
 10
24.772518
 20
53.382036
 30
0.0
 40
2.5
  1
34.9
1001
ACAD
1000
MTEXTBEGIN
1070
    73
1070
     1
1070
    44
1040
1.0
1070
    74
1070
     0
1000
MTEXTEND
  0
POINT
  5
9467
  8
DEFPOINTS
 62
     0
 10
45.879661
 20
72.073235
 30
0.0
  0
POINT
  5
9468
  8
DEFPOINTS
 62
     0
 10
43.879661
 20
37.190838
 30
0.0
  0
POINT
  5
9469
  8
DEFPOINTS
 62
     0
 10
28.879661
 20
37.190838
 30
0.0
  0
ENDBLK
  5
7F4B
  8
0
  0
BLOCK
  8
0
  2
*D5
 70
     1
 10
0.0
 20
0.0
 30
0.0
  3
*D5
  1

  0
LINE
  5
944D
  8
COTATION1
 62
     0
 10
59.879661
 20
72.073237
 30
0.0
 11
77.379661
 21
72.073237
 31
0.0
1001
ACAD
1000
RTLwPs
1070
   158
  0
LINE
  5
944E
  8
COTATION1
 62
     0
 10
59.729661
 20
28.890838
 30
0.0
 11
77.379661
 21
28.890838
 31
0.0
1001
ACAD
1000
RTLwPs
1070
   158
  0
LINE
  5
944F
  8
COTATION1
 62
     0
 10
74.879661
 20
67.073237
 30
0.0
 11
74.879661
 21
53.732037
 31
0.0
1001
ACAD
1000
RTLwPs
1070
   158
  0
LINE
  5
9450
  8
COTATION1
 62
     0
 10
74.879661
 20
33.890838
 30
0.0
 11
74.879661
 21
47.232037
 31
0.0
1001
ACAD
1000
RTLwPs
1070
   158
  0
TEXT
  5
9451
  8
COTATION1
 62
     0
 10
70.712994
 20
49.232037
 30
0.0
 40
2.5
  1
43.2
1001
ACAD
1000
MTEXTBEGIN
1070
    73
1070
     1
1070
    44
1040
1.0
1070
    74
1070
     0
1000
MTEXTEND
  0
INSERT
  5
9452
  8
COTATION1
 62
     0
  2
_OPEN30
 10
74.879661
 20
72.073237
 30
0.0
 41
5.0
 42
5.0
 43
5.0
 50
90.0
1001
ACAD
1000
RTLwPs
1070
   158
  0
INSERT
  5
9453
  8
COTATION1
 62
     0
  2
_OPEN30
 10
74.879661
 20
28.890838
 30
0.0
 41
5.0
 42
5.0
 43
5.0
 50
270.0
1001
ACAD
1000
RTLwPs
1070
   158
  0
POINT
  5
9454
  8
DEFPOINTS
 62
     0
 10
57.879661
 20
72.073237
 30
0.0
  0
POINT
  5
9455
  8
DEFPOINTS
 62
     0
 10
57.729661
 20
28.890838
 30
0.0
  0
POINT
  5
9456
  8
DEFPOINTS
 62
     0
 10
74.879661
 20
28.890838
 30
0.0
  0
ENDBLK
  5
8EB4
  8
0
  0
ENDSEC
  0
SECTION
  2
ENTITIES
  0
INSERT
  5
A
  8
0
  2
COTE
 10
0.0
 20
0.0
 30
0.0
  0
INSERT
  5
17
  8
0
  2
COTE
 10
284.010391
 20
6.373258
 30
0.0
  0
INSERT
  5
72
  8
0
  2
FOND
 10
0.0
 20
0.0
 30
0.0
  0
DIMENSION
  5
7F30
  8
COTATION1
  2
*D3
 10
59.879661
 20
8.890838
 30
0.0
 11
51.879661
 21
12.140838
 31
0.0
 13
43.879661
 23
37.190838
 33
0.0
 14
59.879661
 24
37.190838
 34
0.0
  0
DIMENSION
  5
7F31
  8
COTATION1
  2
*D4
 10
28.879661
 20
37.190838
 30
0.0
 11
28.879661
 21
54.632036
 31
0.0
 13
45.879661
 23
72.073235
 33
0.0
 14
43.879661
 24
37.190838
 34
0.0
 50
90.0
  0
LINE
  5
8AD3
  8
AXE
 10
51.879661
 20
18.890838
 30
0.0
 11
51.879661
 21
77.073237
 31
0.0
  0
TEXT
  5
8AD4
  8
AXE
 10
46.832042
 20
18.890838
 30
0.0
 40
5.0
  1
Y
 72
     2
 11
50.879661
 21
18.890838
 31
0.0
  0
LINE
  5
8AD5
  8
AXE
 10
38.879661
 20
36.135838
 30
0.0
 11
69.879661
 21
36.135838
 31
0.0
  0
TEXT
  5
8AD6
  8
AXE
 10
65.832042
 20
37.135838
 30
0.0
 40
5.0
  1
X
 72
     2
 11
69.879661
 21
37.135838
 31
0.0
  0
LINE
  5
8B73
  8
COTATION1
 10
7.527985
 20
39.690838
 30
0.0
 11
7.527985
 21
64.64976
 31
0.0
  0
LINE
  5
8B74
  8
COTATION1
 10
-0.572368
 20
37.190838
 30
0.0
 11
42.879661
 21
37.190838
 31
0.0
  0
SOLID
  5
8B75
  8
COTATION1
 10
8.971361
 20
37.190838
 30
0.0
 11
6.084609
 21
37.190838
 31
0.0
 12
7.527985
 22
39.690838
 32
0.0
 13
7.527985
 23
39.690838
 33
0.0
  0
LINE
  5
8B76
  8
COTATION1
 10
-5.722015
 20
69.64976
 30
0.0
 11
20.777985
 21
69.64976
 31
0.0
  0
LINE
  5
8B77
  8
COTATION1
 10
20.777985
 20
64.64976
 30
0.0
 11
-5.722015
 21
64.64976
 31
0.0
  0
TEXT
  5
8B78
  8
COTATION1
 10
-4.472015
 20
65.89976
 30
0.0
 40
2.5
  1
PLANE_TO_LINE_UP
 41
0.626087
  7
STANDARD
 72
     5
 11
19.527985
 21
65.89976
 31
0.0
  0
LINE
  5
8B79
  8
COTATION1
 10
20.777985
 20
69.64976
 30
0.0
 11
20.777985
 21
64.64976
 31
0.0
  0
LINE
  5
8B7A
  8
COTATION1
 10
-5.722015
 20
64.64976
 30
0.0
 11
-5.722015
 21
69.64976
 31
0.0
  0
DIMENSION
  5
8EA7
  8
COTATION1
  2
*D5
 10
74.879661
 20
28.890838
 30
0.0
 11
74.879661
 21
50.482037
 31
0.0
 70
   128
 13
57.879661
 23
72.073237
 33
0.0
 14
57.729661
 24
28.890838
 34
0.0
 50
90.0
  0
POLYLINE
  5
9137
  8
ALPHA
 66
     1
 10
0.0
 20
0.0
 30
0.0
 70
   128
  0
VERTEX
  5
965D
  8
ALPHA
 10
48.570025
 20
57.383674
 30
0.0
  0
VERTEX
  5
965E
  8
ALPHA
 10
48.521916
 20
57.812873
 30
0.0
  0
VERTEX
  5
965F
  8
ALPHA
 10
48.450377
 20
58.014628
 30
0.0
  0
VERTEX
  5
9660
  8
ALPHA
 10
48.263555
 20
58.108623
 30
0.0
  0
SEQEND
  5
9661
  8
ALPHA
  0
POLYLINE
  5
9138
  8
ALPHA
 66
     1
 10
0.0
 20
0.0
 30
0.0
 70
   128
  0
VERTEX
  5
9662
  8
ALPHA
 10
48.9206
 20
58.108615
 30
0.0
  0
VERTEX
  5
9663
  8
ALPHA
 10
48.706729
 20
57.970343
 30
0.0
  0
VERTEX
  5
9664
  8
ALPHA
 10
48.647119
 20
57.710259
 30
0.0
  0
VERTEX
  5
9665
  8
ALPHA
 10
48.5979
 20
57.176847
 30
0.0
  0
VERTEX
  5
9666
  8
ALPHA
 10
48.529768
 20
56.107555
 30
0.0
  0
SEQEND
  5
9667
  8
ALPHA
  0
LINE
  5
9139
  8
ALPHA
 10
45.879661
 20
72.073237
 30
0.0
 11
57.879661
 21
72.073237
 31
0.0
  0
LINE
  5
913A
  8
ALPHA
 10
45.879661
 20
63.073237
 30
0.0
 11
57.879661
 21
63.073237
 31
0.0
  0
LINE
  5
913B
  8
ALPHA
 10
47.323879
 20
62.269386
 30
0.0
 11
58.579661
 21
62.269386
 31
0.0
  0
LINE
  5
913C
  8
ALPHA
 10
58.079661
 20
61.911702
 30
0.0
 11
47.323879
 21
61.911702
 31
0.0
  0
LINE
  5
913D
  8
ALPHA
 10
48.614204
 20
57.383667
 30
0.0
 11
48.407985
 21
57.383667
 31
0.0
  0
LINE
  5
913E
  8
ALPHA
 10
56.329661
 20
56.107555
 30
0.0
 11
47.429661
 21
56.107555
 31
0.0
  0
LINE
  5
913F
  8
ALPHA
 10
47.429661
 20
53.746836
 30
0.0
 11
49.629661
 21
53.746836
 31
0.0
  0
LINE
  5
9140
  8
ALPHA
 10
49.629661
 20
52.346073
 30
0.0
 11
47.429661
 21
52.346073
 31
0.0
  0
LINE
  5
9141
  8
ALPHA
 10
56.329661
 20
50.16999
 30
0.0
 11
47.429661
 21
50.16999
 31
0.0
  0
LINE
  5
9142
  8
ALPHA
 10
47.429661
 20
48.059651
 30
0.0
 11
56.329661
 21
48.059651
 31
0.0
  0
LINE
  5
9143
  8
ALPHA
 10
56.329661
 20
46.658888
 30
0.0
 11
47.429661
 21
46.658888
 31
0.0
  0
LINE
  5
9144
  8
ALPHA
 10
58.629661
 20
46.190838
 30
0.0
 11
45.129661
 21
46.190838
 31
0.0
  0
LINE
  5
9145
  8
ALPHA
 10
58.629661
 20
45.690838
 30
0.0
 11
45.129661
 21
45.690838
 31
0.0
  0
LINE
  5
9146
  8
ALPHA
 10
58.629661
 20
41.190838
 30
0.0
 11
45.129661
 21
41.190838
 31
0.0
  0
LINE
  5
9147
  8
ALPHA
 10
59.879654
 20
37.190838
 30
0.0
 11
43.87967
 21
37.190838
 31
0.0
  0
LINE
  5
9148
  8
ALPHA
 10
44.528867
 20
35.080838
 30
0.0
 11
59.230455
 21
35.080838
 31
0.0
  0
LINE
  5
9149
  8
ALPHA
 10
58.229661
 20
33.740838
 30
0.0
 11
45.529661
 21
33.740838
 31
0.0
  0
LINE
  5
914A
  8
ALPHA
 10
58.229661
 20
32.590838
 30
0.0
 11
45.529661
 21
32.590838
 31
0.0
  0
LINE
  5
914B
  8
ALPHA
 10
57.879661
 20
32.490838
 30
0.0
 11
45.879661
 21
32.490838
 31
0.0
  0
LINE
  5
914C
  8
ALPHA
 10
57.879661
 20
31.490838
 30
0.0
 11
45.879661
 21
31.490838
 31
0.0
  0
LINE
  5
914D
  8
ALPHA
 10
58.229661
 20
31.390838
 30
0.0
 11
45.529661
 21
31.390838
 31
0.0
  0
LINE
  5
914E
  8
ALPHA
 10
58.229661
 20
29.390838
 30
0.0
 11
45.529661
 21
29.390838
 31
0.0
  0
LINE
  5
914F
  8
ALPHA
 10
57.729661
 20
28.890838
 30
0.0
 11
46.029661
 21
28.890838
 31
0.0
  0
LINE
  5
9150
  8
ALPHA
 10
46.929661
 20
51.879152
 30
0.0
 11
46.929661
 21
50.105205
 31
0.0
  0
LINE
  5
9151
  8
ALPHA
 10
45.429661
 20
46.190838
 30
0.0
 11
45.429661
 21
59.083561
 31
0.0
  0
LINE
  5
9152
  8
ALPHA
 10
45.129661
 20
38.241416
 30
0.0
 11
45.129661
 21
46.190838
 31
0.0
  0
LINE
  5
9153
  8
ALPHA
 10
43.879661
 20
37.190838
 30
0.0
 11
43.879661
 21
41.688079
 31
0.0
  0
LINE
  5
9154
  8
ALPHA
 10
45.529661
 20
33.740838
 30
0.0
 11
45.529661
 21
32.590838
 31
0.0
  0
ARC
  5
9155
  8
ALPHA
 10
46.029661
 20
29.390838
 30
0.0
 40
0.5
 50
180.0
 51
270.0
  0
ARC
  5
9156
  8
ALPHA
 10
45.979661
 20
31.690838
 30
0.0
 40
0.3
 50
270.000024
 51
317.581999
  0
ARC
  5
9157
  8
ALPHA
 10
45.879661
 20
31.990838
 30
0.0
 40
0.5
 50
90.0
 51
270.0
  0
LINE
  5
9158
  8
ALPHA
 10
46.279661
 20
32.490838
 30
0.0
 11
46.279661
 21
32.590838
 31
0.0
  0
LINE
  5
9159
  8
ALPHA
 10
45.529661
 20
31.390838
 30
0.0
 11
45.529661
 21
29.390838
 31
0.0
  0
LINE
  5
915A
  8
ALPHA
 10
46.829661
 20
38.391421
 30
0.0
 11
45.129661
 21
38.391421
 31
0.0
  0
LINE
  5
915B
  8
ALPHA
 10
46.829661
 20
38.241348
 30
0.0
 11
45.129661
 21
38.241348
 31
0.0
  0
LINE
  5
915C
  8
ALPHA
 10
46.379661
 20
33.740838
 30
0.0
 11
46.379661
 21
35.080838
 31
0.0
  0
LINE
  5
915D
  8
ALPHA
 10
45.981116
 20
37.190838
 30
0.0
 11
45.981116
 21
35.080838
 31
0.0
  0
LINE
  5
915E
  8
ALPHA
 10
45.813764
 20
37.190838
 30
0.0
 11
45.813764
 21
35.080838
 31
0.0
  0
LINE
  5
915F
  8
ALPHA
 10
45.429661
 20
38.241348
 30
0.0
 11
45.429661
 21
37.190921
 31
0.0
  0
LINE
  5
9160
  8
ALPHA
 10
45.258409
 20
35.080838
 30
0.0
 11
45.258409
 21
37.190838
 31
0.0
  0
LINE
  5
9161
  8
ALPHA
 10
45.083452
 20
35.080838
 30
0.0
 11
45.083452
 21
37.190838
 31
0.0
  0
LINE
  5
9162
  8
ALPHA
 10
45.003805
 20
35.080838
 30
0.0
 11
45.003805
 21
37.190838
 31
0.0
  0
LINE
  5
9163
  8
ALPHA
 10
44.989639
 20
35.080838
 30
0.0
 11
44.989639
 21
37.190838
 31
0.0
  0
LINE
  5
9164
  8
ALPHA
 10
44.695039
 20
35.080838
 30
0.0
 11
44.695039
 21
37.190838
 31
0.0
  0
LINE
  5
9165
  8
ALPHA
 10
44.557278
 20
35.080838
 30
0.0
 11
44.557278
 21
37.190838
 31
0.0
  0
LINE
  5
9166
  8
ALPHA
 10
44.530112
 20
35.080838
 30
0.0
 11
44.530112
 21
37.190838
 31
0.0
  0
LINE
  5
9167
  8
ALPHA
 10
44.528748
 20
35.080838
 30
0.0
 11
44.528748
 21
37.190838
 31
0.0
  0
LINE
  5
9168
  8
ALPHA
 10
46.829661
 20
38.391421
 30
0.0
 11
47.101662
 21
38.06786
 31
0.0
  0
ARC
  5
9169
  8
ALPHA
 10
46.829661
 20
37.941348
 30
0.0
 40
0.3
 50
24.837071
 51
90.0
  0
LINE
  5
916A
  8
ALPHA
 10
47.129661
 20
37.955206
 30
0.0
 11
47.129661
 21
37.190838
 31
0.0
  0
LINE
  5
916B
  8
ALPHA
 10
46.929661
 20
37.190921
 30
0.0
 11
46.929661
 21
38.222948
 31
0.0
  0
LINE
  5
916C
  8
ALPHA
 10
46.829661
 20
38.241348
 30
0.0
 11
46.829661
 21
38.391421
 31
0.0
  0
LINE
  5
916D
  8
ALPHA
 10
47.101503
 20
38.067786
 30
0.0
 11
47.129661
 21
37.955206
 31
0.0
  0
LINE
  5
916E
  8
ALPHA
 10
44.379661
 20
42.190838
 30
0.0
 11
45.129661
 21
42.190838
 31
0.0
  0
LINE
  5
916F
  8
ALPHA
 10
43.879704
 20
41.690838
 30
0.0
 11
45.129661
 21
41.690838
 31
0.0
  0
LINE
  5
9170
  8
ALPHA
 10
44.379661
 20
42.190838
 30
0.0
 11
43.879704
 21
41.690838
 31
0.0
  0
LINE
  5
9171
  8
ALPHA
 10
47.429661
 20
46.658888
 30
0.0
 11
45.493169
 21
46.658888
 31
0.0
  0
POLYLINE
  5
9172
  8
ALPHA
 66
     1
 10
0.0
 20
0.0
 30
0.0
  0
VERTEX
  5
9668
  8
ALPHA
 10
45.493169
 20
46.658888
 30
0.0
  0
VERTEX
  5
9669
  8
ALPHA
 10
45.648671
 20
47.04175
 30
0.0
  0
VERTEX
  5
966A
  8
ALPHA
 10
45.889781
 20
47.383766
 30
0.0
  0
VERTEX
  5
966B
  8
ALPHA
 10
46.20491
 20
47.668496
 30
0.0
  0
VERTEX
  5
966C
  8
ALPHA
 10
46.578912
 20
47.882254
 30
0.0
  0
VERTEX
  5
966D
  8
ALPHA
 10
46.99381
 20
48.014762
 30
0.0
  0
VERTEX
  5
966E
  8
ALPHA
 10
47.429661
 20
48.059651
 30
0.0
  0
SEQEND
  5
966F
  8
ALPHA
  0
POLYLINE
  5
9173
  8
ALPHA
 66
     1
 10
0.0
 20
0.0
 30
0.0
  0
VERTEX
  5
9670
  8
ALPHA
 10
45.429661
 20
48.302305
 30
0.0
  0
VERTEX
  5
9671
  8
ALPHA
 10
45.479805
 20
48.717904
 30
0.0
  0
VERTEX
  5
9672
  8
ALPHA
 10
45.627723
 20
49.112664
 30
0.0
  0
VERTEX
  5
9673
  8
ALPHA
 10
45.865998
 20
49.466788
 30
0.0
  0
VERTEX
  5
9674
  8
ALPHA
 10
46.182682
 20
49.76252
 30
0.0
  0
VERTEX
  5
9675
  8
ALPHA
 10
46.561894
 20
49.985031
 30
0.0
  0
VERTEX
  5
9676
  8
ALPHA
 10
46.984619
 20
50.123164
 30
0.0
  0
VERTEX
  5
9677
  8
ALPHA
 10
47.429661
 20
50.16999
 30
0.0
  0
SEQEND
  5
9678
  8
ALPHA
  0
LINE
  5
9174
  8
ALPHA
 10
45.430457
 20
46.190912
 30
0.0
 11
45.493169
 21
46.658888
 31
0.0
  0
POLYLINE
  5
9175
  8
ALPHA
 66
     1
 10
0.0
 20
0.0
 30
0.0
 70
   128
210
0.0
220
0.0
230
-1.0
  0
VERTEX
  5
9679
  8
ALPHA
 10
-46.932933
 20
46.191483
 30
0.0
  0
VERTEX
  5
967A
  8
ALPHA
 10
-47.092463
 20
46.52057
 30
0.0
  0
VERTEX
  5
967B
  8
ALPHA
 10
-47.429661
 20
46.658888
 30
0.0
  0
SEQEND
  5
967C
  8
ALPHA
  0
LINE
  5
9176
  8
ALPHA
 10
48.379661
 20
46.190838
 30
0.0
 11
48.379661
 21
46.658888
 31
0.0
  0
LINE
  5
9177
  8
ALPHA
 10
47.429661
 20
48.059651
 30
0.0
 11
47.429661
 21
50.16999
 31
0.0
  0
LINE
  5
9178
  8
ALPHA
 10
47.323879
 20
57.6317
 30
0.0
 11
47.323879
 21
63.073237
 31
0.0
  0
LINE
  5
9179
  8
ALPHA
 10
46.873876
 20
59.083667
 30
0.0
 11
46.873876
 21
63.073237
 31
0.0
  0
LINE
  5
917A
  8
ALPHA
 10
45.179661
 20
70.073169
 30
0.0
 11
45.179661
 21
53.166752
 31
0.0
  0
LINE
  5
917B
  8
ALPHA
 10
44.179661
 20
70.073169
 30
0.0
 11
44.179661
 21
53.166753
 31
0.0
  0
LINE
  5
917C
  8
ALPHA
 10
44.179661
 20
54.772534
 30
0.0
 11
45.179661
 21
54.772534
 31
0.0
  0
LINE
  5
917D
  8
ALPHA
 10
44.179661
 20
53.166746
 30
0.0
 11
45.179661
 21
53.166746
 31
0.0
  0
LINE
  5
917E
  8
ALPHA
 10
44.079661
 20
54.883667
 30
0.0
 11
44.079661
 21
57.383667
 31
0.0
  0
LINE
  5
917F
  8
ALPHA
 10
43.879661
 20
55.083721
 30
0.0
 11
43.879661
 21
57.183613
 31
0.0
  0
LINE
  5
9180
  8
ALPHA
 10
44.179661
 20
54.883667
 30
0.0
 11
44.079661
 21
54.883667
 31
0.0
  0
LINE
  5
9181
  8
ALPHA
 10
44.079661
 20
54.883667
 30
0.0
 11
43.879661
 21
55.083667
 31
0.0
  0
LINE
  5
9182
  8
ALPHA
 10
44.179661
 20
57.383667
 30
0.0
 11
44.079661
 21
57.383667
 31
0.0
  0
LINE
  5
9183
  8
ALPHA
 10
44.079661
 20
57.383667
 30
0.0
 11
43.879661
 21
57.183667
 31
0.0
  0
LINE
  5
9184
  8
ALPHA
 10
48.322768
 20
56.107555
 30
0.0
 11
48.45668
 21
57.780808
 31
0.0
  0
LINE
  5
9185
  8
ALPHA
 10
47.665767
 20
56.107555
 30
0.0
 11
47.799971
 21
57.781961
 31
0.0
  0
POLYLINE
  5
9186
  8
ALPHA
 66
     1
 10
0.0
 20
0.0
 30
0.0
 70
   128
  0
VERTEX
  5
967D
  8
ALPHA
 10
48.263598
 20
58.10862
 30
0.0
  0
VERTEX
  5
967E
  8
ALPHA
 10
48.049728
 20
57.970345
 30
0.0
  0
VERTEX
  5
967F
  8
ALPHA
 10
47.990119
 20
57.710265
 30
0.0
  0
VERTEX
  5
9680
  8
ALPHA
 10
47.9409
 20
57.17685
 30
0.0
  0
VERTEX
  5
9681
  8
ALPHA
 10
47.872767
 20
56.107555
 30
0.0
  0
SEQEND
  5
9682
  8
ALPHA
  0
POLYLINE
  5
9187
  8
ALPHA
 66
     1
 10
0.0
 20
0.0
 30
0.0
 70
   128
  0
VERTEX
  5
9683
  8
ALPHA
 10
47.606598
 20
58.108619
 30
0.0
  0
VERTEX
  5
9684
  8
ALPHA
 10
47.39164
 20
57.968108
 30
0.0
  0
VERTEX
  5
9685
  8
ALPHA
 10
47.33249
 20
57.705343
 30
0.0
  0
VERTEX
  5
9686
  8
ALPHA
 10
47.283171
 20
57.166963
 30
0.0
  0
VERTEX
  5
9687
  8
ALPHA
 10
47.214585
 20
56.087773
 30
0.0
  0
SEQEND
  5
9688
  8
ALPHA
  0
LINE
  5
9188
  8
ALPHA
 10
46.929661
 20
56.040558
 30
0.0
 11
46.929661
 21
59.083561
 31
0.0
  0
LINE
  5
9189
  8
ALPHA
 10
45.429661
 20
51.879152
 30
0.0
 11
46.929661
 21
51.879152
 31
0.0
  0
POLYLINE
  5
918A
  8
ALPHA
 66
     1
 10
0.0
 20
0.0
 30
0.0
  0
VERTEX
  5
9689
  8
ALPHA
 10
45.429661
 20
51.879152
 30
0.0
  0
VERTEX
  5
968A
  8
ALPHA
 10
45.479805
 20
52.294751
 30
0.0
  0
VERTEX
  5
968B
  8
ALPHA
 10
45.627723
 20
52.68951
 30
0.0
  0
VERTEX
  5
968C
  8
ALPHA
 10
45.865998
 20
53.043634
 30
0.0
  0
VERTEX
  5
968D
  8
ALPHA
 10
46.182682
 20
53.339366
 30
0.0
  0
VERTEX
  5
968E
  8
ALPHA
 10
46.561894
 20
53.561878
 30
0.0
  0
VERTEX
  5
968F
  8
ALPHA
 10
46.984619
 20
53.70001
 30
0.0
  0
VERTEX
  5
9690
  8
ALPHA
 10
47.429661
 20
53.746836
 30
0.0
  0
SEQEND
  5
9691
  8
ALPHA
  0
POLYLINE
  5
918B
  8
ALPHA
 66
     1
 10
0.0
 20
0.0
 30
0.0
  0
VERTEX
  5
9692
  8
ALPHA
 10
45.429661
 20
54.23987
 30
0.0
  0
VERTEX
  5
9693
  8
ALPHA
 10
45.468091
 20
54.604237
 30
0.0
  0
VERTEX
  5
9694
  8
ALPHA
 10
45.581902
 20
54.954602
 30
0.0
  0
VERTEX
  5
9695
  8
ALPHA
 10
45.766722
 20
55.2775
 30
0.0
  0
VERTEX
  5
9696
  8
ALPHA
 10
46.015448
 20
55.560523
 30
0.0
  0
VERTEX
  5
9697
  8
ALPHA
 10
46.318521
 20
55.792793
 30
0.0
  0
VERTEX
  5
9698
  8
ALPHA
 10
46.664294
 20
55.965386
 30
0.0
  0
VERTEX
  5
9699
  8
ALPHA
 10
47.03948
 20
56.071668
 30
0.0
  0
VERTEX
  5
969A
  8
ALPHA
 10
47.429661
 20
56.107555
 30
0.0
  0
SEQEND
  5
969B
  8
ALPHA
  0
LINE
  5
918C
  8
ALPHA
 10
45.429661
 20
55.560685
 30
0.0
 11
46.01566
 21
55.560685
 31
0.0
  0
POLYLINE
  5
918D
  8
ALPHA
 66
     1
 10
0.0
 20
0.0
 30
0.0
  0
VERTEX
  5
969C
  8
ALPHA
 10
45.429661
 20
54.417001
 30
0.0
  0
VERTEX
  5
969D
  8
ALPHA
 10
45.326108
 20
54.38858
 30
0.0
  0
VERTEX
  5
969E
  8
ALPHA
 10
45.246644
 20
54.351538
 30
0.0
  0
VERTEX
  5
969F
  8
ALPHA
 10
45.196698
 20
54.308407
 30
0.0
  0
VERTEX
  5
96A0
  8
ALPHA
 10
45.179661
 20
54.26212
 30
0.0
  0
SEQEND
  5
96A1
  8
ALPHA
  0
LINE
  5
918E
  8
ALPHA
 10
45.429661
 20
54.883667
 30
0.0
 11
45.179661
 21
54.883667
 31
0.0
  0
POLYLINE
  5
918F
  8
ALPHA
 66
     1
 10
0.0
 20
0.0
 30
0.0
  0
VERTEX
  5
96A2
  8
ALPHA
 10
46.929661
 20
51.879152
 30
0.0
  0
VERTEX
  5
96A3
  8
ALPHA
 10
46.954133
 20
52.023438
 30
0.0
  0
VERTEX
  5
96A4
  8
ALPHA
 10
47.025153
 20
52.153601
 30
0.0
  0
VERTEX
  5
96A5
  8
ALPHA
 10
47.135768
 20
52.256899
 30
0.0
  0
VERTEX
  5
96A6
  8
ALPHA
 10
47.275153
 20
52.32322
 30
0.0
  0
VERTEX
  5
96A7
  8
ALPHA
 10
47.429661
 20
52.346073
 30
0.0
  0
SEQEND
  5
96A8
  8
ALPHA
  0
LINE
  5
9190
  8
ALPHA
 10
47.429661
 20
53.746836
 30
0.0
 11
47.429661
 21
56.107555
 31
0.0
  0
LINE
  5
9191
  8
ALPHA
 10
45.179661
 20
62.269386
 30
0.0
 11
46.873876
 21
62.269386
 31
0.0
  0
LINE
  5
9192
  8
ALPHA
 10
46.873876
 20
61.911702
 30
0.0
 11
45.679661
 21
61.911702
 31
0.0
  0
LINE
  5
9193
  8
ALPHA
 10
46.929661
 20
59.083667
 30
0.0
 11
45.429661
 21
59.083667
 31
0.0
  0
LINE
  5
9194
  8
ALPHA
 10
45.429661
 20
57.383667
 30
0.0
 11
45.179661
 21
57.383667
 31
0.0
  0
LINE
  5
9195
  8
ALPHA
 10
45.679661
 20
61.911702
 30
0.0
 11
45.679661
 21
59.083667
 31
0.0
  0
POLYLINE
  5
9196
  8
ALPHA
 66
     1
 10
0.0
 20
0.0
 30
0.0
  0
VERTEX
  5
96A9
  8
ALPHA
 10
45.179661
 20
61.732859
 30
0.0
  0
VERTEX
  5
96AA
  8
ALPHA
 10
45.196698
 20
61.779146
 30
0.0
  0
VERTEX
  5
96AB
  8
ALPHA
 10
45.246644
 20
61.822278
 30
0.0
  0
VERTEX
  5
96AC
  8
ALPHA
 10
45.326108
 20
61.85932
 30
0.0
  0
VERTEX
  5
96AD
  8
ALPHA
 10
45.429669
 20
61.887743
 30
0.0
  0
VERTEX
  5
96AE
  8
ALPHA
 10
45.550254
 20
61.905608
 30
0.0
  0
VERTEX
  5
96AF
  8
ALPHA
 10
45.679661
 20
61.911702
 30
0.0
  0
SEQEND
  5
96B0
  8
ALPHA
  0
POLYLINE
  5
9197
  8
ALPHA
 66
     1
 10
0.0
 20
0.0
 30
0.0
 70
   128
  0
VERTEX
  5
96B1
  8
ALPHA
 10
47.913025
 20
57.383672
 30
0.0
  0
VERTEX
  5
96B2
  8
ALPHA
 10
47.864911
 20
57.812898
 30
0.0
  0
VERTEX
  5
96B3
  8
ALPHA
 10
47.79336
 20
58.014644
 30
0.0
  0
VERTEX
  5
96B4
  8
ALPHA
 10
47.606555
 20
58.108622
 30
0.0
  0
SEQEND
  5
96B5
  8
ALPHA
  0
LINE
  5
9198
  8
ALPHA
 10
47.300206
 20
57.383667
 30
0.0
 11
46.929661
 21
57.383667
 31
0.0
  0
LINE
  5
9199
  8
ALPHA
 10
47.957192
 20
57.383667
 30
0.0
 11
47.750954
 21
57.383667
 31
0.0
  0
LINE
  5
919A
  8
ALPHA
 10
44.179661
 20
70.073237
 30
0.0
 11
45.179661
 21
70.073237
 31
0.0
  0
LINE
  5
919B
  8
ALPHA
 10
44.179661
 20
66.679026
 30
0.0
 11
45.179661
 21
66.679026
 31
0.0
  0
LINE
  5
919C
  8
ALPHA
 10
44.079661
 20
66.323237
 30
0.0
 11
44.079661
 21
68.823237
 31
0.0
  0
LINE
  5
919D
  8
ALPHA
 10
43.879661
 20
66.523291
 30
0.0
 11
43.879661
 21
68.623183
 31
0.0
  0
LINE
  5
919E
  8
ALPHA
 10
44.179661
 20
66.323237
 30
0.0
 11
44.079661
 21
66.323237
 31
0.0
  0
LINE
  5
919F
  8
ALPHA
 10
44.079661
 20
66.323237
 30
0.0
 11
43.879661
 21
66.523237
 31
0.0
  0
LINE
  5
91A0
  8
ALPHA
 10
44.179661
 20
68.823237
 30
0.0
 11
44.079661
 21
68.823237
 31
0.0
  0
LINE
  5
91A1
  8
ALPHA
 10
44.079661
 20
68.823237
 30
0.0
 11
43.879661
 21
68.623237
 31
0.0
  0
LINE
  5
91A2
  8
ALPHA
 10
45.879661
 20
72.073235
 30
0.0
 11
45.879661
 21
63.073239
 31
0.0
  0
LINE
  5
91A3
  8
ALPHA
 10
45.379661
 20
65.073244
 30
0.0
 11
45.379661
 21
70.073231
 31
0.0
  0
LINE
  5
91A4
  8
ALPHA
 10
45.379661
 20
66.323237
 30
0.0
 11
45.179661
 21
66.323237
 31
0.0
  0
LINE
  5
91A5
  8
ALPHA
 10
45.879661
 20
65.073237
 30
0.0
 11
45.379661
 21
65.073237
 31
0.0
  0
LINE
  5
91A6
  8
ALPHA
 10
45.879661
 20
70.073237
 30
0.0
 11
45.379661
 21
70.073237
 31
0.0
  0
LINE
  5
91A7
  8
ALPHA
 10
45.379661
 20
68.823237
 30
0.0
 11
45.179661
 21
68.823237
 31
0.0
  0
LINE
  5
91A8
  8
ALPHA
 10
58.329661
 20
46.190838
 30
0.0
 11
58.329661
 21
54.23987
 31
0.0
  0
LINE
  5
91A9
  8
ALPHA
 10
56.829661
 20
50.105205
 30
0.0
 11
56.829661
 21
51.879152
 31
0.0
  0
LINE
  5
91AA
  8
ALPHA
 10
54.129661
 20
50.16999
 30
0.0
 11
54.129661
 21
53.746836
 31
0.0
  0
LINE
  5
91AB
  8
ALPHA
 10
49.629661
 20
50.16999
 30
0.0
 11
49.629661
 21
53.746836
 31
0.0
  0
POLYLINE
  5
91AE
  8
ALPHA
 66
     1
 10
0.0
 20
0.0
 30
0.0
 70
   128
  0
VERTEX
  5
96B6
  8
ALPHA
 10
56.826389
 20
46.191483
 30
0.0
  0
VERTEX
  5
96B7
  8
ALPHA
 10
56.666859
 20
46.52057
 30
0.0
  0
VERTEX
  5
96B8
  8
ALPHA
 10
56.329661
 20
46.658888
 30
0.0
  0
SEQEND
  5
96B9
  8
ALPHA
  0
LINE
  5
91AF
  8
ALPHA
 10
56.65766
 20
38.06786
 30
0.0
 11
56.929661
 21
38.391421
 31
0.0
  0
ARC
  5
91B0
  8
ALPHA
 10
56.929661
 20
37.941348
 30
0.0
 40
0.3
 50
90.0
 51
155.162929
  0
POLYLINE
  5
91B1
  8
ALPHA
 66
     1
 10
0.0
 20
0.0
 30
0.0
  0
VERTEX
  5
96BA
  8
ALPHA
 10
58.329661
 20
48.302305
 30
0.0
  0
VERTEX
  5
96BB
  8
ALPHA
 10
58.279517
 20
48.717904
 30
0.0
  0
VERTEX
  5
96BC
  8
ALPHA
 10
58.131599
 20
49.112664
 30
0.0
  0
VERTEX
  5
96BD
  8
ALPHA
 10
57.893324
 20
49.466788
 30
0.0
  0
VERTEX
  5
96BE
  8
ALPHA
 10
57.576641
 20
49.76252
 30
0.0
  0
VERTEX
  5
96BF
  8
ALPHA
 10
57.197429
 20
49.985031
 30
0.0
  0
VERTEX
  5
96C0
  8
ALPHA
 10
56.774703
 20
50.123164
 30
0.0
  0
VERTEX
  5
96C1
  8
ALPHA
 10
56.329661
 20
50.16999
 30
0.0
  0
SEQEND
  5
96C2
  8
ALPHA
  0
POLYLINE
  5
91B2
  8
ALPHA
 66
     1
 10
0.0
 20
0.0
 30
0.0
  0
VERTEX
  5
96C3
  8
ALPHA
 10
58.266153
 20
46.658888
 30
0.0
  0
VERTEX
  5
96C4
  8
ALPHA
 10
58.110651
 20
47.04175
 30
0.0
  0
VERTEX
  5
96C5
  8
ALPHA
 10
57.869542
 20
47.383766
 30
0.0
  0
VERTEX
  5
96C6
  8
ALPHA
 10
57.554412
 20
47.668496
 30
0.0
  0
VERTEX
  5
96C7
  8
ALPHA
 10
57.18041
 20
47.882254
 30
0.0
  0
VERTEX
  5
96C8
  8
ALPHA
 10
56.765513
 20
48.014762
 30
0.0
  0
VERTEX
  5
96C9
  8
ALPHA
 10
56.329661
 20
48.059651
 30
0.0
  0
SEQEND
  5
96CA
  8
ALPHA
  0
LINE
  5
91B3
  8
ALPHA
 10
56.329661
 20
46.658888
 30
0.0
 11
58.266153
 21
46.658888
 31
0.0
  0
LINE
  5
91B4
  8
ALPHA
 10
53.379661
 20
37.726736
 30
0.0
 11
50.379661
 21
37.726736
 31
0.0
  0
POLYLINE
  5
91B5
  8
ALPHA
 66
     1
 10
0.0
 20
0.0
 30
0.0
 70
   128
210
0.0
220
0.0
230
-1.0
  0
VERTEX
  5
96CB
  8
ALPHA
 10
-49.379661
 20
37.317854
 30
0.0
  0
VERTEX
  5
96CC
  8
ALPHA
 10
-49.56859
 20
37.517823
 30
0.0
  0
VERTEX
  5
96CD
  8
ALPHA
 10
-49.824823
 20
37.634912
 30
0.0
  0
VERTEX
  5
96CE
  8
ALPHA
 10
-50.379661
 20
37.726736
 30
0.0
  0
SEQEND
  5
96CF
  8
ALPHA
  0
LINE
  5
91B6
  8
ALPHA
 10
49.379661
 20
37.190838
 30
0.0
 11
49.379661
 21
37.317854
 31
0.0
  0
LINE
  5
91B7
  8
ALPHA
 10
52.279661
 20
37.190838
 30
0.0
 11
52.279661
 21
37.726736
 31
0.0
  0
LINE
  5
91B8
  8
ALPHA
 10
51.479661
 20
37.190838
 30
0.0
 11
51.479661
 21
37.726736
 31
0.0
  0
POLYLINE
  5
91B9
  8
ALPHA
 66
     1
 10
0.0
 20
0.0
 30
0.0
 70
   128
210
0.0
220
0.0
230
-1.0
  0
VERTEX
  5
96D0
  8
ALPHA
 10
-53.379661
 20
37.726736
 30
0.0
  0
VERTEX
  5
96D1
  8
ALPHA
 10
-53.934499
 20
37.634912
 30
0.0
  0
VERTEX
  5
96D2
  8
ALPHA
 10
-54.190732
 20
37.517823
 30
0.0
  0
VERTEX
  5
96D3
  8
ALPHA
 10
-54.379661
 20
37.317854
 30
0.0
  0
SEQEND
  5
96D4
  8
ALPHA
  0
LINE
  5
91BA
  8
ALPHA
 10
54.379661
 20
37.190838
 30
0.0
 11
54.379661
 21
37.317854
 31
0.0
  0
LINE
  5
91BB
  8
ALPHA
 10
56.629661
 20
37.955206
 30
0.0
 11
56.657819
 21
38.067786
 31
0.0
  0
LINE
  5
91BC
  8
ALPHA
 10
56.629661
 20
37.190838
 30
0.0
 11
56.629661
 21
37.955206
 31
0.0
  0
LINE
  5
91BD
  8
ALPHA
 10
56.329661
 20
48.059651
 30
0.0
 11
56.329661
 21
50.16999
 31
0.0
  0
LINE
  5
91BE
  8
ALPHA
 10
55.379661
 20
46.190838
 30
0.0
 11
55.379661
 21
46.658888
 31
0.0
  0
LINE
  5
91BF
  8
ALPHA
 10
59.879661
 20
37.190838
 30
0.0
 11
59.879661
 21
41.688079
 31
0.0
  0
LINE
  5
91C0
  8
ALPHA
 10
58.929661
 20
40.690813
 30
0.0
 11
58.929661
 21
38.690862
 31
0.0
  0
LINE
  5
91C1
  8
ALPHA
 10
58.629661
 20
38.241416
 30
0.0
 11
58.629661
 21
46.190838
 31
0.0
  0
LINE
  5
91C2
  8
ALPHA
 10
58.229661
 20
33.740838
 30
0.0
 11
58.229661
 21
32.590838
 31
0.0
  0
ARC
  5
91C3
  8
ALPHA
 10
57.729661
 20
29.390838
 30
0.0
 40
0.5
 50
270.0
 51
0.0
  0
ARC
  5
91C4
  8
ALPHA
 10
57.779661
 20
31.690838
 30
0.0
 40
0.3
 50
222.418001
 51
269.999976
  0
ARC
  5
91C5
  8
ALPHA
 10
57.879661
 20
31.990838
 30
0.0
 40
0.5
 50
270.0
 51
90.0
  0
LINE
  5
91C6
  8
ALPHA
 10
58.229661
 20
31.390838
 30
0.0
 11
58.229661
 21
29.390838
 31
0.0
  0
LINE
  5
91C7
  8
ALPHA
 10
57.479661
 20
32.490838
 30
0.0
 11
57.479661
 21
32.590838
 31
0.0
  0
LINE
  5
91C8
  8
ALPHA
 10
58.629661
 20
38.690838
 30
0.0
 11
58.929661
 21
38.690838
 31
0.0
  0
LINE
  5
91C9
  8
ALPHA
 10
58.769683
 20
35.080838
 30
0.0
 11
58.769683
 21
37.190838
 31
0.0
  0
LINE
  5
91CA
  8
ALPHA
 10
58.755517
 20
35.080838
 30
0.0
 11
58.755517
 21
37.190838
 31
0.0
  0
LINE
  5
91CB
  8
ALPHA
 10
58.67587
 20
35.080838
 30
0.0
 11
58.67587
 21
37.190838
 31
0.0
  0
LINE
  5
91CC
  8
ALPHA
 10
58.500913
 20
35.080838
 30
0.0
 11
58.500913
 21
37.190838
 31
0.0
  0
LINE
  5
91CD
  8
ALPHA
 10
58.329661
 20
38.241348
 30
0.0
 11
58.329661
 21
37.190921
 31
0.0
  0
LINE
  5
91CE
  8
ALPHA
 10
57.945558
 20
35.080838
 30
0.0
 11
57.945558
 21
37.190838
 31
0.0
  0
LINE
  5
91CF
  8
ALPHA
 10
57.778206
 20
35.080838
 30
0.0
 11
57.778206
 21
37.190838
 31
0.0
  0
LINE
  5
91D0
  8
ALPHA
 10
57.379661
 20
33.740838
 30
0.0
 11
57.379661
 21
35.080838
 31
0.0
  0
LINE
  5
91D1
  8
ALPHA
 10
56.929661
 20
38.391421
 30
0.0
 11
56.929661
 21
38.241348
 31
0.0
  0
LINE
  5
91D2
  8
ALPHA
 10
56.829661
 20
37.190921
 30
0.0
 11
56.829661
 21
38.222948
 31
0.0
  0
LINE
  5
91D3
  8
ALPHA
 10
58.629661
 20
38.391421
 30
0.0
 11
56.929661
 21
38.391421
 31
0.0
  0
LINE
  5
91D4
  8
ALPHA
 10
58.629661
 20
38.241348
 30
0.0
 11
56.929661
 21
38.241348
 31
0.0
  0
LINE
  5
91D5
  8
ALPHA
 10
59.230574
 20
35.080838
 30
0.0
 11
59.230574
 21
37.190838
 31
0.0
  0
LINE
  5
91D6
  8
ALPHA
 10
59.229211
 20
35.080838
 30
0.0
 11
59.229211
 21
37.190838
 31
0.0
  0
LINE
  5
91D7
  8
ALPHA
 10
59.202045
 20
35.080838
 30
0.0
 11
59.202045
 21
37.190838
 31
0.0
  0
LINE
  5
91D8
  8
ALPHA
 10
59.064284
 20
35.080838
 30
0.0
 11
59.064284
 21
37.190838
 31
0.0
  0
LINE
  5
91D9
  8
ALPHA
 10
58.629661
 20
42.190838
 30
0.0
 11
59.379661
 21
42.190838
 31
0.0
  0
LINE
  5
91DA
  8
ALPHA
 10
58.629661
 20
41.690838
 30
0.0
 11
59.879618
 21
41.690838
 31
0.0
  0
LINE
  5
91DB
  8
ALPHA
 10
58.629661
 20
40.690838
 30
0.0
 11
58.929661
 21
40.690838
 31
0.0
  0
LINE
  5
91DC
  8
ALPHA
 10
59.379661
 20
42.190838
 30
0.0
 11
59.879618
 21
41.690838
 31
0.0
  0
LINE
  5
91DD
  8
ALPHA
 10
58.328865
 20
46.190912
 30
0.0
 11
58.266153
 21
46.658888
 31
0.0
  0
POLYLINE
  5
924E
  8
ALPHA
 66
     1
 10
0.0
 20
0.0
 30
0.0
  0
VERTEX
  5
96D5
  8
ALPHA
 10
58.329661
 20
51.879152
 30
0.0
  0
VERTEX
  5
96D6
  8
ALPHA
 10
58.279517
 20
52.294751
 30
0.0
  0
VERTEX
  5
96D7
  8
ALPHA
 10
58.131599
 20
52.68951
 30
0.0
  0
VERTEX
  5
96D8
  8
ALPHA
 10
57.893324
 20
53.043634
 30
0.0
  0
VERTEX
  5
96D9
  8
ALPHA
 10
57.576641
 20
53.339366
 30
0.0
  0
VERTEX
  5
96DA
  8
ALPHA
 10
57.197429
 20
53.561878
 30
0.0
  0
VERTEX
  5
96DB
  8
ALPHA
 10
56.774703
 20
53.70001
 30
0.0
  0
VERTEX
  5
96DC
  8
ALPHA
 10
56.329661
 20
53.746836
 30
0.0
  0
SEQEND
  5
96DD
  8
ALPHA
  0
LINE
  5
924F
  8
ALPHA
 10
56.829661
 20
57.383667
 30
0.0
 11
56.291986
 21
57.383667
 31
0.0
  0
POLYLINE
  5
9250
  8
ALPHA
 66
     1
 10
0.0
 20
0.0
 30
0.0
  0
VERTEX
  5
96DE
  8
ALPHA
 10
58.329661
 20
54.23987
 30
0.0
  0
VERTEX
  5
96DF
  8
ALPHA
 10
58.291232
 20
54.604237
 30
0.0
  0
VERTEX
  5
96E0
  8
ALPHA
 10
58.17742
 20
54.954602
 30
0.0
  0
VERTEX
  5
96E1
  8
ALPHA
 10
57.9926
 20
55.2775
 30
0.0
  0
VERTEX
  5
96E2
  8
ALPHA
 10
57.743875
 20
55.560523
 30
0.0
  0
VERTEX
  5
96E3
  8
ALPHA
 10
57.440802
 20
55.792793
 30
0.0
  0
VERTEX
  5
96E4
  8
ALPHA
 10
57.095028
 20
55.965386
 30
0.0
  0
VERTEX
  5
96E5
  8
ALPHA
 10
56.719842
 20
56.071668
 30
0.0
  0
VERTEX
  5
96E6
  8
ALPHA
 10
56.329661
 20
56.107555
 30
0.0
  0
SEQEND
  5
96E7
  8
ALPHA
  0
POLYLINE
  5
9251
  8
ALPHA
 66
     1
 10
0.0
 20
0.0
 30
0.0
  0
VERTEX
  5
96E8
  8
ALPHA
 10
56.829661
 20
51.879152
 30
0.0
  0
VERTEX
  5
96E9
  8
ALPHA
 10
56.805189
 20
52.023438
 30
0.0
  0
VERTEX
  5
96EA
  8
ALPHA
 10
56.73417
 20
52.153601
 30
0.0
  0
VERTEX
  5
96EB
  8
ALPHA
 10
56.623554
 20
52.256899
 30
0.0
  0
VERTEX
  5
96EC
  8
ALPHA
 10
56.48417
 20
52.32322
 30
0.0
  0
VERTEX
  5
96ED
  8
ALPHA
 10
56.329661
 20
52.346073
 30
0.0
  0
SEQEND
  5
96EE
  8
ALPHA
  0
POLYLINE
  5
9252
  8
ALPHA
 66
     1
 10
0.0
 20
0.0
 30
0.0
 70
   128
  0
VERTEX
  5
96EF
  8
ALPHA
 10
52.862605
 20
58.108608
 30
0.0
  0
VERTEX
  5
96F0
  8
ALPHA
 10
52.648736
 20
57.970361
 30
0.0
  0
VERTEX
  5
96F1
  8
ALPHA
 10
52.589121
 20
57.710285
 30
0.0
  0
VERTEX
  5
96F2
  8
ALPHA
 10
52.5399
 20
57.176864
 30
0.0
  0
VERTEX
  5
96F3
  8
ALPHA
 10
52.471767
 20
56.107555
 30
0.0
  0
SEQEND
  5
96F4
  8
ALPHA
  0
LINE
  5
9253
  8
ALPHA
 10
49.629661
 20
53.746836
 30
0.0
 11
54.129661
 21
53.746836
 31
0.0
  0
LINE
  5
9254
  8
ALPHA
 10
54.129661
 20
53.596575
 30
0.0
 11
49.629661
 21
53.596575
 31
0.0
  0
LINE
  5
9255
  8
ALPHA
 10
54.129661
 20
51.348709
 30
0.0
 11
49.629661
 21
51.348709
 31
0.0
  0
LINE
  5
9256
  8
ALPHA
 10
48.979768
 20
56.107555
 30
0.0
 11
49.113892
 21
57.781648
 31
0.0
  0
POLYLINE
  5
9257
  8
ALPHA
 66
     1
 10
0.0
 20
0.0
 30
0.0
 70
   128
  0
VERTEX
  5
96F5
  8
ALPHA
 10
49.577599
 20
58.108615
 30
0.0
  0
VERTEX
  5
96F6
  8
ALPHA
 10
49.363727
 20
57.970341
 30
0.0
  0
VERTEX
  5
96F7
  8
ALPHA
 10
49.304118
 20
57.710257
 30
0.0
  0
VERTEX
  5
96F8
  8
ALPHA
 10
49.254899
 20
57.176845
 30
0.0
  0
VERTEX
  5
96F9
  8
ALPHA
 10
49.186767
 20
56.107555
 30
0.0
  0
SEQEND
  5
96FA
  8
ALPHA
  0
POLYLINE
  5
9258
  8
ALPHA
 66
     1
 10
0.0
 20
0.0
 30
0.0
 70
   128
  0
VERTEX
  5
96FB
  8
ALPHA
 10
50.234599
 20
58.108616
 30
0.0
  0
VERTEX
  5
96FC
  8
ALPHA
 10
50.020732
 20
57.970352
 30
0.0
  0
VERTEX
  5
96FD
  8
ALPHA
 10
49.961119
 20
57.710268
 30
0.0
  0
VERTEX
  5
96FE
  8
ALPHA
 10
49.911899
 20
57.176852
 30
0.0
  0
VERTEX
  5
96FF
  8
ALPHA
 10
49.843767
 20
56.107555
 30
0.0
  0
SEQEND
  5
9700
  8
ALPHA
  0
POLYLINE
  5
9259
  8
ALPHA
 66
     1
 10
0.0
 20
0.0
 30
0.0
 70
   128
  0
VERTEX
  5
9701
  8
ALPHA
 10
50.8916
 20
58.108617
 30
0.0
  0
VERTEX
  5
9702
  8
ALPHA
 10
50.677719
 20
57.970324
 30
0.0
  0
VERTEX
  5
9703
  8
ALPHA
 10
50.618116
 20
57.710244
 30
0.0
  0
VERTEX
  5
9704
  8
ALPHA
 10
50.568899
 20
57.176836
 30
0.0
  0
VERTEX
  5
9705
  8
ALPHA
 10
50.500768
 20
56.107555
 30
0.0
  0
SEQEND
  5
9706
  8
ALPHA
  0
POLYLINE
  5
925A
  8
ALPHA
 66
     1
 10
0.0
 20
0.0
 30
0.0
 70
   128
  0
VERTEX
  5
9707
  8
ALPHA
 10
51.548599
 20
58.108617
 30
0.0
  0
VERTEX
  5
9708
  8
ALPHA
 10
51.334743
 20
57.970377
 30
0.0
  0
VERTEX
  5
9709
  8
ALPHA
 10
51.275123
 20
57.710297
 30
0.0
  0
VERTEX
  5
970A
  8
ALPHA
 10
51.225901
 20
57.176872
 30
0.0
  0
VERTEX
  5
970B
  8
ALPHA
 10
51.157768
 20
56.107555
 30
0.0
  0
SEQEND
  5
970C
  8
ALPHA
  0
LINE
  5
925B
  8
ALPHA
 10
49.636767
 20
56.107555
 30
0.0
 11
49.771014
 21
57.782097
 31
0.0
  0
LINE
  5
925C
  8
ALPHA
 10
50.293767
 20
56.107555
 30
0.0
 11
50.428026
 21
57.782175
 31
0.0
  0
LINE
  5
925D
  8
ALPHA
 10
50.950768
 20
56.107555
 30
0.0
 11
51.085083
 21
57.782396
 31
0.0
  0
LINE
  5
925E
  8
ALPHA
 10
51.607768
 20
56.107555
 30
0.0
 11
51.742234
 21
57.782981
 31
0.0
  0
POLYLINE
  5
925F
  8
ALPHA
 66
     1
 10
0.0
 20
0.0
 30
0.0
 70
   128
  0
VERTEX
  5
970D
  8
ALPHA
 10
52.205604
 20
58.108608
 30
0.0
  0
VERTEX
  5
970E
  8
ALPHA
 10
51.991736
 20
57.970361
 30
0.0
  0
VERTEX
  5
970F
  8
ALPHA
 10
51.932121
 20
57.710286
 30
0.0
  0
VERTEX
  5
9710
  8
ALPHA
 10
51.8829
 20
57.176864
 30
0.0
  0
VERTEX
  5
9711
  8
ALPHA
 10
51.814767
 20
56.107555
 30
0.0
  0
SEQEND
  5
9712
  8
ALPHA
  0
LINE
  5
9260
  8
ALPHA
 10
52.264767
 20
56.107555
 30
0.0
 11
52.398368
 21
57.779558
 31
0.0
  0
POLYLINE
  5
9261
  8
ALPHA
 66
     1
 10
0.0
 20
0.0
 30
0.0
 70
   128
  0
VERTEX
  5
9713
  8
ALPHA
 10
49.227025
 20
57.38367
 30
0.0
  0
VERTEX
  5
9714
  8
ALPHA
 10
49.178915
 20
57.812879
 30
0.0
  0
VERTEX
  5
9715
  8
ALPHA
 10
49.107375
 20
58.01463
 30
0.0
  0
VERTEX
  5
9716
  8
ALPHA
 10
48.920555
 20
58.108622
 30
0.0
  0
SEQEND
  5
9717
  8
ALPHA
  0
POLYLINE
  5
9262
  8
ALPHA
 66
     1
 10
0.0
 20
0.0
 30
0.0
 70
   128
  0
VERTEX
  5
9718
  8
ALPHA
 10
49.884025
 20
57.383671
 30
0.0
  0
VERTEX
  5
9719
  8
ALPHA
 10
49.835912
 20
57.812893
 30
0.0
  0
VERTEX
  5
971A
  8
ALPHA
 10
49.764365
 20
58.014639
 30
0.0
  0
VERTEX
  5
971B
  8
ALPHA
 10
49.577555
 20
58.108621
 30
0.0
  0
SEQEND
  5
971C
  8
ALPHA
  0
POLYLINE
  5
9263
  8
ALPHA
 66
     1
 10
0.0
 20
0.0
 30
0.0
 70
   128
  0
VERTEX
  5
971D
  8
ALPHA
 10
50.541025
 20
57.383674
 30
0.0
  0
VERTEX
  5
971E
  8
ALPHA
 10
50.492912
 20
57.812897
 30
0.0
  0
VERTEX
  5
971F
  8
ALPHA
 10
50.421358
 20
58.014646
 30
0.0
  0
VERTEX
  5
9720
  8
ALPHA
 10
50.234555
 20
58.108622
 30
0.0
  0
SEQEND
  5
9721
  8
ALPHA
  0
LINE
  5
9264
  8
ALPHA
 10
49.271178
 20
57.383667
 30
0.0
 11
49.064963
 21
57.383667
 31
0.0
  0
LINE
  5
9265
  8
ALPHA
 10
49.928204
 20
57.383667
 30
0.0
 11
49.721936
 21
57.383667
 31
0.0
  0
LINE
  5
9266
  8
ALPHA
 10
50.585203
 20
57.383667
 30
0.0
 11
50.37894
 21
57.383667
 31
0.0
  0
POLYLINE
  5
9267
  8
ALPHA
 66
     1
 10
0.0
 20
0.0
 30
0.0
 70
   128
  0
VERTEX
  5
9722
  8
ALPHA
 10
51.855025
 20
57.383668
 30
0.0
  0
VERTEX
  5
9723
  8
ALPHA
 10
51.806912
 20
57.812894
 30
0.0
  0
VERTEX
  5
9724
  8
ALPHA
 10
51.735355
 20
58.014647
 30
0.0
  0
VERTEX
  5
9725
  8
ALPHA
 10
51.548557
 20
58.108623
 30
0.0
  0
SEQEND
  5
9726
  8
ALPHA
  0
POLYLINE
  5
9268
  8
ALPHA
 66
     1
 10
0.0
 20
0.0
 30
0.0
 70
   128
  0
VERTEX
  5
9727
  8
ALPHA
 10
51.198025
 20
57.383672
 30
0.0
  0
VERTEX
  5
9728
  8
ALPHA
 10
51.149913
 20
57.812888
 30
0.0
  0
VERTEX
  5
9729
  8
ALPHA
 10
51.078368
 20
58.014635
 30
0.0
  0
VERTEX
  5
972A
  8
ALPHA
 10
50.891556
 20
58.108623
 30
0.0
  0
SEQEND
  5
972B
  8
ALPHA
  0
POLYLINE
  5
9269
  8
ALPHA
 66
     1
 10
0.0
 20
0.0
 30
0.0
 70
   128
  0
VERTEX
  5
972C
  8
ALPHA
 10
52.512024
 20
57.383673
 30
0.0
  0
VERTEX
  5
972D
  8
ALPHA
 10
52.463912
 20
57.812892
 30
0.0
  0
VERTEX
  5
972E
  8
ALPHA
 10
52.392376
 20
58.014634
 30
0.0
  0
VERTEX
  5
972F
  8
ALPHA
 10
52.205549
 20
58.108614
 30
0.0
  0
SEQEND
  5
9730
  8
ALPHA
  0
LINE
  5
926A
  8
ALPHA
 10
51.24216
 20
57.383667
 30
0.0
 11
51.035976
 21
57.383667
 31
0.0
  0
LINE
  5
926B
  8
ALPHA
 10
51.899182
 20
57.383667
 30
0.0
 11
51.692943
 21
57.383667
 31
0.0
  0
LINE
  5
926C
  8
ALPHA
 10
52.556174
 20
57.383667
 30
0.0
 11
52.349969
 21
57.383667
 31
0.0
  0
LINE
  5
926D
  8
ALPHA
 10
53.854875
 20
57.19002
 30
0.0
 11
53.785768
 21
56.107555
 31
0.0
  0
POLYLINE
  5
926E
  8
ALPHA
 66
     1
 10
0.0
 20
0.0
 30
0.0
 70
   128
  0
VERTEX
  5
9731
  8
ALPHA
 10
53.519604
 20
58.108609
 30
0.0
  0
VERTEX
  5
9732
  8
ALPHA
 10
53.305738
 20
57.970365
 30
0.0
  0
VERTEX
  5
9733
  8
ALPHA
 10
53.246123
 20
57.710289
 30
0.0
  0
VERTEX
  5
9734
  8
ALPHA
 10
53.196901
 20
57.176867
 30
0.0
  0
VERTEX
  5
9735
  8
ALPHA
 10
53.128768
 20
56.107555
 30
0.0
  0
SEQEND
  5
9736
  8
ALPHA
  0
LINE
  5
926F
  8
ALPHA
 10
52.921767
 20
56.107555
 30
0.0
 11
53.055387
 21
57.779625
 31
0.0
  0
LINE
  5
9270
  8
ALPHA
 10
53.578768
 20
56.107555
 30
0.0
 11
53.71249
 21
57.780052
 31
0.0
  0
LINE
  5
9271
  8
ALPHA
 10
54.235768
 20
56.107555
 30
0.0
 11
54.304442
 21
57.178474
 31
0.0
  0
POLYLINE
  5
9272
  8
ALPHA
 66
     1
 10
0.0
 20
0.0
 30
0.0
 70
   128
  0
VERTEX
  5
9737
  8
ALPHA
 10
54.833597
 20
58.108619
 30
0.0
  0
VERTEX
  5
9738
  8
ALPHA
 10
54.619727
 20
57.970343
 30
0.0
  0
VERTEX
  5
9739
  8
ALPHA
 10
54.560118
 20
57.710263
 30
0.0
  0
VERTEX
  5
973A
  8
ALPHA
 10
54.510899
 20
57.176849
 30
0.0
  0
VERTEX
  5
973B
  8
ALPHA
 10
54.442767
 20
56.107555
 30
0.0
  0
SEQEND
  5
973C
  8
ALPHA
  0
POLYLINE
  5
9273
  8
ALPHA
 66
     1
 10
0.0
 20
0.0
 30
0.0
 70
   128
  0
VERTEX
  5
973D
  8
ALPHA
 10
55.490599
 20
58.108616
 30
0.0
  0
VERTEX
  5
973E
  8
ALPHA
 10
55.276743
 20
57.970376
 30
0.0
  0
VERTEX
  5
973F
  8
ALPHA
 10
55.217123
 20
57.710297
 30
0.0
  0
VERTEX
  5
9740
  8
ALPHA
 10
55.167901
 20
57.176871
 30
0.0
  0
VERTEX
  5
9741
  8
ALPHA
 10
55.099767
 20
56.107555
 30
0.0
  0
SEQEND
  5
9742
  8
ALPHA
  0
POLYLINE
  5
9274
  8
ALPHA
 66
     1
 10
0.0
 20
0.0
 30
0.0
 70
   128
  0
VERTEX
  5
9743
  8
ALPHA
 10
56.147601
 20
58.108612
 30
0.0
  0
VERTEX
  5
9744
  8
ALPHA
 10
55.933739
 20
57.970365
 30
0.0
  0
VERTEX
  5
9745
  8
ALPHA
 10
55.874121
 20
57.710279
 30
0.0
  0
VERTEX
  5
9746
  8
ALPHA
 10
55.8249
 20
57.176859
 30
0.0
  0
VERTEX
  5
9747
  8
ALPHA
 10
55.756768
 20
56.107555
 30
0.0
  0
SEQEND
  5
9748
  8
ALPHA
  0
LINE
  5
9275
  8
ALPHA
 10
54.892767
 20
56.107555
 30
0.0
 11
55.02709
 21
57.782426
 31
0.0
  0
LINE
  5
9276
  8
ALPHA
 10
55.549768
 20
56.107555
 30
0.0
 11
55.684236
 21
57.782987
 31
0.0
  0
LINE
  5
9277
  8
ALPHA
 10
56.206768
 20
56.107555
 30
0.0
 11
56.340906
 21
57.7817
 31
0.0
  0
LINE
  5
9278
  8
ALPHA
 10
54.129661
 20
53.746836
 30
0.0
 11
56.329661
 21
53.746836
 31
0.0
  0
LINE
  5
9279
  8
ALPHA
 10
56.329661
 20
52.346073
 30
0.0
 11
54.129661
 21
52.346073
 31
0.0
  0
LINE
  5
927A
  8
ALPHA
 10
56.329661
 20
53.746836
 30
0.0
 11
56.329661
 21
56.107555
 31
0.0
  0
POLYLINE
  5
927B
  8
ALPHA
 66
     1
 10
0.0
 20
0.0
 30
0.0
 70
   128
  0
VERTEX
  5
9749
  8
ALPHA
 10
53.169025
 20
57.383668
 30
0.0
  0
VERTEX
  5
974A
  8
ALPHA
 10
53.120911
 20
57.812896
 30
0.0
  0
VERTEX
  5
974B
  8
ALPHA
 10
53.049371
 20
58.014638
 30
0.0
  0
VERTEX
  5
974C
  8
ALPHA
 10
52.862551
 20
58.108616
 30
0.0
  0
SEQEND
  5
974D
  8
ALPHA
  0
POLYLINE
  5
927C
  8
ALPHA
 66
     1
 10
0.0
 20
0.0
 30
0.0
 70
   128
  0
VERTEX
  5
974E
  8
ALPHA
 10
53.826025
 20
57.383671
 30
0.0
  0
VERTEX
  5
974F
  8
ALPHA
 10
53.77791
 20
57.812902
 30
0.0
  0
VERTEX
  5
9750
  8
ALPHA
 10
53.706367
 20
58.014642
 30
0.0
  0
VERTEX
  5
9751
  8
ALPHA
 10
53.519552
 20
58.108616
 30
0.0
  0
SEQEND
  5
9752
  8
ALPHA
  0
POLYLINE
  5
927D
  8
ALPHA
 66
     1
 10
0.0
 20
0.0
 30
0.0
 70
   128
  0
VERTEX
  5
9753
  8
ALPHA
 10
54.176596
 20
58.10862
 30
0.0
  0
VERTEX
  5
9754
  8
ALPHA
 10
53.964213
 20
57.973326
 30
0.0
  0
VERTEX
  5
9755
  8
ALPHA
 10
53.903967
 20
57.716827
 30
0.0
  0
VERTEX
  5
9756
  8
ALPHA
 10
53.854875
 20
57.190016
 30
0.0
  0
SEQEND
  5
9757
  8
ALPHA
  0
LINE
  5
927E
  8
ALPHA
 10
54.304443
 20
57.178477
 30
0.0
 11
54.370527
 21
57.784045
 31
0.0
  0
POLYLINE
  5
927F
  8
ALPHA
 66
     1
 10
0.0
 20
0.0
 30
0.0
 70
   128
  0
VERTEX
  5
9758
  8
ALPHA
 10
54.483025
 20
57.383674
 30
0.0
  0
VERTEX
  5
9759
  8
ALPHA
 10
54.434912
 20
57.812897
 30
0.0
  0
VERTEX
  5
975A
  8
ALPHA
 10
54.363358
 20
58.014646
 30
0.0
  0
VERTEX
  5
975B
  8
ALPHA
 10
54.176556
 20
58.108622
 30
0.0
  0
SEQEND
  5
975C
  8
ALPHA
  0
LINE
  5
9280
  8
ALPHA
 10
53.213195
 20
57.383667
 30
0.0
 11
53.006964
 21
57.383667
 31
0.0
  0
LINE
  5
9281
  8
ALPHA
 10
53.870192
 20
57.383667
 30
0.0
 11
53.663985
 21
57.383667
 31
0.0
  0
LINE
  5
9282
  8
ALPHA
 10
54.527212
 20
57.383667
 30
0.0
 11
54.32097
 21
57.383667
 31
0.0
  0
POLYLINE
  5
9283
  8
ALPHA
 66
     1
 10
0.0
 20
0.0
 30
0.0
 70
   128
  0
VERTEX
  5
975D
  8
ALPHA
 10
55.140025
 20
57.383672
 30
0.0
  0
VERTEX
  5
975E
  8
ALPHA
 10
55.091913
 20
57.812887
 30
0.0
  0
VERTEX
  5
975F
  8
ALPHA
 10
55.020368
 20
58.014635
 30
0.0
  0
VERTEX
  5
9760
  8
ALPHA
 10
54.833555
 20
58.108623
 30
0.0
  0
SEQEND
  5
9761
  8
ALPHA
  0
POLYLINE
  5
9284
  8
ALPHA
 66
     1
 10
0.0
 20
0.0
 30
0.0
 70
   128
  0
VERTEX
  5
9762
  8
ALPHA
 10
55.797025
 20
57.383669
 30
0.0
  0
VERTEX
  5
9763
  8
ALPHA
 10
55.748913
 20
57.812887
 30
0.0
  0
VERTEX
  5
9764
  8
ALPHA
 10
55.677361
 20
58.014642
 30
0.0
  0
VERTEX
  5
9765
  8
ALPHA
 10
55.490556
 20
58.108622
 30
0.0
  0
SEQEND
  5
9766
  8
ALPHA
  0
POLYLINE
  5
9285
  8
ALPHA
 66
     1
 10
0.0
 20
0.0
 30
0.0
 70
   128
  0
VERTEX
  5
9767
  8
ALPHA
 10
56.454025
 20
57.383673
 30
0.0
  0
VERTEX
  5
9768
  8
ALPHA
 10
56.405912
 20
57.812895
 30
0.0
  0
VERTEX
  5
9769
  8
ALPHA
 10
56.334362
 20
58.014643
 30
0.0
  0
VERTEX
  5
976A
  8
ALPHA
 10
56.147556
 20
58.108621
 30
0.0
  0
SEQEND
  5
976B
  8
ALPHA
  0
LINE
  5
9286
  8
ALPHA
 10
55.184157
 20
57.383667
 30
0.0
 11
54.977976
 21
57.383667
 31
0.0
  0
LINE
  5
9287
  8
ALPHA
 10
55.841218
 20
57.383667
 30
0.0
 11
55.634942
 21
57.383667
 31
0.0
  0
LINE
  5
9288
  8
ALPHA
 10
59.579661
 20
70.073169
 30
0.0
 11
59.579661
 21
53.166753
 31
0.0
  0
LINE
  5
9289
  8
ALPHA
 10
58.579661
 20
70.073169
 30
0.0
 11
58.579661
 21
54.651961
 31
0.0
  0
LINE
  5
928A
  8
ALPHA
 10
60.179661
 20
57.133616
 30
0.0
 11
60.179661
 21
55.133719
 31
0.0
  0
LINE
  5
928B
  8
ALPHA
 10
58.329661
 20
54.758079
 30
0.0
 11
58.329661
 21
59.083561
 31
0.0
  0
LINE
  5
928C
  8
ALPHA
 10
56.829661
 20
56.040558
 30
0.0
 11
56.829661
 21
59.083561
 31
0.0
  0
POLYLINE
  5
928D
  8
ALPHA
 66
     1
 10
0.0
 20
0.0
 30
0.0
 70
   128
210
0.0
220
0.0
230
-1.0
  0
VERTEX
  5
976C
  8
ALPHA
 10
-58.231857
 20
54.789038
 30
0.0
  0
VERTEX
  5
976D
  8
ALPHA
 10
-58.618041
 20
54.636136
 30
0.0
  0
VERTEX
  5
976E
  8
ALPHA
 10
-58.930824
 20
54.362531
 30
0.0
  0
VERTEX
  5
976F
  8
ALPHA
 10
-59.13448
 20
54.000256
 30
0.0
  0
VERTEX
  5
9770
  8
ALPHA
 10
-59.204661
 20
53.590853
 30
0.0
  0
SEQEND
  5
9771
  8
ALPHA
  0
POLYLINE
  5
928E
  8
ALPHA
 66
     1
 10
0.0
 20
0.0
 30
0.0
  0
VERTEX
  5
9772
  8
ALPHA
 10
59.204661
 20
53.590853
 30
0.0
  0
VERTEX
  5
9773
  8
ALPHA
 10
59.191092
 20
53.593489
 30
0.0
  0
VERTEX
  5
9774
  8
ALPHA
 10
59.152021
 20
53.595808
 30
0.0
  0
VERTEX
  5
9775
  8
ALPHA
 10
59.092161
 20
53.597529
 30
0.0
  0
VERTEX
  5
9776
  8
ALPHA
 10
59.018732
 20
53.598445
 30
0.0
  0
VERTEX
  5
9777
  8
ALPHA
 10
58.94059
 20
53.598445
 30
0.0
  0
VERTEX
  5
9778
  8
ALPHA
 10
58.867161
 20
53.597529
 30
0.0
  0
VERTEX
  5
9779
  8
ALPHA
 10
58.807301
 20
53.595808
 30
0.0
  0
VERTEX
  5
977A
  8
ALPHA
 10
58.76823
 20
53.593489
 30
0.0
  0
VERTEX
  5
977B
  8
ALPHA
 10
58.754661
 20
53.590853
 30
0.0
  0
SEQEND
  5
977C
  8
ALPHA
  0
LINE
  5
928F
  8
ALPHA
 10
58.579661
 20
54.772534
 30
0.0
 11
59.579661
 21
54.772534
 31
0.0
  0
POLYLINE
  5
9290
  8
ALPHA
 66
     1
 10
0.0
 20
0.0
 30
0.0
  0
VERTEX
  5
977D
  8
ALPHA
 10
59.204661
 20
51.991792
 30
0.0
  0
VERTEX
  5
977E
  8
ALPHA
 10
59.191092
 20
51.994429
 30
0.0
  0
VERTEX
  5
977F
  8
ALPHA
 10
59.152021
 20
51.996747
 30
0.0
  0
VERTEX
  5
9780
  8
ALPHA
 10
59.092161
 20
51.998468
 30
0.0
  0
VERTEX
  5
9781
  8
ALPHA
 10
59.018732
 20
51.999384
 30
0.0
  0
VERTEX
  5
9782
  8
ALPHA
 10
58.94059
 20
51.999384
 30
0.0
  0
VERTEX
  5
9783
  8
ALPHA
 10
58.867161
 20
51.998468
 30
0.0
  0
VERTEX
  5
9784
  8
ALPHA
 10
58.807301
 20
51.996747
 30
0.0
  0
VERTEX
  5
9785
  8
ALPHA
 10
58.76823
 20
51.994429
 30
0.0
  0
VERTEX
  5
9786
  8
ALPHA
 10
58.754661
 20
51.991792
 30
0.0
  0
SEQEND
  5
9787
  8
ALPHA
  0
POLYLINE
  5
9291
  8
ALPHA
 66
     1
 10
0.0
 20
0.0
 30
0.0
  0
VERTEX
  5
9788
  8
ALPHA
 10
58.754661
 20
51.991792
 30
0.0
  0
VERTEX
  5
9789
  8
ALPHA
 10
58.76823
 20
51.989156
 30
0.0
  0
VERTEX
  5
978A
  8
ALPHA
 10
58.807301
 20
51.986837
 30
0.0
  0
VERTEX
  5
978B
  8
ALPHA
 10
58.867161
 20
51.985116
 30
0.0
  0
VERTEX
  5
978C
  8
ALPHA
 10
58.94059
 20
51.9842
 30
0.0
  0
VERTEX
  5
978D
  8
ALPHA
 10
59.018732
 20
51.9842
 30
0.0
  0
VERTEX
  5
978E
  8
ALPHA
 10
59.092161
 20
51.985116
 30
0.0
  0
VERTEX
  5
978F
  8
ALPHA
 10
59.152021
 20
51.986837
 30
0.0
  0
VERTEX
  5
9790
  8
ALPHA
 10
59.191092
 20
51.989156
 30
0.0
  0
VERTEX
  5
9791
  8
ALPHA
 10
59.204661
 20
51.991792
 30
0.0
  0
SEQEND
  5
9792
  8
ALPHA
  0
POLYLINE
  5
9292
  8
ALPHA
 66
     1
 10
0.0
 20
0.0
 30
0.0
 70
   128
210
0.0
220
0.0
230
-1.0
  0
VERTEX
  5
9793
  8
ALPHA
 10
-58.349279
 20
54.271513
 30
0.0
  0
VERTEX
  5
9794
  8
ALPHA
 10
-58.645401
 20
53.98691
 30
0.0
  0
VERTEX
  5
9795
  8
ALPHA
 10
-58.754661
 20
53.590853
 30
0.0
  0
SEQEND
  5
9796
  8
ALPHA
  0
LINE
  5
9293
  8
ALPHA
 10
58.330408
 20
54.281415
 30
0.0
 11
58.349279
 21
54.271513
 31
0.0
  0
LINE
  5
9294
  8
ALPHA
 10
58.754661
 20
53.590853
 30
0.0
 11
58.754661
 21
51.991792
 31
0.0
  0
LINE
  5
9295
  8
ALPHA
 10
58.579661
 20
54.079613
 30
0.0
 11
58.579661
 21
53.166752
 31
0.0
  0
LINE
  5
9296
  8
ALPHA
 10
58.329661
 20
55.560685
 30
0.0
 11
57.743662
 21
55.560685
 31
0.0
  0
LINE
  5
9297
  8
ALPHA
 10
58.579661
 20
54.883667
 30
0.0
 11
58.329661
 21
54.883667
 31
0.0
  0
LINE
  5
9298
  8
ALPHA
 10
58.579661
 20
53.166746
 30
0.0
 11
58.754661
 21
53.166746
 31
0.0
  0
LINE
  5
9299
  8
ALPHA
 10
58.329661
 20
51.879152
 30
0.0
 11
56.829661
 21
51.879152
 31
0.0
  0
LINE
  5
929A
  8
ALPHA
 10
59.204661
 20
53.590853
 30
0.0
 11
59.204661
 21
51.991792
 31
0.0
  0
LINE
  5
929B
  8
ALPHA
 10
59.579661
 20
55.133667
 30
0.0
 11
60.179661
 21
55.133667
 31
0.0
  0
LINE
  5
929C
  8
ALPHA
 10
59.204661
 20
53.166746
 30
0.0
 11
59.579661
 21
53.166746
 31
0.0
  0
POLYLINE
  5
929D
  8
ALPHA
 66
     1
 10
0.0
 20
0.0
 30
0.0
  0
VERTEX
  5
9797
  8
ALPHA
 10
58.079661
 20
61.911702
 30
0.0
  0
VERTEX
  5
9798
  8
ALPHA
 10
58.209068
 20
61.905608
 30
0.0
  0
VERTEX
  5
9799
  8
ALPHA
 10
58.329653
 20
61.887743
 30
0.0
  0
VERTEX
  5
979A
  8
ALPHA
 10
58.433214
 20
61.85932
 30
0.0
  0
VERTEX
  5
979B
  8
ALPHA
 10
58.512678
 20
61.822278
 30
0.0
  0
VERTEX
  5
979C
  8
ALPHA
 10
58.562625
 20
61.779146
 30
0.0
  0
VERTEX
  5
979D
  8
ALPHA
 10
58.579661
 20
61.732859
 30
0.0
  0
SEQEND
  5
979E
  8
ALPHA
  0
LINE
  5
929E
  8
ALPHA
 10
58.329661
 20
59.083667
 30
0.0
 11
56.829661
 21
59.083667
 31
0.0
  0
LINE
  5
929F
  8
ALPHA
 10
58.579661
 20
57.383667
 30
0.0
 11
58.329661
 21
57.383667
 31
0.0
  0
LINE
  5
92A0
  8
ALPHA
 10
58.079661
 20
61.911702
 30
0.0
 11
58.079661
 21
59.083667
 31
0.0
  0
LINE
  5
92A1
  8
ALPHA
 10
59.579661
 20
57.133667
 30
0.0
 11
60.179661
 21
57.133667
 31
0.0
  0
LINE
  5
92A2
  8
ALPHA
 10
60.179661
 20
68.573186
 30
0.0
 11
60.179661
 21
66.573289
 31
0.0
  0
LINE
  5
92A3
  8
ALPHA
 10
58.379661
 20
65.073244
 30
0.0
 11
58.379661
 21
70.073231
 31
0.0
  0
LINE
  5
92A4
  8
ALPHA
 10
57.879661
 20
72.073235
 30
0.0
 11
57.879661
 21
63.073239
 31
0.0
  0
LINE
  5
92A5
  8
ALPHA
 10
58.579661
 20
66.679026
 30
0.0
 11
59.579661
 21
66.679026
 31
0.0
  0
LINE
  5
92A6
  8
ALPHA
 10
58.579661
 20
66.323237
 30
0.0
 11
58.379661
 21
66.323237
 31
0.0
  0
LINE
  5
92A7
  8
ALPHA
 10
57.879661
 20
65.073237
 30
0.0
 11
58.379661
 21
65.073237
 31
0.0
  0
LINE
  5
92A8
  8
ALPHA
 10
59.579661
 20
66.573237
 30
0.0
 11
60.179661
 21
66.573237
 31
0.0
  0
LINE
  5
92A9
  8
ALPHA
 10
58.579661
 20
70.073237
 30
0.0
 11
59.579661
 21
70.073237
 31
0.0
  0
LINE
  5
92AA
  8
ALPHA
 10
57.879661
 20
70.073237
 30
0.0
 11
58.379661
 21
70.073237
 31
0.0
  0
LINE
  5
92AB
  8
ALPHA
 10
58.579661
 20
68.823237
 30
0.0
 11
58.379661
 21
68.823237
 31
0.0
  0
LINE
  5
92AC
  8
ALPHA
 10
59.579661
 20
68.573237
 30
0.0
 11
60.179661
 21
68.573237
 31
0.0
  0
VIEWPORT
  5
494D
 67
     1
  8
0
 10
4.995325
 20
6.556512
 30
0.0
 40
22.70986
 41
13.988421
 68
    -1
 69
     1
1001
ACAD
1000
MVIEW
1002
{
1070
    16
1010
0.0
1020
0.0
1030
0.0
1010
0.0
1020
0.0
1030
1.0
1040
0.0
1040
13.988421
1040
4.995325
1040
6.556512
1040
50.0
1040
0.0
1040
0.0
1070
     0
1070
   100
1070
     1
1070
     1
1070
     0
1070
     0
1070
     0
1070
     0
1040
0.0
1040
0.0
1040
0.0
1040
10.0
1040
10.0
1040
10.0
1040
10.0
1070
     0
1002
{
1002
}
1002
}
  0
ENDSEC
  0
EOF
