999
DXF file: C:\Users\sesa551285\Box\Odette files\2022\Robustness\BIN models\REVISED\80116-401-5x.dxf
999
Pro/ENGINEER 2021284 by Parametric Technology Corporation
  0
SECTION
  2
HEADER
  9
$ACADVER
  1
AC1024
  9
$DWGCODEPAGE
  3
ANSI_1252
  9
$EXTMAX
 10
116.9291338583
 20
82.6771653543
 30
0.0
  9
$EXTMIN
 10
0.0
 20
-0.0
 30
0.0
  9
$LIMMIN
 10
0.0
 20
-0.0
  9
$LIMMAX
 10
116.9291338583
 20
82.6771653543
  9
$VIEWCTR
 10
58.4645669291
 20
41.3385826772
  9
$VIEWSIZE
 40
82.6771653543
  9
$CLAYER
  8
0
  9
$LTSCALE
 40
6.4311023622
  9
$CELTYPE
  6
BYLAYER
  9
$DIMSCALE
 40
1.0
  9
$DIMASZ
 40
0.5
  9
$DIMEXO
 40
0.0625
  9
$DIMDLI
 40
4.4433070866
  9
$DIMEXE
 40
0.125
  9
$DIMCEN
 40
1.0523622047
  9
$DIMLFAC
 40
1.0
  9
$DIMBLK
  1
_FILLED
  9
$DIMALT
 70
0
  9
$DIMALTF
 40
25.4
  9
$DIMTXT
 40
0.6
  9
$DIMTOL
 70
1
  9
$DIMLIM
 70
0
  9
$DIMTFAC
 40
1.0
  9
$DIMTP
 40
0.001
  9
$DIMTM
 40
0.001
  9
$DIMGAP
 40
0.09
  9
$DIMDSEP
 70
46
  9
$AUNITS
 70
0
  9
$PDMODE
 70
3
  9
$PDSIZE
 40
0.3125
  9
$HANDSEED
  5
8C0
  9
$TILEMODE
 70
1
  9
$MEASUREMENT
 70
0
  9
$INSUNITS
 70
1
  0
ENDSEC
  0
SECTION
  2
CLASSES
  0
CLASS
  1
ACDBDICTIONARYWDFLT
  2
AcDbDictionaryWithDefault
  3
AutoCAD 2000
 90
0
 91
1
280
0
281
0
  0
CLASS
  1
ACDBPLACEHOLDER
  2
AcDbPlaceHolder
  3
AutoCAD 2000
 90
0
 91
1
280
0
281
0
  0
CLASS
  1
LAYOUT
  2
AcDbLayout
  3
AutoCAD 2000
 90
0
 91
0
280
0
281
0
  0
CLASS
  1
TABLESTYLE
  2
AcDbTableStyle
  3
ObjectDBX Classes
 90
2047
 91
1
280
0
281
0
  0
CLASS
  1
ACAD_TABLE
  2
AcDbTable
  3
ObjectDBX Classes
 90
1025
 91
2
280
0
281
1
  0
ENDSEC
  0
SECTION
  2
TABLES
  0
TABLE
  2
VPORT
  5
8
100
AcDbSymbolTable
 70
2
  0
VPORT
  5
1F4
100
AcDbSymbolTableRecord
100
AcDbViewportTableRecord
  2
*ACTIVE
 70
0
 10
0.0
 20
0.0
 11
1.0
 21
1.0
 12
58.4645669291
 22
41.3385826772
 13
0.0
 23
0.0
 14
1.0
 24
1.0
 15
0.0
 25
0.0
 16
0.0
 26
0.0
 36
1.0
 17
0.0
 27
0.0
 37
0.0
 40
82.6771653543
 41
1.4142857143
 42
50.0
 43
0.0
 44
0.0
 50
0.0
 51
0.0
 71
0
 72
100
 73
1
 74
1
 75
0
 76
0
 77
0
 78
0
  0
ENDTAB
  0
TABLE
  2
LTYPE
  5
5
100
AcDbSymbolTable
 70
6
  0
LTYPE
  5
14
100
AcDbSymbolTableRecord
100
AcDbLinetypeTableRecord
  2
BYBLOCK
 70
0
  3

 72
65
 73
0
 40
0.0
  0
LTYPE
  5
15
100
AcDbSymbolTableRecord
100
AcDbLinetypeTableRecord
  2
BYLAYER
 70
0
  3

 72
65
 73
0
 40
0.0
  0
LTYPE
  5
16
100
AcDbSymbolTableRecord
100
AcDbLinetypeTableRecord
  2
CONTINUOUS
 70
64
  3
Solid line
 72
65
 73
0
 40
0.0
  0
LTYPE
  5
1F5
100
AcDbSymbolTableRecord
100
AcDbLinetypeTableRecord
  2
CENTER
 70
64
  3
____ _ ____ _ ____ _ ____ _ ____ _ ____ _ ____
 72
65
 73
4
 40
0.6
 49
0.375
 74
0
 49
-0.075
 74
0
 49
0.075
 74
0
 49
-0.075
 74
0
  0
LTYPE
  5
1F6
100
AcDbSymbolTableRecord
100
AcDbLinetypeTableRecord
  2
HIDDEN
 70
64
  3
- - - - - - - - - - - - - - - - - - - -
 72
65
 73
2
 40
0.2
 49
0.1
 74
0
 49
-0.1
 74
0
  0
LTYPE
  5
1F7
100
AcDbSymbolTableRecord
100
AcDbLinetypeTableRecord
  2
PHANTOM
 70
64
  3
_____ _ _ _____ _ _ _____ _ _ _____
 72
65
 73
6
 40
0.8
 49
0.45
 74
0
 49
-0.05
 74
0
 49
0.1
 74
0
 49
-0.05
 74
0
 49
0.1
 74
0
 49
-0.05
 74
0
  0
LTYPE
  5
1F8
100
AcDbSymbolTableRecord
100
AcDbLinetypeTableRecord
  2
DOT
 70
64
  3
. . . . . . . . . . . . . . . . . . . .
 72
65
 73
2
 40
0.2
 49
0.1
 74
0
 49
-0.1
 74
0
  0
LTYPE
  5
1F9
100
AcDbSymbolTableRecord
100
AcDbLinetypeTableRecord
  2
DASHED
 70
64
  3
- - - - - - - - - - - - - - - - - - - -
 72
65
 73
2
 40
0.2
 49
0.1
 74
0
 49
-0.1
 74
0
  0
ENDTAB
  0
TABLE
  2
LAYER
  5
2
100
AcDbSymbolTable
 70
36
  0
LAYER
  5
10
100
AcDbSymbolTableRecord
100
AcDbLayerTableRecord
  2
0
 70
0
 62
7
  6
CONTINUOUS
370
-3
390
F
  0
LAYER
  5
1FA
100
AcDbSymbolTableRecord
100
AcDbLayerTableRecord
  2
DEFAULT_1
 70
0
 62
7
  6
CENTER
370
-3
390
F
  0
LAYER
  5
1FB
100
AcDbSymbolTableRecord
100
AcDbLayerTableRecord
  2
DEFAULT_2
 70
0
 62
8
  6
HIDDEN
370
-3
390
F
  0
LAYER
  5
1FC
100
AcDbSymbolTableRecord
100
AcDbLayerTableRecord
  2
DEFAULT_3
 70
0
 62
7
  6
PHANTOM
370
-3
390
F
  0
LAYER
  5
1FD
100
AcDbSymbolTableRecord
100
AcDbLayerTableRecord
  2
00_COMPONENTS
 70
0
 62
7
  6
CONTINUOUS
370
-3
390
F
  0
LAYER
  5
1FE
100
AcDbSymbolTableRecord
100
AcDbLayerTableRecord
  2
01_1_DEFAULT_DATUMS
 70
0
 62
7
  6
CONTINUOUS
370
-3
390
F
  0
LAYER
  5
1FF
100
AcDbSymbolTableRecord
100
AcDbLayerTableRecord
  2
01_PLANES
 70
0
 62
7
  6
CONTINUOUS
370
-3
390
F
  0
LAYER
  5
200
100
AcDbSymbolTableRecord
100
AcDbLayerTableRecord
  2
01___PRT_ALL_DTM_PLN
 70
0
 62
7
  6
CONTINUOUS
370
-3
390
F
  0
LAYER
  5
201
100
AcDbSymbolTableRecord
100
AcDbLayerTableRecord
  2
01___PRT_DEF_DTM_PLN
 70
0
 62
7
  6
CONTINUOUS
370
-3
390
F
  0
LAYER
  5
202
100
AcDbSymbolTableRecord
100
AcDbLayerTableRecord
  2
02_COORD_SYS
 70
0
 62
7
  6
CONTINUOUS
370
-3
390
F
  0
LAYER
  5
203
100
AcDbSymbolTableRecord
100
AcDbLayerTableRecord
  2
02___PRT_ALL_AXES
 70
0
 62
7
  6
CONTINUOUS
370
-3
390
F
  0
LAYER
  5
204
100
AcDbSymbolTableRecord
100
AcDbLayerTableRecord
  2
03_ALL_AXES
 70
0
 62
7
  6
CONTINUOUS
370
-3
390
F
  0
LAYER
  5
205
100
AcDbSymbolTableRecord
100
AcDbLayerTableRecord
  2
03_AXES
 70
0
 62
7
  6
CONTINUOUS
370
-3
390
F
  0
LAYER
  5
206
100
AcDbSymbolTableRecord
100
AcDbLayerTableRecord
  2
03___PRT_ALL_CURVES
 70
0
 62
7
  6
CONTINUOUS
370
-3
390
F
  0
LAYER
  5
207
100
AcDbSymbolTableRecord
100
AcDbLayerTableRecord
  2
04_POINTS
 70
0
 62
7
  6
CONTINUOUS
370
-3
390
F
  0
LAYER
  5
208
100
AcDbSymbolTableRecord
100
AcDbLayerTableRecord
  2
04___PRT_ALL_DTM_PNT
 70
0
 62
7
  6
CONTINUOUS
370
-3
390
F
  0
LAYER
  5
209
100
AcDbSymbolTableRecord
100
AcDbLayerTableRecord
  2
05_CURVES
 70
0
 62
7
  6
CONTINUOUS
370
-3
390
F
  0
LAYER
  5
20A
100
AcDbSymbolTableRecord
100
AcDbLayerTableRecord
  2
05___PRT_ALL_DTM_CSYS
 70
0
 62
7
  6
CONTINUOUS
370
-3
390
F
  0
LAYER
  5
20B
100
AcDbSymbolTableRecord
100
AcDbLayerTableRecord
  2
05___PRT_DEF_DTM_CSYS
 70
0
 62
7
  6
CONTINUOUS
370
-3
390
F
  0
LAYER
  5
20C
100
AcDbSymbolTableRecord
100
AcDbLayerTableRecord
  2
06_SURFS
 70
0
 62
7
  6
CONTINUOUS
370
-3
390
F
  0
LAYER
  5
20D
100
AcDbSymbolTableRecord
100
AcDbLayerTableRecord
  2
06___PRT_ALL_SURFS
 70
0
 62
7
  6
CONTINUOUS
370
-3
390
F
  0
LAYER
  5
20E
100
AcDbSymbolTableRecord
100
AcDbLayerTableRecord
  2
07_COSMETICS
 70
0
 62
7
  6
CONTINUOUS
370
-3
390
F
  0
LAYER
  5
20F
100
AcDbSymbolTableRecord
100
AcDbLayerTableRecord
  2
10_NOTES
 70
0
 62
7
  6
CONTINUOUS
370
-3
390
F
  0
LAYER
  5
210
100
AcDbSymbolTableRecord
100
AcDbLayerTableRecord
  2
13_REF_GTOL
 70
0
 62
7
  6
CONTINUOUS
370
-3
390
F
  0
LAYER
  5
211
100
AcDbSymbolTableRecord
100
AcDbLayerTableRecord
  2
16_MISC
 70
0
 62
7
  6
CONTINUOUS
370
-3
390
F
  0
LAYER
  5
212
100
AcDbSymbolTableRecord
100
AcDbLayerTableRecord
  2
17_NO_PRINT
 70
0
 62
7
  6
CONTINUOUS
370
-3
390
F
  0
LAYER
  5
213
100
AcDbSymbolTableRecord
100
AcDbLayerTableRecord
  2
18_DATUM_CAMS_JOINTS
 70
0
 62
7
  6
CONTINUOUS
370
-3
390
F
  0
LAYER
  5
214
100
AcDbSymbolTableRecord
100
AcDbLayerTableRecord
  2
19_DATUM_FUNCTIONAL
 70
0
 62
7
  6
CONTINUOUS
370
-3
390
F
  0
LAYER
  5
215
100
AcDbSymbolTableRecord
100
AcDbLayerTableRecord
  2
20_DATUM_KINEMATIC_SCHEME
 70
0
 62
7
  6
CONTINUOUS
370
-3
390
F
  0
LAYER
  5
216
100
AcDbSymbolTableRecord
100
AcDbLayerTableRecord
  2
MENTION
 70
0
 62
7
  6
CONTINUOUS
370
-3
390
F
  0
ENDTAB
  0
TABLE
  2
STYLE
  5
3
100
AcDbSymbolTable
 70
1
  0
STYLE
  5
11
100
AcDbSymbolTableRecord
100
AcDbTextStyleTableRecord
  2
STANDARD
 70
0
 40
0.0
 41
0.8
 50
0.0
 71
0
 42
0.2
  3
txt
  4

  0
STYLE
  5
217
100
AcDbSymbolTableRecord
100
AcDbTextStyleTableRecord
  2
TEXTSTYLE_1
 70
0
 40
0.0
 41
0.8
 50
0.0
 71
0
 42
0.2
  3
gdt
  4

  0
STYLE
  5
218
100
AcDbSymbolTableRecord
100
AcDbTextStyleTableRecord
  2
TEXTSTYLE_2
 70
0
 40
0.0
 41
0.8
 50
0.0
 71
0
 42
0.2
  3
txt
  4

  0
STYLE
  5
219
100
AcDbSymbolTableRecord
100
AcDbTextStyleTableRecord
  2
TEXTSTYLE_3
 70
0
 40
0.0
 41
0.6
 50
0.0
 71
0
 42
0.2
  3
txt
  4

  0
STYLE
  5
21A
100
AcDbSymbolTableRecord
100
AcDbTextStyleTableRecord
  2
TEXTSTYLE_4
 70
0
 40
0.0
 41
0.6
 50
0.0
 71
0
 42
0.2
  3
txt
  4

  0
STYLE
  5
21B
100
AcDbSymbolTableRecord
100
AcDbTextStyleTableRecord
  2
TEXTSTYLE_5
 70
0
 40
0.0
 41
1.0
 50
0.0
 71
0
 42
0.2
  3
txt
  4

  0
STYLE
  5
21C
100
AcDbSymbolTableRecord
100
AcDbTextStyleTableRecord
  2
TEXTSTYLE_6
 70
0
 40
0.0
 41
0.8
 50
0.0
 71
0
 42
0.2
  3
txt
  4

  0
STYLE
  5
21D
100
AcDbSymbolTableRecord
100
AcDbTextStyleTableRecord
  2
TEXTSTYLE_7
 70
0
 40
0.0
 41
0.7
 50
0.0
 71
0
 42
0.2
  3
txt
  4

  0
STYLE
  5
21E
100
AcDbSymbolTableRecord
100
AcDbTextStyleTableRecord
  2
TEXTSTYLE_8
 70
0
 40
0.0
 41
0.8
 50
0.0
 71
0
 42
0.2
  3
txt
  4

  0
STYLE
  5
21F
100
AcDbSymbolTableRecord
100
AcDbTextStyleTableRecord
  2
TEXTSTYLE_9
 70
0
 40
0.0
 41
0.7
 50
0.0
 71
0
 42
0.2
  3
txt
  4

  0
ENDTAB
  0
TABLE
  2
VIEW
  5
6
100
AcDbSymbolTable
 70
0
  0
ENDTAB
  0
TABLE
  2
UCS
  5
7
100
AcDbSymbolTable
 70
0
  0
ENDTAB
  0
TABLE
  2
APPID
  5
9
100
AcDbSymbolTable
 70
1
  0
APPID
  5
220
100
AcDbSymbolTableRecord
100
AcDbRegAppTableRecord
  2
ACAD
 70
0
  0
ENDTAB
  0
TABLE
  2
BLOCK_RECORD
  5
1
100
AcDbSymbolTable
 70
0
  0
BLOCK_RECORD
  5
221
100
AcDbSymbolTableRecord
100
AcDbBlockTableRecord
  2
*Model_Space
  0
BLOCK_RECORD
  5
222
100
AcDbSymbolTableRecord
100
AcDbBlockTableRecord
  2
*Paper_Space
  0
BLOCK_RECORD
  5
223
100
AcDbSymbolTableRecord
100
AcDbBlockTableRecord
  2
_FILLED
  0
BLOCK_RECORD
  5
224
100
AcDbSymbolTableRecord
100
AcDbBlockTableRecord
  2
*D0
  0
BLOCK_RECORD
  5
225
100
AcDbSymbolTableRecord
100
AcDbBlockTableRecord
  2
*D1
  0
BLOCK_RECORD
  5
226
100
AcDbSymbolTableRecord
100
AcDbBlockTableRecord
  2
3RD_ANG_PIM_BL0
  0
BLOCK_RECORD
  5
227
100
AcDbSymbolTableRecord
100
AcDbBlockTableRecord
  2
*T1
  0
BLOCK_RECORD
  5
228
100
AcDbSymbolTableRecord
100
AcDbBlockTableRecord
  2
*T2
  0
ENDTAB
  0
TABLE
  2
DIMSTYLE
  5
A
100
AcDbSymbolTable
 70
1
100
AcDbDimStyleTable
 71
0
  0
DIMSTYLE
105
229
100
AcDbSymbolTableRecord
100
AcDbDimStyleTableRecord
  2
STANDARD
 70
0
  3

  4

 40
1.0
 41
0.5
 42
0.0625
 43
0.38
 44
0.125
 45
0.0
 46
0.0
 47
0.001
 48
0.001
140
0.6
141
0.09
142
0.0
143
25.4
144
1.0
145
0.0
146
1.0
147
0.09
 71
1
 72
0
 73
1
 74
1
 75
0
 76
0
 77
0
 78
4
 79
1
170
0
171
2
172
0
173
0
174
0
175
0
176
0
177
0
178
0
270
2
179
3
271
3
272
3
273
2
274
2
275
0
280
0
281
0
282
0
283
1
284
4
285
0
286
0
287
3
288
0
340
11
278
46
341
223
342
223
343
223
344
223
  0
DIMSTYLE
105
22A
100
AcDbSymbolTableRecord
100
AcDbDimStyleTableRecord
  2
DIMSTYLE_1
 70
0
  3

  4

 40
1.0
 41
0.5
 42
0.0625
 43
0.38
 44
0.125
 45
0.0
 46
0.0
 47
0.0
 48
0.0
140
0.6
141
0.09
142
0.0
143
25.4
144
1.0
145
0.0
146
1.0
147
0.03
 71
0
 72
0
 73
1
 74
1
 75
0
 76
0
 77
0
 78
4
 79
1
170
0
171
2
172
0
173
0
174
0
175
0
176
0
177
0
178
0
270
2
179
3
271
2
272
2
273
2
274
2
275
0
280
0
281
0
282
0
283
1
284
4
285
0
286
0
287
3
288
0
340
11
278
46
341
223
342
223
343
223
344
223
  0
DIMSTYLE
105
22B
100
AcDbSymbolTableRecord
100
AcDbDimStyleTableRecord
  2
DIMSTYLE_2
 70
0
  3

  4

 40
1.0
 41
0.5
 42
0.0625
 43
0.38
 44
0.125
 45
0.0
 46
0.0
 47
0.0
 48
0.0
140
0.6
141
0.09
142
0.0
143
25.4
144
1.0
145
0.0
146
1.0
147
0.06
 71
0
 72
0
 73
1
 74
1
 75
0
 76
0
 77
0
 78
4
 79
1
170
0
171
2
172
0
173
0
174
0
175
0
176
0
177
0
178
0
270
2
179
3
271
2
272
2
273
2
274
2
275
0
280
0
281
0
282
0
283
1
284
4
285
0
286
0
287
3
288
0
340
11
278
46
341
223
342
223
343
223
344
223
  0
ENDTAB
  0
ENDSEC
  0
SECTION
  2
BLOCKS
  0
BLOCK
  5
20
100
AcDbEntity
  8
0
100
AcDbBlockBegin
  2
*Model_Space
 70
0
 10
0.0
 20
0.0
 30
0.0
  3
*Model_Space
  1

  0
ENDBLK
  5
21
100
AcDbEntity
  8
0
100
AcDbBlockEnd
  0
BLOCK
  5
1C
100
AcDbEntity
  8
0
100
AcDbBlockBegin
  2
*Paper_Space
 70
0
 10
0.0
 20
0.0
 30
0.0
  3
*Paper_Space
  1

  0
ENDBLK
  5
1D
100
AcDbEntity
  8
0
100
AcDbBlockEnd
  0
BLOCK
  5
22C
100
AcDbEntity
  8
0
100
AcDbBlockBegin
 62
7
  6
CONTINUOUS
  2
3RD_ANG_PIM_BL0
 70
64
 10
80.8151158348
 20
8.6774638416
  3
3RD_ANG_PIM_BL0
  1

  0
LINE
  5
22D
100
AcDbEntity
  8
0
100
AcDbLine
 62
7
  6
CONTINUOUS
 10
80.9776158348
 20
9.1462138416
 11
82.9776158348
 21
9.4662138416
  0
LINE
  5
22E
100
AcDbEntity
  8
0
100
AcDbLine
 62
7
  6
CONTINUOUS
 10
82.9776158348
 20
7.8887138416
 11
80.9776158348
 21
8.2087138416
  0
LINE
  5
22F
100
AcDbEntity
  8
0
100
AcDbLine
 62
7
  6
CONTINUOUS
 10
82.9776158348
 20
7.8887138416
 11
82.9776158348
 21
9.4662138416
  0
CIRCLE
  5
230
100
AcDbEntity
  8
0
100
AcDbCircle
 62
7
  6
CONTINUOUS
 10
79.4963658348
 20
8.6774638416
 40
0.84375
  0
CIRCLE
  5
231
100
AcDbEntity
  8
0
100
AcDbCircle
 62
7
  6
CONTINUOUS
 10
79.4963658348
 20
8.6774638416
 40
0.46875
  0
LINE
  5
232
100
AcDbEntity
  8
0
100
AcDbLine
 62
7
  6
CONTINUOUS
 10
79.8651158348
 20
8.6774638416
 11
80.4901158348
 21
8.6774638416
  0
LINE
  5
233
100
AcDbEntity
  8
0
100
AcDbLine
 62
7
  6
CONTINUOUS
 10
79.4963658348
 20
9.0462138416
 11
79.4963658348
 21
9.6712138416
  0
LINE
  5
234
100
AcDbEntity
  8
0
100
AcDbLine
 62
7
  6
CONTINUOUS
 10
79.4963658348
 20
7.6837138416
 11
79.4963658348
 21
8.3087138416
  0
LINE
  5
235
100
AcDbEntity
  8
0
100
AcDbLine
 62
7
  6
CONTINUOUS
 10
78.5026158348
 20
8.6774638416
 11
79.1276158348
 21
8.6774638416
  0
LINE
  5
236
100
AcDbEntity
  8
0
100
AcDbLine
 62
7
  6
CONTINUOUS
 10
82.4106169045
 20
8.6774638416
 11
83.1276158348
 21
8.6774638416
  0
LINE
  5
237
100
AcDbEntity
  8
0
100
AcDbLine
 62
7
  6
CONTINUOUS
 10
81.8106169045
 20
8.6774638416
 11
82.2106169045
 21
8.6774638416
  0
LINE
  5
238
100
AcDbEntity
  8
0
100
AcDbLine
 62
7
  6
CONTINUOUS
 10
80.8276158348
 20
8.6774638416
 11
81.6106169045
 21
8.6774638416
  0
LINE
  5
239
100
AcDbEntity
  8
0
100
AcDbLine
 62
7
  6
CONTINUOUS
 10
79.4963658348
 20
8.4774638416
 11
79.4963658348
 21
8.8774638416
  0
LINE
  5
23A
100
AcDbEntity
  8
0
100
AcDbLine
 62
7
  6
CONTINUOUS
 10
79.2963658348
 20
8.6774638416
 11
79.6963658348
 21
8.6774638416
  0
LINE
  5
23B
100
AcDbEntity
  8
0
100
AcDbLine
 62
7
  6
CONTINUOUS
 10
80.9776158348
 20
9.1462138416
 11
80.9776158348
 21
8.2087138416
  0
ENDBLK
  5
23C
100
AcDbEntity
  8
0
  6
BYBLOCK
 62
0
100
AcDbBlockEnd
  0
BLOCK
  5
23D
100
AcDbEntity
  8
0
100
AcDbBlockBegin
  2
_FILLED
 70
64
 10
0.0
 20
0.0
  3
_FILLED
  1

  0
SOLID
  5
23E
100
AcDbEntity
  8
0
  6
BYBLOCK
 62
0
100
AcDbTrace
 10
0.0
 20
0.0
 11
-1.0
 21
0.195
 12
-1.0
 22
-0.195
 13
-1.0
 23
-0.195
  0
ENDBLK
  5
23F
100
AcDbEntity
  8
0
  6
BYBLOCK
 62
0
100
AcDbBlockEnd
  0
BLOCK
  5
240
100
AcDbEntity
  8
0
100
AcDbBlockBegin
 62
2
  6
CONTINUOUS
  2
*D0
 70
65
 10
0.0
 20
0.0
  3
*D0
  1

  0
MTEXT
  5
241
100
AcDbEntity
  8
0
100
AcDbMText
 62
2
  6
CONTINUOUS
  7
STANDARD
 71
2
 72
1
 10
97.1298008388
 20
52.1848857497
 30
0.0
 11
0.0
 21
1.0
 31
0.0
 73
2
 44
0.9
  1
11.50 REF\POUTSIDE DIM
 40
0.6
 41
5.28
  0
LINE
  5
242
100
AcDbEntity
  8
0
100
AcDbLine
 62
2
  6
CONTINUOUS
 10
77.0024078358
 20
57.9348857497
 11
98.5048008388
 21
57.9348857497
  0
LINE
  5
243
100
AcDbEntity
  8
0
100
AcDbLine
 62
2
  6
CONTINUOUS
 10
77.0024078358
 20
46.4348857497
 11
98.5048008388
 21
46.4348857497
  0
LINE
  5
244
100
AcDbEntity
  8
0
100
AcDbLine
 62
2
  6
CONTINUOUS
 10
97.8798008388
 20
57.9348857497
 11
97.8798008388
 21
52.1848857497
  0
LINE
  5
245
100
AcDbEntity
  8
0
100
AcDbLine
 62
2
  6
CONTINUOUS
 10
97.8798008388
 20
46.4348857497
 11
97.8798008388
 21
52.1848857497
  0
INSERT
  5
246
100
AcDbEntity
  8
0
100
AcDbBlockReference
 62
2
  6
CONTINUOUS
  2
_FILLED
 10
97.8798008388
 20
57.9348857497
 41
0.5
 42
0.5
 43
0.5
 50
90.0
  0
INSERT
  5
247
100
AcDbEntity
  8
0
100
AcDbBlockReference
 62
2
  6
CONTINUOUS
  2
_FILLED
 10
97.8798008388
 20
46.4348857497
 41
0.5
 42
0.5
 43
0.5
 50
270.0
  0
ENDBLK
  5
248
100
AcDbEntity
  8
0
  6
BYBLOCK
 62
0
100
AcDbBlockEnd
  0
BLOCK
  5
249
100
AcDbEntity
  8
0
100
AcDbBlockBegin
 62
2
  6
CONTINUOUS
  2
*D1
 70
65
 10
0.0
 20
0.0
  3
*D1
  1

  0
MTEXT
  5
24A
100
AcDbEntity
  8
0
100
AcDbMText
 62
2
  6
CONTINUOUS
  7
STANDARD
 71
2
 72
1
 10
57.0084078358
 20
71.4946836753
 30
0.0
 11
1.0
 21
0.0
 31
0.0
 73
2
 44
0.9
  1
D REF
 40
0.6
 41
2.4
  0
LINE
  5
24B
100
AcDbEntity
  8
0
100
AcDbLine
 62
2
  6
CONTINUOUS
 10
37.1699078358
 20
58.2473857497
 11
37.1699078358
 21
70.8946836753
  0
LINE
  5
24C
100
AcDbEntity
  8
0
100
AcDbLine
 62
2
  6
CONTINUOUS
 10
37.1699078358
 20
70.8946836753
 11
37.1699078358
 21
71.8196836753
  0
LINE
  5
24D
100
AcDbEntity
  8
0
100
AcDbLine
 62
2
  6
CONTINUOUS
 10
76.8469078358
 20
58.2473857497
 11
76.8469078358
 21
70.8946836753
  0
LINE
  5
24E
100
AcDbEntity
  8
0
100
AcDbLine
 62
2
  6
CONTINUOUS
 10
76.8469078358
 20
70.8946836753
 11
76.8469078358
 21
71.8196836753
  0
LINE
  5
24F
100
AcDbEntity
  8
0
100
AcDbLine
 62
2
  6
CONTINUOUS
 10
37.1699078358
 20
71.1946836753
 11
55.5084078358
 21
71.1946836753
  0
LINE
  5
250
100
AcDbEntity
  8
0
100
AcDbLine
 62
2
  6
CONTINUOUS
 10
76.8469078358
 20
71.1946836753
 11
58.5084078358
 21
71.1946836753
  0
INSERT
  5
251
100
AcDbEntity
  8
0
100
AcDbBlockReference
 62
2
  6
CONTINUOUS
  2
_FILLED
 10
37.1699078358
 20
71.1946836753
 41
0.5
 42
0.5
 43
0.5
 50
180.0
  0
INSERT
  5
252
100
AcDbEntity
  8
0
100
AcDbBlockReference
 62
2
  6
CONTINUOUS
  2
_FILLED
 10
76.8469078358
 20
71.1946836753
 41
0.5
 42
0.5
 43
0.5
  0
ENDBLK
  5
253
100
AcDbEntity
  8
0
  6
BYBLOCK
 62
0
100
AcDbBlockEnd
  0
BLOCK
  5
254
100
AcDbEntity
  8
0
100
AcDbBlockBegin
  2
*T1
 70
1
 10
0.0
 20
0.0
  3
*T1
  1

  0
LINE
  5
255
100
AcDbEntity
  8
0
100
AcDbLine
 62
2
  6
CONTINUOUS
 10
0.0
 20
0.0
 11
37.0078740157
 21
0.0
  0
LINE
  5
256
100
AcDbEntity
  8
0
100
AcDbLine
 62
2
  6
CONTINUOUS
 10
0.0
 20
0.0
 11
0.0
 21
8.9547244094
  0
LINE
  5
257
100
AcDbEntity
  8
0
100
AcDbLine
 62
2
  6
CONTINUOUS
 10
0.0
 20
1.6732283465
 11
37.0078740157
 21
1.6732283465
  0
LINE
  5
258
100
AcDbEntity
  8
0
100
AcDbLine
 62
2
  6
CONTINUOUS
 10
9.842519685
 20
3.8385826772
 11
37.0078740157
 21
3.8385826772
  0
LINE
  5
259
100
AcDbEntity
  8
0
100
AcDbLine
 62
2
  6
CONTINUOUS
 10
0.0
 20
6.3976377953
 11
37.0078740157
 21
6.3976377953
  0
LINE
  5
25A
100
AcDbEntity
  8
0
100
AcDbLine
 62
2
  6
CONTINUOUS
 10
0.0
 20
8.9547244094
 11
37.0078740157
 21
8.9547244094
  0
LINE
  5
25B
100
AcDbEntity
  8
0
100
AcDbLine
 62
2
  6
CONTINUOUS
 10
5.905511811
 20
6.3976377953
 11
5.905511811
 21
8.9547244094
  0
LINE
  5
25C
100
AcDbEntity
  8
0
100
AcDbLine
 62
2
  6
CONTINUOUS
 10
9.842519685
 20
1.6732283465
 11
9.842519685
 21
8.9547244094
  0
LINE
  5
25D
100
AcDbEntity
  8
0
100
AcDbLine
 62
2
  6
CONTINUOUS
 10
16.7322834646
 20
0.0
 11
16.7322834646
 21
1.6732283465
  0
LINE
  5
25E
100
AcDbEntity
  8
0
100
AcDbLine
 62
2
  6
CONTINUOUS
 10
30.2165354331
 20
1.6732283465
 11
30.2165354331
 21
3.8385826772
  0
LINE
  5
25F
100
AcDbEntity
  8
0
100
AcDbLine
 62
2
  6
CONTINUOUS
 10
30.2165354331
 20
6.3976377953
 11
30.2165354331
 21
8.9547244094
  0
LINE
  5
260
100
AcDbEntity
  8
0
100
AcDbLine
 62
2
  6
CONTINUOUS
 10
33.6122047244
 20
1.6732283465
 11
33.6122047244
 21
3.8385826772
  0
LINE
  5
261
100
AcDbEntity
  8
0
100
AcDbLine
 62
2
  6
CONTINUOUS
 10
37.0078740157
 20
0.0
 11
37.0078740157
 21
8.9547244094
  0
MTEXT
  5
262
100
AcDbEntity
  8
0
100
AcDbMText
 62
2
  6
CONTINUOUS
  7
TEXTSTYLE_4
 71
1
 72
1
 10
16.7445866142
 20
1.4778069678
 30
0.0
 11
1.0
 21
0.0
 31
0.0
 73
2
 44
0.9
  1
\Q10.0; State:
 40
0.4527559055
 41
4.2472815898
  0
MTEXT
  5
263
100
AcDbEntity
  8
0
100
AcDbMText
 62
2
  6
CONTINUOUS
  7
TEXTSTYLE_5
 71
2
 72
1
 10
20.0295275591
 20
2.7405265748
 30
0.0
 11
1.0
 21
0.0
 31
0.0
 73
2
 44
0.9
  1
80116-401-5X
 40
0.7874015748
 41
13.7795275591
  0
MTEXT
  5
264
100
AcDbEntity
  8
0
100
AcDbMText
 62
2
  6
CONTINUOUS
  7
TEXTSTYLE_5
 71
2
 72
1
 10
31.9143700787
 20
2.7405265748
 30
0.0
 11
1.0
 21
0.0
 31
0.0
 73
2
 44
0.9
  1
04
 40
0.7874015748
 41
3.0183727034
  0
MTEXT
  5
265
100
AcDbEntity
  8
0
100
AcDbMText
 62
2
  6
CONTINUOUS
  7
TEXTSTYLE_6
 71
2
 72
1
 10
35.3100393701
 20
2.5098425197
 30
0.0
 11
1.0
 21
0.0
 31
0.0
 73
2
 44
0.9
  1
2/2
 40
0.5905511811
 41
2.9808773903
  0
MTEXT
  5
266
100
AcDbEntity
  8
0
100
AcDbMText
 62
2
  6
CONTINUOUS
  7
TEXTSTYLE_7
 71
1
 72
1
 10
9.8548228346
 20
3.5201298024
 30
0.0
 11
1.0
 21
0.0
 31
0.0
 73
2
 44
0.9
  1
\Q10.0; Document Number:
 40
0.4527559055
 41
11.3404574428
  0
MTEXT
  5
267
100
AcDbEntity
  8
0
100
AcDbMText
 62
2
  6
CONTINUOUS
  7
TEXTSTYLE_4
 71
1
 72
1
 10
30.2288385827
 20
3.5201298024
 30
0.0
 11
1.0
 21
0.0
 31
0.0
 73
2
 44
0.9
  1
\Q10.0; Doc. Rev.
 40
0.4527559055
 41
6.6835395576
  0
MTEXT
  5
268
100
AcDbEntity
  8
0
100
AcDbMText
 62
2
  6
CONTINUOUS
  7
TEXTSTYLE_7
 71
1
 72
1
 10
33.624507874
 20
3.5201298024
 30
0.0
 11
1.0
 21
0.0
 31
0.0
 73
2
 44
0.9
  1
\Q10.0; Sheet: 
 40
0.4527559055
 41
5.0881139858
  0
MTEXT
  5
269
100
AcDbEntity
  8
0
100
AcDbMText
 62
2
  6
CONTINUOUS
  7
TEXTSTYLE_8
 71
1
 72
1
 10
9.8548228346
 20
4.7736220472
 30
0.0
 11
1.0
 21
0.0
 31
0.0
 73
2
 44
0.9
  1
 NEMA 3R D9 VENTED ENCLOSURES
 40
0.5905511811
 41
26.5748031496
  0
MTEXT
  5
26A
100
AcDbEntity
  8
0
100
AcDbMText
 62
2
  6
CONTINUOUS
  7
TEXTSTYLE_9
 71
1
 72
1
 10
9.8548228346
 20
5.9807597237
 30
0.0
 11
1.0
 21
0.0
 31
0.0
 73
2
 44
0.9
  1
\Q10.0; \Q0.0;CUSTOMER DRAWING
 40
0.4527559055
 41
10.7755905512
  0
MTEXT
  5
26B
100
AcDbEntity
  8
0
100
AcDbMText
 62
2
  6
CONTINUOUS
  7
TEXTSTYLE_6
 71
1
 72
1
 10
5.9178149606
 20
7.9714566929
 30
0.0
 11
1.0
 21
0.0
 31
0.0
 73
2
 44
0.9
  1
 0.200
 40
0.5905511811
 41
5.5399325084
  0
MTEXT
  5
26C
100
AcDbEntity
  8
0
100
AcDbMText
 62
2
  6
CONTINUOUS
  7
TEXTSTYLE_7
 71
2
 72
1
 10
33.6122047244
 20
7.9222440945
 30
0.0
 11
1.0
 21
0.0
 31
0.0
 73
2
 44
0.9
  1
in
 40
0.4921259843
 41
1.4060742407
  0
MTEXT
  5
26D
100
AcDbEntity
  8
0
100
AcDbMText
 62
2
  6
CONTINUOUS
  7
TEXTSTYLE_4
 71
1
 72
1
 10
5.9178149606
 20
8.751429015
 30
0.0
 11
1.0
 21
0.0
 31
0.0
 73
2
 44
0.9
  1
\Q10.0; Scale:
 40
0.4527559055
 41
4.2472815898
  0
MTEXT
  5
26E
100
AcDbEntity
  8
0
100
AcDbMText
 62
2
  6
CONTINUOUS
  7
TEXTSTYLE_4
 71
1
 72
1
 10
9.8548228346
 20
8.751429015
 30
0.0
 11
1.0
 21
0.0
 31
0.0
 73
2
 44
0.9
  1
\Q10.0; Technical Specification:
 40
0.4527559055
 41
14.9409448819
  0
MTEXT
  5
26F
100
AcDbEntity
  8
0
100
AcDbMText
 62
2
  6
CONTINUOUS
  7
TEXTSTYLE_4
 71
1
 72
1
 10
30.2288385827
 20
8.751429015
 30
0.0
 11
1.0
 21
0.0
 31
0.0
 73
2
 44
0.9
  1
\Q10.0; Units of measure :
 40
0.4527559055
 41
12.1597300337
  0
ENDBLK
  5
270
100
AcDbEntity
  8
0
  6
BYBLOCK
 62
0
100
AcDbBlockEnd
  0
BLOCK
  5
271
100
AcDbEntity
  8
0
100
AcDbBlockBegin
  2
*T2
 70
1
 10
0.0
 20
0.0
  3
*T2
  1

  0
LINE
  5
272
100
AcDbEntity
  8
0
100
AcDbLine
 62
2
  6
CONTINUOUS
 10
0.0
 20
0.0
 11
10.56
 21
0.0
  0
LINE
  5
273
100
AcDbEntity
  8
0
100
AcDbLine
 62
2
  6
CONTINUOUS
 10
0.0
 20
0.0
 11
0.0
 21
-8.4
  0
LINE
  5
274
100
AcDbEntity
  8
0
100
AcDbLine
 62
2
  6
CONTINUOUS
 10
0.0
 20
-1.2
 11
10.56
 21
-1.2
  0
LINE
  5
275
100
AcDbEntity
  8
0
100
AcDbLine
 62
2
  6
CONTINUOUS
 10
0.0
 20
-2.4
 11
10.56
 21
-2.4
  0
LINE
  5
276
100
AcDbEntity
  8
0
100
AcDbLine
 62
2
  6
CONTINUOUS
 10
0.0
 20
-3.6
 11
10.56
 21
-3.6
  0
LINE
  5
277
100
AcDbEntity
  8
0
100
AcDbLine
 62
2
  6
CONTINUOUS
 10
0.0
 20
-4.8
 11
10.56
 21
-4.8
  0
LINE
  5
278
100
AcDbEntity
  8
0
100
AcDbLine
 62
2
  6
CONTINUOUS
 10
0.0
 20
-6.0
 11
10.56
 21
-6.0
  0
LINE
  5
279
100
AcDbEntity
  8
0
100
AcDbLine
 62
2
  6
CONTINUOUS
 10
0.0
 20
-7.2
 11
10.56
 21
-7.2
  0
LINE
  5
27A
100
AcDbEntity
  8
0
100
AcDbLine
 62
2
  6
CONTINUOUS
 10
0.0
 20
-8.4
 11
10.56
 21
-8.4
  0
LINE
  5
27B
100
AcDbEntity
  8
0
100
AcDbLine
 62
2
  6
CONTINUOUS
 10
7.2
 20
0.0
 11
7.2
 21
-8.4
  0
LINE
  5
27C
100
AcDbEntity
  8
0
100
AcDbLine
 62
2
  6
CONTINUOUS
 10
10.56
 20
0.0
 11
10.56
 21
-8.4
  0
MTEXT
  5
27D
100
AcDbEntity
  8
0
100
AcDbMText
 62
2
  6
CONTINUOUS
  7
STANDARD
 71
2
 72
1
 10
3.6
 20
-0.3
 30
0.0
 11
1.0
 21
0.0
 31
0.0
 73
2
 44
0.9
  1
CAT. NO.
 40
0.6
 41
7.68
  0
MTEXT
  5
27E
100
AcDbEntity
  8
0
100
AcDbMText
 62
2
  6
CONTINUOUS
  7
STANDARD
 71
2
 72
1
 10
8.88
 20
-0.3
 30
0.0
 11
1.0
 21
0.0
 31
0.0
 73
2
 44
0.9
  1
D
 40
0.6
 41
0.96
  0
MTEXT
  5
27F
100
AcDbEntity
  8
0
100
AcDbMText
 62
2
  6
CONTINUOUS
  7
STANDARD
 71
2
 72
1
 10
3.6
 20
-1.5
 30
0.0
 11
1.0
 21
0.0
 31
0.0
 73
2
 44
0.9
  1
MH62D9VWP
 40
0.6
 41
8.64
  0
MTEXT
  5
280
100
AcDbEntity
  8
0
100
AcDbMText
 62
2
  6
CONTINUOUS
  7
STANDARD
 71
2
 72
1
 10
8.88
 20
-1.5
 30
0.0
 11
1.0
 21
0.0
 31
0.0
 73
2
 44
0.9
  1
39.68
 40
0.6
 41
4.8
  0
MTEXT
  5
281
100
AcDbEntity
  8
0
100
AcDbMText
 62
2
  6
CONTINUOUS
  7
STANDARD
 71
2
 72
1
 10
3.6
 20
-2.7
 30
0.0
 11
1.0
 21
0.0
 31
0.0
 73
2
 44
0.9
  1
MH68D9VWP
 40
0.6
 41
8.64
  0
MTEXT
  5
282
100
AcDbEntity
  8
0
100
AcDbMText
 62
2
  6
CONTINUOUS
  7
STANDARD
 71
2
 72
1
 10
8.88
 20
-2.7
 30
0.0
 11
1.0
 21
0.0
 31
0.0
 73
2
 44
0.9
  1
45.68
 40
0.6
 41
4.8
  0
MTEXT
  5
283
100
AcDbEntity
  8
0
100
AcDbMText
 62
2
  6
CONTINUOUS
  7
STANDARD
 71
2
 72
1
 10
3.6
 20
-3.9
 30
0.0
 11
1.0
 21
0.0
 31
0.0
 73
2
 44
0.9
  1
MH74D9VWP
 40
0.6
 41
8.64
  0
MTEXT
  5
284
100
AcDbEntity
  8
0
100
AcDbMText
 62
2
  6
CONTINUOUS
  7
STANDARD
 71
2
 72
1
 10
8.88
 20
-3.9
 30
0.0
 11
1.0
 21
0.0
 31
0.0
 73
2
 44
0.9
  1
51.68
 40
0.6
 41
4.8
  0
MTEXT
  5
285
100
AcDbEntity
  8
0
100
AcDbMText
 62
2
  6
CONTINUOUS
  7
STANDARD
 71
2
 72
1
 10
3.6
 20
-5.1
 30
0.0
 11
1.0
 21
0.0
 31
0.0
 73
2
 44
0.9
  1
MH80D9VWP
 40
0.6
 41
8.64
  0
MTEXT
  5
286
100
AcDbEntity
  8
0
100
AcDbMText
 62
2
  6
CONTINUOUS
  7
STANDARD
 71
2
 72
1
 10
8.88
 20
-5.1
 30
0.0
 11
1.0
 21
0.0
 31
0.0
 73
2
 44
0.9
  1
57.68
 40
0.6
 41
4.8
  0
MTEXT
  5
287
100
AcDbEntity
  8
0
100
AcDbMText
 62
2
  6
CONTINUOUS
  7
STANDARD
 71
2
 72
1
 10
3.6
 20
-6.3
 30
0.0
 11
1.0
 21
0.0
 31
0.0
 73
2
 44
0.9
  1
MH86D9VWP
 40
0.6
 41
8.64
  0
MTEXT
  5
288
100
AcDbEntity
  8
0
100
AcDbMText
 62
2
  6
CONTINUOUS
  7
STANDARD
 71
2
 72
1
 10
8.88
 20
-6.3
 30
0.0
 11
1.0
 21
0.0
 31
0.0
 73
2
 44
0.9
  1
63.68
 40
0.6
 41
4.8
  0
MTEXT
  5
289
100
AcDbEntity
  8
0
100
AcDbMText
 62
2
  6
CONTINUOUS
  7
STANDARD
 71
2
 72
1
 10
3.6
 20
-7.5
 30
0.0
 11
1.0
 21
0.0
 31
0.0
 73
2
 44
0.9
  1
MH92D9VWP
 40
0.6
 41
8.64
  0
MTEXT
  5
28A
100
AcDbEntity
  8
0
100
AcDbMText
 62
2
  6
CONTINUOUS
  7
STANDARD
 71
2
 72
1
 10
8.88
 20
-7.5
 30
0.0
 11
1.0
 21
0.0
 31
0.0
 73
2
 44
0.9
  1
69.68
 40
0.6
 41
4.8
  0
ENDBLK
  5
28B
100
AcDbEntity
  8
0
  6
BYBLOCK
 62
0
100
AcDbBlockEnd
  0
ENDSEC
  0
SECTION
  2
ENTITIES
  0
MTEXT
  5
28C
100
AcDbEntity
  8
0
100
AcDbMText
 62
2
  6
CONTINUOUS
  7
TEXTSTYLE_2
 71
3
 72
1
 10
116.0344218325
 20
0.6584978204
 30
0.0
 11
1.0
 21
0.0
 31
0.0
 73
2
 44
0.9
  1
\Q-0.019003;Original format A2
 40
0.3149606299
 41
8.4494245912
  0
MTEXT
  5
28D
100
AcDbEntity
  8
0
100
AcDbMText
 62
2
  6
CONTINUOUS
  7
TEXTSTYLE_3
 71
1
 72
1
 10
7.1301606577
 20
0.4767868146
 30
0.0
 11
1.0
 21
0.0
 31
0.0
 73
2
 44
0.9
  1
\Q-0.0189848138;1
 40
0.3937007874
 41
0.2725620836
  0
MTEXT
  5
28E
100
AcDbEntity
  8
0
100
AcDbMText
 62
2
  6
CONTINUOUS
  7
TEXTSTYLE_3
 71
1
 72
1
 10
80.2108693191
 20
0.4767868146
 30
0.0
 11
1.0
 21
0.0
 31
0.0
 73
2
 44
0.9
  1
\Q-0.0189848138;6
 40
0.3937007874
 41
0.7949727438
  0
MTEXT
  5
28F
100
AcDbEntity
  8
0
100
AcDbMText
 62
2
  6
CONTINUOUS
  7
TEXTSTYLE_3
 71
1
 72
1
 10
94.8270110514
 20
0.4767868146
 30
0.0
 11
1.0
 21
0.0
 31
0.0
 73
2
 44
0.9
  1
\Q-0.0189848138;7
 40
0.3937007874
 41
0.7268322229
  0
MTEXT
  5
290
100
AcDbEntity
  8
0
100
AcDbMText
 62
2
  6
CONTINUOUS
  7
TEXTSTYLE_3
 71
1
 72
1
 10
21.74630239
 20
0.4767868146
 30
0.0
 11
1.0
 21
0.0
 31
0.0
 73
2
 44
0.9
  1
\Q-0.0189848138;2
 40
0.3937007874
 41
0.7268322229
  0
MTEXT
  5
291
100
AcDbEntity
  8
0
100
AcDbMText
 62
2
  6
CONTINUOUS
  7
TEXTSTYLE_3
 71
1
 72
1
 10
36.3624441223
 20
0.4767868146
 30
0.0
 11
1.0
 21
0.0
 31
0.0
 73
2
 44
0.9
  1
\Q-0.0189848138;3
 40
0.3937007874
 41
0.7268322229
  0
MTEXT
  5
292
100
AcDbEntity
  8
0
100
AcDbMText
 62
2
  6
CONTINUOUS
  7
TEXTSTYLE_3
 71
1
 72
1
 10
7.1301606577
 20
81.3822986256
 30
0.0
 11
1.0
 21
0.0
 31
0.0
 73
2
 44
0.9
  1
\Q-0.0189848138;1
 40
0.3937007874
 41
0.2725620836
  0
MTEXT
  5
293
100
AcDbEntity
  8
0
100
AcDbMText
 62
2
  6
CONTINUOUS
  7
TEXTSTYLE_3
 71
1
 72
1
 10
21.74630239
 20
81.3822986256
 30
0.0
 11
1.0
 21
0.0
 31
0.0
 73
2
 44
0.9
  1
\Q-0.0189848138;2
 40
0.3937007874
 41
0.7268322229
  0
MTEXT
  5
294
100
AcDbEntity
  8
0
100
AcDbMText
 62
2
  6
CONTINUOUS
  7
TEXTSTYLE_3
 71
1
 72
1
 10
36.3624441223
 20
81.3822986256
 30
0.0
 11
1.0
 21
0.0
 31
0.0
 73
2
 44
0.9
  1
\Q-0.0189848138;3
 40
0.3937007874
 41
0.7268322229
  0
MTEXT
  5
295
100
AcDbEntity
  8
0
100
AcDbMText
 62
2
  6
CONTINUOUS
  7
TEXTSTYLE_3
 71
1
 72
1
 10
50.9785858546
 20
81.3822986256
 30
0.0
 11
1.0
 21
0.0
 31
0.0
 73
2
 44
0.9
  1
\Q-0.0189848138;4
 40
0.3937007874
 41
0.8176862508
  0
MTEXT
  5
296
100
AcDbEntity
  8
0
100
AcDbMText
 62
2
  6
CONTINUOUS
  7
TEXTSTYLE_3
 71
1
 72
1
 10
65.5947275868
 20
81.3822986256
 30
0.0
 11
1.0
 21
0.0
 31
0.0
 73
2
 44
0.9
  1
\Q-0.0189848138;5
 40
0.3937007874
 41
0.7268322229
  0
MTEXT
  5
297
100
AcDbEntity
  8
0
100
AcDbMText
 62
2
  6
CONTINUOUS
  7
TEXTSTYLE_3
 71
1
 72
1
 10
80.2108693191
 20
81.3822986256
 30
0.0
 11
1.0
 21
0.0
 31
0.0
 73
2
 44
0.9
  1
\Q-0.0189848138;6
 40
0.3937007874
 41
0.7949727438
  0
MTEXT
  5
298
100
AcDbEntity
  8
0
100
AcDbMText
 62
2
  6
CONTINUOUS
  7
TEXTSTYLE_3
 71
1
 72
1
 10
94.8270110514
 20
81.3822986256
 30
0.0
 11
1.0
 21
0.0
 31
0.0
 73
2
 44
0.9
  1
\Q-0.0189848138;7
 40
0.3937007874
 41
0.7268322229
  0
MTEXT
  5
299
100
AcDbEntity
  8
0
100
AcDbMText
 62
2
  6
CONTINUOUS
  7
TEXTSTYLE_3
 71
1
 72
1
 10
109.4431527837
 20
81.3822986256
 30
0.0
 11
1.0
 21
0.0
 31
0.0
 73
2
 44
0.9
  1
\Q-0.0189848138;8
 40
0.3937007874
 41
0.7268322229
  0
MTEXT
  5
29A
100
AcDbEntity
  8
0
100
AcDbMText
 62
2
  6
CONTINUOUS
  7
TEXTSTYLE_3
 71
1
 72
1
 10
1.2202756078
 20
76.1659600351
 30
0.0
 11
1.0
 21
0.0
 31
0.0
 73
2
 44
0.9
  1
\Q-0.0189848138;A
 40
0.3937007874
 41
0.8176862508
  0
MTEXT
  5
29B
100
AcDbEntity
  8
0
100
AcDbMText
 62
2
  6
CONTINUOUS
  7
TEXTSTYLE_3
 71
1
 72
1
 10
1.2202756078
 20
62.3864324761
 30
0.0
 11
1.0
 21
0.0
 31
0.0
 73
2
 44
0.9
  1
\Q-0.0189848138;B
 40
0.3937007874
 41
0.7268322229
  0
MTEXT
  5
29C
100
AcDbEntity
  8
0
100
AcDbMText
 62
2
  6
CONTINUOUS
  7
TEXTSTYLE_3
 71
1
 72
1
 10
1.2202756078
 20
48.606904917
 30
0.0
 11
1.0
 21
0.0
 31
0.0
 73
2
 44
0.9
  1
\Q-0.0189848138;C
 40
0.3937007874
 41
0.7722592368
  0
MTEXT
  5
29D
100
AcDbEntity
  8
0
100
AcDbMText
 62
2
  6
CONTINUOUS
  7
TEXTSTYLE_3
 71
1
 72
1
 10
1.2202756078
 20
34.827377358
 30
0.0
 11
1.0
 21
0.0
 31
0.0
 73
2
 44
0.9
  1
\Q-0.0189848138;D
 40
0.3937007874
 41
0.7268322229
  0
MTEXT
  5
29E
100
AcDbEntity
  8
0
100
AcDbMText
 62
2
  6
CONTINUOUS
  7
TEXTSTYLE_3
 71
1
 72
1
 10
1.2202756078
 20
21.0478497989
 30
0.0
 11
1.0
 21
0.0
 31
0.0
 73
2
 44
0.9
  1
\Q-0.0189848138;E
 40
0.3937007874
 41
0.7268322229
  0
MTEXT
  5
29F
100
AcDbEntity
  8
0
100
AcDbMText
 62
2
  6
CONTINUOUS
  7
TEXTSTYLE_3
 71
1
 72
1
 10
1.2202756078
 20
7.2683222399
 30
0.0
 11
1.0
 21
0.0
 31
0.0
 73
2
 44
0.9
  1
\Q-0.0189848138;F
 40
0.3937007874
 41
0.7268322229
  0
MTEXT
  5
2A0
100
AcDbEntity
  8
0
100
AcDbMText
 62
2
  6
CONTINUOUS
  7
TEXTSTYLE_3
 71
1
 72
1
 10
115.3541338661
 20
76.1659600351
 30
0.0
 11
1.0
 21
0.0
 31
0.0
 73
2
 44
0.9
  1
\Q-0.0189848138;A
 40
0.3937007874
 41
0.8176862508
  0
MTEXT
  5
2A1
100
AcDbEntity
  8
0
100
AcDbMText
 62
2
  6
CONTINUOUS
  7
TEXTSTYLE_3
 71
1
 72
1
 10
115.3541338661
 20
62.3864324761
 30
0.0
 11
1.0
 21
0.0
 31
0.0
 73
2
 44
0.9
  1
\Q-0.0189848138;B
 40
0.3937007874
 41
0.7268322229
  0
MTEXT
  5
2A2
100
AcDbEntity
  8
0
100
AcDbMText
 62
2
  6
CONTINUOUS
  7
TEXTSTYLE_3
 71
1
 72
1
 10
115.3541338661
 20
48.606904917
 30
0.0
 11
1.0
 21
0.0
 31
0.0
 73
2
 44
0.9
  1
\Q-0.0189848138;C
 40
0.3937007874
 41
0.7722592368
  0
MTEXT
  5
2A3
100
AcDbEntity
  8
0
100
AcDbMText
 62
2
  6
CONTINUOUS
  7
TEXTSTYLE_3
 71
1
 72
1
 10
115.3541338661
 20
34.827377358
 30
0.0
 11
1.0
 21
0.0
 31
0.0
 73
2
 44
0.9
  1
\Q-0.0189848138;D
 40
0.3937007874
 41
0.7268322229
  0
MTEXT
  5
2A4
100
AcDbEntity
  8
0
100
AcDbMText
 62
2
  6
CONTINUOUS
  7
TEXTSTYLE_3
 71
1
 72
1
 10
115.3541338661
 20
21.0478497989
 30
0.0
 11
1.0
 21
0.0
 31
0.0
 73
2
 44
0.9
  1
\Q-0.0189848138;E
 40
0.3937007874
 41
0.7268322229
  0
MTEXT
  5
2A5
100
AcDbEntity
  8
0
100
AcDbMText
 62
2
  6
CONTINUOUS
  7
TEXTSTYLE_3
 71
1
 72
1
 10
115.3541338661
 20
7.2683222399
 30
0.0
 11
1.0
 21
0.0
 31
0.0
 73
2
 44
0.9
  1
\Q-0.0189848138;F
 40
0.3937007874
 41
0.7268322229
  0
INSERT
  5
2A6
100
AcDbEntity
  8
0
100
AcDbBlockReference
 62
7
  6
CONTINUOUS
  2
3RD_ANG_PIM_BL0
 10
80.8151158348
 20
8.6774638416
  0
DIMENSION
  5
2A7
100
AcDbEntity
  8
0
100
AcDbDimension
 62
2
  6
CONTINUOUS
  2
*D0
 10
97.8798008388
 20
46.4348857497
 11
97.8798008388
 21
52.1848857497
 70
160
 71
2
 72
2
 41
0.9
 42
11.5
  1
<> REF\POUTSIDE DIM
  3
DIMSTYLE_1
100
AcDbAlignedDimension
 13
76.9399078358
 23
57.9348857497
 14
76.9399078358
 24
46.4348857497
 50
270.0
100
AcDbRotatedDimension
1001
ACAD
1000
DSTYLE
1002
{
1070
73
1070
0
1070
74
1070
0
1070
77
1070
1
1002
}
  0
DIMENSION
  5
2A8
100
AcDbEntity
  8
0
100
AcDbDimension
 62
2
  6
CONTINUOUS
  2
*D1
 10
76.8469078358
 20
71.1946836753
 11
57.0084088303
 21
71.1946820717
 70
160
 71
2
 72
2
 41
0.9
 42
39.677
  1
D REF
  3
DIMSTYLE_2
100
AcDbAlignedDimension
 13
37.1699078358
 23
58.1848857497
 14
76.8469078358
 24
58.1848857497
100
AcDbRotatedDimension
  0
ACAD_TABLE
  5
2A9
100
AcDbEntity
  8
0
 62
2
  6
CONTINUOUS
100
AcDbBlockReference
  2
*T1
 10
77.7559055118
 20
0.9842519685
 30
0.0
100
AcDbTable
342
       8BF
343
227
 11
1.0
 21
0.0
 31
0.0
 90
6
 91
9
 92
8
 93
4
 94
0
 95
0
 96
0
 70
1
141
0.8366141732
141
0.8366141732
141
1.0826771654
141
1.0826771654
141
1.2795275591
141
1.2795275591
141
0.8523622047
141
0.8523622047
141
0.8523622047
142
5.905511811
142
3.937007874
142
6.8897637795
142
2.0669291339
142
7.7755905512
142
3.6417322835
142
3.3956692913
142
3.3956692913
171
1
172
0
173
0
174
0
175
3
176
2
 91
33
178
0
145
0.0
301
CELL_VALUE
 90
4
  1
 
304
ACVALUE_END
170
1
140
0.030757874
171
1
172
0
173
1
174
0
175
1
176
1
 91
1
178
0
145
0.0
170
1
171
1
172
0
173
1
174
0
175
1
176
1
 91
1
178
0
145
0.0
170
1
171
1
172
0
173
0
174
0
175
1
176
1
 91
33
178
0
145
0.0
301
CELL_VALUE
 90
4
  1
 
304
ACVALUE_END
170
1
140
0.030757874
171
1
172
0
173
0
174
0
175
4
176
2
 91
33
178
0
145
0.0
301
CELL_VALUE
 90
4
  1
 
304
ACVALUE_END
170
1
140
0.030757874
171
1
172
0
173
1
174
0
175
1
176
1
 91
1
178
0
145
0.0
170
1
171
1
172
0
173
1
174
0
175
1
176
1
 91
1
178
0
145
0.0
170
1
171
1
172
0
173
1
174
0
175
1
176
1
 91
1
178
0
145
0.0
170
1
171
1
172
0
173
1
174
0
175
1
176
1
 91
1
178
0
145
0.0
170
1
171
1
172
0
173
1
174
0
175
1
176
1
 91
1
178
0
145
0.0
170
1
171
1
172
0
173
1
174
0
175
1
176
1
 91
1
178
0
145
0.0
170
1
171
1
172
0
173
0
174
0
175
1
176
1
 91
49
178
0
145
0.0
  7
TEXTSTYLE_4
301
CELL_VALUE
 90
4
  1
\Q10.0; State:
304
ACVALUE_END
170
4
140
0.4527559055
171
1
172
0
173
1
174
0
175
1
176
1
 91
1
178
0
145
0.0
170
1
171
1
172
0
173
1
174
0
175
1
176
1
 91
1
178
0
145
0.0
170
1
171
1
172
0
173
1
174
0
175
1
176
1
 91
1
178
0
145
0.0
170
1
171
1
172
0
173
1
174
0
175
1
176
1
 91
1
178
0
145
0.0
170
1
171
1
172
0
173
0
174
0
175
2
176
4
 91
33
178
0
145
0.0
301
CELL_VALUE
 90
4
  1
 
304
ACVALUE_END
170
1
140
0.030757874
171
1
172
0
173
1
174
0
175
1
176
1
 91
1
178
0
145
0.0
170
1
171
1
172
0
173
0
174
0
175
4
176
1
 91
49
178
0
145
0.0
  7
TEXTSTYLE_5
301
CELL_VALUE
 90
4
  1
80116-401-5X
304
ACVALUE_END
170
2
140
0.7874015748
171
1
172
0
173
1
174
0
175
1
176
1
 91
1
178
0
145
0.0
170
1
171
1
172
0
173
1
174
0
175
1
176
1
 91
1
178
0
145
0.0
170
1
171
1
172
0
173
1
174
0
175
1
176
1
 91
1
178
0
145
0.0
170
1
171
1
172
0
173
0
174
0
175
1
176
1
 91
49
178
0
145
0.0
  7
TEXTSTYLE_5
301
CELL_VALUE
 90
4
  1
04
304
ACVALUE_END
170
2
140
0.7874015748
171
1
172
0
173
0
174
0
175
1
176
1
 91
49
178
0
145
0.0
  7
TEXTSTYLE_6
301
CELL_VALUE
 90
4
  1
2/2
304
ACVALUE_END
170
5
140
0.5905511811
171
1
172
0
173
1
174
0
175
1
176
1
 91
1
178
0
145
0.0
170
1
171
1
172
0
173
1
174
0
175
1
176
1
 91
1
178
0
145
0.0
170
1
171
1
172
0
173
0
174
0
175
4
176
1
 91
49
178
0
145
0.0
  7
TEXTSTYLE_7
301
CELL_VALUE
 90
4
  1
\Q10.0; Document Number:
304
ACVALUE_END
170
4
140
0.4527559055
171
1
172
0
173
1
174
0
175
1
176
1
 91
1
178
0
145
0.0
170
1
171
1
172
0
173
1
174
0
175
1
176
1
 91
1
178
0
145
0.0
170
1
171
1
172
0
173
1
174
0
175
1
176
1
 91
1
178
0
145
0.0
170
1
171
1
172
0
173
0
174
0
175
1
176
1
 91
49
178
0
145
0.0
  7
TEXTSTYLE_4
301
CELL_VALUE
 90
4
  1
\Q10.0; Doc. Rev.
304
ACVALUE_END
170
4
140
0.4527559055
171
1
172
0
173
0
174
0
175
1
176
1
 91
49
178
0
145
0.0
  7
TEXTSTYLE_7
301
CELL_VALUE
 90
4
  1
\Q10.0; Sheet: 
304
ACVALUE_END
170
4
140
0.4527559055
171
1
172
0
173
1
174
0
175
1
176
1
 91
1
178
0
145
0.0
170
1
171
1
172
0
173
1
174
0
175
1
176
1
 91
1
178
0
145
0.0
170
1
171
1
172
0
173
0
174
0
175
6
176
1
 91
49
178
0
145
0.0
  7
TEXTSTYLE_8
301
CELL_VALUE
 90
4
  1
 NEMA 3R D9 VENTED ENCLOSURES
304
ACVALUE_END
170
4
140
0.5905511811
171
1
172
0
173
1
174
0
175
1
176
1
 91
1
178
0
145
0.0
170
1
171
1
172
0
173
1
174
0
175
1
176
1
 91
1
178
0
145
0.0
170
1
171
1
172
0
173
1
174
0
175
1
176
1
 91
1
178
0
145
0.0
170
1
171
1
172
0
173
1
174
0
175
1
176
1
 91
1
178
0
145
0.0
170
1
171
1
172
0
173
1
174
0
175
1
176
1
 91
1
178
0
145
0.0
170
1
171
1
172
0
173
1
174
0
175
1
176
1
 91
1
178
0
145
0.0
170
1
171
1
172
0
173
1
174
0
175
1
176
1
 91
1
178
0
145
0.0
170
1
171
1
172
0
173
0
174
0
175
6
176
1
 91
49
178
0
145
0.0
  7
TEXTSTYLE_9
301
CELL_VALUE
 90
4
  1
\Q10.0; \Q0.0;CUSTOMER DRAWING
304
ACVALUE_END
170
4
140
0.4527559055
171
1
172
0
173
1
174
0
175
1
176
1
 91
1
178
0
145
0.0
170
1
171
1
172
0
173
1
174
0
175
1
176
1
 91
1
178
0
145
0.0
170
1
171
1
172
0
173
1
174
0
175
1
176
1
 91
1
178
0
145
0.0
170
1
171
1
172
0
173
1
174
0
175
1
176
1
 91
1
178
0
145
0.0
170
1
171
1
172
0
173
1
174
0
175
1
176
1
 91
1
178
0
145
0.0
170
1
171
1
172
0
173
0
174
0
175
1
176
3
 91
33
178
0
145
0.0
301
CELL_VALUE
 90
4
  1
 
304
ACVALUE_END
170
1
140
0.030757874
171
1
172
0
173
0
174
0
175
1
176
1
 91
33
178
0
145
0.0
301
CELL_VALUE
 90
4
  1
 
304
ACVALUE_END
170
1
140
0.030757874
171
1
172
0
173
0
174
0
175
4
176
1
 91
33
178
0
145
0.0
301
CELL_VALUE
 90
4
  1
 
304
ACVALUE_END
170
1
140
0.030757874
171
1
172
0
173
1
174
0
175
1
176
1
 91
1
178
0
145
0.0
170
1
171
1
172
0
173
1
174
0
175
1
176
1
 91
1
178
0
145
0.0
170
1
171
1
172
0
173
1
174
0
175
1
176
1
 91
1
178
0
145
0.0
170
1
171
1
172
0
173
0
174
0
175
2
176
1
 91
33
178
0
145
0.0
301
CELL_VALUE
 90
4
  1
 
304
ACVALUE_END
170
5
140
0.030757874
171
1
172
0
173
1
174
0
175
1
176
1
 91
1
178
0
145
0.0
170
1
171
1
172
0
173
1
174
0
175
1
176
1
 91
1
178
0
145
0.0
170
1
171
1
172
0
173
0
174
0
175
1
176
1
 91
49
178
0
145
0.0
  7
TEXTSTYLE_6
301
CELL_VALUE
 90
4
  1
 0.200
304
ACVALUE_END
170
4
140
0.5905511811
171
1
172
0
173
0
174
0
175
4
176
1
 91
33
178
0
145
0.0
301
CELL_VALUE
 90
4
  1
 
304
ACVALUE_END
170
1
140
0.030757874
171
1
172
0
173
1
174
0
175
1
176
1
 91
1
178
0
145
0.0
170
1
171
1
172
0
173
1
174
0
175
1
176
1
 91
1
178
0
145
0.0
170
1
171
1
172
0
173
1
174
0
175
1
176
1
 91
1
178
0
145
0.0
170
1
171
1
172
0
173
0
174
0
175
2
176
1
 91
49
178
0
145
0.0
  7
TEXTSTYLE_7
301
CELL_VALUE
 90
4
  1
in
304
ACVALUE_END
170
5
140
0.4921259843
171
1
172
0
173
1
174
0
175
1
176
1
 91
1
178
0
145
0.0
170
1
171
1
172
0
173
1
174
0
175
1
176
1
 91
1
178
0
145
0.0
170
1
171
1
172
0
173
0
174
0
175
1
176
1
 91
49
178
0
145
0.0
  7
TEXTSTYLE_4
301
CELL_VALUE
 90
4
  1
\Q10.0; Scale:
304
ACVALUE_END
170
4
140
0.4527559055
171
1
172
0
173
0
174
0
175
4
176
1
 91
49
178
0
145
0.0
  7
TEXTSTYLE_4
301
CELL_VALUE
 90
4
  1
\Q10.0; Technical Specification:
304
ACVALUE_END
170
4
140
0.4527559055
171
1
172
0
173
1
174
0
175
1
176
1
 91
1
178
0
145
0.0
170
1
171
1
172
0
173
1
174
0
175
1
176
1
 91
1
178
0
145
0.0
170
1
171
1
172
0
173
1
174
0
175
1
176
1
 91
1
178
0
145
0.0
170
1
171
1
172
0
173
0
174
0
175
2
176
1
 91
49
178
0
145
0.0
  7
TEXTSTYLE_4
301
CELL_VALUE
 90
4
  1
\Q10.0; Units of measure :
304
ACVALUE_END
170
4
140
0.4527559055
171
1
172
0
173
1
174
0
175
1
176
1
 91
1
178
0
145
0.0
170
1
  0
ACAD_TABLE
  5
2AA
100
AcDbEntity
  8
0
 62
2
  6
CONTINUOUS
100
AcDbBlockReference
  2
*T2
 10
95.8028736426
 20
20.1106129379
 30
0.0
100
AcDbTable
342
       8BE
343
228
 11
1.0
 21
0.0
 31
0.0
 90
22
 91
7
 92
2
 93
0
 94
0
 95
0
 96
0
141
1.2
141
1.2
141
1.2
141
1.2
141
1.2
141
1.2
141
1.2
142
7.2
142
3.36
171
1
172
0
173
0
174
0
175
1
176
1
 91
33
178
0
145
0.0
301
CELL_VALUE
 90
4
  1
CAT. NO.
304
ACVALUE_END
170
2
140
0.6
171
1
172
0
173
0
174
0
175
1
176
1
 91
33
178
0
145
0.0
301
CELL_VALUE
 90
4
  1
D
304
ACVALUE_END
170
2
140
0.6
171
1
172
0
173
0
174
0
175
1
176
1
 91
33
178
0
145
0.0
301
CELL_VALUE
 90
4
  1
MH62D9VWP
304
ACVALUE_END
170
2
140
0.6
171
1
172
0
173
0
174
0
175
1
176
1
 91
33
178
0
145
0.0
301
CELL_VALUE
 90
4
  1
39.68
304
ACVALUE_END
170
2
140
0.6
171
1
172
0
173
0
174
0
175
1
176
1
 91
33
178
0
145
0.0
301
CELL_VALUE
 90
4
  1
MH68D9VWP
304
ACVALUE_END
170
2
140
0.6
171
1
172
0
173
0
174
0
175
1
176
1
 91
33
178
0
145
0.0
301
CELL_VALUE
 90
4
  1
45.68
304
ACVALUE_END
170
2
140
0.6
171
1
172
0
173
0
174
0
175
1
176
1
 91
33
178
0
145
0.0
301
CELL_VALUE
 90
4
  1
MH74D9VWP
304
ACVALUE_END
170
2
140
0.6
171
1
172
0
173
0
174
0
175
1
176
1
 91
33
178
0
145
0.0
301
CELL_VALUE
 90
4
  1
51.68
304
ACVALUE_END
170
2
140
0.6
171
1
172
0
173
0
174
0
175
1
176
1
 91
33
178
0
145
0.0
301
CELL_VALUE
 90
4
  1
MH80D9VWP
304
ACVALUE_END
170
2
140
0.6
171
1
172
0
173
0
174
0
175
1
176
1
 91
33
178
0
145
0.0
301
CELL_VALUE
 90
4
  1
57.68
304
ACVALUE_END
170
2
140
0.6
171
1
172
0
173
0
174
0
175
1
176
1
 91
33
178
0
145
0.0
301
CELL_VALUE
 90
4
  1
MH86D9VWP
304
ACVALUE_END
170
2
140
0.6
171
1
172
0
173
0
174
0
175
1
176
1
 91
33
178
0
145
0.0
301
CELL_VALUE
 90
4
  1
63.68
304
ACVALUE_END
170
2
140
0.6
171
1
172
0
173
0
174
0
175
1
176
1
 91
33
178
0
145
0.0
301
CELL_VALUE
 90
4
  1
MH92D9VWP
304
ACVALUE_END
170
2
140
0.6
171
1
172
0
173
0
174
0
175
1
176
1
 91
33
178
0
145
0.0
301
CELL_VALUE
 90
4
  1
69.68
304
ACVALUE_END
170
2
140
0.6
  0
MTEXT
  5
2AB
100
AcDbEntity
  8
0
100
AcDbMText
 62
2
  6
CONTINUOUS
  7
STANDARD
 71
1
 72
1
 10
53.2212957844
 20
21.4792934693
 30
0.0
 11
1.0
 21
0.0
 31
0.0
 73
2
 44
0.9
  1
INNER DOOR DIMENSIONS
 40
0.6
 41
10.08
  0
LINE
  5
2AC
100
AcDbEntity
  8
0
100
AcDbLine
 62
7
  6
CONTINUOUS
 10
0.0
 20
0.0
 11
0.0
 21
82.6771653543
  0
LINE
  5
2AD
100
AcDbEntity
  8
0
100
AcDbLine
 62
5
  6
CONTINUOUS
 10
2.1653549059
 20
0.9842523629
 11
2.1653549059
 21
80.7086618118
  0
LWPOLYLINE
  5
2AE
100
AcDbEntity
  8
0
100
AcDbPolyline
 62
7
  6
CONTINUOUS
 90
2
 70
0
 43
0.0688976379
 10
14.6161417323
 20
-0.0
 10
14.6161417323
 20
0.9842519685
  0
LWPOLYLINE
  5
2AF
100
AcDbEntity
  8
0
100
AcDbPolyline
 62
7
  6
CONTINUOUS
 90
2
 70
0
 43
0.0688976379
 10
14.6161417323
 20
80.7086614173
 10
14.6161417323
 20
81.6929133858
  0
LINE
  5
2B0
100
AcDbEntity
  8
0
100
AcDbLine
 62
7
  6
CONTINUOUS
 10
0.0
 20
0.0
 11
116.9291338583
 21
0.0
  0
LWPOLYLINE
  5
2B1
100
AcDbEntity
  8
0
100
AcDbPolyline
 62
7
  6
CONTINUOUS
 90
2
 70
0
 43
0.0688976379
 10
38.7795275591
 20
0.3937007874
 10
58.1894521241
 20
0.3937007874
  0
LWPOLYLINE
  5
2B2
100
AcDbEntity
  8
0
100
AcDbPolyline
 62
7
  6
CONTINUOUS
 90
2
 70
0
 43
0.0688976379
 10
58.7400804266
 20
0.3937007874
 10
78.1496062992
 20
0.3937007874
  0
LWPOLYLINE
  5
2B3
100
AcDbEntity
  8
0
100
AcDbPolyline
 62
7
  6
CONTINUOUS
 90
2
 70
0
 43
0.0688976379
 10
58.3956692913
 20
0.4527559055
 10
58.5334645669
 20
0.4527559055
  0
LWPOLYLINE
  5
2B4
100
AcDbEntity
  8
0
100
AcDbPolyline
 62
7
  6
CONTINUOUS
 90
2
 70
0
 43
0.0688976379
 10
58.3267716535
 20
0.5118106299
 10
58.6023622047
 20
0.5118106299
  0
LWPOLYLINE
  5
2B5
100
AcDbEntity
  8
0
100
AcDbPolyline
 62
7
  6
CONTINUOUS
 90
2
 70
0
 43
0.0688976379
 10
58.2578740157
 20
0.5708661417
 10
58.6712598425
 20
0.5708661417
  0
LWPOLYLINE
  5
2B6
100
AcDbEntity
  8
0
100
AcDbPolyline
 62
7
  6
CONTINUOUS
 90
2
 70
0
 43
0.0688976379
 10
58.188976378
 20
0.6299212598
 10
58.7401574803
 20
0.6299212598
  0
LWPOLYLINE
  5
2B7
100
AcDbEntity
  8
0
100
AcDbPolyline
 62
7
  6
CONTINUOUS
 90
2
 70
0
 43
0.0688976379
 10
58.1200787402
 20
0.688976378
 10
58.8090551181
 20
0.688976378
  0
LWPOLYLINE
  5
2B8
100
AcDbEntity
  8
0
100
AcDbPolyline
 62
7
  6
CONTINUOUS
 90
2
 70
0
 43
0.0688976379
 10
58.0511811024
 20
0.7480305118
 10
58.8779527559
 20
0.7480305118
  0
LWPOLYLINE
  5
2B9
100
AcDbEntity
  8
0
100
AcDbPolyline
 62
7
  6
CONTINUOUS
 90
2
 70
0
 43
0.0688976379
 10
57.9822834646
 20
0.8070866142
 10
58.9468503937
 20
0.8070866142
  0
LWPOLYLINE
  5
2BA
100
AcDbEntity
  8
0
100
AcDbPolyline
 62
7
  6
CONTINUOUS
 90
2
 70
0
 43
0.0688976379
 10
57.9133858268
 20
0.8661417323
 10
59.0157480315
 20
0.8661417323
  0
LWPOLYLINE
  5
2BB
100
AcDbEntity
  8
0
100
AcDbPolyline
 62
7
  6
CONTINUOUS
 90
2
 70
0
 43
0.0688976379
 10
57.844488189
 20
0.9251968504
 10
59.0846456693
 20
0.9251968504
  0
LINE
  5
2BC
100
AcDbEntity
  8
0
100
AcDbLine
 62
5
  6
CONTINUOUS
 10
2.1653549059
 20
0.9842523629
 11
114.7637801028
 21
0.9842523629
  0
LINE
  5
2BD
100
AcDbEntity
  8
0
100
AcDbLine
 62
5
  6
CONTINUOUS
 10
77.755906087
 20
2.6574807094
 11
114.7637801028
 21
2.6574807094
  0
LINE
  5
2BE
100
AcDbEntity
  8
0
100
AcDbLine
 62
5
  6
CONTINUOUS
 10
87.5984257721
 20
4.8228350401
 11
114.7637801028
 21
4.8228350401
  0
LINE
  5
2BF
100
AcDbEntity
  8
0
100
AcDbLine
 62
5
  6
CONTINUOUS
 10
77.755906087
 20
7.3818901582
 11
114.7637801028
 21
7.3818901582
  0
LWPOLYLINE
  5
2C0
100
AcDbEntity
  8
0
100
AcDbPolyline
 62
7
  6
CONTINUOUS
 90
2
 70
0
 43
0.0688976379
 10
29.2322834646
 20
-0.0
 10
29.2322834646
 20
0.9842519685
  0
LWPOLYLINE
  5
2C1
100
AcDbEntity
  8
0
100
AcDbPolyline
 62
7
  6
CONTINUOUS
 90
2
 70
0
 43
0.0688976379
 10
29.2322834646
 20
80.7086614173
 10
29.2322834646
 20
81.6929133858
  0
LINE
  5
2C2
100
AcDbEntity
  8
0
100
AcDbLine
 62
5
  6
CONTINUOUS
 10
77.755906087
 20
9.9409452763
 11
114.7637801028
 21
9.9409452763
  0
LWPOLYLINE
  5
2C3
100
AcDbEntity
  8
0
100
AcDbPolyline
 62
7
  6
CONTINUOUS
 90
2
 70
0
 43
0.0688976379
 10
57.7755905512
 20
0.9842519685
 10
58.4645669291
 20
0.3937007874
  0
LWPOLYLINE
  5
2C4
100
AcDbEntity
  8
0
100
AcDbPolyline
 62
7
  6
CONTINUOUS
 90
2
 70
0
 43
0.0688976379
 10
115.9448818898
 20
13.7795275591
 10
114.7637801028
 20
13.7795275591
  0
LWPOLYLINE
  5
2C5
100
AcDbEntity
  8
0
100
AcDbPolyline
 62
7
  6
CONTINUOUS
 90
2
 70
0
 43
0.0688976379
 10
2.1653549059
 20
13.7795275591
 10
0.9842519685
 20
13.7795275591
  0
LWPOLYLINE
  5
2C6
100
AcDbEntity
  8
0
100
AcDbPolyline
 62
7
  6
CONTINUOUS
 90
2
 70
0
 43
0.0688976379
 10
57.7755905512
 20
0.9842519685
 10
58.465261491
 20
0.0001403363
  0
LWPOLYLINE
  5
2C7
100
AcDbEntity
  8
0
100
AcDbPolyline
 62
7
  6
CONTINUOUS
 90
2
 70
0
 43
0.0688976379
 10
38.7795275591
 20
0.9842519685
 10
38.7795275591
 20
-0.0
  0
LWPOLYLINE
  5
2C8
100
AcDbEntity
  8
0
100
AcDbPolyline
 62
7
  6
CONTINUOUS
 90
2
 70
0
 43
0.0688976379
 10
40.7480314961
 20
0.9842519685
 10
40.7480314961
 20
0.3937007874
  0
LWPOLYLINE
  5
2C9
100
AcDbEntity
  8
0
100
AcDbPolyline
 62
7
  6
CONTINUOUS
 90
2
 70
0
 43
0.0688976379
 10
42.7165354331
 20
0.9842519685
 10
42.7165354331
 20
0.3937007874
  0
LWPOLYLINE
  5
2CA
100
AcDbEntity
  8
0
100
AcDbPolyline
 62
7
  6
CONTINUOUS
 90
2
 70
0
 43
0.0688976379
 10
43.8484251969
 20
81.6929133858
 10
43.8484251969
 20
80.7086614173
  0
LWPOLYLINE
  5
2CB
100
AcDbEntity
  8
0
100
AcDbPolyline
 62
7
  6
CONTINUOUS
 90
2
 70
0
 43
0.0688976379
 10
44.6850393701
 20
0.9842519685
 10
44.6850393701
 20
0.3937007874
  0
LWPOLYLINE
  5
2CC
100
AcDbEntity
  8
0
100
AcDbPolyline
 62
7
  6
CONTINUOUS
 90
2
 70
0
 43
0.0688976379
 10
46.6535433071
 20
0.9842519685
 10
46.6535433071
 20
0.3937007874
  0
LWPOLYLINE
  5
2CD
100
AcDbEntity
  8
0
100
AcDbPolyline
 62
7
  6
CONTINUOUS
 90
2
 70
0
 43
0.0688976379
 10
115.9448818898
 20
27.5590551181
 10
114.7637801028
 20
27.5590551181
  0
LWPOLYLINE
  5
2CE
100
AcDbEntity
  8
0
100
AcDbPolyline
 62
7
  6
CONTINUOUS
 90
2
 70
0
 43
0.0688976379
 10
0.9842519685
 20
27.5590551181
 10
2.1653549059
 20
27.5590551181
  0
LWPOLYLINE
  5
2CF
100
AcDbEntity
  8
0
100
AcDbPolyline
 62
7
  6
CONTINUOUS
 90
2
 70
0
 43
0.0688976379
 10
48.6220472441
 20
0.9842519685
 10
48.6220472441
 20
-0.0
  0
LWPOLYLINE
  5
2D0
100
AcDbEntity
  8
0
100
AcDbPolyline
 62
7
  6
CONTINUOUS
 90
2
 70
0
 43
0.0688976379
 10
50.5905511811
 20
0.9842519685
 10
50.5905511811
 20
0.3937007874
  0
LWPOLYLINE
  5
2D1
100
AcDbEntity
  8
0
100
AcDbPolyline
 62
7
  6
CONTINUOUS
 90
2
 70
0
 43
0.0688976379
 10
52.5590551181
 20
0.9842519685
 10
52.5590551181
 20
0.3937007874
  0
LWPOLYLINE
  5
2D2
100
AcDbEntity
  8
0
100
AcDbPolyline
 62
7
  6
CONTINUOUS
 90
2
 70
0
 43
0.0688976379
 10
54.5275590551
 20
0.9842519685
 10
54.5275590551
 20
0.3937007874
  0
LWPOLYLINE
  5
2D3
100
AcDbEntity
  8
0
100
AcDbPolyline
 62
7
  6
CONTINUOUS
 90
2
 70
0
 43
0.0688976379
 10
56.4960629921
 20
0.9842519685
 10
56.4960629921
 20
0.3937007874
  0
LWPOLYLINE
  5
2D4
100
AcDbEntity
  8
0
100
AcDbPolyline
 62
7
  6
CONTINUOUS
 90
2
 70
0
 43
0.0688976379
 10
58.4645669291
 20
80.7086614173
 10
58.4645669291
 20
82.6771653543
  0
LWPOLYLINE
  5
2D5
100
AcDbEntity
  8
0
100
AcDbPolyline
 62
7
  6
CONTINUOUS
 90
2
 70
0
 43
0.0688976379
 10
-0.0
 20
41.3385826772
 10
2.1653549059
 20
41.3385826772
  0
LWPOLYLINE
  5
2D6
100
AcDbEntity
  8
0
100
AcDbPolyline
 62
7
  6
CONTINUOUS
 90
2
 70
0
 43
0.0688976379
 10
114.7637801028
 20
41.3385826772
 10
116.9291338583
 20
41.3385826772
  0
LWPOLYLINE
  5
2D7
100
AcDbEntity
  8
0
100
AcDbPolyline
 62
7
  6
CONTINUOUS
 90
2
 70
0
 43
0.0688976379
 10
60.4330708661
 20
0.9842519685
 10
60.4330708661
 20
0.3937007874
  0
LWPOLYLINE
  5
2D8
100
AcDbEntity
  8
0
100
AcDbPolyline
 62
7
  6
CONTINUOUS
 90
2
 70
0
 43
0.0688976379
 10
62.4015748031
 20
0.9842519685
 10
62.4015748031
 20
0.3937007874
  0
LWPOLYLINE
  5
2D9
100
AcDbEntity
  8
0
100
AcDbPolyline
 62
7
  6
CONTINUOUS
 90
2
 70
0
 43
0.0688976379
 10
64.3700787402
 20
0.9842519685
 10
64.3700787402
 20
0.3937007874
  0
LWPOLYLINE
  5
2DA
100
AcDbEntity
  8
0
100
AcDbPolyline
 62
7
  6
CONTINUOUS
 90
2
 70
0
 43
0.0688976379
 10
66.3385826772
 20
0.9842519685
 10
66.3385826772
 20
0.3937007874
  0
LWPOLYLINE
  5
2DB
100
AcDbEntity
  8
0
100
AcDbPolyline
 62
7
  6
CONTINUOUS
 90
2
 70
0
 43
0.0688976379
 10
68.3070866142
 20
0.9842519685
 10
68.3070866142
 20
-0.0
  0
LWPOLYLINE
  5
2DC
100
AcDbEntity
  8
0
100
AcDbPolyline
 62
7
  6
CONTINUOUS
 90
2
 70
0
 43
0.0688976379
 10
70.2755905512
 20
0.9842519685
 10
70.2755905512
 20
0.3937007874
  0
LWPOLYLINE
  5
2DD
100
AcDbEntity
  8
0
100
AcDbPolyline
 62
7
  6
CONTINUOUS
 90
2
 70
0
 43
0.0688976379
 10
72.2440944882
 20
0.9842519685
 10
72.2440944882
 20
0.3937007874
  0
LWPOLYLINE
  5
2DE
100
AcDbEntity
  8
0
100
AcDbPolyline
 62
7
  6
CONTINUOUS
 90
2
 70
0
 43
0.0688976379
 10
73.0807086614
 20
81.6929133858
 10
73.0807086614
 20
80.7086614173
  0
LWPOLYLINE
  5
2DF
100
AcDbEntity
  8
0
100
AcDbPolyline
 62
7
  6
CONTINUOUS
 90
2
 70
0
 43
0.0688976379
 10
74.2125984252
 20
0.9842519685
 10
74.2125984252
 20
0.3937007874
  0
LWPOLYLINE
  5
2E0
100
AcDbEntity
  8
0
100
AcDbPolyline
 62
7
  6
CONTINUOUS
 90
2
 70
0
 43
0.0688976379
 10
115.9448818898
 20
55.1181102362
 10
114.7637801028
 20
55.1181102362
  0
LWPOLYLINE
  5
2E1
100
AcDbEntity
  8
0
100
AcDbPolyline
 62
7
  6
CONTINUOUS
 90
2
 70
0
 43
0.0688976379
 10
0.9842519685
 20
55.1181102362
 10
2.1653549059
 20
55.1181102362
  0
LWPOLYLINE
  5
2E2
100
AcDbEntity
  8
0
100
AcDbPolyline
 62
7
  6
CONTINUOUS
 90
2
 70
0
 43
0.0688976379
 10
76.1811023622
 20
0.9842519685
 10
76.1811023622
 20
0.3937007874
  0
LINE
  5
2E3
100
AcDbEntity
  8
0
100
AcDbLine
 62
5
  6
CONTINUOUS
 10
77.755906087
 20
0.9842523629
 11
77.755906087
 21
9.9409452763
  0
LWPOLYLINE
  5
2E4
100
AcDbEntity
  8
0
100
AcDbPolyline
 62
7
  6
CONTINUOUS
 90
2
 70
0
 43
0.0688976379
 10
78.1496062992
 20
0.9842519685
 10
78.1496062992
 20
-0.0
  0
LWPOLYLINE
  5
2E5
100
AcDbEntity
  8
0
100
AcDbPolyline
 62
7
  6
CONTINUOUS
 90
2
 70
0
 43
0.0688976379
 10
58.4628446698
 20
-0.0022764849
 10
59.1535433071
 20
0.9842519685
  0
LINE
  5
2E6
100
AcDbEntity
  8
0
100
AcDbLine
 62
5
  6
CONTINUOUS
 10
83.6614178981
 20
7.3818901582
 11
83.6614178981
 21
9.9409452763
  0
LWPOLYLINE
  5
2E7
100
AcDbEntity
  8
0
100
AcDbPolyline
 62
7
  6
CONTINUOUS
 90
2
 70
0
 43
0.0688976379
 10
115.9448818898
 20
68.8976377953
 10
114.7637801028
 20
68.8976377953
  0
LWPOLYLINE
  5
2E8
100
AcDbEntity
  8
0
100
AcDbPolyline
 62
7
  6
CONTINUOUS
 90
2
 70
0
 43
0.0688976379
 10
0.9842519685
 20
68.8976377953
 10
2.1653549059
 20
68.8976377953
  0
LINE
  5
2E9
100
AcDbEntity
  8
0
100
AcDbLine
 62
5
  6
CONTINUOUS
 10
87.5984257721
 20
2.6574807094
 11
87.5984257721
 21
9.9409452763
  0
LWPOLYLINE
  5
2EA
100
AcDbEntity
  8
0
100
AcDbPolyline
 62
7
  6
CONTINUOUS
 90
2
 70
0
 43
0.0688976379
 10
87.6968503937
 20
81.6929133858
 10
87.6968503937
 20
80.7086614173
  0
LWPOLYLINE
  5
2EB
100
AcDbEntity
  8
0
100
AcDbPolyline
 62
7
  6
CONTINUOUS
 90
2
 70
0
 43
0.0688976379
 10
87.6968503937
 20
-0.0
 10
87.6968503937
 20
0.9842519685
  0
LWPOLYLINE
  5
2EC
100
AcDbEntity
  8
0
100
AcDbPolyline
 62
7
  6
CONTINUOUS
 90
2
 70
0
 43
0.0688976379
 10
58.4645669291
 20
0.3937007874
 10
59.1535433071
 20
0.9842519685
  0
LINE
  5
2ED
100
AcDbEntity
  8
0
100
AcDbLine
 62
5
  6
CONTINUOUS
 10
2.1653549059
 20
80.7086618118
 11
114.7637801028
 21
80.7086618118
  0
LINE
  5
2EE
100
AcDbEntity
  8
0
100
AcDbLine
 62
7
  6
CONTINUOUS
 10
0.0
 20
82.6771653543
 11
116.9291338583
 21
82.6771653543
  0
LWPOLYLINE
  5
2EF
100
AcDbEntity
  8
0
100
AcDbPolyline
 62
7
  6
CONTINUOUS
 90
2
 70
0
 43
0.0688976379
 10
102.312992126
 20
81.6929133858
 10
102.312992126
 20
80.7086614173
  0
LWPOLYLINE
  5
2F0
100
AcDbEntity
  8
0
100
AcDbPolyline
 62
7
  6
CONTINUOUS
 90
2
 70
0
 43
0.0688976379
 10
102.312992126
 20
-0.0
 10
102.312992126
 20
0.9842519685
  0
LINE
  5
2F1
100
AcDbEntity
  8
0
100
AcDbLine
 62
5
  6
CONTINUOUS
 10
114.7637801028
 20
0.9842523629
 11
114.7637801028
 21
80.7086618118
  0
LINE
  5
2F2
100
AcDbEntity
  8
0
100
AcDbLine
 62
7
  6
CONTINUOUS
 10
116.9291338583
 20
0.0
 11
116.9291338583
 21
82.6771653543
  0
LINE
  5
2F3
100
AcDbEntity
  8
00_COMPONENTS
100
AcDbLine
 62
7
  6
CONTINUOUS
 10
25.7289078358
 20
38.7878857497
 11
25.7289078358
 21
38.6948857497
  0
LINE
  5
2F4
100
AcDbEntity
  8
00_COMPONENTS
100
AcDbLine
 62
7
  6
CONTINUOUS
 10
25.7289078358
 20
38.7978857497
 11
25.7289078358
 21
65.5718857497
  0
LINE
  5
2F5
100
AcDbEntity
  8
00_COMPONENTS
100
AcDbLine
 62
7
  6
CONTINUOUS
 10
25.7289078358
 20
65.5818857497
 11
25.7289078358
 21
65.6748857497
  0
LINE
  5
2F6
100
AcDbEntity
  8
00_COMPONENTS
100
AcDbLine
 62
9
  6
CONTINUOUS
 10
25.9119078358
 20
38.8778857497
 11
25.9119078358
 21
65.4918857497
  0
LINE
  5
2F7
100
AcDbEntity
  8
00_COMPONENTS
100
AcDbLine
 62
7
  6
CONTINUOUS
 10
27.8907644165
 20
61.4137947942
 11
27.8907644165
 21
58.3137947942
  0
LINE
  5
2F8
100
AcDbEntity
  8
00_COMPONENTS
100
AcDbLine
 62
7
  6
CONTINUOUS
 10
27.8907644165
 20
56.4137947942
 11
27.8907644165
 21
53.3137947942
  0
LINE
  5
2F9
100
AcDbEntity
  8
00_COMPONENTS
100
AcDbLine
 62
7
  6
CONTINUOUS
 10
27.8907644165
 20
51.4137947942
 11
27.8907644165
 21
48.3137947942
  0
LINE
  5
2FA
100
AcDbEntity
  8
00_COMPONENTS
100
AcDbLine
 62
7
  6
CONTINUOUS
 10
27.8907644165
 20
46.4137947942
 11
27.8907644165
 21
43.3137947942
  0
LINE
  5
2FB
100
AcDbEntity
  8
00_COMPONENTS
100
AcDbLine
 62
9
  6
CONTINUOUS
 10
28.2209158969
 20
61.4137947942
 11
28.2209158969
 21
58.3137947942
  0
LINE
  5
2FC
100
AcDbEntity
  8
00_COMPONENTS
100
AcDbLine
 62
9
  6
CONTINUOUS
 10
28.2209158969
 20
56.4137947942
 11
28.2209158969
 21
53.3137947942
  0
LINE
  5
2FD
100
AcDbEntity
  8
00_COMPONENTS
100
AcDbLine
 62
9
  6
CONTINUOUS
 10
28.2209158969
 20
51.4137947942
 11
28.2209158969
 21
48.3137947942
  0
LINE
  5
2FE
100
AcDbEntity
  8
00_COMPONENTS
100
AcDbLine
 62
9
  6
CONTINUOUS
 10
28.2209158969
 20
46.4137947942
 11
28.2209158969
 21
43.3137947942
  0
LINE
  5
2FF
100
AcDbEntity
  8
00_COMPONENTS
100
AcDbLine
 62
9
  6
CONTINUOUS
 10
28.5209158969
 20
58.0137947942
 11
28.5209158969
 21
57.6836433138
  0
LINE
  5
300
100
AcDbEntity
  8
00_COMPONENTS
100
AcDbLine
 62
9
  6
CONTINUOUS
 10
28.5209158969
 20
53.0137947942
 11
28.5209158969
 21
52.6836433138
  0
LINE
  5
301
100
AcDbEntity
  8
00_COMPONENTS
100
AcDbLine
 62
9
  6
CONTINUOUS
 10
28.5209158969
 20
48.0137947942
 11
28.5209158969
 21
47.6836433138
  0
LINE
  5
302
100
AcDbEntity
  8
00_COMPONENTS
100
AcDbLine
 62
9
  6
CONTINUOUS
 10
28.5209158969
 20
43.0137947942
 11
28.5209158969
 21
42.6836433138
  0
LINE
  5
303
100
AcDbEntity
  8
00_COMPONENTS
100
AcDbLine
 62
9
  6
CONTINUOUS
 10
28.5209158969
 20
46.7137947942
 11
28.5209158969
 21
47.0439462746
  0
LINE
  5
304
100
AcDbEntity
  8
00_COMPONENTS
100
AcDbLine
 62
9
  6
CONTINUOUS
 10
28.5209158969
 20
51.7137947942
 11
28.5209158969
 21
52.0439462746
  0
LINE
  5
305
100
AcDbEntity
  8
00_COMPONENTS
100
AcDbLine
 62
9
  6
CONTINUOUS
 10
28.5209158969
 20
56.7137947942
 11
28.5209158969
 21
57.0439462746
  0
LINE
  5
306
100
AcDbEntity
  8
00_COMPONENTS
100
AcDbLine
 62
9
  6
CONTINUOUS
 10
28.5209158969
 20
61.7137947942
 11
28.5209158969
 21
62.0439462746
  0
LINE
  5
307
100
AcDbEntity
  8
00_COMPONENTS
100
AcDbLine
 62
7
  6
CONTINUOUS
 10
28.5948548969
 20
42.6836433138
 11
28.5948548969
 21
47.0439462746
  0
LINE
  5
308
100
AcDbEntity
  8
00_COMPONENTS
100
AcDbLine
 62
7
  6
CONTINUOUS
 10
28.5948548969
 20
47.6836433138
 11
28.5948548969
 21
52.0439462746
  0
LINE
  5
309
100
AcDbEntity
  8
00_COMPONENTS
100
AcDbLine
 62
7
  6
CONTINUOUS
 10
28.5948548969
 20
52.6836433138
 11
28.5948548969
 21
57.0439462746
  0
LINE
  5
30A
100
AcDbEntity
  8
00_COMPONENTS
100
AcDbLine
 62
7
  6
CONTINUOUS
 10
28.5948548969
 20
57.6836433138
 11
28.5948548969
 21
62.0439462746
  0
LINE
  5
30B
100
AcDbEntity
  8
00_COMPONENTS
100
AcDbLine
 62
7
  6
CONTINUOUS
 10
29.1407644165
 20
61.4137947942
 11
29.1407644165
 21
58.3137947942
  0
LINE
  5
30C
100
AcDbEntity
  8
00_COMPONENTS
100
AcDbLine
 62
7
  6
CONTINUOUS
 10
29.1407644165
 20
56.4137947942
 11
29.1407644165
 21
53.3137947942
  0
LINE
  5
30D
100
AcDbEntity
  8
00_COMPONENTS
100
AcDbLine
 62
7
  6
CONTINUOUS
 10
29.1407644165
 20
51.4137947942
 11
29.1407644165
 21
48.3137947942
  0
LINE
  5
30E
100
AcDbEntity
  8
00_COMPONENTS
100
AcDbLine
 62
7
  6
CONTINUOUS
 10
29.1407644165
 20
46.4137947942
 11
29.1407644165
 21
43.3137947942
  0
LINE
  5
30F
100
AcDbEntity
  8
00_COMPONENTS
100
AcDbLine
 62
9
  6
CONTINUOUS
 10
29.4709158969
 20
61.4137947942
 11
29.4709158969
 21
58.3137947942
  0
LINE
  5
310
100
AcDbEntity
  8
00_COMPONENTS
100
AcDbLine
 62
9
  6
CONTINUOUS
 10
29.4709158969
 20
56.4137947942
 11
29.4709158969
 21
53.3137947942
  0
LINE
  5
311
100
AcDbEntity
  8
00_COMPONENTS
100
AcDbLine
 62
9
  6
CONTINUOUS
 10
29.4709158969
 20
51.4137947942
 11
29.4709158969
 21
48.3137947942
  0
LINE
  5
312
100
AcDbEntity
  8
00_COMPONENTS
100
AcDbLine
 62
9
  6
CONTINUOUS
 10
29.4709158969
 20
46.4137947942
 11
29.4709158969
 21
43.3137947942
  0
LINE
  5
313
100
AcDbEntity
  8
00_COMPONENTS
100
AcDbLine
 62
9
  6
CONTINUOUS
 10
29.7709158969
 20
58.0137947942
 11
29.7709158969
 21
57.6836433138
  0
LINE
  5
314
100
AcDbEntity
  8
00_COMPONENTS
100
AcDbLine
 62
9
  6
CONTINUOUS
 10
29.7709158969
 20
53.0137947942
 11
29.7709158969
 21
52.6836433138
  0
LINE
  5
315
100
AcDbEntity
  8
00_COMPONENTS
100
AcDbLine
 62
9
  6
CONTINUOUS
 10
29.7709158969
 20
48.0137947942
 11
29.7709158969
 21
47.6836433138
  0
LINE
  5
316
100
AcDbEntity
  8
00_COMPONENTS
100
AcDbLine
 62
9
  6
CONTINUOUS
 10
29.7709158969
 20
43.0137947942
 11
29.7709158969
 21
42.6836433138
  0
LINE
  5
317
100
AcDbEntity
  8
00_COMPONENTS
100
AcDbLine
 62
9
  6
CONTINUOUS
 10
29.7709158969
 20
46.7137947942
 11
29.7709158969
 21
47.0439462746
  0
LINE
  5
318
100
AcDbEntity
  8
00_COMPONENTS
100
AcDbLine
 62
9
  6
CONTINUOUS
 10
29.7709158969
 20
51.7137947942
 11
29.7709158969
 21
52.0439462746
  0
LINE
  5
319
100
AcDbEntity
  8
00_COMPONENTS
100
AcDbLine
 62
9
  6
CONTINUOUS
 10
29.7709158969
 20
56.7137947942
 11
29.7709158969
 21
57.0439462746
  0
LINE
  5
31A
100
AcDbEntity
  8
00_COMPONENTS
100
AcDbLine
 62
9
  6
CONTINUOUS
 10
29.7709158969
 20
61.7137947942
 11
29.7709158969
 21
62.0439462746
  0
LINE
  5
31B
100
AcDbEntity
  8
00_COMPONENTS
100
AcDbLine
 62
7
  6
CONTINUOUS
 10
29.8448548969
 20
42.6836433138
 11
29.8448548969
 21
47.0439462746
  0
LINE
  5
31C
100
AcDbEntity
  8
00_COMPONENTS
100
AcDbLine
 62
7
  6
CONTINUOUS
 10
29.8448548969
 20
47.6836433138
 11
29.8448548969
 21
52.0439462746
  0
LINE
  5
31D
100
AcDbEntity
  8
00_COMPONENTS
100
AcDbLine
 62
7
  6
CONTINUOUS
 10
29.8448548969
 20
52.6836433138
 11
29.8448548969
 21
57.0439462746
  0
LINE
  5
31E
100
AcDbEntity
  8
00_COMPONENTS
100
AcDbLine
 62
7
  6
CONTINUOUS
 10
29.8448548969
 20
57.6836433138
 11
29.8448548969
 21
62.0439462746
  0
LINE
  5
31F
100
AcDbEntity
  8
00_COMPONENTS
100
AcDbLine
 62
7
  6
CONTINUOUS
 10
30.3907644165
 20
61.4137947942
 11
30.3907644165
 21
58.3137947942
  0
LINE
  5
320
100
AcDbEntity
  8
00_COMPONENTS
100
AcDbLine
 62
7
  6
CONTINUOUS
 10
30.3907644165
 20
56.4137947942
 11
30.3907644165
 21
53.3137947942
  0
LINE
  5
321
100
AcDbEntity
  8
00_COMPONENTS
100
AcDbLine
 62
7
  6
CONTINUOUS
 10
30.3907644165
 20
51.4137947942
 11
30.3907644165
 21
48.3137947942
  0
LINE
  5
322
100
AcDbEntity
  8
00_COMPONENTS
100
AcDbLine
 62
7
  6
CONTINUOUS
 10
30.3907644165
 20
46.4137947942
 11
30.3907644165
 21
43.3137947942
  0
LINE
  5
323
100
AcDbEntity
  8
00_COMPONENTS
100
AcDbLine
 62
9
  6
CONTINUOUS
 10
30.7209158969
 20
61.4137947942
 11
30.7209158969
 21
58.3137947942
  0
LINE
  5
324
100
AcDbEntity
  8
00_COMPONENTS
100
AcDbLine
 62
9
  6
CONTINUOUS
 10
30.7209158969
 20
56.4137947942
 11
30.7209158969
 21
53.3137947942
  0
LINE
  5
325
100
AcDbEntity
  8
00_COMPONENTS
100
AcDbLine
 62
9
  6
CONTINUOUS
 10
30.7209158969
 20
51.4137947942
 11
30.7209158969
 21
48.3137947942
  0
LINE
  5
326
100
AcDbEntity
  8
00_COMPONENTS
100
AcDbLine
 62
9
  6
CONTINUOUS
 10
30.7209158969
 20
46.4137947942
 11
30.7209158969
 21
43.3137947942
  0
LINE
  5
327
100
AcDbEntity
  8
00_COMPONENTS
100
AcDbLine
 62
9
  6
CONTINUOUS
 10
31.0209158969
 20
58.0137947942
 11
31.0209158969
 21
57.6836433138
  0
LINE
  5
328
100
AcDbEntity
  8
00_COMPONENTS
100
AcDbLine
 62
9
  6
CONTINUOUS
 10
31.0209158969
 20
53.0137947942
 11
31.0209158969
 21
52.6836433138
  0
LINE
  5
329
100
AcDbEntity
  8
00_COMPONENTS
100
AcDbLine
 62
9
  6
CONTINUOUS
 10
31.0209158969
 20
48.0137947942
 11
31.0209158969
 21
47.6836433138
  0
LINE
  5
32A
100
AcDbEntity
  8
00_COMPONENTS
100
AcDbLine
 62
9
  6
CONTINUOUS
 10
31.0209158969
 20
43.0137947942
 11
31.0209158969
 21
42.6836433138
  0
LINE
  5
32B
100
AcDbEntity
  8
00_COMPONENTS
100
AcDbLine
 62
9
  6
CONTINUOUS
 10
31.0209158969
 20
46.7137947942
 11
31.0209158969
 21
47.0439462746
  0
LINE
  5
32C
100
AcDbEntity
  8
00_COMPONENTS
100
AcDbLine
 62
9
  6
CONTINUOUS
 10
31.0209158969
 20
51.7137947942
 11
31.0209158969
 21
52.0439462746
  0
LINE
  5
32D
100
AcDbEntity
  8
00_COMPONENTS
100
AcDbLine
 62
9
  6
CONTINUOUS
 10
31.0209158969
 20
56.7137947942
 11
31.0209158969
 21
57.0439462746
  0
LINE
  5
32E
100
AcDbEntity
  8
00_COMPONENTS
100
AcDbLine
 62
9
  6
CONTINUOUS
 10
31.0209158969
 20
61.7137947942
 11
31.0209158969
 21
62.0439462746
  0
LINE
  5
32F
100
AcDbEntity
  8
00_COMPONENTS
100
AcDbLine
 62
7
  6
CONTINUOUS
 10
31.0948548969
 20
42.6836433138
 11
31.0948548969
 21
47.0439462746
  0
LINE
  5
330
100
AcDbEntity
  8
00_COMPONENTS
100
AcDbLine
 62
7
  6
CONTINUOUS
 10
31.0948548969
 20
47.6836433138
 11
31.0948548969
 21
52.0439462746
  0
LINE
  5
331
100
AcDbEntity
  8
00_COMPONENTS
100
AcDbLine
 62
7
  6
CONTINUOUS
 10
31.0948548969
 20
52.6836433138
 11
31.0948548969
 21
57.0439462746
  0
LINE
  5
332
100
AcDbEntity
  8
00_COMPONENTS
100
AcDbLine
 62
7
  6
CONTINUOUS
 10
31.0948548969
 20
57.6836433138
 11
31.0948548969
 21
62.0439462746
  0
LINE
  5
333
100
AcDbEntity
  8
00_COMPONENTS
100
AcDbLine
 62
7
  6
CONTINUOUS
 10
31.6407644165
 20
61.4137947942
 11
31.6407644165
 21
58.3137947942
  0
LINE
  5
334
100
AcDbEntity
  8
00_COMPONENTS
100
AcDbLine
 62
7
  6
CONTINUOUS
 10
31.6407644165
 20
56.4137947942
 11
31.6407644165
 21
53.3137947942
  0
LINE
  5
335
100
AcDbEntity
  8
00_COMPONENTS
100
AcDbLine
 62
7
  6
CONTINUOUS
 10
31.6407644165
 20
51.4137947942
 11
31.6407644165
 21
48.3137947942
  0
LINE
  5
336
100
AcDbEntity
  8
00_COMPONENTS
100
AcDbLine
 62
7
  6
CONTINUOUS
 10
31.6407644165
 20
46.4137947942
 11
31.6407644165
 21
43.3137947942
  0
LINE
  5
337
100
AcDbEntity
  8
00_COMPONENTS
100
AcDbLine
 62
9
  6
CONTINUOUS
 10
31.9709158969
 20
61.4137947942
 11
31.9709158969
 21
58.3137947942
  0
LINE
  5
338
100
AcDbEntity
  8
00_COMPONENTS
100
AcDbLine
 62
9
  6
CONTINUOUS
 10
31.9709158969
 20
56.4137947942
 11
31.9709158969
 21
53.3137947942
  0
LINE
  5
339
100
AcDbEntity
  8
00_COMPONENTS
100
AcDbLine
 62
9
  6
CONTINUOUS
 10
31.9709158969
 20
51.4137947942
 11
31.9709158969
 21
48.3137947942
  0
LINE
  5
33A
100
AcDbEntity
  8
00_COMPONENTS
100
AcDbLine
 62
9
  6
CONTINUOUS
 10
31.9709158969
 20
46.4137947942
 11
31.9709158969
 21
43.3137947942
  0
LINE
  5
33B
100
AcDbEntity
  8
00_COMPONENTS
100
AcDbLine
 62
9
  6
CONTINUOUS
 10
32.2709158969
 20
58.0137947942
 11
32.2709158969
 21
57.6836433138
  0
LINE
  5
33C
100
AcDbEntity
  8
00_COMPONENTS
100
AcDbLine
 62
9
  6
CONTINUOUS
 10
32.2709158969
 20
53.0137947942
 11
32.2709158969
 21
52.6836433138
  0
LINE
  5
33D
100
AcDbEntity
  8
00_COMPONENTS
100
AcDbLine
 62
9
  6
CONTINUOUS
 10
32.2709158969
 20
48.0137947942
 11
32.2709158969
 21
47.6836433138
  0
LINE
  5
33E
100
AcDbEntity
  8
00_COMPONENTS
100
AcDbLine
 62
9
  6
CONTINUOUS
 10
32.2709158969
 20
43.0137947942
 11
32.2709158969
 21
42.6836433138
  0
LINE
  5
33F
100
AcDbEntity
  8
00_COMPONENTS
100
AcDbLine
 62
9
  6
CONTINUOUS
 10
32.2709158969
 20
46.7137947942
 11
32.2709158969
 21
47.0439462746
  0
LINE
  5
340
100
AcDbEntity
  8
00_COMPONENTS
100
AcDbLine
 62
9
  6
CONTINUOUS
 10
32.2709158969
 20
51.7137947942
 11
32.2709158969
 21
52.0439462746
  0
LINE
  5
341
100
AcDbEntity
  8
00_COMPONENTS
100
AcDbLine
 62
9
  6
CONTINUOUS
 10
32.2709158969
 20
56.7137947942
 11
32.2709158969
 21
57.0439462746
  0
LINE
  5
342
100
AcDbEntity
  8
00_COMPONENTS
100
AcDbLine
 62
9
  6
CONTINUOUS
 10
32.2709158969
 20
61.7137947942
 11
32.2709158969
 21
62.0439462746
  0
LINE
  5
343
100
AcDbEntity
  8
00_COMPONENTS
100
AcDbLine
 62
7
  6
CONTINUOUS
 10
32.3448548969
 20
42.6836433138
 11
32.3448548969
 21
47.0439462746
  0
LINE
  5
344
100
AcDbEntity
  8
00_COMPONENTS
100
AcDbLine
 62
7
  6
CONTINUOUS
 10
32.3448548969
 20
47.6836433138
 11
32.3448548969
 21
52.0439462746
  0
LINE
  5
345
100
AcDbEntity
  8
00_COMPONENTS
100
AcDbLine
 62
7
  6
CONTINUOUS
 10
32.3448548969
 20
52.6836433138
 11
32.3448548969
 21
57.0439462746
  0
LINE
  5
346
100
AcDbEntity
  8
00_COMPONENTS
100
AcDbLine
 62
7
  6
CONTINUOUS
 10
32.3448548969
 20
57.6836433138
 11
32.3448548969
 21
62.0439462746
  0
LINE
  5
347
100
AcDbEntity
  8
00_COMPONENTS
100
AcDbLine
 62
7
  6
CONTINUOUS
 10
32.8907644165
 20
61.4137947942
 11
32.8907644165
 21
58.3137947942
  0
LINE
  5
348
100
AcDbEntity
  8
00_COMPONENTS
100
AcDbLine
 62
7
  6
CONTINUOUS
 10
32.8907644165
 20
56.4137947942
 11
32.8907644165
 21
53.3137947942
  0
LINE
  5
349
100
AcDbEntity
  8
00_COMPONENTS
100
AcDbLine
 62
7
  6
CONTINUOUS
 10
32.8907644165
 20
51.4137947942
 11
32.8907644165
 21
48.3137947942
  0
LINE
  5
34A
100
AcDbEntity
  8
00_COMPONENTS
100
AcDbLine
 62
7
  6
CONTINUOUS
 10
32.8907644165
 20
46.4137947942
 11
32.8907644165
 21
43.3137947942
  0
LINE
  5
34B
100
AcDbEntity
  8
00_COMPONENTS
100
AcDbLine
 62
9
  6
CONTINUOUS
 10
33.2209158969
 20
61.4137947942
 11
33.2209158969
 21
58.3137947942
  0
LINE
  5
34C
100
AcDbEntity
  8
00_COMPONENTS
100
AcDbLine
 62
9
  6
CONTINUOUS
 10
33.2209158969
 20
56.4137947942
 11
33.2209158969
 21
53.3137947942
  0
LINE
  5
34D
100
AcDbEntity
  8
00_COMPONENTS
100
AcDbLine
 62
9
  6
CONTINUOUS
 10
33.2209158969
 20
51.4137947942
 11
33.2209158969
 21
48.3137947942
  0
LINE
  5
34E
100
AcDbEntity
  8
00_COMPONENTS
100
AcDbLine
 62
9
  6
CONTINUOUS
 10
33.2209158969
 20
46.4137947942
 11
33.2209158969
 21
43.3137947942
  0
LINE
  5
34F
100
AcDbEntity
  8
00_COMPONENTS
100
AcDbLine
 62
7
  6
CONTINUOUS
 10
33.3249078358
 20
40.7387304684
 11
33.3249078358
 21
41.151041031
  0
LINE
  5
350
100
AcDbEntity
  8
00_COMPONENTS
100
AcDbLine
 62
9
  6
CONTINUOUS
 10
33.5209158969
 20
58.0137947942
 11
33.5209158969
 21
57.6836433138
  0
LINE
  5
351
100
AcDbEntity
  8
00_COMPONENTS
100
AcDbLine
 62
9
  6
CONTINUOUS
 10
33.5209158969
 20
53.0137947942
 11
33.5209158969
 21
52.6836433138
  0
LINE
  5
352
100
AcDbEntity
  8
00_COMPONENTS
100
AcDbLine
 62
9
  6
CONTINUOUS
 10
33.5209158969
 20
48.0137947942
 11
33.5209158969
 21
47.6836433138
  0
LINE
  5
353
100
AcDbEntity
  8
00_COMPONENTS
100
AcDbLine
 62
9
  6
CONTINUOUS
 10
33.5209158969
 20
43.0137947942
 11
33.5209158969
 21
42.6836433138
  0
LINE
  5
354
100
AcDbEntity
  8
00_COMPONENTS
100
AcDbLine
 62
9
  6
CONTINUOUS
 10
33.5209158969
 20
46.7137947942
 11
33.5209158969
 21
47.0439462746
  0
LINE
  5
355
100
AcDbEntity
  8
00_COMPONENTS
100
AcDbLine
 62
9
  6
CONTINUOUS
 10
33.5209158969
 20
51.7137947942
 11
33.5209158969
 21
52.0439462746
  0
LINE
  5
356
100
AcDbEntity
  8
00_COMPONENTS
100
AcDbLine
 62
9
  6
CONTINUOUS
 10
33.5209158969
 20
56.7137947942
 11
33.5209158969
 21
57.0439462746
  0
LINE
  5
357
100
AcDbEntity
  8
00_COMPONENTS
100
AcDbLine
 62
9
  6
CONTINUOUS
 10
33.5209158969
 20
61.7137947942
 11
33.5209158969
 21
62.0439462746
  0
LINE
  5
358
100
AcDbEntity
  8
00_COMPONENTS
100
AcDbLine
 62
7
  6
CONTINUOUS
 10
33.5948548969
 20
42.6836433138
 11
33.5948548969
 21
47.0439462746
  0
LINE
  5
359
100
AcDbEntity
  8
00_COMPONENTS
100
AcDbLine
 62
7
  6
CONTINUOUS
 10
33.5948548969
 20
47.6836433138
 11
33.5948548969
 21
52.0439462746
  0
LINE
  5
35A
100
AcDbEntity
  8
00_COMPONENTS
100
AcDbLine
 62
7
  6
CONTINUOUS
 10
33.5948548969
 20
52.6836433138
 11
33.5948548969
 21
57.0439462746
  0
LINE
  5
35B
100
AcDbEntity
  8
00_COMPONENTS
100
AcDbLine
 62
7
  6
CONTINUOUS
 10
33.5948548969
 20
57.6836433138
 11
33.5948548969
 21
62.0439462746
  0
LINE
  5
35C
100
AcDbEntity
  8
00_COMPONENTS
100
AcDbLine
 62
7
  6
CONTINUOUS
 10
34.1249078358
 20
41.151041031
 11
34.1249078358
 21
40.7387304684
  0
LINE
  5
35D
100
AcDbEntity
  8
00_COMPONENTS
100
AcDbLine
 62
7
  6
CONTINUOUS
 10
34.1407644165
 20
61.4137947942
 11
34.1407644165
 21
58.3137947942
  0
LINE
  5
35E
100
AcDbEntity
  8
00_COMPONENTS
100
AcDbLine
 62
7
  6
CONTINUOUS
 10
34.1407644165
 20
56.4137947942
 11
34.1407644165
 21
53.3137947942
  0
LINE
  5
35F
100
AcDbEntity
  8
00_COMPONENTS
100
AcDbLine
 62
7
  6
CONTINUOUS
 10
34.1407644165
 20
51.4137947942
 11
34.1407644165
 21
48.3137947942
  0
LINE
  5
360
100
AcDbEntity
  8
00_COMPONENTS
100
AcDbLine
 62
7
  6
CONTINUOUS
 10
34.1407644165
 20
46.4137947942
 11
34.1407644165
 21
43.3137947942
  0
LINE
  5
361
100
AcDbEntity
  8
00_COMPONENTS
100
AcDbLine
 62
9
  6
CONTINUOUS
 10
34.4709158969
 20
61.4137947942
 11
34.4709158969
 21
58.3137947942
  0
LINE
  5
362
100
AcDbEntity
  8
00_COMPONENTS
100
AcDbLine
 62
9
  6
CONTINUOUS
 10
34.4709158969
 20
56.4137947942
 11
34.4709158969
 21
53.3137947942
  0
LINE
  5
363
100
AcDbEntity
  8
00_COMPONENTS
100
AcDbLine
 62
9
  6
CONTINUOUS
 10
34.4709158969
 20
51.4137947942
 11
34.4709158969
 21
48.3137947942
  0
LINE
  5
364
100
AcDbEntity
  8
00_COMPONENTS
100
AcDbLine
 62
9
  6
CONTINUOUS
 10
34.4709158969
 20
46.4137947942
 11
34.4709158969
 21
43.3137947942
  0
LINE
  5
365
100
AcDbEntity
  8
00_COMPONENTS
100
AcDbLine
 62
9
  6
CONTINUOUS
 10
34.7709158969
 20
58.0137947942
 11
34.7709158969
 21
57.6836433138
  0
LINE
  5
366
100
AcDbEntity
  8
00_COMPONENTS
100
AcDbLine
 62
9
  6
CONTINUOUS
 10
34.7709158969
 20
53.0137947942
 11
34.7709158969
 21
52.6836433138
  0
LINE
  5
367
100
AcDbEntity
  8
00_COMPONENTS
100
AcDbLine
 62
9
  6
CONTINUOUS
 10
34.7709158969
 20
48.0137947942
 11
34.7709158969
 21
47.6836433138
  0
LINE
  5
368
100
AcDbEntity
  8
00_COMPONENTS
100
AcDbLine
 62
9
  6
CONTINUOUS
 10
34.7709158969
 20
43.0137947942
 11
34.7709158969
 21
42.6836433138
  0
LINE
  5
369
100
AcDbEntity
  8
00_COMPONENTS
100
AcDbLine
 62
9
  6
CONTINUOUS
 10
34.7709158969
 20
46.7137947942
 11
34.7709158969
 21
47.0439462746
  0
LINE
  5
36A
100
AcDbEntity
  8
00_COMPONENTS
100
AcDbLine
 62
9
  6
CONTINUOUS
 10
34.7709158969
 20
51.7137947942
 11
34.7709158969
 21
52.0439462746
  0
LINE
  5
36B
100
AcDbEntity
  8
00_COMPONENTS
100
AcDbLine
 62
9
  6
CONTINUOUS
 10
34.7709158969
 20
56.7137947942
 11
34.7709158969
 21
57.0439462746
  0
LINE
  5
36C
100
AcDbEntity
  8
00_COMPONENTS
100
AcDbLine
 62
9
  6
CONTINUOUS
 10
34.7709158969
 20
61.7137947942
 11
34.7709158969
 21
62.0439462746
  0
LINE
  5
36D
100
AcDbEntity
  8
00_COMPONENTS
100
AcDbLine
 62
7
  6
CONTINUOUS
 10
34.8448548969
 20
42.6836433138
 11
34.8448548969
 21
47.0439462746
  0
LINE
  5
36E
100
AcDbEntity
  8
00_COMPONENTS
100
AcDbLine
 62
7
  6
CONTINUOUS
 10
34.8448548969
 20
47.6836433138
 11
34.8448548969
 21
52.0439462746
  0
LINE
  5
36F
100
AcDbEntity
  8
00_COMPONENTS
100
AcDbLine
 62
7
  6
CONTINUOUS
 10
34.8448548969
 20
52.6836433138
 11
34.8448548969
 21
57.0439462746
  0
LINE
  5
370
100
AcDbEntity
  8
00_COMPONENTS
100
AcDbLine
 62
7
  6
CONTINUOUS
 10
34.8448548969
 20
57.6836433138
 11
34.8448548969
 21
62.0439462746
  0
LINE
  5
371
100
AcDbEntity
  8
00_COMPONENTS
100
AcDbLine
 62
7
  6
CONTINUOUS
 10
35.3907644165
 20
61.4137947942
 11
35.3907644165
 21
58.3137947942
  0
LINE
  5
372
100
AcDbEntity
  8
00_COMPONENTS
100
AcDbLine
 62
7
  6
CONTINUOUS
 10
35.3907644165
 20
56.4137947942
 11
35.3907644165
 21
53.3137947942
  0
LINE
  5
373
100
AcDbEntity
  8
00_COMPONENTS
100
AcDbLine
 62
7
  6
CONTINUOUS
 10
35.3907644165
 20
51.4137947942
 11
35.3907644165
 21
48.3137947942
  0
LINE
  5
374
100
AcDbEntity
  8
00_COMPONENTS
100
AcDbLine
 62
7
  6
CONTINUOUS
 10
35.3907644165
 20
46.4137947942
 11
35.3907644165
 21
43.3137947942
  0
LINE
  5
375
100
AcDbEntity
  8
00_COMPONENTS
100
AcDbLine
 62
9
  6
CONTINUOUS
 10
35.7209158969
 20
61.4137947942
 11
35.7209158969
 21
58.3137947942
  0
LINE
  5
376
100
AcDbEntity
  8
00_COMPONENTS
100
AcDbLine
 62
9
  6
CONTINUOUS
 10
35.7209158969
 20
56.4137947942
 11
35.7209158969
 21
53.3137947942
  0
LINE
  5
377
100
AcDbEntity
  8
00_COMPONENTS
100
AcDbLine
 62
9
  6
CONTINUOUS
 10
35.7209158969
 20
51.4137947942
 11
35.7209158969
 21
48.3137947942
  0
LINE
  5
378
100
AcDbEntity
  8
00_COMPONENTS
100
AcDbLine
 62
9
  6
CONTINUOUS
 10
35.7209158969
 20
46.4137947942
 11
35.7209158969
 21
43.3137947942
  0
LINE
  5
379
100
AcDbEntity
  8
00_COMPONENTS
100
AcDbLine
 62
9
  6
CONTINUOUS
 10
36.0209158969
 20
58.0137947942
 11
36.0209158969
 21
57.6836433138
  0
LINE
  5
37A
100
AcDbEntity
  8
00_COMPONENTS
100
AcDbLine
 62
9
  6
CONTINUOUS
 10
36.0209158969
 20
53.0137947942
 11
36.0209158969
 21
52.6836433138
  0
LINE
  5
37B
100
AcDbEntity
  8
00_COMPONENTS
100
AcDbLine
 62
9
  6
CONTINUOUS
 10
36.0209158969
 20
48.0137947942
 11
36.0209158969
 21
47.6836433138
  0
LINE
  5
37C
100
AcDbEntity
  8
00_COMPONENTS
100
AcDbLine
 62
9
  6
CONTINUOUS
 10
36.0209158969
 20
43.0137947942
 11
36.0209158969
 21
42.6836433138
  0
LINE
  5
37D
100
AcDbEntity
  8
00_COMPONENTS
100
AcDbLine
 62
9
  6
CONTINUOUS
 10
36.0209158969
 20
46.7137947942
 11
36.0209158969
 21
47.0439462746
  0
LINE
  5
37E
100
AcDbEntity
  8
00_COMPONENTS
100
AcDbLine
 62
9
  6
CONTINUOUS
 10
36.0209158969
 20
51.7137947942
 11
36.0209158969
 21
52.0439462746
  0
LINE
  5
37F
100
AcDbEntity
  8
00_COMPONENTS
100
AcDbLine
 62
9
  6
CONTINUOUS
 10
36.0209158969
 20
56.7137947942
 11
36.0209158969
 21
57.0439462746
  0
LINE
  5
380
100
AcDbEntity
  8
00_COMPONENTS
100
AcDbLine
 62
9
  6
CONTINUOUS
 10
36.0209158969
 20
61.7137947942
 11
36.0209158969
 21
62.0439462746
  0
LINE
  5
381
100
AcDbEntity
  8
00_COMPONENTS
100
AcDbLine
 62
7
  6
CONTINUOUS
 10
36.0948548969
 20
42.6836433138
 11
36.0948548969
 21
47.0439462746
  0
LINE
  5
382
100
AcDbEntity
  8
00_COMPONENTS
100
AcDbLine
 62
7
  6
CONTINUOUS
 10
36.0948548969
 20
47.6836433138
 11
36.0948548969
 21
52.0439462746
  0
LINE
  5
383
100
AcDbEntity
  8
00_COMPONENTS
100
AcDbLine
 62
7
  6
CONTINUOUS
 10
36.0948548969
 20
52.6836433138
 11
36.0948548969
 21
57.0439462746
  0
LINE
  5
384
100
AcDbEntity
  8
00_COMPONENTS
100
AcDbLine
 62
7
  6
CONTINUOUS
 10
36.0948548969
 20
57.6836433138
 11
36.0948548969
 21
62.0439462746
  0
LINE
  5
385
100
AcDbEntity
  8
00_COMPONENTS
100
AcDbLine
 62
3
  6
CONTINUOUS
 10
37.1699078358
 20
46.4348857497
 11
37.1699078358
 21
57.9348857497
  0
LINE
  5
386
100
AcDbEntity
  8
00_COMPONENTS
100
AcDbLine
 62
9
  6
CONTINUOUS
 10
37.5469078358
 20
46.4348857497
 11
37.5469078358
 21
57.9348857497
  0
LINE
  5
387
100
AcDbEntity
  8
00_COMPONENTS
100
AcDbLine
 62
3
  6
CONTINUOUS
 10
37.7039078358
 20
46.4348857497
 11
37.7039078358
 21
57.9348857497
  0
LINE
  5
388
100
AcDbEntity
  8
00_COMPONENTS
100
AcDbLine
 62
7
  6
CONTINUOUS
 10
37.7639078358
 20
46.5318857497
 11
37.7639078358
 21
46.4348857497
  0
LINE
  5
389
100
AcDbEntity
  8
00_COMPONENTS
100
AcDbLine
 62
7
  6
CONTINUOUS
 10
37.7639078358
 20
57.8378857497
 11
37.7639078358
 21
57.9348857497
  0
LINE
  5
38A
100
AcDbEntity
  8
00_COMPONENTS
100
AcDbLine
 62
7
  6
CONTINUOUS
 10
40.3071078358
 20
58.5707532631
 11
40.3071078358
 21
58.7630182362
  0
LINE
  5
38B
100
AcDbEntity
  8
00_COMPONENTS
100
AcDbLine
 62
7
  6
CONTINUOUS
 10
40.3571078358
 20
58.5418857497
 11
40.3571078358
 21
58.7918857497
  0
LINE
  5
38C
100
AcDbEntity
  8
00_COMPONENTS
100
AcDbLine
 62
7
  6
CONTINUOUS
 10
42.0069078358
 20
57.9348857497
 11
42.0069078358
 21
58.884879055
  0
LINE
  5
38D
100
AcDbEntity
  8
00_COMPONENTS
100
AcDbLine
 62
7
  6
CONTINUOUS
 10
43.5069078358
 20
58.8848791961
 11
43.5069078358
 21
57.9348857497
  0
LINE
  5
38E
100
AcDbEntity
  8
00_COMPONENTS
100
AcDbLine
 62
7
  6
CONTINUOUS
 10
40.3071078358
 20
58.7630182362
 11
40.3571078358
 21
58.7918857497
  0
LINE
  5
38F
100
AcDbEntity
  8
00_COMPONENTS
100
AcDbLine
 62
7
  6
CONTINUOUS
 10
88.7249078358
 20
38.6948857497
 11
25.7289078358
 21
38.6948857497
  0
LINE
  5
390
100
AcDbEntity
  8
00_COMPONENTS
100
AcDbLine
 62
7
  6
CONTINUOUS
 10
45.0749078358
 20
40.7387304684
 11
45.0749078358
 21
41.151041031
  0
LINE
  5
391
100
AcDbEntity
  8
00_COMPONENTS
100
AcDbLine
 62
7
  6
CONTINUOUS
 10
45.8749078358
 20
41.151041031
 11
45.8749078358
 21
40.7387304684
  0
LINE
  5
392
100
AcDbEntity
  8
00_COMPONENTS
100
AcDbLine
 62
7
  6
CONTINUOUS
 10
25.7794978578
 20
38.7978857497
 11
25.7289078358
 21
38.7978857497
  0
LINE
  5
393
100
AcDbEntity
  8
00_COMPONENTS
100
AcDbLine
 62
7
  6
CONTINUOUS
 10
88.6743178137
 20
38.7978857497
 11
88.7249078358
 21
38.7978857497
  0
LINE
  5
394
100
AcDbEntity
  8
00_COMPONENTS
100
AcDbLine
 62
9
  6
CONTINUOUS
 10
88.5419078358
 20
38.8778857497
 11
25.9119078358
 21
38.8778857497
  0
LINE
  5
395
100
AcDbEntity
  8
00_COMPONENTS
100
AcDbLine
 62
7
  6
CONTINUOUS
 10
80.9310631171
 20
40.5448857497
 11
80.5187525545
 21
40.5448857497
  0
LINE
  5
396
100
AcDbEntity
  8
00_COMPONENTS
100
AcDbLine
 62
7
  6
CONTINUOUS
 10
69.1810631171
 20
40.5448857497
 11
68.7687525545
 21
40.5448857497
  0
LINE
  5
397
100
AcDbEntity
  8
00_COMPONENTS
100
AcDbLine
 62
7
  6
CONTINUOUS
 10
45.6810631171
 20
40.5448857497
 11
45.2687525545
 21
40.5448857497
  0
LINE
  5
398
100
AcDbEntity
  8
00_COMPONENTS
100
AcDbLine
 62
7
  6
CONTINUOUS
 10
33.9310631171
 20
40.5448857497
 11
33.5187525545
 21
40.5448857497
  0
LINE
  5
399
100
AcDbEntity
  8
00_COMPONENTS
100
AcDbLine
 62
7
  6
CONTINUOUS
 10
33.5187525545
 20
41.3448857497
 11
33.9310631171
 21
41.3448857497
  0
LINE
  5
39A
100
AcDbEntity
  8
00_COMPONENTS
100
AcDbLine
 62
7
  6
CONTINUOUS
 10
45.2687525545
 20
41.3448857497
 11
45.6810631171
 21
41.3448857497
  0
LINE
  5
39B
100
AcDbEntity
  8
00_COMPONENTS
100
AcDbLine
 62
7
  6
CONTINUOUS
 10
68.7687525545
 20
41.3448857497
 11
69.1810631171
 21
41.3448857497
  0
LINE
  5
39C
100
AcDbEntity
  8
00_COMPONENTS
100
AcDbLine
 62
7
  6
CONTINUOUS
 10
80.5187525545
 20
41.3448857497
 11
80.9310631171
 21
41.3448857497
  0
LINE
  5
39D
100
AcDbEntity
  8
00_COMPONENTS
100
AcDbLine
 62
7
  6
CONTINUOUS
 10
28.5209158969
 20
42.6836433138
 11
28.5948548969
 21
42.6836433138
  0
LINE
  5
39E
100
AcDbEntity
  8
00_COMPONENTS
100
AcDbLine
 62
7
  6
CONTINUOUS
 10
29.7709158969
 20
42.6836433138
 11
29.8448548969
 21
42.6836433138
  0
LINE
  5
39F
100
AcDbEntity
  8
00_COMPONENTS
100
AcDbLine
 62
7
  6
CONTINUOUS
 10
31.0209158969
 20
42.6836433138
 11
31.0948548969
 21
42.6836433138
  0
LINE
  5
3A0
100
AcDbEntity
  8
00_COMPONENTS
100
AcDbLine
 62
7
  6
CONTINUOUS
 10
32.2709158969
 20
42.6836433138
 11
32.3448548969
 21
42.6836433138
  0
LINE
  5
3A1
100
AcDbEntity
  8
00_COMPONENTS
100
AcDbLine
 62
7
  6
CONTINUOUS
 10
33.5209158969
 20
42.6836433138
 11
33.5948548969
 21
42.6836433138
  0
LINE
  5
3A2
100
AcDbEntity
  8
00_COMPONENTS
100
AcDbLine
 62
7
  6
CONTINUOUS
 10
34.7709158969
 20
42.6836433138
 11
34.8448548969
 21
42.6836433138
  0
LINE
  5
3A3
100
AcDbEntity
  8
00_COMPONENTS
100
AcDbLine
 62
7
  6
CONTINUOUS
 10
36.0209158969
 20
42.6836433138
 11
36.0948548969
 21
42.6836433138
  0
LINE
  5
3A4
100
AcDbEntity
  8
00_COMPONENTS
100
AcDbLine
 62
7
  6
CONTINUOUS
 10
78.9100336917
 20
42.6836433138
 11
78.9839726917
 21
42.6836433138
  0
LINE
  5
3A5
100
AcDbEntity
  8
00_COMPONENTS
100
AcDbLine
 62
7
  6
CONTINUOUS
 10
80.1600336917
 20
42.6836433138
 11
80.2339726917
 21
42.6836433138
  0
LINE
  5
3A6
100
AcDbEntity
  8
00_COMPONENTS
100
AcDbLine
 62
7
  6
CONTINUOUS
 10
81.4100336917
 20
42.6836433138
 11
81.4839726917
 21
42.6836433138
  0
LINE
  5
3A7
100
AcDbEntity
  8
00_COMPONENTS
100
AcDbLine
 62
7
  6
CONTINUOUS
 10
82.6600336917
 20
42.6836433138
 11
82.7339726917
 21
42.6836433138
  0
LINE
  5
3A8
100
AcDbEntity
  8
00_COMPONENTS
100
AcDbLine
 62
7
  6
CONTINUOUS
 10
83.9100336917
 20
42.6836433138
 11
83.9839726917
 21
42.6836433138
  0
LINE
  5
3A9
100
AcDbEntity
  8
00_COMPONENTS
100
AcDbLine
 62
7
  6
CONTINUOUS
 10
85.1600336917
 20
42.6836433138
 11
85.2339726917
 21
42.6836433138
  0
LINE
  5
3AA
100
AcDbEntity
  8
00_COMPONENTS
100
AcDbLine
 62
7
  6
CONTINUOUS
 10
86.4100336917
 20
42.6836433138
 11
86.4839726917
 21
42.6836433138
  0
LINE
  5
3AB
100
AcDbEntity
  8
00_COMPONENTS
100
AcDbLine
 62
9
  6
CONTINUOUS
 10
28.5209158969
 20
43.0137947942
 11
28.5948548969
 21
43.0137947942
  0
LINE
  5
3AC
100
AcDbEntity
  8
00_COMPONENTS
100
AcDbLine
 62
9
  6
CONTINUOUS
 10
29.7709158969
 20
43.0137947942
 11
29.8448548969
 21
43.0137947942
  0
LINE
  5
3AD
100
AcDbEntity
  8
00_COMPONENTS
100
AcDbLine
 62
9
  6
CONTINUOUS
 10
31.0209158969
 20
43.0137947942
 11
31.0948548969
 21
43.0137947942
  0
LINE
  5
3AE
100
AcDbEntity
  8
00_COMPONENTS
100
AcDbLine
 62
9
  6
CONTINUOUS
 10
32.2709158969
 20
43.0137947942
 11
32.3448548969
 21
43.0137947942
  0
LINE
  5
3AF
100
AcDbEntity
  8
00_COMPONENTS
100
AcDbLine
 62
9
  6
CONTINUOUS
 10
33.5209158969
 20
43.0137947942
 11
33.5948548969
 21
43.0137947942
  0
LINE
  5
3B0
100
AcDbEntity
  8
00_COMPONENTS
100
AcDbLine
 62
9
  6
CONTINUOUS
 10
34.7709158969
 20
43.0137947942
 11
34.8448548969
 21
43.0137947942
  0
LINE
  5
3B1
100
AcDbEntity
  8
00_COMPONENTS
100
AcDbLine
 62
9
  6
CONTINUOUS
 10
36.0209158969
 20
43.0137947942
 11
36.0948548969
 21
43.0137947942
  0
LINE
  5
3B2
100
AcDbEntity
  8
00_COMPONENTS
100
AcDbLine
 62
9
  6
CONTINUOUS
 10
78.9100336917
 20
43.0137947942
 11
78.9839726917
 21
43.0137947942
  0
LINE
  5
3B3
100
AcDbEntity
  8
00_COMPONENTS
100
AcDbLine
 62
9
  6
CONTINUOUS
 10
80.1600336917
 20
43.0137947942
 11
80.2339726917
 21
43.0137947942
  0
LINE
  5
3B4
100
AcDbEntity
  8
00_COMPONENTS
100
AcDbLine
 62
9
  6
CONTINUOUS
 10
81.4100336917
 20
43.0137947942
 11
81.4839726917
 21
43.0137947942
  0
LINE
  5
3B5
100
AcDbEntity
  8
00_COMPONENTS
100
AcDbLine
 62
9
  6
CONTINUOUS
 10
82.6600336917
 20
43.0137947942
 11
82.7339726917
 21
43.0137947942
  0
LINE
  5
3B6
100
AcDbEntity
  8
00_COMPONENTS
100
AcDbLine
 62
9
  6
CONTINUOUS
 10
83.9100336917
 20
43.0137947942
 11
83.9839726917
 21
43.0137947942
  0
LINE
  5
3B7
100
AcDbEntity
  8
00_COMPONENTS
100
AcDbLine
 62
9
  6
CONTINUOUS
 10
85.1600336917
 20
43.0137947942
 11
85.2339726917
 21
43.0137947942
  0
LINE
  5
3B8
100
AcDbEntity
  8
00_COMPONENTS
100
AcDbLine
 62
9
  6
CONTINUOUS
 10
86.4100336917
 20
43.0137947942
 11
86.4839726917
 21
43.0137947942
  0
LINE
  5
3B9
100
AcDbEntity
  8
00_COMPONENTS
100
AcDbLine
 62
9
  6
CONTINUOUS
 10
86.1100336917
 20
43.3137947942
 11
85.7798822113
 21
43.3137947942
  0
LINE
  5
3BA
100
AcDbEntity
  8
00_COMPONENTS
100
AcDbLine
 62
9
  6
CONTINUOUS
 10
84.8600336917
 20
43.3137947942
 11
84.5298822113
 21
43.3137947942
  0
LINE
  5
3BB
100
AcDbEntity
  8
00_COMPONENTS
100
AcDbLine
 62
9
  6
CONTINUOUS
 10
83.6100336917
 20
43.3137947942
 11
83.2798822113
 21
43.3137947942
  0
LINE
  5
3BC
100
AcDbEntity
  8
00_COMPONENTS
100
AcDbLine
 62
9
  6
CONTINUOUS
 10
82.3600336917
 20
43.3137947942
 11
82.0298822113
 21
43.3137947942
  0
LINE
  5
3BD
100
AcDbEntity
  8
00_COMPONENTS
100
AcDbLine
 62
9
  6
CONTINUOUS
 10
81.1100336917
 20
43.3137947942
 11
80.7798822113
 21
43.3137947942
  0
LINE
  5
3BE
100
AcDbEntity
  8
00_COMPONENTS
100
AcDbLine
 62
9
  6
CONTINUOUS
 10
79.8600336917
 20
43.3137947942
 11
79.5298822113
 21
43.3137947942
  0
LINE
  5
3BF
100
AcDbEntity
  8
00_COMPONENTS
100
AcDbLine
 62
9
  6
CONTINUOUS
 10
78.6100336917
 20
43.3137947942
 11
78.2798822113
 21
43.3137947942
  0
LINE
  5
3C0
100
AcDbEntity
  8
00_COMPONENTS
100
AcDbLine
 62
9
  6
CONTINUOUS
 10
35.7209158969
 20
43.3137947942
 11
35.3907644165
 21
43.3137947942
  0
LINE
  5
3C1
100
AcDbEntity
  8
00_COMPONENTS
100
AcDbLine
 62
9
  6
CONTINUOUS
 10
34.4709158969
 20
43.3137947942
 11
34.1407644165
 21
43.3137947942
  0
LINE
  5
3C2
100
AcDbEntity
  8
00_COMPONENTS
100
AcDbLine
 62
9
  6
CONTINUOUS
 10
33.2209158969
 20
43.3137947942
 11
32.8907644165
 21
43.3137947942
  0
LINE
  5
3C3
100
AcDbEntity
  8
00_COMPONENTS
100
AcDbLine
 62
9
  6
CONTINUOUS
 10
31.9709158969
 20
43.3137947942
 11
31.6407644165
 21
43.3137947942
  0
LINE
  5
3C4
100
AcDbEntity
  8
00_COMPONENTS
100
AcDbLine
 62
9
  6
CONTINUOUS
 10
30.7209158969
 20
43.3137947942
 11
30.3907644165
 21
43.3137947942
  0
LINE
  5
3C5
100
AcDbEntity
  8
00_COMPONENTS
100
AcDbLine
 62
9
  6
CONTINUOUS
 10
29.4709158969
 20
43.3137947942
 11
29.1407644165
 21
43.3137947942
  0
LINE
  5
3C6
100
AcDbEntity
  8
00_COMPONENTS
100
AcDbLine
 62
9
  6
CONTINUOUS
 10
28.2209158969
 20
43.3137947942
 11
27.8907644165
 21
43.3137947942
  0
LINE
  5
3C7
100
AcDbEntity
  8
00_COMPONENTS
100
AcDbLine
 62
7
  6
CONTINUOUS
 10
55.5271078358
 20
58.7630182362
 11
55.5771078358
 21
58.7918857497
  0
LINE
  5
3C8
100
AcDbEntity
  8
00_COMPONENTS
100
AcDbLine
 62
9
  6
CONTINUOUS
 10
86.1100336917
 20
46.4137947942
 11
85.7798822113
 21
46.4137947942
  0
LINE
  5
3C9
100
AcDbEntity
  8
00_COMPONENTS
100
AcDbLine
 62
9
  6
CONTINUOUS
 10
84.8600336917
 20
46.4137947942
 11
84.5298822113
 21
46.4137947942
  0
LINE
  5
3CA
100
AcDbEntity
  8
00_COMPONENTS
100
AcDbLine
 62
9
  6
CONTINUOUS
 10
83.6100336917
 20
46.4137947942
 11
83.2798822113
 21
46.4137947942
  0
LINE
  5
3CB
100
AcDbEntity
  8
00_COMPONENTS
100
AcDbLine
 62
9
  6
CONTINUOUS
 10
82.3600336917
 20
46.4137947942
 11
82.0298822113
 21
46.4137947942
  0
LINE
  5
3CC
100
AcDbEntity
  8
00_COMPONENTS
100
AcDbLine
 62
9
  6
CONTINUOUS
 10
81.1100336917
 20
46.4137947942
 11
80.7798822113
 21
46.4137947942
  0
LINE
  5
3CD
100
AcDbEntity
  8
00_COMPONENTS
100
AcDbLine
 62
9
  6
CONTINUOUS
 10
79.8600336917
 20
46.4137947942
 11
79.5298822113
 21
46.4137947942
  0
LINE
  5
3CE
100
AcDbEntity
  8
00_COMPONENTS
100
AcDbLine
 62
9
  6
CONTINUOUS
 10
78.6100336917
 20
46.4137947942
 11
78.2798822113
 21
46.4137947942
  0
LINE
  5
3CF
100
AcDbEntity
  8
00_COMPONENTS
100
AcDbLine
 62
9
  6
CONTINUOUS
 10
35.7209158969
 20
46.4137947942
 11
35.3907644165
 21
46.4137947942
  0
LINE
  5
3D0
100
AcDbEntity
  8
00_COMPONENTS
100
AcDbLine
 62
9
  6
CONTINUOUS
 10
34.4709158969
 20
46.4137947942
 11
34.1407644165
 21
46.4137947942
  0
LINE
  5
3D1
100
AcDbEntity
  8
00_COMPONENTS
100
AcDbLine
 62
9
  6
CONTINUOUS
 10
33.2209158969
 20
46.4137947942
 11
32.8907644165
 21
46.4137947942
  0
LINE
  5
3D2
100
AcDbEntity
  8
00_COMPONENTS
100
AcDbLine
 62
9
  6
CONTINUOUS
 10
31.9709158969
 20
46.4137947942
 11
31.6407644165
 21
46.4137947942
  0
LINE
  5
3D3
100
AcDbEntity
  8
00_COMPONENTS
100
AcDbLine
 62
9
  6
CONTINUOUS
 10
30.7209158969
 20
46.4137947942
 11
30.3907644165
 21
46.4137947942
  0
LINE
  5
3D4
100
AcDbEntity
  8
00_COMPONENTS
100
AcDbLine
 62
9
  6
CONTINUOUS
 10
29.4709158969
 20
46.4137947942
 11
29.1407644165
 21
46.4137947942
  0
LINE
  5
3D5
100
AcDbEntity
  8
00_COMPONENTS
100
AcDbLine
 62
9
  6
CONTINUOUS
 10
28.2209158969
 20
46.4137947942
 11
27.8907644165
 21
46.4137947942
  0
LINE
  5
3D6
100
AcDbEntity
  8
00_COMPONENTS
100
AcDbLine
 62
3
  6
CONTINUOUS
 10
37.1699078358
 20
46.4348857497
 11
37.7039078358
 21
46.4348857497
  0
LINE
  5
3D7
100
AcDbEntity
  8
00_COMPONENTS
100
AcDbLine
 62
7
  6
CONTINUOUS
 10
37.7039078358
 20
46.4348857497
 11
76.8469078358
 21
46.4348857497
  0
LINE
  5
3D8
100
AcDbEntity
  8
00_COMPONENTS
100
AcDbLine
 62
3
  6
CONTINUOUS
 10
76.6899078358
 20
46.5318857497
 11
37.7639078358
 21
46.5318857497
  0
LINE
  5
3D9
100
AcDbEntity
  8
00_COMPONENTS
100
AcDbLine
 62
9
  6
CONTINUOUS
 10
86.4839726917
 20
46.7137947942
 11
86.4100336917
 21
46.7137947942
  0
LINE
  5
3DA
100
AcDbEntity
  8
00_COMPONENTS
100
AcDbLine
 62
9
  6
CONTINUOUS
 10
85.2339726917
 20
46.7137947942
 11
85.1600336917
 21
46.7137947942
  0
LINE
  5
3DB
100
AcDbEntity
  8
00_COMPONENTS
100
AcDbLine
 62
9
  6
CONTINUOUS
 10
83.9839726917
 20
46.7137947942
 11
83.9100336917
 21
46.7137947942
  0
LINE
  5
3DC
100
AcDbEntity
  8
00_COMPONENTS
100
AcDbLine
 62
9
  6
CONTINUOUS
 10
82.7339726917
 20
46.7137947942
 11
82.6600336917
 21
46.7137947942
  0
LINE
  5
3DD
100
AcDbEntity
  8
00_COMPONENTS
100
AcDbLine
 62
9
  6
CONTINUOUS
 10
81.4839726917
 20
46.7137947942
 11
81.4100336917
 21
46.7137947942
  0
LINE
  5
3DE
100
AcDbEntity
  8
00_COMPONENTS
100
AcDbLine
 62
9
  6
CONTINUOUS
 10
80.2339726917
 20
46.7137947942
 11
80.1600336917
 21
46.7137947942
  0
LINE
  5
3DF
100
AcDbEntity
  8
00_COMPONENTS
100
AcDbLine
 62
9
  6
CONTINUOUS
 10
78.9839726917
 20
46.7137947942
 11
78.9100336917
 21
46.7137947942
  0
LINE
  5
3E0
100
AcDbEntity
  8
00_COMPONENTS
100
AcDbLine
 62
9
  6
CONTINUOUS
 10
36.0948548969
 20
46.7137947942
 11
36.0209158969
 21
46.7137947942
  0
LINE
  5
3E1
100
AcDbEntity
  8
00_COMPONENTS
100
AcDbLine
 62
9
  6
CONTINUOUS
 10
34.8448548969
 20
46.7137947942
 11
34.7709158969
 21
46.7137947942
  0
LINE
  5
3E2
100
AcDbEntity
  8
00_COMPONENTS
100
AcDbLine
 62
9
  6
CONTINUOUS
 10
33.5948548969
 20
46.7137947942
 11
33.5209158969
 21
46.7137947942
  0
LINE
  5
3E3
100
AcDbEntity
  8
00_COMPONENTS
100
AcDbLine
 62
9
  6
CONTINUOUS
 10
32.3448548969
 20
46.7137947942
 11
32.2709158969
 21
46.7137947942
  0
LINE
  5
3E4
100
AcDbEntity
  8
00_COMPONENTS
100
AcDbLine
 62
9
  6
CONTINUOUS
 10
31.0948548969
 20
46.7137947942
 11
31.0209158969
 21
46.7137947942
  0
LINE
  5
3E5
100
AcDbEntity
  8
00_COMPONENTS
100
AcDbLine
 62
9
  6
CONTINUOUS
 10
29.8448548969
 20
46.7137947942
 11
29.7709158969
 21
46.7137947942
  0
LINE
  5
3E6
100
AcDbEntity
  8
00_COMPONENTS
100
AcDbLine
 62
9
  6
CONTINUOUS
 10
28.5948548969
 20
46.7137947942
 11
28.5209158969
 21
46.7137947942
  0
LINE
  5
3E7
100
AcDbEntity
  8
00_COMPONENTS
100
AcDbLine
 62
7
  6
CONTINUOUS
 10
86.4839726917
 20
47.0439462746
 11
86.4100336917
 21
47.0439462746
  0
LINE
  5
3E8
100
AcDbEntity
  8
00_COMPONENTS
100
AcDbLine
 62
7
  6
CONTINUOUS
 10
85.2339726917
 20
47.0439462746
 11
85.1600336917
 21
47.0439462746
  0
LINE
  5
3E9
100
AcDbEntity
  8
00_COMPONENTS
100
AcDbLine
 62
7
  6
CONTINUOUS
 10
83.9839726917
 20
47.0439462746
 11
83.9100336917
 21
47.0439462746
  0
LINE
  5
3EA
100
AcDbEntity
  8
00_COMPONENTS
100
AcDbLine
 62
7
  6
CONTINUOUS
 10
82.7339726917
 20
47.0439462746
 11
82.6600336917
 21
47.0439462746
  0
LINE
  5
3EB
100
AcDbEntity
  8
00_COMPONENTS
100
AcDbLine
 62
7
  6
CONTINUOUS
 10
81.4839726917
 20
47.0439462746
 11
81.4100336917
 21
47.0439462746
  0
LINE
  5
3EC
100
AcDbEntity
  8
00_COMPONENTS
100
AcDbLine
 62
7
  6
CONTINUOUS
 10
80.2339726917
 20
47.0439462746
 11
80.1600336917
 21
47.0439462746
  0
LINE
  5
3ED
100
AcDbEntity
  8
00_COMPONENTS
100
AcDbLine
 62
7
  6
CONTINUOUS
 10
78.9839726917
 20
47.0439462746
 11
78.9100336917
 21
47.0439462746
  0
LINE
  5
3EE
100
AcDbEntity
  8
00_COMPONENTS
100
AcDbLine
 62
7
  6
CONTINUOUS
 10
36.0948548969
 20
47.0439462746
 11
36.0209158969
 21
47.0439462746
  0
LINE
  5
3EF
100
AcDbEntity
  8
00_COMPONENTS
100
AcDbLine
 62
7
  6
CONTINUOUS
 10
34.8448548969
 20
47.0439462746
 11
34.7709158969
 21
47.0439462746
  0
LINE
  5
3F0
100
AcDbEntity
  8
00_COMPONENTS
100
AcDbLine
 62
7
  6
CONTINUOUS
 10
33.5948548969
 20
47.0439462746
 11
33.5209158969
 21
47.0439462746
  0
LINE
  5
3F1
100
AcDbEntity
  8
00_COMPONENTS
100
AcDbLine
 62
7
  6
CONTINUOUS
 10
32.3448548969
 20
47.0439462746
 11
32.2709158969
 21
47.0439462746
  0
LINE
  5
3F2
100
AcDbEntity
  8
00_COMPONENTS
100
AcDbLine
 62
7
  6
CONTINUOUS
 10
31.0948548969
 20
47.0439462746
 11
31.0209158969
 21
47.0439462746
  0
LINE
  5
3F3
100
AcDbEntity
  8
00_COMPONENTS
100
AcDbLine
 62
7
  6
CONTINUOUS
 10
29.8448548969
 20
47.0439462746
 11
29.7709158969
 21
47.0439462746
  0
LINE
  5
3F4
100
AcDbEntity
  8
00_COMPONENTS
100
AcDbLine
 62
7
  6
CONTINUOUS
 10
28.5948548969
 20
47.0439462746
 11
28.5209158969
 21
47.0439462746
  0
LINE
  5
3F5
100
AcDbEntity
  8
00_COMPONENTS
100
AcDbLine
 62
7
  6
CONTINUOUS
 10
28.5209158969
 20
47.6836433138
 11
28.5948548969
 21
47.6836433138
  0
LINE
  5
3F6
100
AcDbEntity
  8
00_COMPONENTS
100
AcDbLine
 62
7
  6
CONTINUOUS
 10
29.7709158969
 20
47.6836433138
 11
29.8448548969
 21
47.6836433138
  0
LINE
  5
3F7
100
AcDbEntity
  8
00_COMPONENTS
100
AcDbLine
 62
7
  6
CONTINUOUS
 10
31.0209158969
 20
47.6836433138
 11
31.0948548969
 21
47.6836433138
  0
LINE
  5
3F8
100
AcDbEntity
  8
00_COMPONENTS
100
AcDbLine
 62
7
  6
CONTINUOUS
 10
32.2709158969
 20
47.6836433138
 11
32.3448548969
 21
47.6836433138
  0
LINE
  5
3F9
100
AcDbEntity
  8
00_COMPONENTS
100
AcDbLine
 62
7
  6
CONTINUOUS
 10
33.5209158969
 20
47.6836433138
 11
33.5948548969
 21
47.6836433138
  0
LINE
  5
3FA
100
AcDbEntity
  8
00_COMPONENTS
100
AcDbLine
 62
7
  6
CONTINUOUS
 10
34.7709158969
 20
47.6836433138
 11
34.8448548969
 21
47.6836433138
  0
LINE
  5
3FB
100
AcDbEntity
  8
00_COMPONENTS
100
AcDbLine
 62
7
  6
CONTINUOUS
 10
36.0209158969
 20
47.6836433138
 11
36.0948548969
 21
47.6836433138
  0
LINE
  5
3FC
100
AcDbEntity
  8
00_COMPONENTS
100
AcDbLine
 62
7
  6
CONTINUOUS
 10
78.9100336917
 20
47.6836433138
 11
78.9839726917
 21
47.6836433138
  0
LINE
  5
3FD
100
AcDbEntity
  8
00_COMPONENTS
100
AcDbLine
 62
7
  6
CONTINUOUS
 10
80.1600336917
 20
47.6836433138
 11
80.2339726917
 21
47.6836433138
  0
LINE
  5
3FE
100
AcDbEntity
  8
00_COMPONENTS
100
AcDbLine
 62
7
  6
CONTINUOUS
 10
81.4100336917
 20
47.6836433138
 11
81.4839726917
 21
47.6836433138
  0
LINE
  5
3FF
100
AcDbEntity
  8
00_COMPONENTS
100
AcDbLine
 62
7
  6
CONTINUOUS
 10
82.6600336917
 20
47.6836433138
 11
82.7339726917
 21
47.6836433138
  0
LINE
  5
400
100
AcDbEntity
  8
00_COMPONENTS
100
AcDbLine
 62
7
  6
CONTINUOUS
 10
83.9100336917
 20
47.6836433138
 11
83.9839726917
 21
47.6836433138
  0
LINE
  5
401
100
AcDbEntity
  8
00_COMPONENTS
100
AcDbLine
 62
7
  6
CONTINUOUS
 10
85.1600336917
 20
47.6836433138
 11
85.2339726917
 21
47.6836433138
  0
LINE
  5
402
100
AcDbEntity
  8
00_COMPONENTS
100
AcDbLine
 62
7
  6
CONTINUOUS
 10
86.4100336917
 20
47.6836433138
 11
86.4839726917
 21
47.6836433138
  0
LINE
  5
403
100
AcDbEntity
  8
00_COMPONENTS
100
AcDbLine
 62
9
  6
CONTINUOUS
 10
28.5209158969
 20
48.0137947942
 11
28.5948548969
 21
48.0137947942
  0
LINE
  5
404
100
AcDbEntity
  8
00_COMPONENTS
100
AcDbLine
 62
9
  6
CONTINUOUS
 10
29.7709158969
 20
48.0137947942
 11
29.8448548969
 21
48.0137947942
  0
LINE
  5
405
100
AcDbEntity
  8
00_COMPONENTS
100
AcDbLine
 62
9
  6
CONTINUOUS
 10
31.0209158969
 20
48.0137947942
 11
31.0948548969
 21
48.0137947942
  0
LINE
  5
406
100
AcDbEntity
  8
00_COMPONENTS
100
AcDbLine
 62
9
  6
CONTINUOUS
 10
32.2709158969
 20
48.0137947942
 11
32.3448548969
 21
48.0137947942
  0
LINE
  5
407
100
AcDbEntity
  8
00_COMPONENTS
100
AcDbLine
 62
9
  6
CONTINUOUS
 10
33.5209158969
 20
48.0137947942
 11
33.5948548969
 21
48.0137947942
  0
LINE
  5
408
100
AcDbEntity
  8
00_COMPONENTS
100
AcDbLine
 62
9
  6
CONTINUOUS
 10
34.7709158969
 20
48.0137947942
 11
34.8448548969
 21
48.0137947942
  0
LINE
  5
409
100
AcDbEntity
  8
00_COMPONENTS
100
AcDbLine
 62
9
  6
CONTINUOUS
 10
36.0209158969
 20
48.0137947942
 11
36.0948548969
 21
48.0137947942
  0
LINE
  5
40A
100
AcDbEntity
  8
00_COMPONENTS
100
AcDbLine
 62
9
  6
CONTINUOUS
 10
78.9100336917
 20
48.0137947942
 11
78.9839726917
 21
48.0137947942
  0
LINE
  5
40B
100
AcDbEntity
  8
00_COMPONENTS
100
AcDbLine
 62
9
  6
CONTINUOUS
 10
80.1600336917
 20
48.0137947942
 11
80.2339726917
 21
48.0137947942
  0
LINE
  5
40C
100
AcDbEntity
  8
00_COMPONENTS
100
AcDbLine
 62
9
  6
CONTINUOUS
 10
81.4100336917
 20
48.0137947942
 11
81.4839726917
 21
48.0137947942
  0
LINE
  5
40D
100
AcDbEntity
  8
00_COMPONENTS
100
AcDbLine
 62
9
  6
CONTINUOUS
 10
82.6600336917
 20
48.0137947942
 11
82.7339726917
 21
48.0137947942
  0
LINE
  5
40E
100
AcDbEntity
  8
00_COMPONENTS
100
AcDbLine
 62
9
  6
CONTINUOUS
 10
83.9100336917
 20
48.0137947942
 11
83.9839726917
 21
48.0137947942
  0
LINE
  5
40F
100
AcDbEntity
  8
00_COMPONENTS
100
AcDbLine
 62
9
  6
CONTINUOUS
 10
85.1600336917
 20
48.0137947942
 11
85.2339726917
 21
48.0137947942
  0
LINE
  5
410
100
AcDbEntity
  8
00_COMPONENTS
100
AcDbLine
 62
9
  6
CONTINUOUS
 10
86.4100336917
 20
48.0137947942
 11
86.4839726917
 21
48.0137947942
  0
LINE
  5
411
100
AcDbEntity
  8
00_COMPONENTS
100
AcDbLine
 62
9
  6
CONTINUOUS
 10
86.1100336917
 20
48.3137947942
 11
85.7798822113
 21
48.3137947942
  0
LINE
  5
412
100
AcDbEntity
  8
00_COMPONENTS
100
AcDbLine
 62
9
  6
CONTINUOUS
 10
84.8600336917
 20
48.3137947942
 11
84.5298822113
 21
48.3137947942
  0
LINE
  5
413
100
AcDbEntity
  8
00_COMPONENTS
100
AcDbLine
 62
9
  6
CONTINUOUS
 10
83.6100336917
 20
48.3137947942
 11
83.2798822113
 21
48.3137947942
  0
LINE
  5
414
100
AcDbEntity
  8
00_COMPONENTS
100
AcDbLine
 62
9
  6
CONTINUOUS
 10
82.3600336917
 20
48.3137947942
 11
82.0298822113
 21
48.3137947942
  0
LINE
  5
415
100
AcDbEntity
  8
00_COMPONENTS
100
AcDbLine
 62
9
  6
CONTINUOUS
 10
81.1100336917
 20
48.3137947942
 11
80.7798822113
 21
48.3137947942
  0
LINE
  5
416
100
AcDbEntity
  8
00_COMPONENTS
100
AcDbLine
 62
9
  6
CONTINUOUS
 10
79.8600336917
 20
48.3137947942
 11
79.5298822113
 21
48.3137947942
  0
LINE
  5
417
100
AcDbEntity
  8
00_COMPONENTS
100
AcDbLine
 62
9
  6
CONTINUOUS
 10
78.6100336917
 20
48.3137947942
 11
78.2798822113
 21
48.3137947942
  0
LINE
  5
418
100
AcDbEntity
  8
00_COMPONENTS
100
AcDbLine
 62
9
  6
CONTINUOUS
 10
35.7209158969
 20
48.3137947942
 11
35.3907644165
 21
48.3137947942
  0
LINE
  5
419
100
AcDbEntity
  8
00_COMPONENTS
100
AcDbLine
 62
9
  6
CONTINUOUS
 10
34.4709158969
 20
48.3137947942
 11
34.1407644165
 21
48.3137947942
  0
LINE
  5
41A
100
AcDbEntity
  8
00_COMPONENTS
100
AcDbLine
 62
9
  6
CONTINUOUS
 10
33.2209158969
 20
48.3137947942
 11
32.8907644165
 21
48.3137947942
  0
LINE
  5
41B
100
AcDbEntity
  8
00_COMPONENTS
100
AcDbLine
 62
9
  6
CONTINUOUS
 10
31.9709158969
 20
48.3137947942
 11
31.6407644165
 21
48.3137947942
  0
LINE
  5
41C
100
AcDbEntity
  8
00_COMPONENTS
100
AcDbLine
 62
9
  6
CONTINUOUS
 10
30.7209158969
 20
48.3137947942
 11
30.3907644165
 21
48.3137947942
  0
LINE
  5
41D
100
AcDbEntity
  8
00_COMPONENTS
100
AcDbLine
 62
9
  6
CONTINUOUS
 10
29.4709158969
 20
48.3137947942
 11
29.1407644165
 21
48.3137947942
  0
LINE
  5
41E
100
AcDbEntity
  8
00_COMPONENTS
100
AcDbLine
 62
9
  6
CONTINUOUS
 10
28.2209158969
 20
48.3137947942
 11
27.8907644165
 21
48.3137947942
  0
LINE
  5
41F
100
AcDbEntity
  8
00_COMPONENTS
100
AcDbLine
 62
7
  6
CONTINUOUS
 10
40.3071078358
 20
58.5707532631
 11
40.3571078358
 21
58.5418857497
  0
LINE
  5
420
100
AcDbEntity
  8
00_COMPONENTS
100
AcDbLine
 62
7
  6
CONTINUOUS
 10
55.5271078358
 20
58.5707532631
 11
55.5271078358
 21
58.7630182362
  0
LINE
  5
421
100
AcDbEntity
  8
00_COMPONENTS
100
AcDbLine
 62
7
  6
CONTINUOUS
 10
55.5771078358
 20
58.5418857497
 11
55.5771078358
 21
58.7918857497
  0
LINE
  5
422
100
AcDbEntity
  8
00_COMPONENTS
100
AcDbLine
 62
7
  6
CONTINUOUS
 10
57.2269078358
 20
57.9348857497
 11
57.2269078358
 21
58.884879055
  0
LINE
  5
423
100
AcDbEntity
  8
00_COMPONENTS
100
AcDbLine
 62
9
  6
CONTINUOUS
 10
86.1100336917
 20
51.4137947942
 11
85.7798822113
 21
51.4137947942
  0
LINE
  5
424
100
AcDbEntity
  8
00_COMPONENTS
100
AcDbLine
 62
9
  6
CONTINUOUS
 10
84.8600336917
 20
51.4137947942
 11
84.5298822113
 21
51.4137947942
  0
LINE
  5
425
100
AcDbEntity
  8
00_COMPONENTS
100
AcDbLine
 62
9
  6
CONTINUOUS
 10
83.6100336917
 20
51.4137947942
 11
83.2798822113
 21
51.4137947942
  0
LINE
  5
426
100
AcDbEntity
  8
00_COMPONENTS
100
AcDbLine
 62
9
  6
CONTINUOUS
 10
82.3600336917
 20
51.4137947942
 11
82.0298822113
 21
51.4137947942
  0
LINE
  5
427
100
AcDbEntity
  8
00_COMPONENTS
100
AcDbLine
 62
9
  6
CONTINUOUS
 10
81.1100336917
 20
51.4137947942
 11
80.7798822113
 21
51.4137947942
  0
LINE
  5
428
100
AcDbEntity
  8
00_COMPONENTS
100
AcDbLine
 62
9
  6
CONTINUOUS
 10
79.8600336917
 20
51.4137947942
 11
79.5298822113
 21
51.4137947942
  0
LINE
  5
429
100
AcDbEntity
  8
00_COMPONENTS
100
AcDbLine
 62
9
  6
CONTINUOUS
 10
78.6100336917
 20
51.4137947942
 11
78.2798822113
 21
51.4137947942
  0
LINE
  5
42A
100
AcDbEntity
  8
00_COMPONENTS
100
AcDbLine
 62
9
  6
CONTINUOUS
 10
35.7209158969
 20
51.4137947942
 11
35.3907644165
 21
51.4137947942
  0
LINE
  5
42B
100
AcDbEntity
  8
00_COMPONENTS
100
AcDbLine
 62
9
  6
CONTINUOUS
 10
34.4709158969
 20
51.4137947942
 11
34.1407644165
 21
51.4137947942
  0
LINE
  5
42C
100
AcDbEntity
  8
00_COMPONENTS
100
AcDbLine
 62
9
  6
CONTINUOUS
 10
33.2209158969
 20
51.4137947942
 11
32.8907644165
 21
51.4137947942
  0
LINE
  5
42D
100
AcDbEntity
  8
00_COMPONENTS
100
AcDbLine
 62
9
  6
CONTINUOUS
 10
31.9709158969
 20
51.4137947942
 11
31.6407644165
 21
51.4137947942
  0
LINE
  5
42E
100
AcDbEntity
  8
00_COMPONENTS
100
AcDbLine
 62
9
  6
CONTINUOUS
 10
30.7209158969
 20
51.4137947942
 11
30.3907644165
 21
51.4137947942
  0
LINE
  5
42F
100
AcDbEntity
  8
00_COMPONENTS
100
AcDbLine
 62
9
  6
CONTINUOUS
 10
29.4709158969
 20
51.4137947942
 11
29.1407644165
 21
51.4137947942
  0
LINE
  5
430
100
AcDbEntity
  8
00_COMPONENTS
100
AcDbLine
 62
9
  6
CONTINUOUS
 10
28.2209158969
 20
51.4137947942
 11
27.8907644165
 21
51.4137947942
  0
LINE
  5
431
100
AcDbEntity
  8
00_COMPONENTS
100
AcDbLine
 62
9
  6
CONTINUOUS
 10
86.4839726917
 20
51.7137947942
 11
86.4100336917
 21
51.7137947942
  0
LINE
  5
432
100
AcDbEntity
  8
00_COMPONENTS
100
AcDbLine
 62
9
  6
CONTINUOUS
 10
85.2339726917
 20
51.7137947942
 11
85.1600336917
 21
51.7137947942
  0
LINE
  5
433
100
AcDbEntity
  8
00_COMPONENTS
100
AcDbLine
 62
9
  6
CONTINUOUS
 10
83.9839726917
 20
51.7137947942
 11
83.9100336917
 21
51.7137947942
  0
LINE
  5
434
100
AcDbEntity
  8
00_COMPONENTS
100
AcDbLine
 62
9
  6
CONTINUOUS
 10
82.7339726917
 20
51.7137947942
 11
82.6600336917
 21
51.7137947942
  0
LINE
  5
435
100
AcDbEntity
  8
00_COMPONENTS
100
AcDbLine
 62
9
  6
CONTINUOUS
 10
81.4839726917
 20
51.7137947942
 11
81.4100336917
 21
51.7137947942
  0
LINE
  5
436
100
AcDbEntity
  8
00_COMPONENTS
100
AcDbLine
 62
9
  6
CONTINUOUS
 10
80.2339726917
 20
51.7137947942
 11
80.1600336917
 21
51.7137947942
  0
LINE
  5
437
100
AcDbEntity
  8
00_COMPONENTS
100
AcDbLine
 62
9
  6
CONTINUOUS
 10
78.9839726917
 20
51.7137947942
 11
78.9100336917
 21
51.7137947942
  0
LINE
  5
438
100
AcDbEntity
  8
00_COMPONENTS
100
AcDbLine
 62
9
  6
CONTINUOUS
 10
36.0948548969
 20
51.7137947942
 11
36.0209158969
 21
51.7137947942
  0
LINE
  5
439
100
AcDbEntity
  8
00_COMPONENTS
100
AcDbLine
 62
9
  6
CONTINUOUS
 10
34.8448548969
 20
51.7137947942
 11
34.7709158969
 21
51.7137947942
  0
LINE
  5
43A
100
AcDbEntity
  8
00_COMPONENTS
100
AcDbLine
 62
9
  6
CONTINUOUS
 10
33.5948548969
 20
51.7137947942
 11
33.5209158969
 21
51.7137947942
  0
LINE
  5
43B
100
AcDbEntity
  8
00_COMPONENTS
100
AcDbLine
 62
9
  6
CONTINUOUS
 10
32.3448548969
 20
51.7137947942
 11
32.2709158969
 21
51.7137947942
  0
LINE
  5
43C
100
AcDbEntity
  8
00_COMPONENTS
100
AcDbLine
 62
9
  6
CONTINUOUS
 10
31.0948548969
 20
51.7137947942
 11
31.0209158969
 21
51.7137947942
  0
LINE
  5
43D
100
AcDbEntity
  8
00_COMPONENTS
100
AcDbLine
 62
9
  6
CONTINUOUS
 10
29.8448548969
 20
51.7137947942
 11
29.7709158969
 21
51.7137947942
  0
LINE
  5
43E
100
AcDbEntity
  8
00_COMPONENTS
100
AcDbLine
 62
9
  6
CONTINUOUS
 10
28.5948548969
 20
51.7137947942
 11
28.5209158969
 21
51.7137947942
  0
LINE
  5
43F
100
AcDbEntity
  8
00_COMPONENTS
100
AcDbLine
 62
7
  6
CONTINUOUS
 10
86.4839726917
 20
52.0439462746
 11
86.4100336917
 21
52.0439462746
  0
LINE
  5
440
100
AcDbEntity
  8
00_COMPONENTS
100
AcDbLine
 62
7
  6
CONTINUOUS
 10
85.2339726917
 20
52.0439462746
 11
85.1600336917
 21
52.0439462746
  0
LINE
  5
441
100
AcDbEntity
  8
00_COMPONENTS
100
AcDbLine
 62
7
  6
CONTINUOUS
 10
83.9839726917
 20
52.0439462746
 11
83.9100336917
 21
52.0439462746
  0
LINE
  5
442
100
AcDbEntity
  8
00_COMPONENTS
100
AcDbLine
 62
7
  6
CONTINUOUS
 10
82.7339726917
 20
52.0439462746
 11
82.6600336917
 21
52.0439462746
  0
LINE
  5
443
100
AcDbEntity
  8
00_COMPONENTS
100
AcDbLine
 62
7
  6
CONTINUOUS
 10
81.4839726917
 20
52.0439462746
 11
81.4100336917
 21
52.0439462746
  0
LINE
  5
444
100
AcDbEntity
  8
00_COMPONENTS
100
AcDbLine
 62
7
  6
CONTINUOUS
 10
80.2339726917
 20
52.0439462746
 11
80.1600336917
 21
52.0439462746
  0
LINE
  5
445
100
AcDbEntity
  8
00_COMPONENTS
100
AcDbLine
 62
7
  6
CONTINUOUS
 10
78.9839726917
 20
52.0439462746
 11
78.9100336917
 21
52.0439462746
  0
LINE
  5
446
100
AcDbEntity
  8
00_COMPONENTS
100
AcDbLine
 62
7
  6
CONTINUOUS
 10
36.0948548969
 20
52.0439462746
 11
36.0209158969
 21
52.0439462746
  0
LINE
  5
447
100
AcDbEntity
  8
00_COMPONENTS
100
AcDbLine
 62
7
  6
CONTINUOUS
 10
34.8448548969
 20
52.0439462746
 11
34.7709158969
 21
52.0439462746
  0
LINE
  5
448
100
AcDbEntity
  8
00_COMPONENTS
100
AcDbLine
 62
7
  6
CONTINUOUS
 10
33.5948548969
 20
52.0439462746
 11
33.5209158969
 21
52.0439462746
  0
LINE
  5
449
100
AcDbEntity
  8
00_COMPONENTS
100
AcDbLine
 62
7
  6
CONTINUOUS
 10
32.3448548969
 20
52.0439462746
 11
32.2709158969
 21
52.0439462746
  0
LINE
  5
44A
100
AcDbEntity
  8
00_COMPONENTS
100
AcDbLine
 62
7
  6
CONTINUOUS
 10
31.0948548969
 20
52.0439462746
 11
31.0209158969
 21
52.0439462746
  0
LINE
  5
44B
100
AcDbEntity
  8
00_COMPONENTS
100
AcDbLine
 62
7
  6
CONTINUOUS
 10
29.8448548969
 20
52.0439462746
 11
29.7709158969
 21
52.0439462746
  0
LINE
  5
44C
100
AcDbEntity
  8
00_COMPONENTS
100
AcDbLine
 62
7
  6
CONTINUOUS
 10
28.5948548969
 20
52.0439462746
 11
28.5209158969
 21
52.0439462746
  0
LINE
  5
44D
100
AcDbEntity
  8
00_COMPONENTS
100
AcDbLine
 62
7
  6
CONTINUOUS
 10
58.7269078358
 20
58.8848791961
 11
58.7269078358
 21
57.9348857497
  0
LINE
  5
44E
100
AcDbEntity
  8
00_COMPONENTS
100
AcDbLine
 62
7
  6
CONTINUOUS
 10
70.7471078358
 20
58.7630182362
 11
70.7971078358
 21
58.7918857497
  0
LINE
  5
44F
100
AcDbEntity
  8
00_COMPONENTS
100
AcDbLine
 62
7
  6
CONTINUOUS
 10
28.5209158969
 20
52.6836433138
 11
28.5948548969
 21
52.6836433138
  0
LINE
  5
450
100
AcDbEntity
  8
00_COMPONENTS
100
AcDbLine
 62
7
  6
CONTINUOUS
 10
29.7709158969
 20
52.6836433138
 11
29.8448548969
 21
52.6836433138
  0
LINE
  5
451
100
AcDbEntity
  8
00_COMPONENTS
100
AcDbLine
 62
7
  6
CONTINUOUS
 10
31.0209158969
 20
52.6836433138
 11
31.0948548969
 21
52.6836433138
  0
LINE
  5
452
100
AcDbEntity
  8
00_COMPONENTS
100
AcDbLine
 62
7
  6
CONTINUOUS
 10
32.2709158969
 20
52.6836433138
 11
32.3448548969
 21
52.6836433138
  0
LINE
  5
453
100
AcDbEntity
  8
00_COMPONENTS
100
AcDbLine
 62
7
  6
CONTINUOUS
 10
33.5209158969
 20
52.6836433138
 11
33.5948548969
 21
52.6836433138
  0
LINE
  5
454
100
AcDbEntity
  8
00_COMPONENTS
100
AcDbLine
 62
7
  6
CONTINUOUS
 10
34.7709158969
 20
52.6836433138
 11
34.8448548969
 21
52.6836433138
  0
LINE
  5
455
100
AcDbEntity
  8
00_COMPONENTS
100
AcDbLine
 62
7
  6
CONTINUOUS
 10
36.0209158969
 20
52.6836433138
 11
36.0948548969
 21
52.6836433138
  0
LINE
  5
456
100
AcDbEntity
  8
00_COMPONENTS
100
AcDbLine
 62
7
  6
CONTINUOUS
 10
78.9100336917
 20
52.6836433138
 11
78.9839726917
 21
52.6836433138
  0
LINE
  5
457
100
AcDbEntity
  8
00_COMPONENTS
100
AcDbLine
 62
7
  6
CONTINUOUS
 10
80.1600336917
 20
52.6836433138
 11
80.2339726917
 21
52.6836433138
  0
LINE
  5
458
100
AcDbEntity
  8
00_COMPONENTS
100
AcDbLine
 62
7
  6
CONTINUOUS
 10
81.4100336917
 20
52.6836433138
 11
81.4839726917
 21
52.6836433138
  0
LINE
  5
459
100
AcDbEntity
  8
00_COMPONENTS
100
AcDbLine
 62
7
  6
CONTINUOUS
 10
82.6600336917
 20
52.6836433138
 11
82.7339726917
 21
52.6836433138
  0
LINE
  5
45A
100
AcDbEntity
  8
00_COMPONENTS
100
AcDbLine
 62
7
  6
CONTINUOUS
 10
83.9100336917
 20
52.6836433138
 11
83.9839726917
 21
52.6836433138
  0
LINE
  5
45B
100
AcDbEntity
  8
00_COMPONENTS
100
AcDbLine
 62
7
  6
CONTINUOUS
 10
85.1600336917
 20
52.6836433138
 11
85.2339726917
 21
52.6836433138
  0
LINE
  5
45C
100
AcDbEntity
  8
00_COMPONENTS
100
AcDbLine
 62
7
  6
CONTINUOUS
 10
86.4100336917
 20
52.6836433138
 11
86.4839726917
 21
52.6836433138
  0
LINE
  5
45D
100
AcDbEntity
  8
00_COMPONENTS
100
AcDbLine
 62
9
  6
CONTINUOUS
 10
28.5209158969
 20
53.0137947942
 11
28.5948548969
 21
53.0137947942
  0
LINE
  5
45E
100
AcDbEntity
  8
00_COMPONENTS
100
AcDbLine
 62
9
  6
CONTINUOUS
 10
29.7709158969
 20
53.0137947942
 11
29.8448548969
 21
53.0137947942
  0
LINE
  5
45F
100
AcDbEntity
  8
00_COMPONENTS
100
AcDbLine
 62
9
  6
CONTINUOUS
 10
31.0209158969
 20
53.0137947942
 11
31.0948548969
 21
53.0137947942
  0
LINE
  5
460
100
AcDbEntity
  8
00_COMPONENTS
100
AcDbLine
 62
9
  6
CONTINUOUS
 10
32.2709158969
 20
53.0137947942
 11
32.3448548969
 21
53.0137947942
  0
LINE
  5
461
100
AcDbEntity
  8
00_COMPONENTS
100
AcDbLine
 62
9
  6
CONTINUOUS
 10
33.5209158969
 20
53.0137947942
 11
33.5948548969
 21
53.0137947942
  0
LINE
  5
462
100
AcDbEntity
  8
00_COMPONENTS
100
AcDbLine
 62
9
  6
CONTINUOUS
 10
34.7709158969
 20
53.0137947942
 11
34.8448548969
 21
53.0137947942
  0
LINE
  5
463
100
AcDbEntity
  8
00_COMPONENTS
100
AcDbLine
 62
9
  6
CONTINUOUS
 10
36.0209158969
 20
53.0137947942
 11
36.0948548969
 21
53.0137947942
  0
LINE
  5
464
100
AcDbEntity
  8
00_COMPONENTS
100
AcDbLine
 62
9
  6
CONTINUOUS
 10
78.9100336917
 20
53.0137947942
 11
78.9839726917
 21
53.0137947942
  0
LINE
  5
465
100
AcDbEntity
  8
00_COMPONENTS
100
AcDbLine
 62
9
  6
CONTINUOUS
 10
80.1600336917
 20
53.0137947942
 11
80.2339726917
 21
53.0137947942
  0
LINE
  5
466
100
AcDbEntity
  8
00_COMPONENTS
100
AcDbLine
 62
9
  6
CONTINUOUS
 10
81.4100336917
 20
53.0137947942
 11
81.4839726917
 21
53.0137947942
  0
LINE
  5
467
100
AcDbEntity
  8
00_COMPONENTS
100
AcDbLine
 62
9
  6
CONTINUOUS
 10
82.6600336917
 20
53.0137947942
 11
82.7339726917
 21
53.0137947942
  0
LINE
  5
468
100
AcDbEntity
  8
00_COMPONENTS
100
AcDbLine
 62
9
  6
CONTINUOUS
 10
83.9100336917
 20
53.0137947942
 11
83.9839726917
 21
53.0137947942
  0
LINE
  5
469
100
AcDbEntity
  8
00_COMPONENTS
100
AcDbLine
 62
9
  6
CONTINUOUS
 10
85.1600336917
 20
53.0137947942
 11
85.2339726917
 21
53.0137947942
  0
LINE
  5
46A
100
AcDbEntity
  8
00_COMPONENTS
100
AcDbLine
 62
9
  6
CONTINUOUS
 10
86.4100336917
 20
53.0137947942
 11
86.4839726917
 21
53.0137947942
  0
LINE
  5
46B
100
AcDbEntity
  8
00_COMPONENTS
100
AcDbLine
 62
9
  6
CONTINUOUS
 10
86.1100336917
 20
53.3137947942
 11
85.7798822113
 21
53.3137947942
  0
LINE
  5
46C
100
AcDbEntity
  8
00_COMPONENTS
100
AcDbLine
 62
9
  6
CONTINUOUS
 10
84.8600336917
 20
53.3137947942
 11
84.5298822113
 21
53.3137947942
  0
LINE
  5
46D
100
AcDbEntity
  8
00_COMPONENTS
100
AcDbLine
 62
9
  6
CONTINUOUS
 10
83.6100336917
 20
53.3137947942
 11
83.2798822113
 21
53.3137947942
  0
LINE
  5
46E
100
AcDbEntity
  8
00_COMPONENTS
100
AcDbLine
 62
9
  6
CONTINUOUS
 10
82.3600336917
 20
53.3137947942
 11
82.0298822113
 21
53.3137947942
  0
LINE
  5
46F
100
AcDbEntity
  8
00_COMPONENTS
100
AcDbLine
 62
9
  6
CONTINUOUS
 10
81.1100336917
 20
53.3137947942
 11
80.7798822113
 21
53.3137947942
  0
LINE
  5
470
100
AcDbEntity
  8
00_COMPONENTS
100
AcDbLine
 62
9
  6
CONTINUOUS
 10
79.8600336917
 20
53.3137947942
 11
79.5298822113
 21
53.3137947942
  0
LINE
  5
471
100
AcDbEntity
  8
00_COMPONENTS
100
AcDbLine
 62
9
  6
CONTINUOUS
 10
78.6100336917
 20
53.3137947942
 11
78.2798822113
 21
53.3137947942
  0
LINE
  5
472
100
AcDbEntity
  8
00_COMPONENTS
100
AcDbLine
 62
9
  6
CONTINUOUS
 10
35.7209158969
 20
53.3137947942
 11
35.3907644165
 21
53.3137947942
  0
LINE
  5
473
100
AcDbEntity
  8
00_COMPONENTS
100
AcDbLine
 62
9
  6
CONTINUOUS
 10
34.4709158969
 20
53.3137947942
 11
34.1407644165
 21
53.3137947942
  0
LINE
  5
474
100
AcDbEntity
  8
00_COMPONENTS
100
AcDbLine
 62
9
  6
CONTINUOUS
 10
33.2209158969
 20
53.3137947942
 11
32.8907644165
 21
53.3137947942
  0
LINE
  5
475
100
AcDbEntity
  8
00_COMPONENTS
100
AcDbLine
 62
9
  6
CONTINUOUS
 10
31.9709158969
 20
53.3137947942
 11
31.6407644165
 21
53.3137947942
  0
LINE
  5
476
100
AcDbEntity
  8
00_COMPONENTS
100
AcDbLine
 62
9
  6
CONTINUOUS
 10
30.7209158969
 20
53.3137947942
 11
30.3907644165
 21
53.3137947942
  0
LINE
  5
477
100
AcDbEntity
  8
00_COMPONENTS
100
AcDbLine
 62
9
  6
CONTINUOUS
 10
29.4709158969
 20
53.3137947942
 11
29.1407644165
 21
53.3137947942
  0
LINE
  5
478
100
AcDbEntity
  8
00_COMPONENTS
100
AcDbLine
 62
9
  6
CONTINUOUS
 10
28.2209158969
 20
53.3137947942
 11
27.8907644165
 21
53.3137947942
  0
LINE
  5
479
100
AcDbEntity
  8
00_COMPONENTS
100
AcDbLine
 62
9
  6
CONTINUOUS
 10
86.1100336917
 20
56.4137947942
 11
85.7798822113
 21
56.4137947942
  0
LINE
  5
47A
100
AcDbEntity
  8
00_COMPONENTS
100
AcDbLine
 62
9
  6
CONTINUOUS
 10
84.8600336917
 20
56.4137947942
 11
84.5298822113
 21
56.4137947942
  0
LINE
  5
47B
100
AcDbEntity
  8
00_COMPONENTS
100
AcDbLine
 62
9
  6
CONTINUOUS
 10
83.6100336917
 20
56.4137947942
 11
83.2798822113
 21
56.4137947942
  0
LINE
  5
47C
100
AcDbEntity
  8
00_COMPONENTS
100
AcDbLine
 62
9
  6
CONTINUOUS
 10
82.3600336917
 20
56.4137947942
 11
82.0298822113
 21
56.4137947942
  0
LINE
  5
47D
100
AcDbEntity
  8
00_COMPONENTS
100
AcDbLine
 62
9
  6
CONTINUOUS
 10
81.1100336917
 20
56.4137947942
 11
80.7798822113
 21
56.4137947942
  0
LINE
  5
47E
100
AcDbEntity
  8
00_COMPONENTS
100
AcDbLine
 62
9
  6
CONTINUOUS
 10
79.8600336917
 20
56.4137947942
 11
79.5298822113
 21
56.4137947942
  0
LINE
  5
47F
100
AcDbEntity
  8
00_COMPONENTS
100
AcDbLine
 62
9
  6
CONTINUOUS
 10
78.6100336917
 20
56.4137947942
 11
78.2798822113
 21
56.4137947942
  0
LINE
  5
480
100
AcDbEntity
  8
00_COMPONENTS
100
AcDbLine
 62
9
  6
CONTINUOUS
 10
35.7209158969
 20
56.4137947942
 11
35.3907644165
 21
56.4137947942
  0
LINE
  5
481
100
AcDbEntity
  8
00_COMPONENTS
100
AcDbLine
 62
9
  6
CONTINUOUS
 10
34.4709158969
 20
56.4137947942
 11
34.1407644165
 21
56.4137947942
  0
LINE
  5
482
100
AcDbEntity
  8
00_COMPONENTS
100
AcDbLine
 62
9
  6
CONTINUOUS
 10
33.2209158969
 20
56.4137947942
 11
32.8907644165
 21
56.4137947942
  0
LINE
  5
483
100
AcDbEntity
  8
00_COMPONENTS
100
AcDbLine
 62
9
  6
CONTINUOUS
 10
31.9709158969
 20
56.4137947942
 11
31.6407644165
 21
56.4137947942
  0
LINE
  5
484
100
AcDbEntity
  8
00_COMPONENTS
100
AcDbLine
 62
9
  6
CONTINUOUS
 10
30.7209158969
 20
56.4137947942
 11
30.3907644165
 21
56.4137947942
  0
LINE
  5
485
100
AcDbEntity
  8
00_COMPONENTS
100
AcDbLine
 62
9
  6
CONTINUOUS
 10
29.4709158969
 20
56.4137947942
 11
29.1407644165
 21
56.4137947942
  0
LINE
  5
486
100
AcDbEntity
  8
00_COMPONENTS
100
AcDbLine
 62
9
  6
CONTINUOUS
 10
28.2209158969
 20
56.4137947942
 11
27.8907644165
 21
56.4137947942
  0
LINE
  5
487
100
AcDbEntity
  8
00_COMPONENTS
100
AcDbLine
 62
9
  6
CONTINUOUS
 10
86.4839726917
 20
56.7137947942
 11
86.4100336917
 21
56.7137947942
  0
LINE
  5
488
100
AcDbEntity
  8
00_COMPONENTS
100
AcDbLine
 62
9
  6
CONTINUOUS
 10
85.2339726917
 20
56.7137947942
 11
85.1600336917
 21
56.7137947942
  0
LINE
  5
489
100
AcDbEntity
  8
00_COMPONENTS
100
AcDbLine
 62
9
  6
CONTINUOUS
 10
83.9839726917
 20
56.7137947942
 11
83.9100336917
 21
56.7137947942
  0
LINE
  5
48A
100
AcDbEntity
  8
00_COMPONENTS
100
AcDbLine
 62
9
  6
CONTINUOUS
 10
82.7339726917
 20
56.7137947942
 11
82.6600336917
 21
56.7137947942
  0
LINE
  5
48B
100
AcDbEntity
  8
00_COMPONENTS
100
AcDbLine
 62
9
  6
CONTINUOUS
 10
81.4839726917
 20
56.7137947942
 11
81.4100336917
 21
56.7137947942
  0
LINE
  5
48C
100
AcDbEntity
  8
00_COMPONENTS
100
AcDbLine
 62
9
  6
CONTINUOUS
 10
80.2339726917
 20
56.7137947942
 11
80.1600336917
 21
56.7137947942
  0
LINE
  5
48D
100
AcDbEntity
  8
00_COMPONENTS
100
AcDbLine
 62
9
  6
CONTINUOUS
 10
78.9839726917
 20
56.7137947942
 11
78.9100336917
 21
56.7137947942
  0
LINE
  5
48E
100
AcDbEntity
  8
00_COMPONENTS
100
AcDbLine
 62
9
  6
CONTINUOUS
 10
36.0948548969
 20
56.7137947942
 11
36.0209158969
 21
56.7137947942
  0
LINE
  5
48F
100
AcDbEntity
  8
00_COMPONENTS
100
AcDbLine
 62
9
  6
CONTINUOUS
 10
34.8448548969
 20
56.7137947942
 11
34.7709158969
 21
56.7137947942
  0
LINE
  5
490
100
AcDbEntity
  8
00_COMPONENTS
100
AcDbLine
 62
9
  6
CONTINUOUS
 10
33.5948548969
 20
56.7137947942
 11
33.5209158969
 21
56.7137947942
  0
LINE
  5
491
100
AcDbEntity
  8
00_COMPONENTS
100
AcDbLine
 62
9
  6
CONTINUOUS
 10
32.3448548969
 20
56.7137947942
 11
32.2709158969
 21
56.7137947942
  0
LINE
  5
492
100
AcDbEntity
  8
00_COMPONENTS
100
AcDbLine
 62
9
  6
CONTINUOUS
 10
31.0948548969
 20
56.7137947942
 11
31.0209158969
 21
56.7137947942
  0
LINE
  5
493
100
AcDbEntity
  8
00_COMPONENTS
100
AcDbLine
 62
9
  6
CONTINUOUS
 10
29.8448548969
 20
56.7137947942
 11
29.7709158969
 21
56.7137947942
  0
LINE
  5
494
100
AcDbEntity
  8
00_COMPONENTS
100
AcDbLine
 62
9
  6
CONTINUOUS
 10
28.5948548969
 20
56.7137947942
 11
28.5209158969
 21
56.7137947942
  0
LINE
  5
495
100
AcDbEntity
  8
00_COMPONENTS
100
AcDbLine
 62
7
  6
CONTINUOUS
 10
86.4839726917
 20
57.0439462746
 11
86.4100336917
 21
57.0439462746
  0
LINE
  5
496
100
AcDbEntity
  8
00_COMPONENTS
100
AcDbLine
 62
7
  6
CONTINUOUS
 10
85.2339726917
 20
57.0439462746
 11
85.1600336917
 21
57.0439462746
  0
LINE
  5
497
100
AcDbEntity
  8
00_COMPONENTS
100
AcDbLine
 62
7
  6
CONTINUOUS
 10
83.9839726917
 20
57.0439462746
 11
83.9100336917
 21
57.0439462746
  0
LINE
  5
498
100
AcDbEntity
  8
00_COMPONENTS
100
AcDbLine
 62
7
  6
CONTINUOUS
 10
82.7339726917
 20
57.0439462746
 11
82.6600336917
 21
57.0439462746
  0
LINE
  5
499
100
AcDbEntity
  8
00_COMPONENTS
100
AcDbLine
 62
7
  6
CONTINUOUS
 10
81.4839726917
 20
57.0439462746
 11
81.4100336917
 21
57.0439462746
  0
LINE
  5
49A
100
AcDbEntity
  8
00_COMPONENTS
100
AcDbLine
 62
7
  6
CONTINUOUS
 10
80.2339726917
 20
57.0439462746
 11
80.1600336917
 21
57.0439462746
  0
LINE
  5
49B
100
AcDbEntity
  8
00_COMPONENTS
100
AcDbLine
 62
7
  6
CONTINUOUS
 10
78.9839726917
 20
57.0439462746
 11
78.9100336917
 21
57.0439462746
  0
LINE
  5
49C
100
AcDbEntity
  8
00_COMPONENTS
100
AcDbLine
 62
7
  6
CONTINUOUS
 10
36.0948548969
 20
57.0439462746
 11
36.0209158969
 21
57.0439462746
  0
LINE
  5
49D
100
AcDbEntity
  8
00_COMPONENTS
100
AcDbLine
 62
7
  6
CONTINUOUS
 10
34.8448548969
 20
57.0439462746
 11
34.7709158969
 21
57.0439462746
  0
LINE
  5
49E
100
AcDbEntity
  8
00_COMPONENTS
100
AcDbLine
 62
7
  6
CONTINUOUS
 10
33.5948548969
 20
57.0439462746
 11
33.5209158969
 21
57.0439462746
  0
LINE
  5
49F
100
AcDbEntity
  8
00_COMPONENTS
100
AcDbLine
 62
7
  6
CONTINUOUS
 10
32.3448548969
 20
57.0439462746
 11
32.2709158969
 21
57.0439462746
  0
LINE
  5
4A0
100
AcDbEntity
  8
00_COMPONENTS
100
AcDbLine
 62
7
  6
CONTINUOUS
 10
31.0948548969
 20
57.0439462746
 11
31.0209158969
 21
57.0439462746
  0
LINE
  5
4A1
100
AcDbEntity
  8
00_COMPONENTS
100
AcDbLine
 62
7
  6
CONTINUOUS
 10
29.8448548969
 20
57.0439462746
 11
29.7709158969
 21
57.0439462746
  0
LINE
  5
4A2
100
AcDbEntity
  8
00_COMPONENTS
100
AcDbLine
 62
7
  6
CONTINUOUS
 10
28.5948548969
 20
57.0439462746
 11
28.5209158969
 21
57.0439462746
  0
LINE
  5
4A3
100
AcDbEntity
  8
00_COMPONENTS
100
AcDbLine
 62
7
  6
CONTINUOUS
 10
55.5271078358
 20
58.5707532631
 11
55.5771078358
 21
58.5418857497
  0
LINE
  5
4A4
100
AcDbEntity
  8
00_COMPONENTS
100
AcDbLine
 62
7
  6
CONTINUOUS
 10
28.5209158969
 20
57.6836433138
 11
28.5948548969
 21
57.6836433138
  0
LINE
  5
4A5
100
AcDbEntity
  8
00_COMPONENTS
100
AcDbLine
 62
7
  6
CONTINUOUS
 10
29.7709158969
 20
57.6836433138
 11
29.8448548969
 21
57.6836433138
  0
LINE
  5
4A6
100
AcDbEntity
  8
00_COMPONENTS
100
AcDbLine
 62
7
  6
CONTINUOUS
 10
31.0209158969
 20
57.6836433138
 11
31.0948548969
 21
57.6836433138
  0
LINE
  5
4A7
100
AcDbEntity
  8
00_COMPONENTS
100
AcDbLine
 62
7
  6
CONTINUOUS
 10
32.2709158969
 20
57.6836433138
 11
32.3448548969
 21
57.6836433138
  0
LINE
  5
4A8
100
AcDbEntity
  8
00_COMPONENTS
100
AcDbLine
 62
7
  6
CONTINUOUS
 10
33.5209158969
 20
57.6836433138
 11
33.5948548969
 21
57.6836433138
  0
LINE
  5
4A9
100
AcDbEntity
  8
00_COMPONENTS
100
AcDbLine
 62
7
  6
CONTINUOUS
 10
34.7709158969
 20
57.6836433138
 11
34.8448548969
 21
57.6836433138
  0
LINE
  5
4AA
100
AcDbEntity
  8
00_COMPONENTS
100
AcDbLine
 62
7
  6
CONTINUOUS
 10
36.0209158969
 20
57.6836433138
 11
36.0948548969
 21
57.6836433138
  0
LINE
  5
4AB
100
AcDbEntity
  8
00_COMPONENTS
100
AcDbLine
 62
7
  6
CONTINUOUS
 10
78.9100336917
 20
57.6836433138
 11
78.9839726917
 21
57.6836433138
  0
LINE
  5
4AC
100
AcDbEntity
  8
00_COMPONENTS
100
AcDbLine
 62
7
  6
CONTINUOUS
 10
80.1600336917
 20
57.6836433138
 11
80.2339726917
 21
57.6836433138
  0
LINE
  5
4AD
100
AcDbEntity
  8
00_COMPONENTS
100
AcDbLine
 62
7
  6
CONTINUOUS
 10
81.4100336917
 20
57.6836433138
 11
81.4839726917
 21
57.6836433138
  0
LINE
  5
4AE
100
AcDbEntity
  8
00_COMPONENTS
100
AcDbLine
 62
7
  6
CONTINUOUS
 10
82.6600336917
 20
57.6836433138
 11
82.7339726917
 21
57.6836433138
  0
LINE
  5
4AF
100
AcDbEntity
  8
00_COMPONENTS
100
AcDbLine
 62
7
  6
CONTINUOUS
 10
83.9100336917
 20
57.6836433138
 11
83.9839726917
 21
57.6836433138
  0
LINE
  5
4B0
100
AcDbEntity
  8
00_COMPONENTS
100
AcDbLine
 62
7
  6
CONTINUOUS
 10
85.1600336917
 20
57.6836433138
 11
85.2339726917
 21
57.6836433138
  0
LINE
  5
4B1
100
AcDbEntity
  8
00_COMPONENTS
100
AcDbLine
 62
7
  6
CONTINUOUS
 10
86.4100336917
 20
57.6836433138
 11
86.4839726917
 21
57.6836433138
  0
LINE
  5
4B2
100
AcDbEntity
  8
00_COMPONENTS
100
AcDbLine
 62
3
  6
CONTINUOUS
 10
37.7639078358
 20
57.8378857497
 11
76.6899078358
 21
57.8378857497
  0
LINE
  5
4B3
100
AcDbEntity
  8
00_COMPONENTS
100
AcDbLine
 62
3
  6
CONTINUOUS
 10
37.1699078358
 20
57.9348857497
 11
37.7039078358
 21
57.9348857497
  0
LINE
  5
4B4
100
AcDbEntity
  8
00_COMPONENTS
100
AcDbLine
 62
7
  6
CONTINUOUS
 10
37.7039078358
 20
57.9348857497
 11
76.8469078358
 21
57.9348857497
  0
LINE
  5
4B5
100
AcDbEntity
  8
00_COMPONENTS
100
AcDbLine
 62
9
  6
CONTINUOUS
 10
28.5209158969
 20
58.0137947942
 11
28.5948548969
 21
58.0137947942
  0
LINE
  5
4B6
100
AcDbEntity
  8
00_COMPONENTS
100
AcDbLine
 62
9
  6
CONTINUOUS
 10
29.7709158969
 20
58.0137947942
 11
29.8448548969
 21
58.0137947942
  0
LINE
  5
4B7
100
AcDbEntity
  8
00_COMPONENTS
100
AcDbLine
 62
9
  6
CONTINUOUS
 10
31.0209158969
 20
58.0137947942
 11
31.0948548969
 21
58.0137947942
  0
LINE
  5
4B8
100
AcDbEntity
  8
00_COMPONENTS
100
AcDbLine
 62
9
  6
CONTINUOUS
 10
32.2709158969
 20
58.0137947942
 11
32.3448548969
 21
58.0137947942
  0
LINE
  5
4B9
100
AcDbEntity
  8
00_COMPONENTS
100
AcDbLine
 62
9
  6
CONTINUOUS
 10
33.5209158969
 20
58.0137947942
 11
33.5948548969
 21
58.0137947942
  0
LINE
  5
4BA
100
AcDbEntity
  8
00_COMPONENTS
100
AcDbLine
 62
9
  6
CONTINUOUS
 10
34.7709158969
 20
58.0137947942
 11
34.8448548969
 21
58.0137947942
  0
LINE
  5
4BB
100
AcDbEntity
  8
00_COMPONENTS
100
AcDbLine
 62
9
  6
CONTINUOUS
 10
36.0209158969
 20
58.0137947942
 11
36.0948548969
 21
58.0137947942
  0
LINE
  5
4BC
100
AcDbEntity
  8
00_COMPONENTS
100
AcDbLine
 62
9
  6
CONTINUOUS
 10
78.9100336917
 20
58.0137947942
 11
78.9839726917
 21
58.0137947942
  0
LINE
  5
4BD
100
AcDbEntity
  8
00_COMPONENTS
100
AcDbLine
 62
9
  6
CONTINUOUS
 10
80.1600336917
 20
58.0137947942
 11
80.2339726917
 21
58.0137947942
  0
LINE
  5
4BE
100
AcDbEntity
  8
00_COMPONENTS
100
AcDbLine
 62
9
  6
CONTINUOUS
 10
81.4100336917
 20
58.0137947942
 11
81.4839726917
 21
58.0137947942
  0
LINE
  5
4BF
100
AcDbEntity
  8
00_COMPONENTS
100
AcDbLine
 62
9
  6
CONTINUOUS
 10
82.6600336917
 20
58.0137947942
 11
82.7339726917
 21
58.0137947942
  0
LINE
  5
4C0
100
AcDbEntity
  8
00_COMPONENTS
100
AcDbLine
 62
9
  6
CONTINUOUS
 10
83.9100336917
 20
58.0137947942
 11
83.9839726917
 21
58.0137947942
  0
LINE
  5
4C1
100
AcDbEntity
  8
00_COMPONENTS
100
AcDbLine
 62
9
  6
CONTINUOUS
 10
85.1600336917
 20
58.0137947942
 11
85.2339726917
 21
58.0137947942
  0
LINE
  5
4C2
100
AcDbEntity
  8
00_COMPONENTS
100
AcDbLine
 62
9
  6
CONTINUOUS
 10
86.4100336917
 20
58.0137947942
 11
86.4839726917
 21
58.0137947942
  0
LINE
  5
4C3
100
AcDbEntity
  8
00_COMPONENTS
100
AcDbLine
 62
9
  6
CONTINUOUS
 10
86.1100336917
 20
58.3137947942
 11
85.7798822113
 21
58.3137947942
  0
LINE
  5
4C4
100
AcDbEntity
  8
00_COMPONENTS
100
AcDbLine
 62
9
  6
CONTINUOUS
 10
84.8600336917
 20
58.3137947942
 11
84.5298822113
 21
58.3137947942
  0
LINE
  5
4C5
100
AcDbEntity
  8
00_COMPONENTS
100
AcDbLine
 62
9
  6
CONTINUOUS
 10
83.6100336917
 20
58.3137947942
 11
83.2798822113
 21
58.3137947942
  0
LINE
  5
4C6
100
AcDbEntity
  8
00_COMPONENTS
100
AcDbLine
 62
9
  6
CONTINUOUS
 10
82.3600336917
 20
58.3137947942
 11
82.0298822113
 21
58.3137947942
  0
LINE
  5
4C7
100
AcDbEntity
  8
00_COMPONENTS
100
AcDbLine
 62
9
  6
CONTINUOUS
 10
81.1100336917
 20
58.3137947942
 11
80.7798822113
 21
58.3137947942
  0
LINE
  5
4C8
100
AcDbEntity
  8
00_COMPONENTS
100
AcDbLine
 62
9
  6
CONTINUOUS
 10
79.8600336917
 20
58.3137947942
 11
79.5298822113
 21
58.3137947942
  0
LINE
  5
4C9
100
AcDbEntity
  8
00_COMPONENTS
100
AcDbLine
 62
9
  6
CONTINUOUS
 10
78.6100336917
 20
58.3137947942
 11
78.2798822113
 21
58.3137947942
  0
LINE
  5
4CA
100
AcDbEntity
  8
00_COMPONENTS
100
AcDbLine
 62
9
  6
CONTINUOUS
 10
35.7209158969
 20
58.3137947942
 11
35.3907644165
 21
58.3137947942
  0
LINE
  5
4CB
100
AcDbEntity
  8
00_COMPONENTS
100
AcDbLine
 62
9
  6
CONTINUOUS
 10
34.4709158969
 20
58.3137947942
 11
34.1407644165
 21
58.3137947942
  0
LINE
  5
4CC
100
AcDbEntity
  8
00_COMPONENTS
100
AcDbLine
 62
9
  6
CONTINUOUS
 10
33.2209158969
 20
58.3137947942
 11
32.8907644165
 21
58.3137947942
  0
LINE
  5
4CD
100
AcDbEntity
  8
00_COMPONENTS
100
AcDbLine
 62
9
  6
CONTINUOUS
 10
31.9709158969
 20
58.3137947942
 11
31.6407644165
 21
58.3137947942
  0
LINE
  5
4CE
100
AcDbEntity
  8
00_COMPONENTS
100
AcDbLine
 62
9
  6
CONTINUOUS
 10
30.7209158969
 20
58.3137947942
 11
30.3907644165
 21
58.3137947942
  0
LINE
  5
4CF
100
AcDbEntity
  8
00_COMPONENTS
100
AcDbLine
 62
9
  6
CONTINUOUS
 10
29.4709158969
 20
58.3137947942
 11
29.1407644165
 21
58.3137947942
  0
LINE
  5
4D0
100
AcDbEntity
  8
00_COMPONENTS
100
AcDbLine
 62
9
  6
CONTINUOUS
 10
28.2209158969
 20
58.3137947942
 11
27.8907644165
 21
58.3137947942
  0
LINE
  5
4D1
100
AcDbEntity
  8
00_COMPONENTS
100
AcDbLine
 62
7
  6
CONTINUOUS
 10
73.9469078358
 20
58.4488857497
 11
72.4469078358
 21
58.4488857497
  0
LINE
  5
4D2
100
AcDbEntity
  8
00_COMPONENTS
100
AcDbLine
 62
7
  6
CONTINUOUS
 10
58.7269078358
 20
58.4488857497
 11
57.2269078358
 21
58.4488857497
  0
LINE
  5
4D3
100
AcDbEntity
  8
00_COMPONENTS
100
AcDbLine
 62
7
  6
CONTINUOUS
 10
43.5069078358
 20
58.4488857497
 11
42.0069078358
 21
58.4488857497
  0
LINE
  5
4D4
100
AcDbEntity
  8
00_COMPONENTS
100
AcDbLine
 62
7
  6
CONTINUOUS
 10
72.4469078358
 20
58.5418857497
 11
70.7971078358
 21
58.5418857497
  0
LINE
  5
4D5
100
AcDbEntity
  8
00_COMPONENTS
100
AcDbLine
 62
7
  6
CONTINUOUS
 10
57.2269078358
 20
58.5418857497
 11
55.5771078358
 21
58.5418857497
  0
LINE
  5
4D6
100
AcDbEntity
  8
00_COMPONENTS
100
AcDbLine
 62
7
  6
CONTINUOUS
 10
42.0069078358
 20
58.5418857497
 11
40.3571078358
 21
58.5418857497
  0
LINE
  5
4D7
100
AcDbEntity
  8
00_COMPONENTS
100
AcDbLine
 62
7
  6
CONTINUOUS
 10
72.4469078358
 20
58.7918857497
 11
70.7971078358
 21
58.7918857497
  0
LINE
  5
4D8
100
AcDbEntity
  8
00_COMPONENTS
100
AcDbLine
 62
7
  6
CONTINUOUS
 10
57.2269078358
 20
58.7918857497
 11
55.5771078358
 21
58.7918857497
  0
LINE
  5
4D9
100
AcDbEntity
  8
00_COMPONENTS
100
AcDbLine
 62
7
  6
CONTINUOUS
 10
42.0069078358
 20
58.7918857497
 11
40.3571078358
 21
58.7918857497
  0
LINE
  5
4DA
100
AcDbEntity
  8
00_COMPONENTS
100
AcDbLine
 62
7
  6
CONTINUOUS
 10
73.9469078358
 20
58.8848857497
 11
72.4469078358
 21
58.8848857497
  0
LINE
  5
4DB
100
AcDbEntity
  8
00_COMPONENTS
100
AcDbLine
 62
7
  6
CONTINUOUS
 10
58.7269078358
 20
58.8848857497
 11
57.2269078358
 21
58.8848857497
  0
LINE
  5
4DC
100
AcDbEntity
  8
00_COMPONENTS
100
AcDbLine
 62
7
  6
CONTINUOUS
 10
43.5069078358
 20
58.8848857497
 11
42.0069078358
 21
58.8848857497
  0
LINE
  5
4DD
100
AcDbEntity
  8
00_COMPONENTS
100
AcDbLine
 62
9
  6
CONTINUOUS
 10
86.1100336917
 20
61.4137947942
 11
85.7798822113
 21
61.4137947942
  0
LINE
  5
4DE
100
AcDbEntity
  8
00_COMPONENTS
100
AcDbLine
 62
9
  6
CONTINUOUS
 10
84.8600336917
 20
61.4137947942
 11
84.5298822113
 21
61.4137947942
  0
LINE
  5
4DF
100
AcDbEntity
  8
00_COMPONENTS
100
AcDbLine
 62
9
  6
CONTINUOUS
 10
83.6100336917
 20
61.4137947942
 11
83.2798822113
 21
61.4137947942
  0
LINE
  5
4E0
100
AcDbEntity
  8
00_COMPONENTS
100
AcDbLine
 62
9
  6
CONTINUOUS
 10
82.3600336917
 20
61.4137947942
 11
82.0298822113
 21
61.4137947942
  0
LINE
  5
4E1
100
AcDbEntity
  8
00_COMPONENTS
100
AcDbLine
 62
9
  6
CONTINUOUS
 10
81.1100336917
 20
61.4137947942
 11
80.7798822113
 21
61.4137947942
  0
LINE
  5
4E2
100
AcDbEntity
  8
00_COMPONENTS
100
AcDbLine
 62
9
  6
CONTINUOUS
 10
79.8600336917
 20
61.4137947942
 11
79.5298822113
 21
61.4137947942
  0
LINE
  5
4E3
100
AcDbEntity
  8
00_COMPONENTS
100
AcDbLine
 62
9
  6
CONTINUOUS
 10
78.6100336917
 20
61.4137947942
 11
78.2798822113
 21
61.4137947942
  0
LINE
  5
4E4
100
AcDbEntity
  8
00_COMPONENTS
100
AcDbLine
 62
9
  6
CONTINUOUS
 10
35.7209158969
 20
61.4137947942
 11
35.3907644165
 21
61.4137947942
  0
LINE
  5
4E5
100
AcDbEntity
  8
00_COMPONENTS
100
AcDbLine
 62
9
  6
CONTINUOUS
 10
34.4709158969
 20
61.4137947942
 11
34.1407644165
 21
61.4137947942
  0
LINE
  5
4E6
100
AcDbEntity
  8
00_COMPONENTS
100
AcDbLine
 62
9
  6
CONTINUOUS
 10
33.2209158969
 20
61.4137947942
 11
32.8907644165
 21
61.4137947942
  0
LINE
  5
4E7
100
AcDbEntity
  8
00_COMPONENTS
100
AcDbLine
 62
9
  6
CONTINUOUS
 10
31.9709158969
 20
61.4137947942
 11
31.6407644165
 21
61.4137947942
  0
LINE
  5
4E8
100
AcDbEntity
  8
00_COMPONENTS
100
AcDbLine
 62
9
  6
CONTINUOUS
 10
30.7209158969
 20
61.4137947942
 11
30.3907644165
 21
61.4137947942
  0
LINE
  5
4E9
100
AcDbEntity
  8
00_COMPONENTS
100
AcDbLine
 62
9
  6
CONTINUOUS
 10
29.4709158969
 20
61.4137947942
 11
29.1407644165
 21
61.4137947942
  0
LINE
  5
4EA
100
AcDbEntity
  8
00_COMPONENTS
100
AcDbLine
 62
9
  6
CONTINUOUS
 10
28.2209158969
 20
61.4137947942
 11
27.8907644165
 21
61.4137947942
  0
LINE
  5
4EB
100
AcDbEntity
  8
00_COMPONENTS
100
AcDbLine
 62
7
  6
CONTINUOUS
 10
68.5749078358
 20
40.7387304684
 11
68.5749078358
 21
41.151041031
  0
LINE
  5
4EC
100
AcDbEntity
  8
00_COMPONENTS
100
AcDbLine
 62
9
  6
CONTINUOUS
 10
86.4839726917
 20
61.7137947942
 11
86.4100336917
 21
61.7137947942
  0
LINE
  5
4ED
100
AcDbEntity
  8
00_COMPONENTS
100
AcDbLine
 62
9
  6
CONTINUOUS
 10
85.2339726917
 20
61.7137947942
 11
85.1600336917
 21
61.7137947942
  0
LINE
  5
4EE
100
AcDbEntity
  8
00_COMPONENTS
100
AcDbLine
 62
9
  6
CONTINUOUS
 10
83.9839726917
 20
61.7137947942
 11
83.9100336917
 21
61.7137947942
  0
LINE
  5
4EF
100
AcDbEntity
  8
00_COMPONENTS
100
AcDbLine
 62
9
  6
CONTINUOUS
 10
82.7339726917
 20
61.7137947942
 11
82.6600336917
 21
61.7137947942
  0
LINE
  5
4F0
100
AcDbEntity
  8
00_COMPONENTS
100
AcDbLine
 62
9
  6
CONTINUOUS
 10
81.4839726917
 20
61.7137947942
 11
81.4100336917
 21
61.7137947942
  0
LINE
  5
4F1
100
AcDbEntity
  8
00_COMPONENTS
100
AcDbLine
 62
9
  6
CONTINUOUS
 10
80.2339726917
 20
61.7137947942
 11
80.1600336917
 21
61.7137947942
  0
LINE
  5
4F2
100
AcDbEntity
  8
00_COMPONENTS
100
AcDbLine
 62
9
  6
CONTINUOUS
 10
78.9839726917
 20
61.7137947942
 11
78.9100336917
 21
61.7137947942
  0
LINE
  5
4F3
100
AcDbEntity
  8
00_COMPONENTS
100
AcDbLine
 62
9
  6
CONTINUOUS
 10
36.0948548969
 20
61.7137947942
 11
36.0209158969
 21
61.7137947942
  0
LINE
  5
4F4
100
AcDbEntity
  8
00_COMPONENTS
100
AcDbLine
 62
9
  6
CONTINUOUS
 10
34.8448548969
 20
61.7137947942
 11
34.7709158969
 21
61.7137947942
  0
LINE
  5
4F5
100
AcDbEntity
  8
00_COMPONENTS
100
AcDbLine
 62
9
  6
CONTINUOUS
 10
33.5948548969
 20
61.7137947942
 11
33.5209158969
 21
61.7137947942
  0
LINE
  5
4F6
100
AcDbEntity
  8
00_COMPONENTS
100
AcDbLine
 62
9
  6
CONTINUOUS
 10
32.3448548969
 20
61.7137947942
 11
32.2709158969
 21
61.7137947942
  0
LINE
  5
4F7
100
AcDbEntity
  8
00_COMPONENTS
100
AcDbLine
 62
9
  6
CONTINUOUS
 10
31.0948548969
 20
61.7137947942
 11
31.0209158969
 21
61.7137947942
  0
LINE
  5
4F8
100
AcDbEntity
  8
00_COMPONENTS
100
AcDbLine
 62
9
  6
CONTINUOUS
 10
29.8448548969
 20
61.7137947942
 11
29.7709158969
 21
61.7137947942
  0
LINE
  5
4F9
100
AcDbEntity
  8
00_COMPONENTS
100
AcDbLine
 62
9
  6
CONTINUOUS
 10
28.5948548969
 20
61.7137947942
 11
28.5209158969
 21
61.7137947942
  0
LINE
  5
4FA
100
AcDbEntity
  8
00_COMPONENTS
100
AcDbLine
 62
7
  6
CONTINUOUS
 10
86.4839726917
 20
62.0439462746
 11
86.4100336917
 21
62.0439462746
  0
LINE
  5
4FB
100
AcDbEntity
  8
00_COMPONENTS
100
AcDbLine
 62
7
  6
CONTINUOUS
 10
85.2339726917
 20
62.0439462746
 11
85.1600336917
 21
62.0439462746
  0
LINE
  5
4FC
100
AcDbEntity
  8
00_COMPONENTS
100
AcDbLine
 62
7
  6
CONTINUOUS
 10
83.9839726917
 20
62.0439462746
 11
83.9100336917
 21
62.0439462746
  0
LINE
  5
4FD
100
AcDbEntity
  8
00_COMPONENTS
100
AcDbLine
 62
7
  6
CONTINUOUS
 10
82.7339726917
 20
62.0439462746
 11
82.6600336917
 21
62.0439462746
  0
LINE
  5
4FE
100
AcDbEntity
  8
00_COMPONENTS
100
AcDbLine
 62
7
  6
CONTINUOUS
 10
81.4839726917
 20
62.0439462746
 11
81.4100336917
 21
62.0439462746
  0
LINE
  5
4FF
100
AcDbEntity
  8
00_COMPONENTS
100
AcDbLine
 62
7
  6
CONTINUOUS
 10
80.2339726917
 20
62.0439462746
 11
80.1600336917
 21
62.0439462746
  0
LINE
  5
500
100
AcDbEntity
  8
00_COMPONENTS
100
AcDbLine
 62
7
  6
CONTINUOUS
 10
78.9839726917
 20
62.0439462746
 11
78.9100336917
 21
62.0439462746
  0
LINE
  5
501
100
AcDbEntity
  8
00_COMPONENTS
100
AcDbLine
 62
7
  6
CONTINUOUS
 10
36.0948548969
 20
62.0439462746
 11
36.0209158969
 21
62.0439462746
  0
LINE
  5
502
100
AcDbEntity
  8
00_COMPONENTS
100
AcDbLine
 62
7
  6
CONTINUOUS
 10
34.8448548969
 20
62.0439462746
 11
34.7709158969
 21
62.0439462746
  0
LINE
  5
503
100
AcDbEntity
  8
00_COMPONENTS
100
AcDbLine
 62
7
  6
CONTINUOUS
 10
33.5948548969
 20
62.0439462746
 11
33.5209158969
 21
62.0439462746
  0
LINE
  5
504
100
AcDbEntity
  8
00_COMPONENTS
100
AcDbLine
 62
7
  6
CONTINUOUS
 10
32.3448548969
 20
62.0439462746
 11
32.2709158969
 21
62.0439462746
  0
LINE
  5
505
100
AcDbEntity
  8
00_COMPONENTS
100
AcDbLine
 62
7
  6
CONTINUOUS
 10
31.0948548969
 20
62.0439462746
 11
31.0209158969
 21
62.0439462746
  0
LINE
  5
506
100
AcDbEntity
  8
00_COMPONENTS
100
AcDbLine
 62
7
  6
CONTINUOUS
 10
29.8448548969
 20
62.0439462746
 11
29.7709158969
 21
62.0439462746
  0
LINE
  5
507
100
AcDbEntity
  8
00_COMPONENTS
100
AcDbLine
 62
7
  6
CONTINUOUS
 10
28.5948548969
 20
62.0439462746
 11
28.5209158969
 21
62.0439462746
  0
LINE
  5
508
100
AcDbEntity
  8
00_COMPONENTS
100
AcDbLine
 62
7
  6
CONTINUOUS
 10
69.3749078358
 20
41.151041031
 11
69.3749078358
 21
40.7387304684
  0
LINE
  5
509
100
AcDbEntity
  8
00_COMPONENTS
100
AcDbLine
 62
7
  6
CONTINUOUS
 10
70.7471078358
 20
58.5707532631
 11
70.7471078358
 21
58.7630182362
  0
LINE
  5
50A
100
AcDbEntity
  8
00_COMPONENTS
100
AcDbLine
 62
7
  6
CONTINUOUS
 10
70.7971078358
 20
58.5418857497
 11
70.7971078358
 21
58.7918857497
  0
LINE
  5
50B
100
AcDbEntity
  8
00_COMPONENTS
100
AcDbLine
 62
9
  6
CONTINUOUS
 10
25.9119078358
 20
65.4918857497
 11
88.5419078358
 21
65.4918857497
  0
LINE
  5
50C
100
AcDbEntity
  8
00_COMPONENTS
100
AcDbLine
 62
7
  6
CONTINUOUS
 10
25.7794978578
 20
65.5718857497
 11
25.7289078358
 21
65.5718857497
  0
LINE
  5
50D
100
AcDbEntity
  8
00_COMPONENTS
100
AcDbLine
 62
7
  6
CONTINUOUS
 10
88.6743178137
 20
65.5718857497
 11
88.7249078358
 21
65.5718857497
  0
LINE
  5
50E
100
AcDbEntity
  8
00_COMPONENTS
100
AcDbLine
 62
7
  6
CONTINUOUS
 10
25.7289078358
 20
65.6748857497
 11
88.7249078358
 21
65.6748857497
  0
LINE
  5
50F
100
AcDbEntity
  8
00_COMPONENTS
100
AcDbLine
 62
7
  6
CONTINUOUS
 10
70.7471078358
 20
58.5707532631
 11
70.7971078358
 21
58.5418857497
  0
LINE
  5
510
100
AcDbEntity
  8
00_COMPONENTS
100
AcDbLine
 62
7
  6
CONTINUOUS
 10
72.4469078358
 20
57.9348857497
 11
72.4469078358
 21
58.884879055
  0
LINE
  5
511
100
AcDbEntity
  8
00_COMPONENTS
100
AcDbLine
 62
7
  6
CONTINUOUS
 10
73.9469078358
 20
58.8848791961
 11
73.9469078358
 21
57.9348857497
  0
LINE
  5
512
100
AcDbEntity
  8
00_COMPONENTS
100
AcDbLine
 62
7
  6
CONTINUOUS
 10
76.6899078358
 20
46.5318857497
 11
76.6899078358
 21
46.4348857497
  0
LINE
  5
513
100
AcDbEntity
  8
00_COMPONENTS
100
AcDbLine
 62
7
  6
CONTINUOUS
 10
76.6899078358
 20
57.8378857497
 11
76.6899078358
 21
57.9348857497
  0
LINE
  5
514
100
AcDbEntity
  8
00_COMPONENTS
100
AcDbLine
 62
3
  6
CONTINUOUS
 10
76.7499078358
 20
57.9348857497
 11
76.7499078358
 21
46.4348857497
  0
LINE
  5
515
100
AcDbEntity
  8
00_COMPONENTS
100
AcDbLine
 62
7
  6
CONTINUOUS
 10
76.8469078358
 20
57.9348857497
 11
76.8469078358
 21
46.4348857497
  0
LINE
  5
516
100
AcDbEntity
  8
00_COMPONENTS
100
AcDbLine
 62
7
  6
CONTINUOUS
 10
78.2798822113
 20
61.4137947942
 11
78.2798822113
 21
58.3137947942
  0
LINE
  5
517
100
AcDbEntity
  8
00_COMPONENTS
100
AcDbLine
 62
7
  6
CONTINUOUS
 10
78.2798822113
 20
56.4137947942
 11
78.2798822113
 21
53.3137947942
  0
LINE
  5
518
100
AcDbEntity
  8
00_COMPONENTS
100
AcDbLine
 62
7
  6
CONTINUOUS
 10
78.2798822113
 20
51.4137947942
 11
78.2798822113
 21
48.3137947942
  0
LINE
  5
519
100
AcDbEntity
  8
00_COMPONENTS
100
AcDbLine
 62
7
  6
CONTINUOUS
 10
78.2798822113
 20
46.4137947942
 11
78.2798822113
 21
43.3137947942
  0
LINE
  5
51A
100
AcDbEntity
  8
00_COMPONENTS
100
AcDbLine
 62
9
  6
CONTINUOUS
 10
78.6100336917
 20
61.4137947942
 11
78.6100336917
 21
58.3137947942
  0
LINE
  5
51B
100
AcDbEntity
  8
00_COMPONENTS
100
AcDbLine
 62
9
  6
CONTINUOUS
 10
78.6100336917
 20
56.4137947942
 11
78.6100336917
 21
53.3137947942
  0
LINE
  5
51C
100
AcDbEntity
  8
00_COMPONENTS
100
AcDbLine
 62
9
  6
CONTINUOUS
 10
78.6100336917
 20
51.4137947942
 11
78.6100336917
 21
48.3137947942
  0
LINE
  5
51D
100
AcDbEntity
  8
00_COMPONENTS
100
AcDbLine
 62
9
  6
CONTINUOUS
 10
78.6100336917
 20
46.4137947942
 11
78.6100336917
 21
43.3137947942
  0
LINE
  5
51E
100
AcDbEntity
  8
00_COMPONENTS
100
AcDbLine
 62
9
  6
CONTINUOUS
 10
78.9100336917
 20
58.0137947942
 11
78.9100336917
 21
57.6836433138
  0
LINE
  5
51F
100
AcDbEntity
  8
00_COMPONENTS
100
AcDbLine
 62
9
  6
CONTINUOUS
 10
78.9100336917
 20
53.0137947942
 11
78.9100336917
 21
52.6836433138
  0
LINE
  5
520
100
AcDbEntity
  8
00_COMPONENTS
100
AcDbLine
 62
9
  6
CONTINUOUS
 10
78.9100336917
 20
48.0137947942
 11
78.9100336917
 21
47.6836433138
  0
LINE
  5
521
100
AcDbEntity
  8
00_COMPONENTS
100
AcDbLine
 62
9
  6
CONTINUOUS
 10
78.9100336917
 20
43.0137947942
 11
78.9100336917
 21
42.6836433138
  0
LINE
  5
522
100
AcDbEntity
  8
00_COMPONENTS
100
AcDbLine
 62
9
  6
CONTINUOUS
 10
78.9100336917
 20
46.7137947942
 11
78.9100336917
 21
47.0439462746
  0
LINE
  5
523
100
AcDbEntity
  8
00_COMPONENTS
100
AcDbLine
 62
9
  6
CONTINUOUS
 10
78.9100336917
 20
51.7137947942
 11
78.9100336917
 21
52.0439462746
  0
LINE
  5
524
100
AcDbEntity
  8
00_COMPONENTS
100
AcDbLine
 62
9
  6
CONTINUOUS
 10
78.9100336917
 20
56.7137947942
 11
78.9100336917
 21
57.0439462746
  0
LINE
  5
525
100
AcDbEntity
  8
00_COMPONENTS
100
AcDbLine
 62
9
  6
CONTINUOUS
 10
78.9100336917
 20
61.7137947942
 11
78.9100336917
 21
62.0439462746
  0
LINE
  5
526
100
AcDbEntity
  8
00_COMPONENTS
100
AcDbLine
 62
7
  6
CONTINUOUS
 10
78.9839726917
 20
42.6836433138
 11
78.9839726917
 21
47.0439462746
  0
LINE
  5
527
100
AcDbEntity
  8
00_COMPONENTS
100
AcDbLine
 62
7
  6
CONTINUOUS
 10
78.9839726917
 20
47.6836433138
 11
78.9839726917
 21
52.0439462746
  0
LINE
  5
528
100
AcDbEntity
  8
00_COMPONENTS
100
AcDbLine
 62
7
  6
CONTINUOUS
 10
78.9839726917
 20
52.6836433138
 11
78.9839726917
 21
57.0439462746
  0
LINE
  5
529
100
AcDbEntity
  8
00_COMPONENTS
100
AcDbLine
 62
7
  6
CONTINUOUS
 10
78.9839726917
 20
57.6836433138
 11
78.9839726917
 21
62.0439462746
  0
LINE
  5
52A
100
AcDbEntity
  8
00_COMPONENTS
100
AcDbLine
 62
7
  6
CONTINUOUS
 10
79.5298822113
 20
61.4137947942
 11
79.5298822113
 21
58.3137947942
  0
LINE
  5
52B
100
AcDbEntity
  8
00_COMPONENTS
100
AcDbLine
 62
7
  6
CONTINUOUS
 10
79.5298822113
 20
56.4137947942
 11
79.5298822113
 21
53.3137947942
  0
LINE
  5
52C
100
AcDbEntity
  8
00_COMPONENTS
100
AcDbLine
 62
7
  6
CONTINUOUS
 10
79.5298822113
 20
51.4137947942
 11
79.5298822113
 21
48.3137947942
  0
LINE
  5
52D
100
AcDbEntity
  8
00_COMPONENTS
100
AcDbLine
 62
7
  6
CONTINUOUS
 10
79.5298822113
 20
46.4137947942
 11
79.5298822113
 21
43.3137947942
  0
LINE
  5
52E
100
AcDbEntity
  8
00_COMPONENTS
100
AcDbLine
 62
9
  6
CONTINUOUS
 10
79.8600336917
 20
61.4137947942
 11
79.8600336917
 21
58.3137947942
  0
LINE
  5
52F
100
AcDbEntity
  8
00_COMPONENTS
100
AcDbLine
 62
9
  6
CONTINUOUS
 10
79.8600336917
 20
56.4137947942
 11
79.8600336917
 21
53.3137947942
  0
LINE
  5
530
100
AcDbEntity
  8
00_COMPONENTS
100
AcDbLine
 62
9
  6
CONTINUOUS
 10
79.8600336917
 20
51.4137947942
 11
79.8600336917
 21
48.3137947942
  0
LINE
  5
531
100
AcDbEntity
  8
00_COMPONENTS
100
AcDbLine
 62
9
  6
CONTINUOUS
 10
79.8600336917
 20
46.4137947942
 11
79.8600336917
 21
43.3137947942
  0
LINE
  5
532
100
AcDbEntity
  8
00_COMPONENTS
100
AcDbLine
 62
9
  6
CONTINUOUS
 10
80.1600336917
 20
58.0137947942
 11
80.1600336917
 21
57.6836433138
  0
LINE
  5
533
100
AcDbEntity
  8
00_COMPONENTS
100
AcDbLine
 62
9
  6
CONTINUOUS
 10
80.1600336917
 20
53.0137947942
 11
80.1600336917
 21
52.6836433138
  0
LINE
  5
534
100
AcDbEntity
  8
00_COMPONENTS
100
AcDbLine
 62
9
  6
CONTINUOUS
 10
80.1600336917
 20
48.0137947942
 11
80.1600336917
 21
47.6836433138
  0
LINE
  5
535
100
AcDbEntity
  8
00_COMPONENTS
100
AcDbLine
 62
9
  6
CONTINUOUS
 10
80.1600336917
 20
43.0137947942
 11
80.1600336917
 21
42.6836433138
  0
LINE
  5
536
100
AcDbEntity
  8
00_COMPONENTS
100
AcDbLine
 62
9
  6
CONTINUOUS
 10
80.1600336917
 20
46.7137947942
 11
80.1600336917
 21
47.0439462746
  0
LINE
  5
537
100
AcDbEntity
  8
00_COMPONENTS
100
AcDbLine
 62
9
  6
CONTINUOUS
 10
80.1600336917
 20
51.7137947942
 11
80.1600336917
 21
52.0439462746
  0
LINE
  5
538
100
AcDbEntity
  8
00_COMPONENTS
100
AcDbLine
 62
9
  6
CONTINUOUS
 10
80.1600336917
 20
56.7137947942
 11
80.1600336917
 21
57.0439462746
  0
LINE
  5
539
100
AcDbEntity
  8
00_COMPONENTS
100
AcDbLine
 62
9
  6
CONTINUOUS
 10
80.1600336917
 20
61.7137947942
 11
80.1600336917
 21
62.0439462746
  0
LINE
  5
53A
100
AcDbEntity
  8
00_COMPONENTS
100
AcDbLine
 62
7
  6
CONTINUOUS
 10
80.2339726917
 20
42.6836433138
 11
80.2339726917
 21
47.0439462746
  0
LINE
  5
53B
100
AcDbEntity
  8
00_COMPONENTS
100
AcDbLine
 62
7
  6
CONTINUOUS
 10
80.2339726917
 20
47.6836433138
 11
80.2339726917
 21
52.0439462746
  0
LINE
  5
53C
100
AcDbEntity
  8
00_COMPONENTS
100
AcDbLine
 62
7
  6
CONTINUOUS
 10
80.2339726917
 20
52.6836433138
 11
80.2339726917
 21
57.0439462746
  0
LINE
  5
53D
100
AcDbEntity
  8
00_COMPONENTS
100
AcDbLine
 62
7
  6
CONTINUOUS
 10
80.2339726917
 20
57.6836433138
 11
80.2339726917
 21
62.0439462746
  0
LINE
  5
53E
100
AcDbEntity
  8
00_COMPONENTS
100
AcDbLine
 62
7
  6
CONTINUOUS
 10
80.3249078358
 20
40.7387304684
 11
80.3249078358
 21
41.151041031
  0
LINE
  5
53F
100
AcDbEntity
  8
00_COMPONENTS
100
AcDbLine
 62
7
  6
CONTINUOUS
 10
80.7798822113
 20
61.4137947942
 11
80.7798822113
 21
58.3137947942
  0
LINE
  5
540
100
AcDbEntity
  8
00_COMPONENTS
100
AcDbLine
 62
7
  6
CONTINUOUS
 10
80.7798822113
 20
56.4137947942
 11
80.7798822113
 21
53.3137947942
  0
LINE
  5
541
100
AcDbEntity
  8
00_COMPONENTS
100
AcDbLine
 62
7
  6
CONTINUOUS
 10
80.7798822113
 20
51.4137947942
 11
80.7798822113
 21
48.3137947942
  0
LINE
  5
542
100
AcDbEntity
  8
00_COMPONENTS
100
AcDbLine
 62
7
  6
CONTINUOUS
 10
80.7798822113
 20
46.4137947942
 11
80.7798822113
 21
43.3137947942
  0
LINE
  5
543
100
AcDbEntity
  8
00_COMPONENTS
100
AcDbLine
 62
9
  6
CONTINUOUS
 10
81.1100336917
 20
61.4137947942
 11
81.1100336917
 21
58.3137947942
  0
LINE
  5
544
100
AcDbEntity
  8
00_COMPONENTS
100
AcDbLine
 62
9
  6
CONTINUOUS
 10
81.1100336917
 20
56.4137947942
 11
81.1100336917
 21
53.3137947942
  0
LINE
  5
545
100
AcDbEntity
  8
00_COMPONENTS
100
AcDbLine
 62
9
  6
CONTINUOUS
 10
81.1100336917
 20
51.4137947942
 11
81.1100336917
 21
48.3137947942
  0
LINE
  5
546
100
AcDbEntity
  8
00_COMPONENTS
100
AcDbLine
 62
9
  6
CONTINUOUS
 10
81.1100336917
 20
46.4137947942
 11
81.1100336917
 21
43.3137947942
  0
LINE
  5
547
100
AcDbEntity
  8
00_COMPONENTS
100
AcDbLine
 62
7
  6
CONTINUOUS
 10
81.1249078358
 20
41.151041031
 11
81.1249078358
 21
40.7387304684
  0
LINE
  5
548
100
AcDbEntity
  8
00_COMPONENTS
100
AcDbLine
 62
9
  6
CONTINUOUS
 10
81.4100336917
 20
58.0137947942
 11
81.4100336917
 21
57.6836433138
  0
LINE
  5
549
100
AcDbEntity
  8
00_COMPONENTS
100
AcDbLine
 62
9
  6
CONTINUOUS
 10
81.4100336917
 20
53.0137947942
 11
81.4100336917
 21
52.6836433138
  0
LINE
  5
54A
100
AcDbEntity
  8
00_COMPONENTS
100
AcDbLine
 62
9
  6
CONTINUOUS
 10
81.4100336917
 20
48.0137947942
 11
81.4100336917
 21
47.6836433138
  0
LINE
  5
54B
100
AcDbEntity
  8
00_COMPONENTS
100
AcDbLine
 62
9
  6
CONTINUOUS
 10
81.4100336917
 20
43.0137947942
 11
81.4100336917
 21
42.6836433138
  0
LINE
  5
54C
100
AcDbEntity
  8
00_COMPONENTS
100
AcDbLine
 62
9
  6
CONTINUOUS
 10
81.4100336917
 20
46.7137947942
 11
81.4100336917
 21
47.0439462746
  0
LINE
  5
54D
100
AcDbEntity
  8
00_COMPONENTS
100
AcDbLine
 62
9
  6
CONTINUOUS
 10
81.4100336917
 20
51.7137947942
 11
81.4100336917
 21
52.0439462746
  0
LINE
  5
54E
100
AcDbEntity
  8
00_COMPONENTS
100
AcDbLine
 62
9
  6
CONTINUOUS
 10
81.4100336917
 20
56.7137947942
 11
81.4100336917
 21
57.0439462746
  0
LINE
  5
54F
100
AcDbEntity
  8
00_COMPONENTS
100
AcDbLine
 62
9
  6
CONTINUOUS
 10
81.4100336917
 20
61.7137947942
 11
81.4100336917
 21
62.0439462746
  0
LINE
  5
550
100
AcDbEntity
  8
00_COMPONENTS
100
AcDbLine
 62
7
  6
CONTINUOUS
 10
81.4839726917
 20
42.6836433138
 11
81.4839726917
 21
47.0439462746
  0
LINE
  5
551
100
AcDbEntity
  8
00_COMPONENTS
100
AcDbLine
 62
7
  6
CONTINUOUS
 10
81.4839726917
 20
47.6836433138
 11
81.4839726917
 21
52.0439462746
  0
LINE
  5
552
100
AcDbEntity
  8
00_COMPONENTS
100
AcDbLine
 62
7
  6
CONTINUOUS
 10
81.4839726917
 20
52.6836433138
 11
81.4839726917
 21
57.0439462746
  0
LINE
  5
553
100
AcDbEntity
  8
00_COMPONENTS
100
AcDbLine
 62
7
  6
CONTINUOUS
 10
81.4839726917
 20
57.6836433138
 11
81.4839726917
 21
62.0439462746
  0
LINE
  5
554
100
AcDbEntity
  8
00_COMPONENTS
100
AcDbLine
 62
7
  6
CONTINUOUS
 10
82.0298822113
 20
61.4137947942
 11
82.0298822113
 21
58.3137947942
  0
LINE
  5
555
100
AcDbEntity
  8
00_COMPONENTS
100
AcDbLine
 62
7
  6
CONTINUOUS
 10
82.0298822113
 20
56.4137947942
 11
82.0298822113
 21
53.3137947942
  0
LINE
  5
556
100
AcDbEntity
  8
00_COMPONENTS
100
AcDbLine
 62
7
  6
CONTINUOUS
 10
82.0298822113
 20
51.4137947942
 11
82.0298822113
 21
48.3137947942
  0
LINE
  5
557
100
AcDbEntity
  8
00_COMPONENTS
100
AcDbLine
 62
7
  6
CONTINUOUS
 10
82.0298822113
 20
46.4137947942
 11
82.0298822113
 21
43.3137947942
  0
LINE
  5
558
100
AcDbEntity
  8
00_COMPONENTS
100
AcDbLine
 62
9
  6
CONTINUOUS
 10
82.3600336917
 20
61.4137947942
 11
82.3600336917
 21
58.3137947942
  0
LINE
  5
559
100
AcDbEntity
  8
00_COMPONENTS
100
AcDbLine
 62
9
  6
CONTINUOUS
 10
82.3600336917
 20
56.4137947942
 11
82.3600336917
 21
53.3137947942
  0
LINE
  5
55A
100
AcDbEntity
  8
00_COMPONENTS
100
AcDbLine
 62
9
  6
CONTINUOUS
 10
82.3600336917
 20
51.4137947942
 11
82.3600336917
 21
48.3137947942
  0
LINE
  5
55B
100
AcDbEntity
  8
00_COMPONENTS
100
AcDbLine
 62
9
  6
CONTINUOUS
 10
82.3600336917
 20
46.4137947942
 11
82.3600336917
 21
43.3137947942
  0
LINE
  5
55C
100
AcDbEntity
  8
00_COMPONENTS
100
AcDbLine
 62
9
  6
CONTINUOUS
 10
82.6600336917
 20
58.0137947942
 11
82.6600336917
 21
57.6836433138
  0
LINE
  5
55D
100
AcDbEntity
  8
00_COMPONENTS
100
AcDbLine
 62
9
  6
CONTINUOUS
 10
82.6600336917
 20
53.0137947942
 11
82.6600336917
 21
52.6836433138
  0
LINE
  5
55E
100
AcDbEntity
  8
00_COMPONENTS
100
AcDbLine
 62
9
  6
CONTINUOUS
 10
82.6600336917
 20
48.0137947942
 11
82.6600336917
 21
47.6836433138
  0
LINE
  5
55F
100
AcDbEntity
  8
00_COMPONENTS
100
AcDbLine
 62
9
  6
CONTINUOUS
 10
82.6600336917
 20
43.0137947942
 11
82.6600336917
 21
42.6836433138
  0
LINE
  5
560
100
AcDbEntity
  8
00_COMPONENTS
100
AcDbLine
 62
9
  6
CONTINUOUS
 10
82.6600336917
 20
46.7137947942
 11
82.6600336917
 21
47.0439462746
  0
LINE
  5
561
100
AcDbEntity
  8
00_COMPONENTS
100
AcDbLine
 62
9
  6
CONTINUOUS
 10
82.6600336917
 20
51.7137947942
 11
82.6600336917
 21
52.0439462746
  0
LINE
  5
562
100
AcDbEntity
  8
00_COMPONENTS
100
AcDbLine
 62
9
  6
CONTINUOUS
 10
82.6600336917
 20
56.7137947942
 11
82.6600336917
 21
57.0439462746
  0
LINE
  5
563
100
AcDbEntity
  8
00_COMPONENTS
100
AcDbLine
 62
9
  6
CONTINUOUS
 10
82.6600336917
 20
61.7137947942
 11
82.6600336917
 21
62.0439462746
  0
LINE
  5
564
100
AcDbEntity
  8
00_COMPONENTS
100
AcDbLine
 62
7
  6
CONTINUOUS
 10
82.7339726917
 20
42.6836433138
 11
82.7339726917
 21
47.0439462746
  0
LINE
  5
565
100
AcDbEntity
  8
00_COMPONENTS
100
AcDbLine
 62
7
  6
CONTINUOUS
 10
82.7339726917
 20
47.6836433138
 11
82.7339726917
 21
52.0439462746
  0
LINE
  5
566
100
AcDbEntity
  8
00_COMPONENTS
100
AcDbLine
 62
7
  6
CONTINUOUS
 10
82.7339726917
 20
52.6836433138
 11
82.7339726917
 21
57.0439462746
  0
LINE
  5
567
100
AcDbEntity
  8
00_COMPONENTS
100
AcDbLine
 62
7
  6
CONTINUOUS
 10
82.7339726917
 20
57.6836433138
 11
82.7339726917
 21
62.0439462746
  0
LINE
  5
568
100
AcDbEntity
  8
00_COMPONENTS
100
AcDbLine
 62
7
  6
CONTINUOUS
 10
83.2798822113
 20
61.4137947942
 11
83.2798822113
 21
58.3137947942
  0
LINE
  5
569
100
AcDbEntity
  8
00_COMPONENTS
100
AcDbLine
 62
7
  6
CONTINUOUS
 10
83.2798822113
 20
56.4137947942
 11
83.2798822113
 21
53.3137947942
  0
LINE
  5
56A
100
AcDbEntity
  8
00_COMPONENTS
100
AcDbLine
 62
7
  6
CONTINUOUS
 10
83.2798822113
 20
51.4137947942
 11
83.2798822113
 21
48.3137947942
  0
LINE
  5
56B
100
AcDbEntity
  8
00_COMPONENTS
100
AcDbLine
 62
7
  6
CONTINUOUS
 10
83.2798822113
 20
46.4137947942
 11
83.2798822113
 21
43.3137947942
  0
LINE
  5
56C
100
AcDbEntity
  8
00_COMPONENTS
100
AcDbLine
 62
9
  6
CONTINUOUS
 10
83.6100336917
 20
61.4137947942
 11
83.6100336917
 21
58.3137947942
  0
LINE
  5
56D
100
AcDbEntity
  8
00_COMPONENTS
100
AcDbLine
 62
9
  6
CONTINUOUS
 10
83.6100336917
 20
56.4137947942
 11
83.6100336917
 21
53.3137947942
  0
LINE
  5
56E
100
AcDbEntity
  8
00_COMPONENTS
100
AcDbLine
 62
9
  6
CONTINUOUS
 10
83.6100336917
 20
51.4137947942
 11
83.6100336917
 21
48.3137947942
  0
LINE
  5
56F
100
AcDbEntity
  8
00_COMPONENTS
100
AcDbLine
 62
9
  6
CONTINUOUS
 10
83.6100336917
 20
46.4137947942
 11
83.6100336917
 21
43.3137947942
  0
LINE
  5
570
100
AcDbEntity
  8
00_COMPONENTS
100
AcDbLine
 62
9
  6
CONTINUOUS
 10
83.9100336917
 20
58.0137947942
 11
83.9100336917
 21
57.6836433138
  0
LINE
  5
571
100
AcDbEntity
  8
00_COMPONENTS
100
AcDbLine
 62
9
  6
CONTINUOUS
 10
83.9100336917
 20
53.0137947942
 11
83.9100336917
 21
52.6836433138
  0
LINE
  5
572
100
AcDbEntity
  8
00_COMPONENTS
100
AcDbLine
 62
9
  6
CONTINUOUS
 10
83.9100336917
 20
48.0137947942
 11
83.9100336917
 21
47.6836433138
  0
LINE
  5
573
100
AcDbEntity
  8
00_COMPONENTS
100
AcDbLine
 62
9
  6
CONTINUOUS
 10
83.9100336917
 20
43.0137947942
 11
83.9100336917
 21
42.6836433138
  0
LINE
  5
574
100
AcDbEntity
  8
00_COMPONENTS
100
AcDbLine
 62
9
  6
CONTINUOUS
 10
83.9100336917
 20
46.7137947942
 11
83.9100336917
 21
47.0439462746
  0
LINE
  5
575
100
AcDbEntity
  8
00_COMPONENTS
100
AcDbLine
 62
9
  6
CONTINUOUS
 10
83.9100336917
 20
51.7137947942
 11
83.9100336917
 21
52.0439462746
  0
LINE
  5
576
100
AcDbEntity
  8
00_COMPONENTS
100
AcDbLine
 62
9
  6
CONTINUOUS
 10
83.9100336917
 20
56.7137947942
 11
83.9100336917
 21
57.0439462746
  0
LINE
  5
577
100
AcDbEntity
  8
00_COMPONENTS
100
AcDbLine
 62
9
  6
CONTINUOUS
 10
83.9100336917
 20
61.7137947942
 11
83.9100336917
 21
62.0439462746
  0
LINE
  5
578
100
AcDbEntity
  8
00_COMPONENTS
100
AcDbLine
 62
7
  6
CONTINUOUS
 10
83.9839726917
 20
42.6836433138
 11
83.9839726917
 21
47.0439462746
  0
LINE
  5
579
100
AcDbEntity
  8
00_COMPONENTS
100
AcDbLine
 62
7
  6
CONTINUOUS
 10
83.9839726917
 20
47.6836433138
 11
83.9839726917
 21
52.0439462746
  0
LINE
  5
57A
100
AcDbEntity
  8
00_COMPONENTS
100
AcDbLine
 62
7
  6
CONTINUOUS
 10
83.9839726917
 20
52.6836433138
 11
83.9839726917
 21
57.0439462746
  0
LINE
  5
57B
100
AcDbEntity
  8
00_COMPONENTS
100
AcDbLine
 62
7
  6
CONTINUOUS
 10
83.9839726917
 20
57.6836433138
 11
83.9839726917
 21
62.0439462746
  0
LINE
  5
57C
100
AcDbEntity
  8
00_COMPONENTS
100
AcDbLine
 62
7
  6
CONTINUOUS
 10
84.5298822113
 20
61.4137947942
 11
84.5298822113
 21
58.3137947942
  0
LINE
  5
57D
100
AcDbEntity
  8
00_COMPONENTS
100
AcDbLine
 62
7
  6
CONTINUOUS
 10
84.5298822113
 20
56.4137947942
 11
84.5298822113
 21
53.3137947942
  0
LINE
  5
57E
100
AcDbEntity
  8
00_COMPONENTS
100
AcDbLine
 62
7
  6
CONTINUOUS
 10
84.5298822113
 20
51.4137947942
 11
84.5298822113
 21
48.3137947942
  0
LINE
  5
57F
100
AcDbEntity
  8
00_COMPONENTS
100
AcDbLine
 62
7
  6
CONTINUOUS
 10
84.5298822113
 20
46.4137947942
 11
84.5298822113
 21
43.3137947942
  0
LINE
  5
580
100
AcDbEntity
  8
00_COMPONENTS
100
AcDbLine
 62
9
  6
CONTINUOUS
 10
84.8600336917
 20
61.4137947942
 11
84.8600336917
 21
58.3137947942
  0
LINE
  5
581
100
AcDbEntity
  8
00_COMPONENTS
100
AcDbLine
 62
9
  6
CONTINUOUS
 10
84.8600336917
 20
56.4137947942
 11
84.8600336917
 21
53.3137947942
  0
LINE
  5
582
100
AcDbEntity
  8
00_COMPONENTS
100
AcDbLine
 62
9
  6
CONTINUOUS
 10
84.8600336917
 20
51.4137947942
 11
84.8600336917
 21
48.3137947942
  0
LINE
  5
583
100
AcDbEntity
  8
00_COMPONENTS
100
AcDbLine
 62
9
  6
CONTINUOUS
 10
84.8600336917
 20
46.4137947942
 11
84.8600336917
 21
43.3137947942
  0
LINE
  5
584
100
AcDbEntity
  8
00_COMPONENTS
100
AcDbLine
 62
9
  6
CONTINUOUS
 10
85.1600336917
 20
58.0137947942
 11
85.1600336917
 21
57.6836433138
  0
LINE
  5
585
100
AcDbEntity
  8
00_COMPONENTS
100
AcDbLine
 62
9
  6
CONTINUOUS
 10
85.1600336917
 20
53.0137947942
 11
85.1600336917
 21
52.6836433138
  0
LINE
  5
586
100
AcDbEntity
  8
00_COMPONENTS
100
AcDbLine
 62
9
  6
CONTINUOUS
 10
85.1600336917
 20
48.0137947942
 11
85.1600336917
 21
47.6836433138
  0
LINE
  5
587
100
AcDbEntity
  8
00_COMPONENTS
100
AcDbLine
 62
9
  6
CONTINUOUS
 10
85.1600336917
 20
43.0137947942
 11
85.1600336917
 21
42.6836433138
  0
LINE
  5
588
100
AcDbEntity
  8
00_COMPONENTS
100
AcDbLine
 62
9
  6
CONTINUOUS
 10
85.1600336917
 20
46.7137947942
 11
85.1600336917
 21
47.0439462746
  0
LINE
  5
589
100
AcDbEntity
  8
00_COMPONENTS
100
AcDbLine
 62
9
  6
CONTINUOUS
 10
85.1600336917
 20
51.7137947942
 11
85.1600336917
 21
52.0439462746
  0
LINE
  5
58A
100
AcDbEntity
  8
00_COMPONENTS
100
AcDbLine
 62
9
  6
CONTINUOUS
 10
85.1600336917
 20
56.7137947942
 11
85.1600336917
 21
57.0439462746
  0
LINE
  5
58B
100
AcDbEntity
  8
00_COMPONENTS
100
AcDbLine
 62
9
  6
CONTINUOUS
 10
85.1600336917
 20
61.7137947942
 11
85.1600336917
 21
62.0439462746
  0
LINE
  5
58C
100
AcDbEntity
  8
00_COMPONENTS
100
AcDbLine
 62
7
  6
CONTINUOUS
 10
85.2339726917
 20
42.6836433138
 11
85.2339726917
 21
47.0439462746
  0
LINE
  5
58D
100
AcDbEntity
  8
00_COMPONENTS
100
AcDbLine
 62
7
  6
CONTINUOUS
 10
85.2339726917
 20
47.6836433138
 11
85.2339726917
 21
52.0439462746
  0
LINE
  5
58E
100
AcDbEntity
  8
00_COMPONENTS
100
AcDbLine
 62
7
  6
CONTINUOUS
 10
85.2339726917
 20
52.6836433138
 11
85.2339726917
 21
57.0439462746
  0
LINE
  5
58F
100
AcDbEntity
  8
00_COMPONENTS
100
AcDbLine
 62
7
  6
CONTINUOUS
 10
85.2339726917
 20
57.6836433138
 11
85.2339726917
 21
62.0439462746
  0
LINE
  5
590
100
AcDbEntity
  8
00_COMPONENTS
100
AcDbLine
 62
7
  6
CONTINUOUS
 10
85.7798822113
 20
61.4137947942
 11
85.7798822113
 21
58.3137947942
  0
LINE
  5
591
100
AcDbEntity
  8
00_COMPONENTS
100
AcDbLine
 62
7
  6
CONTINUOUS
 10
85.7798822113
 20
56.4137947942
 11
85.7798822113
 21
53.3137947942
  0
LINE
  5
592
100
AcDbEntity
  8
00_COMPONENTS
100
AcDbLine
 62
7
  6
CONTINUOUS
 10
85.7798822113
 20
51.4137947942
 11
85.7798822113
 21
48.3137947942
  0
LINE
  5
593
100
AcDbEntity
  8
00_COMPONENTS
100
AcDbLine
 62
7
  6
CONTINUOUS
 10
85.7798822113
 20
46.4137947942
 11
85.7798822113
 21
43.3137947942
  0
LINE
  5
594
100
AcDbEntity
  8
00_COMPONENTS
100
AcDbLine
 62
9
  6
CONTINUOUS
 10
86.1100336917
 20
61.4137947942
 11
86.1100336917
 21
58.3137947942
  0
LINE
  5
595
100
AcDbEntity
  8
00_COMPONENTS
100
AcDbLine
 62
9
  6
CONTINUOUS
 10
86.1100336917
 20
56.4137947942
 11
86.1100336917
 21
53.3137947942
  0
LINE
  5
596
100
AcDbEntity
  8
00_COMPONENTS
100
AcDbLine
 62
9
  6
CONTINUOUS
 10
86.1100336917
 20
51.4137947942
 11
86.1100336917
 21
48.3137947942
  0
LINE
  5
597
100
AcDbEntity
  8
00_COMPONENTS
100
AcDbLine
 62
9
  6
CONTINUOUS
 10
86.1100336917
 20
46.4137947942
 11
86.1100336917
 21
43.3137947942
  0
LINE
  5
598
100
AcDbEntity
  8
00_COMPONENTS
100
AcDbLine
 62
9
  6
CONTINUOUS
 10
86.4100336917
 20
58.0137947942
 11
86.4100336917
 21
57.6836433138
  0
LINE
  5
599
100
AcDbEntity
  8
00_COMPONENTS
100
AcDbLine
 62
9
  6
CONTINUOUS
 10
86.4100336917
 20
53.0137947942
 11
86.4100336917
 21
52.6836433138
  0
LINE
  5
59A
100
AcDbEntity
  8
00_COMPONENTS
100
AcDbLine
 62
9
  6
CONTINUOUS
 10
86.4100336917
 20
48.0137947942
 11
86.4100336917
 21
47.6836433138
  0
LINE
  5
59B
100
AcDbEntity
  8
00_COMPONENTS
100
AcDbLine
 62
9
  6
CONTINUOUS
 10
86.4100336917
 20
43.0137947942
 11
86.4100336917
 21
42.6836433138
  0
LINE
  5
59C
100
AcDbEntity
  8
00_COMPONENTS
100
AcDbLine
 62
9
  6
CONTINUOUS
 10
86.4100336917
 20
46.7137947942
 11
86.4100336917
 21
47.0439462746
  0
LINE
  5
59D
100
AcDbEntity
  8
00_COMPONENTS
100
AcDbLine
 62
9
  6
CONTINUOUS
 10
86.4100336917
 20
51.7137947942
 11
86.4100336917
 21
52.0439462746
  0
LINE
  5
59E
100
AcDbEntity
  8
00_COMPONENTS
100
AcDbLine
 62
9
  6
CONTINUOUS
 10
86.4100336917
 20
56.7137947942
 11
86.4100336917
 21
57.0439462746
  0
LINE
  5
59F
100
AcDbEntity
  8
00_COMPONENTS
100
AcDbLine
 62
9
  6
CONTINUOUS
 10
86.4100336917
 20
61.7137947942
 11
86.4100336917
 21
62.0439462746
  0
LINE
  5
5A0
100
AcDbEntity
  8
00_COMPONENTS
100
AcDbLine
 62
7
  6
CONTINUOUS
 10
86.4839726917
 20
42.6836433138
 11
86.4839726917
 21
47.0439462746
  0
LINE
  5
5A1
100
AcDbEntity
  8
00_COMPONENTS
100
AcDbLine
 62
7
  6
CONTINUOUS
 10
86.4839726917
 20
47.6836433138
 11
86.4839726917
 21
52.0439462746
  0
LINE
  5
5A2
100
AcDbEntity
  8
00_COMPONENTS
100
AcDbLine
 62
7
  6
CONTINUOUS
 10
86.4839726917
 20
52.6836433138
 11
86.4839726917
 21
57.0439462746
  0
LINE
  5
5A3
100
AcDbEntity
  8
00_COMPONENTS
100
AcDbLine
 62
7
  6
CONTINUOUS
 10
86.4839726917
 20
57.6836433138
 11
86.4839726917
 21
62.0439462746
  0
LINE
  5
5A4
100
AcDbEntity
  8
00_COMPONENTS
100
AcDbLine
 62
9
  6
CONTINUOUS
 10
88.5419078358
 20
65.4918857497
 11
88.5419078358
 21
38.8778857497
  0
LINE
  5
5A5
100
AcDbEntity
  8
00_COMPONENTS
100
AcDbLine
 62
7
  6
CONTINUOUS
 10
88.7249078358
 20
65.5718857497
 11
88.7249078358
 21
38.7978857497
  0
LINE
  5
5A6
100
AcDbEntity
  8
00_COMPONENTS
100
AcDbLine
 62
7
  6
CONTINUOUS
 10
88.7249078358
 20
38.7878857497
 11
88.7249078358
 21
38.6948857497
  0
LINE
  5
5A7
100
AcDbEntity
  8
00_COMPONENTS
100
AcDbLine
 62
7
  6
CONTINUOUS
 10
88.7249078358
 20
65.5818857497
 11
88.7249078358
 21
65.6748857497
  0
LINE
  5
5A8
100
AcDbEntity
  8
00_COMPONENTS
100
AcDbLine
 62
7
  6
CONTINUOUS
 10
25.7289078358
 20
28.8587766613
 11
25.7289078358
 21
28.2287766613
  0
LINE
  5
5A9
100
AcDbEntity
  8
00_COMPONENTS
100
AcDbLine
 62
8
  6
HIDDEN
 10
25.8219078358
 20
28.2287766613
 11
25.8219078358
 21
28.8587766613
  0
LINE
  5
5AA
100
AcDbEntity
  8
00_COMPONENTS
100
AcDbLine
 62
8
  6
HIDDEN
 10
25.9119078358
 20
29.0417766613
 11
25.9119078358
 21
28.9487766613
  0
LINE
  5
5AB
100
AcDbEntity
  8
00_COMPONENTS
100
AcDbLine
 62
8
  6
HIDDEN
 10
27.1229078358
 20
28.9487766613
 11
27.1229078358
 21
28.8957766613
  0
LINE
  5
5AC
100
AcDbEntity
  8
00_COMPONENTS
100
AcDbLine
 62
8
  6
HIDDEN
 10
27.6869078358
 20
28.9487766613
 11
27.6869078358
 21
28.8957766613
  0
LINE
  5
5AD
100
AcDbEntity
  8
00_COMPONENTS
100
AcDbLine
 62
8
  6
HIDDEN
 10
27.7399078358
 20
28.3247766613
 11
27.7399078358
 21
28.8427766613
  0
LINE
  5
5AE
100
AcDbEntity
  8
00_COMPONENTS
100
AcDbLine
 62
8
  6
HIDDEN
 10
27.7929078358
 20
28.3247766613
 11
27.7929078358
 21
28.8427766613
  0
LINE
  5
5AF
100
AcDbEntity
  8
00_COMPONENTS
100
AcDbLine
 62
8
  6
HIDDEN
 10
27.8459078358
 20
28.2187766613
 11
27.8459078358
 21
28.2717766613
  0
LINE
  5
5B0
100
AcDbEntity
  8
00_COMPONENTS
100
AcDbLine
 62
8
  6
HIDDEN
 10
28.0029078358
 20
28.2187766613
 11
28.0029078358
 21
28.2717766613
  0
LINE
  5
5B1
100
AcDbEntity
  8
00_COMPONENTS
100
AcDbLine
 62
8
  6
HIDDEN
 10
28.1769078358
 20
28.2187766613
 11
28.1769078358
 21
28.2717766613
  0
LINE
  5
5B2
100
AcDbEntity
  8
00_COMPONENTS
100
AcDbLine
 62
8
  6
HIDDEN
 10
28.2620011982
 20
28.2717766613
 11
28.2620011982
 21
28.2187766613
  0
LINE
  5
5B3
100
AcDbEntity
  8
00_COMPONENTS
100
AcDbLine
 62
9
  6
CONTINUOUS
 10
28.5209158969
 20
29.2917766613
 11
28.5209158969
 21
29.0417766613
  0
LINE
  5
5B4
100
AcDbEntity
  8
00_COMPONENTS
100
AcDbLine
 62
8
  6
HIDDEN
 10
28.5209158969
 20
29.0417766613
 11
28.5209158969
 21
28.9487766613
  0
LINE
  5
5B5
100
AcDbEntity
  8
00_COMPONENTS
100
AcDbLine
 62
7
  6
CONTINUOUS
 10
28.5948548969
 20
29.2917766613
 11
28.5948548969
 21
29.0417766613
  0
LINE
  5
5B6
100
AcDbEntity
  8
00_COMPONENTS
100
AcDbLine
 62
8
  6
HIDDEN
 10
28.5948548969
 20
28.9487766613
 11
28.5948548969
 21
29.0417766613
  0
LINE
  5
5B7
100
AcDbEntity
  8
00_COMPONENTS
100
AcDbLine
 62
8
  6
HIDDEN
 10
29.1859078358
 20
28.2717766613
 11
29.1859078358
 21
28.2187766613
  0
LINE
  5
5B8
100
AcDbEntity
  8
00_COMPONENTS
100
AcDbLine
 62
8
  6
HIDDEN
 10
29.5120011982
 20
28.2717766613
 11
29.5120011982
 21
28.2187766613
  0
LINE
  5
5B9
100
AcDbEntity
  8
00_COMPONENTS
100
AcDbLine
 62
9
  6
CONTINUOUS
 10
29.7709158969
 20
29.2917766613
 11
29.7709158969
 21
29.0417766613
  0
LINE
  5
5BA
100
AcDbEntity
  8
00_COMPONENTS
100
AcDbLine
 62
8
  6
HIDDEN
 10
29.7709158969
 20
29.0417766613
 11
29.7709158969
 21
28.9487766613
  0
LINE
  5
5BB
100
AcDbEntity
  8
00_COMPONENTS
100
AcDbLine
 62
7
  6
CONTINUOUS
 10
29.8448548969
 20
29.2917766613
 11
29.8448548969
 21
29.0417766613
  0
LINE
  5
5BC
100
AcDbEntity
  8
00_COMPONENTS
100
AcDbLine
 62
8
  6
HIDDEN
 10
29.8448548969
 20
28.9487766613
 11
29.8448548969
 21
29.0417766613
  0
LINE
  5
5BD
100
AcDbEntity
  8
00_COMPONENTS
100
AcDbLine
 62
8
  6
HIDDEN
 10
30.4359078358
 20
28.2717766613
 11
30.4359078358
 21
28.2187766613
  0
LINE
  5
5BE
100
AcDbEntity
  8
00_COMPONENTS
100
AcDbLine
 62
8
  6
HIDDEN
 10
30.7620011982
 20
28.2717766613
 11
30.7620011982
 21
28.2187766613
  0
LINE
  5
5BF
100
AcDbEntity
  8
00_COMPONENTS
100
AcDbLine
 62
9
  6
CONTINUOUS
 10
31.0209158969
 20
29.2917766613
 11
31.0209158969
 21
29.0417766613
  0
LINE
  5
5C0
100
AcDbEntity
  8
00_COMPONENTS
100
AcDbLine
 62
8
  6
HIDDEN
 10
31.0209158969
 20
29.0417766613
 11
31.0209158969
 21
28.9487766613
  0
LINE
  5
5C1
100
AcDbEntity
  8
00_COMPONENTS
100
AcDbLine
 62
7
  6
CONTINUOUS
 10
31.0948548969
 20
29.2917766613
 11
31.0948548969
 21
29.0417766613
  0
LINE
  5
5C2
100
AcDbEntity
  8
00_COMPONENTS
100
AcDbLine
 62
8
  6
HIDDEN
 10
31.0948548969
 20
28.9487766613
 11
31.0948548969
 21
29.0417766613
  0
LINE
  5
5C3
100
AcDbEntity
  8
00_COMPONENTS
100
AcDbLine
 62
8
  6
HIDDEN
 10
31.6859078358
 20
28.2717766613
 11
31.6859078358
 21
28.2187766613
  0
LINE
  5
5C4
100
AcDbEntity
  8
00_COMPONENTS
100
AcDbLine
 62
8
  6
HIDDEN
 10
32.0120011982
 20
28.2717766613
 11
32.0120011982
 21
28.2187766613
  0
LINE
  5
5C5
100
AcDbEntity
  8
00_COMPONENTS
100
AcDbLine
 62
9
  6
CONTINUOUS
 10
32.2709158969
 20
29.2917766613
 11
32.2709158969
 21
29.0417766613
  0
LINE
  5
5C6
100
AcDbEntity
  8
00_COMPONENTS
100
AcDbLine
 62
8
  6
HIDDEN
 10
32.2709158969
 20
29.0417766613
 11
32.2709158969
 21
28.9487766613
  0
LINE
  5
5C7
100
AcDbEntity
  8
00_COMPONENTS
100
AcDbLine
 62
7
  6
CONTINUOUS
 10
32.3448548969
 20
29.2917766613
 11
32.3448548969
 21
29.0417766613
  0
LINE
  5
5C8
100
AcDbEntity
  8
00_COMPONENTS
100
AcDbLine
 62
8
  6
HIDDEN
 10
32.3448548969
 20
28.9487766613
 11
32.3448548969
 21
29.0417766613
  0
LINE
  5
5C9
100
AcDbEntity
  8
00_COMPONENTS
100
AcDbLine
 62
8
  6
HIDDEN
 10
32.9359078358
 20
28.2717766613
 11
32.9359078358
 21
28.2187766613
  0
LINE
  5
5CA
100
AcDbEntity
  8
00_COMPONENTS
100
AcDbLine
 62
8
  6
HIDDEN
 10
33.2620011982
 20
28.2717766613
 11
33.2620011982
 21
28.2187766613
  0
LINE
  5
5CB
100
AcDbEntity
  8
00_COMPONENTS
100
AcDbLine
 62
8
  6
HIDDEN
 10
33.3249078358
 20
28.9487766613
 11
33.3249078358
 21
29.0417766613
  0
LINE
  5
5CC
100
AcDbEntity
  8
00_COMPONENTS
100
AcDbLine
 62
8
  6
HIDDEN
 10
33.5187525545
 20
28.9487766613
 11
33.5187525545
 21
29.0417766613
  0
LINE
  5
5CD
100
AcDbEntity
  8
00_COMPONENTS
100
AcDbLine
 62
9
  6
CONTINUOUS
 10
33.5209158969
 20
29.2917766613
 11
33.5209158969
 21
29.0417766613
  0
LINE
  5
5CE
100
AcDbEntity
  8
00_COMPONENTS
100
AcDbLine
 62
8
  6
HIDDEN
 10
33.5209158969
 20
29.0417766613
 11
33.5209158969
 21
28.9487766613
  0
LINE
  5
5CF
100
AcDbEntity
  8
00_COMPONENTS
100
AcDbLine
 62
7
  6
CONTINUOUS
 10
33.5948548969
 20
29.2917766613
 11
33.5948548969
 21
29.0417766613
  0
LINE
  5
5D0
100
AcDbEntity
  8
00_COMPONENTS
100
AcDbLine
 62
8
  6
HIDDEN
 10
33.5948548969
 20
28.9487766613
 11
33.5948548969
 21
29.0417766613
  0
LINE
  5
5D1
100
AcDbEntity
  8
00_COMPONENTS
100
AcDbLine
 62
8
  6
HIDDEN
 10
33.9310631171
 20
28.9487766613
 11
33.9310631171
 21
29.0417766613
  0
LINE
  5
5D2
100
AcDbEntity
  8
00_COMPONENTS
100
AcDbLine
 62
8
  6
HIDDEN
 10
34.1249078358
 20
28.9487766613
 11
34.1249078358
 21
29.0417766613
  0
LINE
  5
5D3
100
AcDbEntity
  8
00_COMPONENTS
100
AcDbLine
 62
8
  6
HIDDEN
 10
34.1859078358
 20
28.2717766613
 11
34.1859078358
 21
28.2187766613
  0
LINE
  5
5D4
100
AcDbEntity
  8
00_COMPONENTS
100
AcDbLine
 62
8
  6
HIDDEN
 10
28.325818266
 20
28.2401398971
 11
28.2939097321
 21
28.2824582792
  0
LINE
  5
5D5
100
AcDbEntity
  8
00_COMPONENTS
100
AcDbLine
 62
8
  6
HIDDEN
 10
34.5120011982
 20
28.2717766613
 11
34.5120011982
 21
28.2187766613
  0
LINE
  5
5D6
100
AcDbEntity
  8
00_COMPONENTS
100
AcDbLine
 62
9
  6
CONTINUOUS
 10
34.7709158969
 20
29.2917766613
 11
34.7709158969
 21
29.0417766613
  0
LINE
  5
5D7
100
AcDbEntity
  8
00_COMPONENTS
100
AcDbLine
 62
8
  6
HIDDEN
 10
34.7709158969
 20
29.0417766613
 11
34.7709158969
 21
28.9487766613
  0
LINE
  5
5D8
100
AcDbEntity
  8
00_COMPONENTS
100
AcDbLine
 62
7
  6
CONTINUOUS
 10
34.8448548969
 20
29.2917766613
 11
34.8448548969
 21
29.0417766613
  0
LINE
  5
5D9
100
AcDbEntity
  8
00_COMPONENTS
100
AcDbLine
 62
8
  6
HIDDEN
 10
34.8448548969
 20
28.9487766613
 11
34.8448548969
 21
29.0417766613
  0
LINE
  5
5DA
100
AcDbEntity
  8
00_COMPONENTS
100
AcDbLine
 62
8
  6
HIDDEN
 10
35.4359078358
 20
28.2717766613
 11
35.4359078358
 21
28.2187766613
  0
LINE
  5
5DB
100
AcDbEntity
  8
00_COMPONENTS
100
AcDbLine
 62
8
  6
HIDDEN
 10
35.8029078358
 20
28.2187766613
 11
35.8029078358
 21
28.2717766613
  0
LINE
  5
5DC
100
AcDbEntity
  8
00_COMPONENTS
100
AcDbLine
 62
8
  6
HIDDEN
 10
35.8034078358
 20
28.2187766613
 11
35.8034078358
 21
28.2717766613
  0
LINE
  5
5DD
100
AcDbEntity
  8
00_COMPONENTS
100
AcDbLine
 62
8
  6
HIDDEN
 10
35.9764078358
 20
28.2187766613
 11
35.9764078358
 21
28.2717766613
  0
LINE
  5
5DE
100
AcDbEntity
  8
00_COMPONENTS
100
AcDbLine
 62
8
  6
HIDDEN
 10
35.9769078358
 20
28.2187766613
 11
35.9769078358
 21
28.2717766613
  0
LINE
  5
5DF
100
AcDbEntity
  8
00_COMPONENTS
100
AcDbLine
 62
9
  6
CONTINUOUS
 10
36.0209158969
 20
29.2917766613
 11
36.0209158969
 21
29.0417766613
  0
LINE
  5
5E0
100
AcDbEntity
  8
00_COMPONENTS
100
AcDbLine
 62
8
  6
HIDDEN
 10
36.0209158969
 20
29.0417766613
 11
36.0209158969
 21
28.9487766613
  0
LINE
  5
5E1
100
AcDbEntity
  8
00_COMPONENTS
100
AcDbLine
 62
7
  6
CONTINUOUS
 10
36.0948548969
 20
29.2917766613
 11
36.0948548969
 21
29.0417766613
  0
LINE
  5
5E2
100
AcDbEntity
  8
00_COMPONENTS
100
AcDbLine
 62
8
  6
HIDDEN
 10
36.0948548969
 20
28.9487766613
 11
36.0948548969
 21
29.0417766613
  0
LINE
  5
5E3
100
AcDbEntity
  8
00_COMPONENTS
100
AcDbLine
 62
8
  6
HIDDEN
 10
36.1339078358
 20
28.2187766613
 11
36.1339078358
 21
28.2717766613
  0
LINE
  5
5E4
100
AcDbEntity
  8
00_COMPONENTS
100
AcDbLine
 62
8
  6
HIDDEN
 10
36.1869078358
 20
28.3247766613
 11
36.1869078358
 21
28.8427766613
  0
LINE
  5
5E5
100
AcDbEntity
  8
00_COMPONENTS
100
AcDbLine
 62
8
  6
HIDDEN
 10
36.2399078358
 20
28.3247766613
 11
36.2399078358
 21
28.8427766613
  0
LINE
  5
5E6
100
AcDbEntity
  8
00_COMPONENTS
100
AcDbLine
 62
8
  6
HIDDEN
 10
36.2929078358
 20
28.9487766613
 11
36.2929078358
 21
28.8957766613
  0
LINE
  5
5E7
100
AcDbEntity
  8
00_COMPONENTS
100
AcDbLine
 62
8
  6
HIDDEN
 10
29.575818266
 20
28.2401398971
 11
29.5439097321
 21
28.2824582792
  0
LINE
  5
5E8
100
AcDbEntity
  8
00_COMPONENTS
100
AcDbLine
 62
8
  6
HIDDEN
 10
30.825818266
 20
28.2401398971
 11
30.7939097321
 21
28.2824582792
  0
LINE
  5
5E9
100
AcDbEntity
  8
00_COMPONENTS
100
AcDbLine
 62
8
  6
HIDDEN
 10
36.8569078358
 20
28.9487766613
 11
36.8569078358
 21
28.8957766613
  0
LINE
  5
5EA
100
AcDbEntity
  8
00_COMPONENTS
100
AcDbLine
 62
7
  6
CONTINUOUS
 10
36.8569078358
 20
27.3077766613
 11
36.8569078358
 21
28.2287766613
  0
LINE
  5
5EB
100
AcDbEntity
  8
00_COMPONENTS
100
AcDbLine
 62
8
  6
HIDDEN
 10
36.8569078358
 20
28.2287766613
 11
36.8569078358
 21
28.7917766613
  0
LINE
  5
5EC
100
AcDbEntity
  8
00_COMPONENTS
100
AcDbLine
 62
3
  6
CONTINUOUS
 10
36.9539078358
 20
27.3077766613
 11
36.9539078358
 21
28.2287766613
  0
LINE
  5
5ED
100
AcDbEntity
  8
00_COMPONENTS
100
AcDbLine
 62
8
  6
HIDDEN
 10
36.9539078358
 20
28.2287766613
 11
36.9539078358
 21
28.7917766613
  0
LINE
  5
5EE
100
AcDbEntity
  8
00_COMPONENTS
100
AcDbLine
 62
8
  6
HIDDEN
 10
37.0139078358
 20
28.9487766613
 11
37.0139078358
 21
28.8517766613
  0
LINE
  5
5EF
100
AcDbEntity
  8
00_COMPONENTS
100
AcDbLine
 62
7
  6
CONTINUOUS
 10
37.0139078358
 20
28.2287766613
 11
37.0139078358
 21
27.3077766613
  0
LINE
  5
5F0
100
AcDbEntity
  8
00_COMPONENTS
100
AcDbLine
 62
8
  6
HIDDEN
 10
37.0139078358
 20
28.2287766613
 11
37.0139078358
 21
28.7917766613
  0
LINE
  5
5F1
100
AcDbEntity
  8
00_COMPONENTS
100
AcDbLine
 62
7
  6
CONTINUOUS
 10
37.1699078358
 20
29.7087766613
 11
37.1699078358
 21
29.6117766613
  0
LINE
  5
5F2
100
AcDbEntity
  8
00_COMPONENTS
100
AcDbLine
 62
9
  6
CONTINUOUS
 10
37.5469078358
 20
29.7087766613
 11
37.5469078358
 21
29.6117766613
  0
LINE
  5
5F3
100
AcDbEntity
  8
00_COMPONENTS
100
AcDbLine
 62
8
  6
HIDDEN
 10
37.5469078358
 20
28.8517766613
 11
37.5469078358
 21
28.9487766613
  0
LINE
  5
5F4
100
AcDbEntity
  8
00_COMPONENTS
100
AcDbLine
 62
8
  6
HIDDEN
 10
37.6069078358
 20
28.9487766613
 11
37.6069078358
 21
29.0417766613
  0
LINE
  5
5F5
100
AcDbEntity
  8
00_COMPONENTS
100
AcDbLine
 62
7
  6
CONTINUOUS
 10
37.6069078358
 20
29.0417766613
 11
37.6069078358
 21
29.5517766613
  0
LINE
  5
5F6
100
AcDbEntity
  8
00_COMPONENTS
100
AcDbLine
 62
8
  6
HIDDEN
 10
37.7039078358
 20
29.0087766613
 11
37.7039078358
 21
29.0417766613
  0
LINE
  5
5F7
100
AcDbEntity
  8
00_COMPONENTS
100
AcDbLine
 62
3
  6
CONTINUOUS
 10
37.7039078358
 20
29.0417766613
 11
37.7039078358
 21
29.5517766613
  0
LINE
  5
5F8
100
AcDbEntity
  8
00_COMPONENTS
100
AcDbLine
 62
8
  6
HIDDEN
 10
37.7639078358
 20
28.7917766613
 11
37.7639078358
 21
29.0417766613
  0
LINE
  5
5F9
100
AcDbEntity
  8
00_COMPONENTS
100
AcDbLine
 62
7
  6
CONTINUOUS
 10
37.7639078358
 20
29.0417766613
 11
37.7639078358
 21
29.7087766613
  0
LINE
  5
5FA
100
AcDbEntity
  8
00_COMPONENTS
100
AcDbLine
 62
8
  6
HIDDEN
 10
28.2994778576
 20
28.2873000019
 11
28.8906851438
 21
28.8785072882
  0
LINE
  5
5FB
100
AcDbEntity
  8
00_COMPONENTS
100
AcDbLine
 62
8
  6
HIDDEN
 10
28.336954517
 20
28.2498233425
 11
28.9281618032
 21
28.8410306288
  0
LINE
  5
5FC
100
AcDbEntity
  8
00_COMPONENTS
100
AcDbLine
 62
8
  6
HIDDEN
 10
29.5494778576
 20
28.2873000019
 11
30.1406851438
 21
28.8785072882
  0
LINE
  5
5FD
100
AcDbEntity
  8
00_COMPONENTS
100
AcDbLine
 62
8
  6
HIDDEN
 10
29.586954517
 20
28.2498233425
 11
30.1781618032
 21
28.8410306288
  0
LINE
  5
5FE
100
AcDbEntity
  8
00_COMPONENTS
100
AcDbLine
 62
8
  6
HIDDEN
 10
28.2939097321
 20
28.2824582792
 11
28.2994778576
 21
28.2873000019
  0
LINE
  5
5FF
100
AcDbEntity
  8
00_COMPONENTS
100
AcDbLine
 62
8
  6
HIDDEN
 10
28.325818266
 20
28.2401398971
 11
28.336954517
 21
28.2498233425
  0
LINE
  5
600
100
AcDbEntity
  8
00_COMPONENTS
100
AcDbLine
 62
8
  6
HIDDEN
 10
28.336954517
 20
28.2498233425
 11
28.2994778576
 21
28.2873000019
  0
LINE
  5
601
100
AcDbEntity
  8
00_COMPONENTS
100
AcDbLine
 62
8
  6
HIDDEN
 10
28.9281618032
 20
28.8410306288
 11
28.8906851438
 21
28.8785072882
  0
LINE
  5
602
100
AcDbEntity
  8
00_COMPONENTS
100
AcDbLine
 62
8
  6
HIDDEN
 10
29.586954517
 20
28.2498233425
 11
29.5494778576
 21
28.2873000019
  0
LINE
  5
603
100
AcDbEntity
  8
00_COMPONENTS
100
AcDbLine
 62
8
  6
HIDDEN
 10
30.1781618032
 20
28.8410306288
 11
30.1406851438
 21
28.8785072882
  0
LINE
  5
604
100
AcDbEntity
  8
00_COMPONENTS
100
AcDbLine
 62
8
  6
HIDDEN
 10
30.836954517
 20
28.2498233425
 11
30.7994778576
 21
28.2873000019
  0
LINE
  5
605
100
AcDbEntity
  8
00_COMPONENTS
100
AcDbLine
 62
8
  6
HIDDEN
 10
32.075818266
 20
28.2401398971
 11
32.0439097321
 21
28.2824582792
  0
LINE
  5
606
100
AcDbEntity
  8
00_COMPONENTS
100
AcDbLine
 62
8
  6
HIDDEN
 10
33.325818266
 20
28.2401398971
 11
33.2939097321
 21
28.2824582792
  0
LINE
  5
607
100
AcDbEntity
  8
00_COMPONENTS
100
AcDbLine
 62
8
  6
HIDDEN
 10
40.3071078358
 20
29.1636441748
 11
40.3071078358
 21
29.3559091479
  0
LINE
  5
608
100
AcDbEntity
  8
00_COMPONENTS
100
AcDbLine
 62
8
  6
HIDDEN
 10
40.3571078358
 20
29.3847766613
 11
40.3571078358
 21
29.1347766613
  0
LINE
  5
609
100
AcDbEntity
  8
00_COMPONENTS
100
AcDbLine
 62
8
  6
HIDDEN
 10
30.7994778576
 20
28.2873000019
 11
31.3906851438
 21
28.8785072882
  0
LINE
  5
60A
100
AcDbEntity
  8
00_COMPONENTS
100
AcDbLine
 62
8
  6
HIDDEN
 10
30.836954517
 20
28.2498233425
 11
31.4281618032
 21
28.8410306288
  0
LINE
  5
60B
100
AcDbEntity
  8
00_COMPONENTS
100
AcDbLine
 62
8
  6
HIDDEN
 10
32.0494778576
 20
28.2873000019
 11
32.6406851438
 21
28.8785072882
  0
LINE
  5
60C
100
AcDbEntity
  8
00_COMPONENTS
100
AcDbLine
 62
8
  6
HIDDEN
 10
32.086954517
 20
28.2498233425
 11
32.6781618032
 21
28.8410306288
  0
LINE
  5
60D
100
AcDbEntity
  8
00_COMPONENTS
100
AcDbLine
 62
8
  6
HIDDEN
 10
33.2994778576
 20
28.2873000019
 11
33.8906851438
 21
28.8785072882
  0
LINE
  5
60E
100
AcDbEntity
  8
00_COMPONENTS
100
AcDbLine
 62
8
  6
HIDDEN
 10
33.336954517
 20
28.2498233425
 11
33.9281618032
 21
28.8410306288
  0
LINE
  5
60F
100
AcDbEntity
  8
00_COMPONENTS
100
AcDbLine
 62
8
  6
HIDDEN
 10
29.5439097321
 20
28.2824582792
 11
29.5494778576
 21
28.2873000019
  0
LINE
  5
610
100
AcDbEntity
  8
00_COMPONENTS
100
AcDbLine
 62
8
  6
HIDDEN
 10
29.575818266
 20
28.2401398971
 11
29.586954517
 21
28.2498233425
  0
LINE
  5
611
100
AcDbEntity
  8
00_COMPONENTS
100
AcDbLine
 62
8
  6
HIDDEN
 10
30.7939097321
 20
28.2824582792
 11
30.7994778576
 21
28.2873000019
  0
LINE
  5
612
100
AcDbEntity
  8
00_COMPONENTS
100
AcDbLine
 62
8
  6
HIDDEN
 10
30.825818266
 20
28.2401398971
 11
30.836954517
 21
28.2498233425
  0
LINE
  5
613
100
AcDbEntity
  8
00_COMPONENTS
100
AcDbLine
 62
8
  6
HIDDEN
 10
31.4281618032
 20
28.8410306288
 11
31.3906851438
 21
28.8785072882
  0
LINE
  5
614
100
AcDbEntity
  8
00_COMPONENTS
100
AcDbLine
 62
8
  6
HIDDEN
 10
32.086954517
 20
28.2498233425
 11
32.0494778576
 21
28.2873000019
  0
LINE
  5
615
100
AcDbEntity
  8
00_COMPONENTS
100
AcDbLine
 62
8
  6
HIDDEN
 10
32.6781618032
 20
28.8410306288
 11
32.6406851438
 21
28.8785072882
  0
LINE
  5
616
100
AcDbEntity
  8
00_COMPONENTS
100
AcDbLine
 62
8
  6
HIDDEN
 10
33.336954517
 20
28.2498233425
 11
33.2994778576
 21
28.2873000019
  0
LINE
  5
617
100
AcDbEntity
  8
00_COMPONENTS
100
AcDbLine
 62
8
  6
HIDDEN
 10
34.575818266
 20
28.2401398971
 11
34.5439097321
 21
28.2824582792
  0
LINE
  5
618
100
AcDbEntity
  8
00_COMPONENTS
100
AcDbLine
 62
8
  6
HIDDEN
 10
42.0069078358
 20
29.0417766613
 11
42.0069078358
 21
29.4777694213
  0
LINE
  5
619
100
AcDbEntity
  8
00_COMPONENTS
100
AcDbLine
 62
8
  6
HIDDEN
 10
34.5494778576
 20
28.2873000019
 11
35.1406851438
 21
28.8785072882
  0
LINE
  5
61A
100
AcDbEntity
  8
00_COMPONENTS
100
AcDbLine
 62
8
  6
HIDDEN
 10
34.586954517
 20
28.2498233425
 11
35.1781618032
 21
28.8410306288
  0
LINE
  5
61B
100
AcDbEntity
  8
00_COMPONENTS
100
AcDbLine
 62
8
  6
HIDDEN
 10
32.0439097321
 20
28.2824582792
 11
32.0494778576
 21
28.2873000019
  0
LINE
  5
61C
100
AcDbEntity
  8
00_COMPONENTS
100
AcDbLine
 62
8
  6
HIDDEN
 10
32.075818266
 20
28.2401398971
 11
32.086954517
 21
28.2498233425
  0
LINE
  5
61D
100
AcDbEntity
  8
00_COMPONENTS
100
AcDbLine
 62
8
  6
HIDDEN
 10
33.2939097321
 20
28.2824582792
 11
33.2994778576
 21
28.2873000019
  0
LINE
  5
61E
100
AcDbEntity
  8
00_COMPONENTS
100
AcDbLine
 62
8
  6
HIDDEN
 10
33.325818266
 20
28.2401398971
 11
33.336954517
 21
28.2498233425
  0
LINE
  5
61F
100
AcDbEntity
  8
00_COMPONENTS
100
AcDbLine
 62
8
  6
HIDDEN
 10
34.5439097321
 20
28.2824582792
 11
34.5494778576
 21
28.2873000019
  0
LINE
  5
620
100
AcDbEntity
  8
00_COMPONENTS
100
AcDbLine
 62
8
  6
HIDDEN
 10
34.575818266
 20
28.2401398971
 11
34.586954517
 21
28.2498233425
  0
LINE
  5
621
100
AcDbEntity
  8
00_COMPONENTS
100
AcDbLine
 62
8
  6
HIDDEN
 10
33.9281618032
 20
28.8410306288
 11
33.8906851438
 21
28.8785072882
  0
LINE
  5
622
100
AcDbEntity
  8
00_COMPONENTS
100
AcDbLine
 62
8
  6
HIDDEN
 10
34.586954517
 20
28.2498233425
 11
34.5494778576
 21
28.2873000019
  0
LINE
  5
623
100
AcDbEntity
  8
00_COMPONENTS
100
AcDbLine
 62
8
  6
HIDDEN
 10
35.1781618032
 20
28.8410306288
 11
35.1406851438
 21
28.8785072882
  0
LINE
  5
624
100
AcDbEntity
  8
00_COMPONENTS
100
AcDbLine
 62
8
  6
HIDDEN
 10
43.5069078358
 20
29.4777688023
 11
43.5069078358
 21
29.0417766613
  0
LINE
  5
625
100
AcDbEntity
  8
00_COMPONENTS
100
AcDbLine
 62
8
  6
HIDDEN
 10
45.0749078358
 20
28.9487766613
 11
45.0749078358
 21
29.0417766613
  0
LINE
  5
626
100
AcDbEntity
  8
00_COMPONENTS
100
AcDbLine
 62
8
  6
HIDDEN
 10
45.2687525545
 20
28.9487766613
 11
45.2687525545
 21
29.0417766613
  0
LINE
  5
627
100
AcDbEntity
  8
00_COMPONENTS
100
AcDbLine
 62
8
  6
HIDDEN
 10
45.6810631171
 20
28.9487766613
 11
45.6810631171
 21
29.0417766613
  0
LINE
  5
628
100
AcDbEntity
  8
00_COMPONENTS
100
AcDbLine
 62
8
  6
HIDDEN
 10
45.8749078358
 20
28.9487766613
 11
45.8749078358
 21
29.0417766613
  0
LINE
  5
629
100
AcDbEntity
  8
00_COMPONENTS
100
AcDbLine
 62
8
  6
HIDDEN
 10
40.3071078358
 20
29.3559091479
 11
40.3571078358
 21
29.3847766613
  0
LINE
  5
62A
100
AcDbEntity
  8
00_COMPONENTS
100
AcDbLine
 62
8
  6
HIDDEN
 10
40.3071078358
 20
29.1636441748
 11
40.3571078358
 21
29.1347766613
  0
LINE
  5
62B
100
AcDbEntity
  8
00_COMPONENTS
100
AcDbLine
 62
8
  6
HIDDEN
 10
55.5271078358
 20
29.1636441748
 11
55.5271078358
 21
29.3559091479
  0
LINE
  5
62C
100
AcDbEntity
  8
00_COMPONENTS
100
AcDbLine
 62
8
  6
HIDDEN
 10
55.5771078358
 20
29.3847766613
 11
55.5771078358
 21
29.1347766613
  0
LINE
  5
62D
100
AcDbEntity
  8
00_COMPONENTS
100
AcDbLine
 62
8
  6
HIDDEN
 10
56.3349078358
 20
28.9487766613
 11
56.3349078358
 21
29.0417766613
  0
LINE
  5
62E
100
AcDbEntity
  8
00_COMPONENTS
100
AcDbLine
 62
8
  6
HIDDEN
 10
56.4449078358
 20
28.9487766613
 11
56.4449078358
 21
29.0417766613
  0
LINE
  5
62F
100
AcDbEntity
  8
00_COMPONENTS
100
AcDbLine
 62
8
  6
HIDDEN
 10
56.5549078358
 20
28.9487766613
 11
56.5549078358
 21
29.0417766613
  0
LINE
  5
630
100
AcDbEntity
  8
00_COMPONENTS
100
AcDbLine
 62
8
  6
HIDDEN
 10
56.8849078358
 20
28.9487766613
 11
56.8849078358
 21
29.0417766613
  0
LINE
  5
631
100
AcDbEntity
  8
00_COMPONENTS
100
AcDbLine
 62
8
  6
HIDDEN
 10
57.2269078358
 20
29.0417766613
 11
57.2269078358
 21
29.4777694213
  0
LINE
  5
632
100
AcDbEntity
  8
00_COMPONENTS
100
AcDbLine
 62
8
  6
HIDDEN
 10
57.3549078358
 20
28.9487766613
 11
57.3549078358
 21
29.0417766613
  0
LINE
  5
633
100
AcDbEntity
  8
00_COMPONENTS
100
AcDbLine
 62
8
  6
HIDDEN
 10
55.5271078358
 20
29.3559091479
 11
55.5771078358
 21
29.3847766613
  0
LINE
  5
634
100
AcDbEntity
  8
00_COMPONENTS
100
AcDbLine
 62
7
  6
CONTINUOUS
 10
36.9539078358
 20
27.3077766613
 11
36.8569078358
 21
27.3077766613
  0
LINE
  5
635
100
AcDbEntity
  8
00_COMPONENTS
100
AcDbLine
 62
7
  6
CONTINUOUS
 10
37.0139078358
 20
27.3077766613
 11
77.4399078358
 21
27.3077766613
  0
LINE
  5
636
100
AcDbEntity
  8
00_COMPONENTS
100
AcDbLine
 62
7
  6
CONTINUOUS
 10
77.4999078358
 20
27.3077766613
 11
77.5969078358
 21
27.3077766613
  0
LINE
  5
637
100
AcDbEntity
  8
00_COMPONENTS
100
AcDbLine
 62
7
  6
CONTINUOUS
 10
27.8459078358
 20
28.2187766613
 11
36.1339078358
 21
28.2187766613
  0
LINE
  5
638
100
AcDbEntity
  8
00_COMPONENTS
100
AcDbLine
 62
7
  6
CONTINUOUS
 10
78.3199078358
 20
28.2187766613
 11
86.6079078358
 21
28.2187766613
  0
LINE
  5
639
100
AcDbEntity
  8
00_COMPONENTS
100
AcDbLine
 62
7
  6
CONTINUOUS
 10
25.7289078358
 20
28.2287766613
 11
88.7249078358
 21
28.2287766613
  0
LINE
  5
63A
100
AcDbEntity
  8
00_COMPONENTS
100
AcDbLine
 62
8
  6
HIDDEN
 10
27.8459078358
 20
28.2717766613
 11
36.1339078358
 21
28.2717766613
  0
LINE
  5
63B
100
AcDbEntity
  8
00_COMPONENTS
100
AcDbLine
 62
8
  6
HIDDEN
 10
78.3199078358
 20
28.2717766613
 11
86.6079078358
 21
28.2717766613
  0
LINE
  5
63C
100
AcDbEntity
  8
00_COMPONENTS
100
AcDbLine
 62
8
  6
HIDDEN
 10
86.7139078358
 20
28.3247766613
 11
86.6609078358
 21
28.3247766613
  0
LINE
  5
63D
100
AcDbEntity
  8
00_COMPONENTS
100
AcDbLine
 62
8
  6
HIDDEN
 10
36.2399078358
 20
28.3247766613
 11
36.1869078358
 21
28.3247766613
  0
LINE
  5
63E
100
AcDbEntity
  8
00_COMPONENTS
100
AcDbLine
 62
8
  6
HIDDEN
 10
27.7399078358
 20
28.3247766613
 11
27.7929078358
 21
28.3247766613
  0
LINE
  5
63F
100
AcDbEntity
  8
00_COMPONENTS
100
AcDbLine
 62
8
  6
HIDDEN
 10
78.2139078358
 20
28.3247766613
 11
78.2669078358
 21
28.3247766613
  0
LINE
  5
640
100
AcDbEntity
  8
00_COMPONENTS
100
AcDbLine
 62
8
  6
HIDDEN
 10
55.5271078358
 20
29.1636441748
 11
55.5771078358
 21
29.1347766613
  0
LINE
  5
641
100
AcDbEntity
  8
00_COMPONENTS
100
AcDbLine
 62
8
  6
HIDDEN
 10
57.8249078358
 20
28.9487766613
 11
57.8249078358
 21
29.0417766613
  0
LINE
  5
642
100
AcDbEntity
  8
00_COMPONENTS
100
AcDbLine
 62
8
  6
HIDDEN
 10
58.1549078358
 20
28.9487766613
 11
58.1549078358
 21
29.0417766613
  0
LINE
  5
643
100
AcDbEntity
  8
00_COMPONENTS
100
AcDbLine
 62
8
  6
HIDDEN
 10
58.2649078358
 20
28.9487766613
 11
58.2649078358
 21
29.0417766613
  0
LINE
  5
644
100
AcDbEntity
  8
00_COMPONENTS
100
AcDbLine
 62
8
  6
HIDDEN
 10
58.3749078358
 20
28.9487766613
 11
58.3749078358
 21
29.0417766613
  0
LINE
  5
645
100
AcDbEntity
  8
00_COMPONENTS
100
AcDbLine
 62
8
  6
HIDDEN
 10
58.7269078358
 20
29.4777688023
 11
58.7269078358
 21
29.0417766613
  0
LINE
  5
646
100
AcDbEntity
  8
00_COMPONENTS
100
AcDbLine
 62
8
  6
HIDDEN
 10
77.5969078358
 20
28.7917766613
 11
77.4999078358
 21
28.7917766613
  0
LINE
  5
647
100
AcDbEntity
  8
00_COMPONENTS
100
AcDbLine
 62
8
  6
HIDDEN
 10
77.4399078358
 20
28.7917766613
 11
76.6899078358
 21
28.7917766613
  0
LINE
  5
648
100
AcDbEntity
  8
00_COMPONENTS
100
AcDbLine
 62
8
  6
HIDDEN
 10
76.6899078358
 20
28.7917766613
 11
37.7639078358
 21
28.7917766613
  0
LINE
  5
649
100
AcDbEntity
  8
00_COMPONENTS
100
AcDbLine
 62
8
  6
HIDDEN
 10
36.8569078358
 20
28.7917766613
 11
36.9539078358
 21
28.7917766613
  0
LINE
  5
64A
100
AcDbEntity
  8
00_COMPONENTS
100
AcDbLine
 62
8
  6
HIDDEN
 10
37.0139078358
 20
28.7917766613
 11
37.7639078358
 21
28.7917766613
  0
LINE
  5
64B
100
AcDbEntity
  8
00_COMPONENTS
100
AcDbLine
 62
8
  6
HIDDEN
 10
78.2669078358
 20
28.8427766613
 11
78.2139078358
 21
28.8427766613
  0
LINE
  5
64C
100
AcDbEntity
  8
00_COMPONENTS
100
AcDbLine
 62
8
  6
HIDDEN
 10
27.7929078358
 20
28.8427766613
 11
27.7399078358
 21
28.8427766613
  0
LINE
  5
64D
100
AcDbEntity
  8
00_COMPONENTS
100
AcDbLine
 62
8
  6
HIDDEN
 10
36.1869078358
 20
28.8427766613
 11
36.2399078358
 21
28.8427766613
  0
LINE
  5
64E
100
AcDbEntity
  8
00_COMPONENTS
100
AcDbLine
 62
8
  6
HIDDEN
 10
86.6609078358
 20
28.8427766613
 11
86.7139078358
 21
28.8427766613
  0
LINE
  5
64F
100
AcDbEntity
  8
00_COMPONENTS
100
AcDbLine
 62
8
  6
HIDDEN
 10
77.4399078358
 20
28.8517766613
 11
76.9069078358
 21
28.8517766613
  0
LINE
  5
650
100
AcDbEntity
  8
00_COMPONENTS
100
AcDbLine
 62
8
  6
HIDDEN
 10
37.0139078358
 20
28.8517766613
 11
37.5469078358
 21
28.8517766613
  0
LINE
  5
651
100
AcDbEntity
  8
00_COMPONENTS
100
AcDbLine
 62
8
  6
HIDDEN
 10
37.7639078358
 20
28.8517766613
 11
76.6899078358
 21
28.8517766613
  0
LINE
  5
652
100
AcDbEntity
  8
00_COMPONENTS
100
AcDbLine
 62
9
  6
CONTINUOUS
 10
88.7249078358
 20
28.8587766613
 11
25.7289078358
 21
28.8587766613
  0
LINE
  5
653
100
AcDbEntity
  8
00_COMPONENTS
100
AcDbLine
 62
8
  6
HIDDEN
 10
78.1609078358
 20
28.8957766613
 11
77.5969078358
 21
28.8957766613
  0
LINE
  5
654
100
AcDbEntity
  8
00_COMPONENTS
100
AcDbLine
 62
8
  6
HIDDEN
 10
27.6869078358
 20
28.8957766613
 11
27.1229078358
 21
28.8957766613
  0
LINE
  5
655
100
AcDbEntity
  8
00_COMPONENTS
100
AcDbLine
 62
8
  6
HIDDEN
 10
36.2929078358
 20
28.8957766613
 11
36.8569078358
 21
28.8957766613
  0
LINE
  5
656
100
AcDbEntity
  8
00_COMPONENTS
100
AcDbLine
 62
8
  6
HIDDEN
 10
86.7669078358
 20
28.8957766613
 11
87.3309078358
 21
28.8957766613
  0
LINE
  5
657
100
AcDbEntity
  8
00_COMPONENTS
100
AcDbLine
 62
8
  6
HIDDEN
 10
88.5419078358
 20
28.9487766613
 11
25.9119078358
 21
28.9487766613
  0
LINE
  5
658
100
AcDbEntity
  8
00_COMPONENTS
100
AcDbLine
 62
8
  6
HIDDEN
 10
76.6899078358
 20
29.0087766613
 11
37.7639078358
 21
29.0087766613
  0
LINE
  5
659
100
AcDbEntity
  8
00_COMPONENTS
100
AcDbLine
 62
8
  6
HIDDEN
 10
37.7039078358
 20
29.0087766613
 11
37.6069078358
 21
29.0087766613
  0
LINE
  5
65A
100
AcDbEntity
  8
00_COMPONENTS
100
AcDbLine
 62
8
  6
HIDDEN
 10
76.7499078358
 20
29.0087766613
 11
76.8469078358
 21
29.0087766613
  0
LINE
  5
65B
100
AcDbEntity
  8
00_COMPONENTS
100
AcDbLine
 62
7
  6
CONTINUOUS
 10
88.5419078358
 20
29.0417766613
 11
25.9119078358
 21
29.0417766613
  0
LINE
  5
65C
100
AcDbEntity
  8
00_COMPONENTS
100
AcDbLine
 62
8
  6
HIDDEN
 10
40.3571078358
 20
29.1347766613
 11
43.5069078358
 21
29.1347766613
  0
LINE
  5
65D
100
AcDbEntity
  8
00_COMPONENTS
100
AcDbLine
 62
8
  6
HIDDEN
 10
55.5771078358
 20
29.1347766613
 11
58.7269078358
 21
29.1347766613
  0
LINE
  5
65E
100
AcDbEntity
  8
00_COMPONENTS
100
AcDbLine
 62
8
  6
HIDDEN
 10
70.7971078358
 20
29.1347766613
 11
73.9469078358
 21
29.1347766613
  0
LINE
  5
65F
100
AcDbEntity
  8
00_COMPONENTS
100
AcDbLine
 62
8
  6
HIDDEN
 10
42.0069078358
 20
29.139379314
 11
43.5069078358
 21
29.139379314
  0
LINE
  5
660
100
AcDbEntity
  8
00_COMPONENTS
100
AcDbLine
 62
8
  6
HIDDEN
 10
57.2269078358
 20
29.139379314
 11
58.7269078358
 21
29.139379314
  0
LINE
  5
661
100
AcDbEntity
  8
00_COMPONENTS
100
AcDbLine
 62
8
  6
HIDDEN
 10
72.4469078358
 20
29.139379314
 11
73.9469078358
 21
29.139379314
  0
LINE
  5
662
100
AcDbEntity
  8
00_COMPONENTS
100
AcDbLine
 62
8
  6
HIDDEN
 10
73.9469078358
 20
29.192735367
 11
72.4469078358
 21
29.192735367
  0
LINE
  5
663
100
AcDbEntity
  8
00_COMPONENTS
100
AcDbLine
 62
8
  6
HIDDEN
 10
58.7269078358
 20
29.192735367
 11
57.2269078358
 21
29.192735367
  0
LINE
  5
664
100
AcDbEntity
  8
00_COMPONENTS
100
AcDbLine
 62
8
  6
HIDDEN
 10
43.5069078358
 20
29.192735367
 11
42.0069078358
 21
29.192735367
  0
LINE
  5
665
100
AcDbEntity
  8
00_COMPONENTS
100
AcDbLine
 62
8
  6
HIDDEN
 10
28.2209158969
 20
29.1987766613
 11
28.5209158969
 21
29.1987766613
  0
LINE
  5
666
100
AcDbEntity
  8
00_COMPONENTS
100
AcDbLine
 62
8
  6
HIDDEN
 10
28.5209158969
 20
29.1987766613
 11
28.5948548969
 21
29.1987766613
  0
LINE
  5
667
100
AcDbEntity
  8
00_COMPONENTS
100
AcDbLine
 62
8
  6
HIDDEN
 10
29.4709158969
 20
29.1987766613
 11
29.7709158969
 21
29.1987766613
  0
LINE
  5
668
100
AcDbEntity
  8
00_COMPONENTS
100
AcDbLine
 62
8
  6
HIDDEN
 10
29.7709158969
 20
29.1987766613
 11
29.8448548969
 21
29.1987766613
  0
LINE
  5
669
100
AcDbEntity
  8
00_COMPONENTS
100
AcDbLine
 62
8
  6
HIDDEN
 10
30.7209158969
 20
29.1987766613
 11
31.0209158969
 21
29.1987766613
  0
LINE
  5
66A
100
AcDbEntity
  8
00_COMPONENTS
100
AcDbLine
 62
8
  6
HIDDEN
 10
31.0209158969
 20
29.1987766613
 11
31.0948548969
 21
29.1987766613
  0
LINE
  5
66B
100
AcDbEntity
  8
00_COMPONENTS
100
AcDbLine
 62
8
  6
HIDDEN
 10
31.9709158969
 20
29.1987766613
 11
32.2709158969
 21
29.1987766613
  0
LINE
  5
66C
100
AcDbEntity
  8
00_COMPONENTS
100
AcDbLine
 62
8
  6
HIDDEN
 10
32.2709158969
 20
29.1987766613
 11
32.3448548969
 21
29.1987766613
  0
LINE
  5
66D
100
AcDbEntity
  8
00_COMPONENTS
100
AcDbLine
 62
8
  6
HIDDEN
 10
33.2209158969
 20
29.1987766613
 11
33.5209158969
 21
29.1987766613
  0
LINE
  5
66E
100
AcDbEntity
  8
00_COMPONENTS
100
AcDbLine
 62
8
  6
HIDDEN
 10
33.5209158969
 20
29.1987766613
 11
33.5948548969
 21
29.1987766613
  0
LINE
  5
66F
100
AcDbEntity
  8
00_COMPONENTS
100
AcDbLine
 62
8
  6
HIDDEN
 10
34.4709158969
 20
29.1987766613
 11
34.7709158969
 21
29.1987766613
  0
LINE
  5
670
100
AcDbEntity
  8
00_COMPONENTS
100
AcDbLine
 62
8
  6
HIDDEN
 10
34.7709158969
 20
29.1987766613
 11
34.8448548969
 21
29.1987766613
  0
LINE
  5
671
100
AcDbEntity
  8
00_COMPONENTS
100
AcDbLine
 62
8
  6
HIDDEN
 10
35.7209158969
 20
29.1987766613
 11
36.0209158969
 21
29.1987766613
  0
LINE
  5
672
100
AcDbEntity
  8
00_COMPONENTS
100
AcDbLine
 62
8
  6
HIDDEN
 10
36.0209158969
 20
29.1987766613
 11
36.0948548969
 21
29.1987766613
  0
LINE
  5
673
100
AcDbEntity
  8
00_COMPONENTS
100
AcDbLine
 62
8
  6
HIDDEN
 10
78.6100336917
 20
29.1987766613
 11
78.9100336917
 21
29.1987766613
  0
LINE
  5
674
100
AcDbEntity
  8
00_COMPONENTS
100
AcDbLine
 62
8
  6
HIDDEN
 10
78.9100336917
 20
29.1987766613
 11
78.9839726917
 21
29.1987766613
  0
LINE
  5
675
100
AcDbEntity
  8
00_COMPONENTS
100
AcDbLine
 62
8
  6
HIDDEN
 10
79.8600336917
 20
29.1987766613
 11
80.1600336917
 21
29.1987766613
  0
LINE
  5
676
100
AcDbEntity
  8
00_COMPONENTS
100
AcDbLine
 62
8
  6
HIDDEN
 10
80.1600336917
 20
29.1987766613
 11
80.2339726917
 21
29.1987766613
  0
LINE
  5
677
100
AcDbEntity
  8
00_COMPONENTS
100
AcDbLine
 62
8
  6
HIDDEN
 10
81.1100336917
 20
29.1987766613
 11
81.4100336917
 21
29.1987766613
  0
LINE
  5
678
100
AcDbEntity
  8
00_COMPONENTS
100
AcDbLine
 62
8
  6
HIDDEN
 10
81.4100336917
 20
29.1987766613
 11
81.4839726917
 21
29.1987766613
  0
LINE
  5
679
100
AcDbEntity
  8
00_COMPONENTS
100
AcDbLine
 62
8
  6
HIDDEN
 10
82.3600336917
 20
29.1987766613
 11
82.6600336917
 21
29.1987766613
  0
LINE
  5
67A
100
AcDbEntity
  8
00_COMPONENTS
100
AcDbLine
 62
8
  6
HIDDEN
 10
82.6600336917
 20
29.1987766613
 11
82.7339726917
 21
29.1987766613
  0
LINE
  5
67B
100
AcDbEntity
  8
00_COMPONENTS
100
AcDbLine
 62
8
  6
HIDDEN
 10
83.6100336917
 20
29.1987766613
 11
83.9100336917
 21
29.1987766613
  0
LINE
  5
67C
100
AcDbEntity
  8
00_COMPONENTS
100
AcDbLine
 62
8
  6
HIDDEN
 10
83.9100336917
 20
29.1987766613
 11
83.9839726917
 21
29.1987766613
  0
LINE
  5
67D
100
AcDbEntity
  8
00_COMPONENTS
100
AcDbLine
 62
8
  6
HIDDEN
 10
84.8600336917
 20
29.1987766613
 11
85.1600336917
 21
29.1987766613
  0
LINE
  5
67E
100
AcDbEntity
  8
00_COMPONENTS
100
AcDbLine
 62
8
  6
HIDDEN
 10
85.1600336917
 20
29.1987766613
 11
85.2339726917
 21
29.1987766613
  0
LINE
  5
67F
100
AcDbEntity
  8
00_COMPONENTS
100
AcDbLine
 62
8
  6
HIDDEN
 10
86.1100336917
 20
29.1987766613
 11
86.4100336917
 21
29.1987766613
  0
LINE
  5
680
100
AcDbEntity
  8
00_COMPONENTS
100
AcDbLine
 62
8
  6
HIDDEN
 10
86.4100336917
 20
29.1987766613
 11
86.4839726917
 21
29.1987766613
  0
LINE
  5
681
100
AcDbEntity
  8
00_COMPONENTS
100
AcDbLine
 62
7
  6
CONTINUOUS
 10
28.2209158969
 20
29.2917766613
 11
28.5948548969
 21
29.2917766613
  0
LINE
  5
682
100
AcDbEntity
  8
00_COMPONENTS
100
AcDbLine
 62
7
  6
CONTINUOUS
 10
29.4709158969
 20
29.2917766613
 11
29.8448548969
 21
29.2917766613
  0
LINE
  5
683
100
AcDbEntity
  8
00_COMPONENTS
100
AcDbLine
 62
7
  6
CONTINUOUS
 10
30.7209158969
 20
29.2917766613
 11
31.0948548969
 21
29.2917766613
  0
LINE
  5
684
100
AcDbEntity
  8
00_COMPONENTS
100
AcDbLine
 62
7
  6
CONTINUOUS
 10
31.9709158969
 20
29.2917766613
 11
32.3448548969
 21
29.2917766613
  0
LINE
  5
685
100
AcDbEntity
  8
00_COMPONENTS
100
AcDbLine
 62
7
  6
CONTINUOUS
 10
33.2209158969
 20
29.2917766613
 11
33.5948548969
 21
29.2917766613
  0
LINE
  5
686
100
AcDbEntity
  8
00_COMPONENTS
100
AcDbLine
 62
7
  6
CONTINUOUS
 10
34.4709158969
 20
29.2917766613
 11
34.8448548969
 21
29.2917766613
  0
LINE
  5
687
100
AcDbEntity
  8
00_COMPONENTS
100
AcDbLine
 62
7
  6
CONTINUOUS
 10
35.7209158969
 20
29.2917766613
 11
36.0948548969
 21
29.2917766613
  0
LINE
  5
688
100
AcDbEntity
  8
00_COMPONENTS
100
AcDbLine
 62
7
  6
CONTINUOUS
 10
78.6100336917
 20
29.2917766613
 11
78.9839726917
 21
29.2917766613
  0
LINE
  5
689
100
AcDbEntity
  8
00_COMPONENTS
100
AcDbLine
 62
7
  6
CONTINUOUS
 10
79.8600336917
 20
29.2917766613
 11
80.2339726917
 21
29.2917766613
  0
LINE
  5
68A
100
AcDbEntity
  8
00_COMPONENTS
100
AcDbLine
 62
7
  6
CONTINUOUS
 10
81.1100336917
 20
29.2917766613
 11
81.4839726917
 21
29.2917766613
  0
LINE
  5
68B
100
AcDbEntity
  8
00_COMPONENTS
100
AcDbLine
 62
7
  6
CONTINUOUS
 10
82.3600336917
 20
29.2917766613
 11
82.7339726917
 21
29.2917766613
  0
LINE
  5
68C
100
AcDbEntity
  8
00_COMPONENTS
100
AcDbLine
 62
7
  6
CONTINUOUS
 10
83.6100336917
 20
29.2917766613
 11
83.9839726917
 21
29.2917766613
  0
LINE
  5
68D
100
AcDbEntity
  8
00_COMPONENTS
100
AcDbLine
 62
7
  6
CONTINUOUS
 10
84.8600336917
 20
29.2917766613
 11
85.2339726917
 21
29.2917766613
  0
LINE
  5
68E
100
AcDbEntity
  8
00_COMPONENTS
100
AcDbLine
 62
7
  6
CONTINUOUS
 10
86.1100336917
 20
29.2917766613
 11
86.4839726917
 21
29.2917766613
  0
LINE
  5
68F
100
AcDbEntity
  8
00_COMPONENTS
100
AcDbLine
 62
8
  6
HIDDEN
 10
40.3571078358
 20
29.3847766613
 11
42.0069078358
 21
29.3847766613
  0
LINE
  5
690
100
AcDbEntity
  8
00_COMPONENTS
100
AcDbLine
 62
8
  6
HIDDEN
 10
55.5771078358
 20
29.3847766613
 11
57.2269078358
 21
29.3847766613
  0
LINE
  5
691
100
AcDbEntity
  8
00_COMPONENTS
100
AcDbLine
 62
8
  6
HIDDEN
 10
70.7971078358
 20
29.3847766613
 11
72.4469078358
 21
29.3847766613
  0
LINE
  5
692
100
AcDbEntity
  8
00_COMPONENTS
100
AcDbLine
 62
8
  6
HIDDEN
 10
73.9469078358
 20
29.4777766613
 11
72.4469078358
 21
29.4777766613
  0
LINE
  5
693
100
AcDbEntity
  8
00_COMPONENTS
100
AcDbLine
 62
8
  6
HIDDEN
 10
58.7269078358
 20
29.4777766613
 11
57.2269078358
 21
29.4777766613
  0
LINE
  5
694
100
AcDbEntity
  8
00_COMPONENTS
100
AcDbLine
 62
8
  6
HIDDEN
 10
43.5069078358
 20
29.4777766613
 11
42.0069078358
 21
29.4777766613
  0
LINE
  5
695
100
AcDbEntity
  8
00_COMPONENTS
100
AcDbLine
 62
9
  6
CONTINUOUS
 10
37.7039078358
 20
29.5517766613
 11
37.6069078358
 21
29.5517766613
  0
LINE
  5
696
100
AcDbEntity
  8
00_COMPONENTS
100
AcDbLine
 62
7
  6
CONTINUOUS
 10
37.5469078358
 20
29.6117766613
 11
37.1699078358
 21
29.6117766613
  0
LINE
  5
697
100
AcDbEntity
  8
00_COMPONENTS
100
AcDbLine
 62
7
  6
CONTINUOUS
 10
76.6899078358
 20
29.7087766613
 11
37.7639078358
 21
29.7087766613
  0
LINE
  5
698
100
AcDbEntity
  8
00_COMPONENTS
100
AcDbLine
 62
3
  6
CONTINUOUS
 10
37.5469078358
 20
29.7087766613
 11
37.1699078358
 21
29.7087766613
  0
LINE
  5
699
100
AcDbEntity
  8
00_COMPONENTS
100
AcDbLine
 62
7
  6
CONTINUOUS
 10
76.7499078358
 20
29.7087766613
 11
76.8469078358
 21
29.7087766613
  0
LINE
  5
69A
100
AcDbEntity
  8
00_COMPONENTS
100
AcDbLine
 62
8
  6
HIDDEN
 10
70.7471078358
 20
29.3559091479
 11
70.7971078358
 21
29.3847766613
  0
LINE
  5
69B
100
AcDbEntity
  8
00_COMPONENTS
100
AcDbLine
 62
8
  6
HIDDEN
 10
70.7471078358
 20
29.1636441748
 11
70.7971078358
 21
29.1347766613
  0
LINE
  5
69C
100
AcDbEntity
  8
00_COMPONENTS
100
AcDbLine
 62
8
  6
HIDDEN
 10
68.5749078358
 20
28.9487766613
 11
68.5749078358
 21
29.0417766613
  0
LINE
  5
69D
100
AcDbEntity
  8
00_COMPONENTS
100
AcDbLine
 62
8
  6
HIDDEN
 10
68.7687525545
 20
28.9487766613
 11
68.7687525545
 21
29.0417766613
  0
LINE
  5
69E
100
AcDbEntity
  8
00_COMPONENTS
100
AcDbLine
 62
8
  6
HIDDEN
 10
69.1810631171
 20
28.9487766613
 11
69.1810631171
 21
29.0417766613
  0
LINE
  5
69F
100
AcDbEntity
  8
00_COMPONENTS
100
AcDbLine
 62
8
  6
HIDDEN
 10
69.3749078358
 20
28.9487766613
 11
69.3749078358
 21
29.0417766613
  0
LINE
  5
6A0
100
AcDbEntity
  8
00_COMPONENTS
100
AcDbLine
 62
8
  6
HIDDEN
 10
70.7471078358
 20
29.1636441748
 11
70.7471078358
 21
29.3559091479
  0
LINE
  5
6A1
100
AcDbEntity
  8
00_COMPONENTS
100
AcDbLine
 62
8
  6
HIDDEN
 10
70.7971078358
 20
29.3847766613
 11
70.7971078358
 21
29.1347766613
  0
LINE
  5
6A2
100
AcDbEntity
  8
00_COMPONENTS
100
AcDbLine
 62
8
  6
HIDDEN
 10
78.7679097321
 20
28.2824582792
 11
78.7734778576
 21
28.2873000019
  0
LINE
  5
6A3
100
AcDbEntity
  8
00_COMPONENTS
100
AcDbLine
 62
8
  6
HIDDEN
 10
78.799818266
 20
28.2401398971
 11
78.810954517
 21
28.2498233425
  0
LINE
  5
6A4
100
AcDbEntity
  8
00_COMPONENTS
100
AcDbLine
 62
8
  6
HIDDEN
 10
72.4469078358
 20
29.0417766613
 11
72.4469078358
 21
29.4777694213
  0
LINE
  5
6A5
100
AcDbEntity
  8
00_COMPONENTS
100
AcDbLine
 62
8
  6
HIDDEN
 10
73.9469078358
 20
29.4777688023
 11
73.9469078358
 21
29.0417766613
  0
LINE
  5
6A6
100
AcDbEntity
  8
00_COMPONENTS
100
AcDbLine
 62
8
  6
HIDDEN
 10
78.7734778576
 20
28.2873000019
 11
79.3646851438
 21
28.8785072882
  0
LINE
  5
6A7
100
AcDbEntity
  8
00_COMPONENTS
100
AcDbLine
 62
8
  6
HIDDEN
 10
78.810954517
 20
28.2498233425
 11
79.4021618032
 21
28.8410306288
  0
LINE
  5
6A8
100
AcDbEntity
  8
00_COMPONENTS
100
AcDbLine
 62
8
  6
HIDDEN
 10
80.0234778576
 20
28.2873000019
 11
80.6146851438
 21
28.8785072882
  0
LINE
  5
6A9
100
AcDbEntity
  8
00_COMPONENTS
100
AcDbLine
 62
8
  6
HIDDEN
 10
80.060954517
 20
28.2498233425
 11
80.6521618032
 21
28.8410306288
  0
LINE
  5
6AA
100
AcDbEntity
  8
00_COMPONENTS
100
AcDbLine
 62
8
  6
HIDDEN
 10
80.0179097321
 20
28.2824582792
 11
80.0234778576
 21
28.2873000019
  0
LINE
  5
6AB
100
AcDbEntity
  8
00_COMPONENTS
100
AcDbLine
 62
8
  6
HIDDEN
 10
80.049818266
 20
28.2401398971
 11
80.060954517
 21
28.2498233425
  0
LINE
  5
6AC
100
AcDbEntity
  8
00_COMPONENTS
100
AcDbLine
 62
8
  6
HIDDEN
 10
81.2679097321
 20
28.2824582792
 11
81.2734778576
 21
28.2873000019
  0
LINE
  5
6AD
100
AcDbEntity
  8
00_COMPONENTS
100
AcDbLine
 62
8
  6
HIDDEN
 10
81.299818266
 20
28.2401398971
 11
81.310954517
 21
28.2498233425
  0
LINE
  5
6AE
100
AcDbEntity
  8
00_COMPONENTS
100
AcDbLine
 62
8
  6
HIDDEN
 10
82.5179097321
 20
28.2824582792
 11
82.5234778576
 21
28.2873000019
  0
LINE
  5
6AF
100
AcDbEntity
  8
00_COMPONENTS
100
AcDbLine
 62
8
  6
HIDDEN
 10
82.549818266
 20
28.2401398971
 11
82.560954517
 21
28.2498233425
  0
LINE
  5
6B0
100
AcDbEntity
  8
00_COMPONENTS
100
AcDbLine
 62
8
  6
HIDDEN
 10
78.810954517
 20
28.2498233425
 11
78.7734778576
 21
28.2873000019
  0
LINE
  5
6B1
100
AcDbEntity
  8
00_COMPONENTS
100
AcDbLine
 62
8
  6
HIDDEN
 10
79.4021618032
 20
28.8410306288
 11
79.3646851438
 21
28.8785072882
  0
LINE
  5
6B2
100
AcDbEntity
  8
00_COMPONENTS
100
AcDbLine
 62
8
  6
HIDDEN
 10
80.060954517
 20
28.2498233425
 11
80.0234778576
 21
28.2873000019
  0
LINE
  5
6B3
100
AcDbEntity
  8
00_COMPONENTS
100
AcDbLine
 62
8
  6
HIDDEN
 10
80.6521618032
 20
28.8410306288
 11
80.6146851438
 21
28.8785072882
  0
LINE
  5
6B4
100
AcDbEntity
  8
00_COMPONENTS
100
AcDbLine
 62
8
  6
HIDDEN
 10
81.310954517
 20
28.2498233425
 11
81.2734778576
 21
28.2873000019
  0
LINE
  5
6B5
100
AcDbEntity
  8
00_COMPONENTS
100
AcDbLine
 62
8
  6
HIDDEN
 10
78.799818266
 20
28.2401398971
 11
78.7679097321
 21
28.2824582792
  0
LINE
  5
6B6
100
AcDbEntity
  8
00_COMPONENTS
100
AcDbLine
 62
8
  6
HIDDEN
 10
81.2734778576
 20
28.2873000019
 11
81.8646851438
 21
28.8785072882
  0
LINE
  5
6B7
100
AcDbEntity
  8
00_COMPONENTS
100
AcDbLine
 62
8
  6
HIDDEN
 10
81.310954517
 20
28.2498233425
 11
81.9021618032
 21
28.8410306288
  0
LINE
  5
6B8
100
AcDbEntity
  8
00_COMPONENTS
100
AcDbLine
 62
8
  6
HIDDEN
 10
82.5234778576
 20
28.2873000019
 11
83.1146851438
 21
28.8785072882
  0
LINE
  5
6B9
100
AcDbEntity
  8
00_COMPONENTS
100
AcDbLine
 62
8
  6
HIDDEN
 10
82.560954517
 20
28.2498233425
 11
83.1521618032
 21
28.8410306288
  0
LINE
  5
6BA
100
AcDbEntity
  8
00_COMPONENTS
100
AcDbLine
 62
8
  6
HIDDEN
 10
83.7734778576
 20
28.2873000019
 11
84.3646851438
 21
28.8785072882
  0
LINE
  5
6BB
100
AcDbEntity
  8
00_COMPONENTS
100
AcDbLine
 62
8
  6
HIDDEN
 10
83.810954517
 20
28.2498233425
 11
84.4021618032
 21
28.8410306288
  0
LINE
  5
6BC
100
AcDbEntity
  8
00_COMPONENTS
100
AcDbLine
 62
8
  6
HIDDEN
 10
83.7679097321
 20
28.2824582792
 11
83.7734778576
 21
28.2873000019
  0
LINE
  5
6BD
100
AcDbEntity
  8
00_COMPONENTS
100
AcDbLine
 62
8
  6
HIDDEN
 10
83.799818266
 20
28.2401398971
 11
83.810954517
 21
28.2498233425
  0
LINE
  5
6BE
100
AcDbEntity
  8
00_COMPONENTS
100
AcDbLine
 62
8
  6
HIDDEN
 10
85.0179097321
 20
28.2824582792
 11
85.0234778576
 21
28.2873000019
  0
LINE
  5
6BF
100
AcDbEntity
  8
00_COMPONENTS
100
AcDbLine
 62
8
  6
HIDDEN
 10
85.049818266
 20
28.2401398971
 11
85.060954517
 21
28.2498233425
  0
LINE
  5
6C0
100
AcDbEntity
  8
00_COMPONENTS
100
AcDbLine
 62
8
  6
HIDDEN
 10
81.9021618032
 20
28.8410306288
 11
81.8646851438
 21
28.8785072882
  0
LINE
  5
6C1
100
AcDbEntity
  8
00_COMPONENTS
100
AcDbLine
 62
8
  6
HIDDEN
 10
82.560954517
 20
28.2498233425
 11
82.5234778576
 21
28.2873000019
  0
LINE
  5
6C2
100
AcDbEntity
  8
00_COMPONENTS
100
AcDbLine
 62
8
  6
HIDDEN
 10
83.1521618032
 20
28.8410306288
 11
83.1146851438
 21
28.8785072882
  0
LINE
  5
6C3
100
AcDbEntity
  8
00_COMPONENTS
100
AcDbLine
 62
8
  6
HIDDEN
 10
83.810954517
 20
28.2498233425
 11
83.7734778576
 21
28.2873000019
  0
LINE
  5
6C4
100
AcDbEntity
  8
00_COMPONENTS
100
AcDbLine
 62
8
  6
HIDDEN
 10
80.049818266
 20
28.2401398971
 11
80.0179097321
 21
28.2824582792
  0
LINE
  5
6C5
100
AcDbEntity
  8
00_COMPONENTS
100
AcDbLine
 62
8
  6
HIDDEN
 10
81.299818266
 20
28.2401398971
 11
81.2679097321
 21
28.2824582792
  0
LINE
  5
6C6
100
AcDbEntity
  8
00_COMPONENTS
100
AcDbLine
 62
8
  6
HIDDEN
 10
76.6899078358
 20
28.7917766613
 11
76.6899078358
 21
29.0417766613
  0
LINE
  5
6C7
100
AcDbEntity
  8
00_COMPONENTS
100
AcDbLine
 62
7
  6
CONTINUOUS
 10
76.6899078358
 20
29.0417766613
 11
76.6899078358
 21
29.7087766613
  0
LINE
  5
6C8
100
AcDbEntity
  8
00_COMPONENTS
100
AcDbLine
 62
8
  6
HIDDEN
 10
76.7499078358
 20
29.0087766613
 11
76.7499078358
 21
29.0417766613
  0
LINE
  5
6C9
100
AcDbEntity
  8
00_COMPONENTS
100
AcDbLine
 62
3
  6
CONTINUOUS
 10
76.7499078358
 20
29.0417766613
 11
76.7499078358
 21
29.7087766613
  0
LINE
  5
6CA
100
AcDbEntity
  8
00_COMPONENTS
100
AcDbLine
 62
8
  6
HIDDEN
 10
76.8469078358
 20
28.9487766613
 11
76.8469078358
 21
29.0417766613
  0
LINE
  5
6CB
100
AcDbEntity
  8
00_COMPONENTS
100
AcDbLine
 62
7
  6
CONTINUOUS
 10
76.8469078358
 20
29.0417766613
 11
76.8469078358
 21
29.7087766613
  0
LINE
  5
6CC
100
AcDbEntity
  8
00_COMPONENTS
100
AcDbLine
 62
8
  6
HIDDEN
 10
76.9069078358
 20
28.8517766613
 11
76.9069078358
 21
28.9487766613
  0
LINE
  5
6CD
100
AcDbEntity
  8
00_COMPONENTS
100
AcDbLine
 62
8
  6
HIDDEN
 10
77.4399078358
 20
28.9487766613
 11
77.4399078358
 21
28.8517766613
  0
LINE
  5
6CE
100
AcDbEntity
  8
00_COMPONENTS
100
AcDbLine
 62
8
  6
HIDDEN
 10
77.4399078358
 20
28.7917766613
 11
77.4399078358
 21
28.2287766613
  0
LINE
  5
6CF
100
AcDbEntity
  8
00_COMPONENTS
100
AcDbLine
 62
7
  6
CONTINUOUS
 10
77.4399078358
 20
27.3077766613
 11
77.4399078358
 21
28.2287766613
  0
LINE
  5
6D0
100
AcDbEntity
  8
00_COMPONENTS
100
AcDbLine
 62
8
  6
HIDDEN
 10
77.4999078358
 20
28.7917766613
 11
77.4999078358
 21
28.2287766613
  0
LINE
  5
6D1
100
AcDbEntity
  8
00_COMPONENTS
100
AcDbLine
 62
3
  6
CONTINUOUS
 10
77.4999078358
 20
28.2287766613
 11
77.4999078358
 21
27.3077766613
  0
LINE
  5
6D2
100
AcDbEntity
  8
00_COMPONENTS
100
AcDbLine
 62
8
  6
HIDDEN
 10
77.5969078358
 20
28.9487766613
 11
77.5969078358
 21
28.8957766613
  0
LINE
  5
6D3
100
AcDbEntity
  8
00_COMPONENTS
100
AcDbLine
 62
8
  6
HIDDEN
 10
77.5969078358
 20
28.7917766613
 11
77.5969078358
 21
28.2287766613
  0
LINE
  5
6D4
100
AcDbEntity
  8
00_COMPONENTS
100
AcDbLine
 62
7
  6
CONTINUOUS
 10
77.5969078358
 20
28.2287766613
 11
77.5969078358
 21
27.3077766613
  0
LINE
  5
6D5
100
AcDbEntity
  8
00_COMPONENTS
100
AcDbLine
 62
8
  6
HIDDEN
 10
78.1609078358
 20
28.9487766613
 11
78.1609078358
 21
28.8957766613
  0
LINE
  5
6D6
100
AcDbEntity
  8
00_COMPONENTS
100
AcDbLine
 62
8
  6
HIDDEN
 10
78.2139078358
 20
28.3247766613
 11
78.2139078358
 21
28.8427766613
  0
LINE
  5
6D7
100
AcDbEntity
  8
00_COMPONENTS
100
AcDbLine
 62
8
  6
HIDDEN
 10
78.2669078358
 20
28.3247766613
 11
78.2669078358
 21
28.8427766613
  0
LINE
  5
6D8
100
AcDbEntity
  8
00_COMPONENTS
100
AcDbLine
 62
8
  6
HIDDEN
 10
78.3199078358
 20
28.2187766613
 11
78.3199078358
 21
28.2717766613
  0
LINE
  5
6D9
100
AcDbEntity
  8
00_COMPONENTS
100
AcDbLine
 62
8
  6
HIDDEN
 10
78.4769078358
 20
28.2187766613
 11
78.4769078358
 21
28.2717766613
  0
LINE
  5
6DA
100
AcDbEntity
  8
00_COMPONENTS
100
AcDbLine
 62
8
  6
HIDDEN
 10
85.0234778576
 20
28.2873000019
 11
85.6146851438
 21
28.8785072882
  0
LINE
  5
6DB
100
AcDbEntity
  8
00_COMPONENTS
100
AcDbLine
 62
8
  6
HIDDEN
 10
85.060954517
 20
28.2498233425
 11
85.6521618032
 21
28.8410306288
  0
LINE
  5
6DC
100
AcDbEntity
  8
00_COMPONENTS
100
AcDbLine
 62
8
  6
HIDDEN
 10
84.4021618032
 20
28.8410306288
 11
84.3646851438
 21
28.8785072882
  0
LINE
  5
6DD
100
AcDbEntity
  8
00_COMPONENTS
100
AcDbLine
 62
8
  6
HIDDEN
 10
85.060954517
 20
28.2498233425
 11
85.0234778576
 21
28.2873000019
  0
LINE
  5
6DE
100
AcDbEntity
  8
00_COMPONENTS
100
AcDbLine
 62
8
  6
HIDDEN
 10
85.6521618032
 20
28.8410306288
 11
85.6146851438
 21
28.8785072882
  0
LINE
  5
6DF
100
AcDbEntity
  8
00_COMPONENTS
100
AcDbLine
 62
8
  6
HIDDEN
 10
82.549818266
 20
28.2401398971
 11
82.5179097321
 21
28.2824582792
  0
LINE
  5
6E0
100
AcDbEntity
  8
00_COMPONENTS
100
AcDbLine
 62
8
  6
HIDDEN
 10
83.799818266
 20
28.2401398971
 11
83.7679097321
 21
28.2824582792
  0
LINE
  5
6E1
100
AcDbEntity
  8
00_COMPONENTS
100
AcDbLine
 62
8
  6
HIDDEN
 10
78.6509078358
 20
28.2187766613
 11
78.6509078358
 21
28.2717766613
  0
LINE
  5
6E2
100
AcDbEntity
  8
00_COMPONENTS
100
AcDbLine
 62
8
  6
HIDDEN
 10
78.7360011982
 20
28.2717766613
 11
78.7360011982
 21
28.2187766613
  0
LINE
  5
6E3
100
AcDbEntity
  8
00_COMPONENTS
100
AcDbLine
 62
9
  6
CONTINUOUS
 10
78.9100336917
 20
29.2917766613
 11
78.9100336917
 21
29.0417766613
  0
LINE
  5
6E4
100
AcDbEntity
  8
00_COMPONENTS
100
AcDbLine
 62
8
  6
HIDDEN
 10
78.9100336917
 20
29.0417766613
 11
78.9100336917
 21
28.9487766613
  0
LINE
  5
6E5
100
AcDbEntity
  8
00_COMPONENTS
100
AcDbLine
 62
7
  6
CONTINUOUS
 10
78.9839726917
 20
29.2917766613
 11
78.9839726917
 21
29.0417766613
  0
LINE
  5
6E6
100
AcDbEntity
  8
00_COMPONENTS
100
AcDbLine
 62
8
  6
HIDDEN
 10
78.9839726917
 20
28.9487766613
 11
78.9839726917
 21
29.0417766613
  0
LINE
  5
6E7
100
AcDbEntity
  8
00_COMPONENTS
100
AcDbLine
 62
8
  6
HIDDEN
 10
79.6599078358
 20
28.2717766613
 11
79.6599078358
 21
28.2187766613
  0
LINE
  5
6E8
100
AcDbEntity
  8
00_COMPONENTS
100
AcDbLine
 62
8
  6
HIDDEN
 10
79.9860011982
 20
28.2717766613
 11
79.9860011982
 21
28.2187766613
  0
LINE
  5
6E9
100
AcDbEntity
  8
00_COMPONENTS
100
AcDbLine
 62
9
  6
CONTINUOUS
 10
80.1600336917
 20
29.2917766613
 11
80.1600336917
 21
29.0417766613
  0
LINE
  5
6EA
100
AcDbEntity
  8
00_COMPONENTS
100
AcDbLine
 62
8
  6
HIDDEN
 10
80.1600336917
 20
29.0417766613
 11
80.1600336917
 21
28.9487766613
  0
LINE
  5
6EB
100
AcDbEntity
  8
00_COMPONENTS
100
AcDbLine
 62
7
  6
CONTINUOUS
 10
80.2339726917
 20
29.2917766613
 11
80.2339726917
 21
29.0417766613
  0
LINE
  5
6EC
100
AcDbEntity
  8
00_COMPONENTS
100
AcDbLine
 62
8
  6
HIDDEN
 10
80.2339726917
 20
28.9487766613
 11
80.2339726917
 21
29.0417766613
  0
LINE
  5
6ED
100
AcDbEntity
  8
00_COMPONENTS
100
AcDbLine
 62
8
  6
HIDDEN
 10
80.3249078358
 20
28.9487766613
 11
80.3249078358
 21
29.0417766613
  0
LINE
  5
6EE
100
AcDbEntity
  8
00_COMPONENTS
100
AcDbLine
 62
8
  6
HIDDEN
 10
80.5187525545
 20
28.9487766613
 11
80.5187525545
 21
29.0417766613
  0
LINE
  5
6EF
100
AcDbEntity
  8
00_COMPONENTS
100
AcDbLine
 62
8
  6
HIDDEN
 10
85.049818266
 20
28.2401398971
 11
85.0179097321
 21
28.2824582792
  0
LINE
  5
6F0
100
AcDbEntity
  8
00_COMPONENTS
100
AcDbLine
 62
8
  6
HIDDEN
 10
80.9099078358
 20
28.2717766613
 11
80.9099078358
 21
28.2187766613
  0
LINE
  5
6F1
100
AcDbEntity
  8
00_COMPONENTS
100
AcDbLine
 62
8
  6
HIDDEN
 10
80.9310631171
 20
28.9487766613
 11
80.9310631171
 21
29.0417766613
  0
LINE
  5
6F2
100
AcDbEntity
  8
00_COMPONENTS
100
AcDbLine
 62
8
  6
HIDDEN
 10
81.1249078358
 20
28.9487766613
 11
81.1249078358
 21
29.0417766613
  0
LINE
  5
6F3
100
AcDbEntity
  8
00_COMPONENTS
100
AcDbLine
 62
8
  6
HIDDEN
 10
81.2360011982
 20
28.2717766613
 11
81.2360011982
 21
28.2187766613
  0
LINE
  5
6F4
100
AcDbEntity
  8
00_COMPONENTS
100
AcDbLine
 62
9
  6
CONTINUOUS
 10
81.4100336917
 20
29.2917766613
 11
81.4100336917
 21
29.0417766613
  0
LINE
  5
6F5
100
AcDbEntity
  8
00_COMPONENTS
100
AcDbLine
 62
8
  6
HIDDEN
 10
81.4100336917
 20
29.0417766613
 11
81.4100336917
 21
28.9487766613
  0
LINE
  5
6F6
100
AcDbEntity
  8
00_COMPONENTS
100
AcDbLine
 62
7
  6
CONTINUOUS
 10
81.4839726917
 20
29.2917766613
 11
81.4839726917
 21
29.0417766613
  0
LINE
  5
6F7
100
AcDbEntity
  8
00_COMPONENTS
100
AcDbLine
 62
8
  6
HIDDEN
 10
81.4839726917
 20
28.9487766613
 11
81.4839726917
 21
29.0417766613
  0
LINE
  5
6F8
100
AcDbEntity
  8
00_COMPONENTS
100
AcDbLine
 62
8
  6
HIDDEN
 10
82.1599078358
 20
28.2717766613
 11
82.1599078358
 21
28.2187766613
  0
LINE
  5
6F9
100
AcDbEntity
  8
00_COMPONENTS
100
AcDbLine
 62
8
  6
HIDDEN
 10
82.4860011982
 20
28.2717766613
 11
82.4860011982
 21
28.2187766613
  0
LINE
  5
6FA
100
AcDbEntity
  8
00_COMPONENTS
100
AcDbLine
 62
9
  6
CONTINUOUS
 10
82.6600336917
 20
29.2917766613
 11
82.6600336917
 21
29.0417766613
  0
LINE
  5
6FB
100
AcDbEntity
  8
00_COMPONENTS
100
AcDbLine
 62
8
  6
HIDDEN
 10
82.6600336917
 20
29.0417766613
 11
82.6600336917
 21
28.9487766613
  0
LINE
  5
6FC
100
AcDbEntity
  8
00_COMPONENTS
100
AcDbLine
 62
7
  6
CONTINUOUS
 10
82.7339726917
 20
29.2917766613
 11
82.7339726917
 21
29.0417766613
  0
LINE
  5
6FD
100
AcDbEntity
  8
00_COMPONENTS
100
AcDbLine
 62
8
  6
HIDDEN
 10
82.7339726917
 20
28.9487766613
 11
82.7339726917
 21
29.0417766613
  0
LINE
  5
6FE
100
AcDbEntity
  8
00_COMPONENTS
100
AcDbLine
 62
8
  6
HIDDEN
 10
83.4099078358
 20
28.2717766613
 11
83.4099078358
 21
28.2187766613
  0
LINE
  5
6FF
100
AcDbEntity
  8
00_COMPONENTS
100
AcDbLine
 62
8
  6
HIDDEN
 10
83.7360011982
 20
28.2717766613
 11
83.7360011982
 21
28.2187766613
  0
LINE
  5
700
100
AcDbEntity
  8
00_COMPONENTS
100
AcDbLine
 62
9
  6
CONTINUOUS
 10
83.9100336917
 20
29.2917766613
 11
83.9100336917
 21
29.0417766613
  0
LINE
  5
701
100
AcDbEntity
  8
00_COMPONENTS
100
AcDbLine
 62
8
  6
HIDDEN
 10
83.9100336917
 20
29.0417766613
 11
83.9100336917
 21
28.9487766613
  0
LINE
  5
702
100
AcDbEntity
  8
00_COMPONENTS
100
AcDbLine
 62
7
  6
CONTINUOUS
 10
83.9839726917
 20
29.2917766613
 11
83.9839726917
 21
29.0417766613
  0
LINE
  5
703
100
AcDbEntity
  8
00_COMPONENTS
100
AcDbLine
 62
8
  6
HIDDEN
 10
83.9839726917
 20
28.9487766613
 11
83.9839726917
 21
29.0417766613
  0
LINE
  5
704
100
AcDbEntity
  8
00_COMPONENTS
100
AcDbLine
 62
8
  6
HIDDEN
 10
84.6599078358
 20
28.2717766613
 11
84.6599078358
 21
28.2187766613
  0
LINE
  5
705
100
AcDbEntity
  8
00_COMPONENTS
100
AcDbLine
 62
8
  6
HIDDEN
 10
84.9860011982
 20
28.2717766613
 11
84.9860011982
 21
28.2187766613
  0
LINE
  5
706
100
AcDbEntity
  8
00_COMPONENTS
100
AcDbLine
 62
9
  6
CONTINUOUS
 10
85.1600336917
 20
29.2917766613
 11
85.1600336917
 21
29.0417766613
  0
LINE
  5
707
100
AcDbEntity
  8
00_COMPONENTS
100
AcDbLine
 62
8
  6
HIDDEN
 10
85.1600336917
 20
29.0417766613
 11
85.1600336917
 21
28.9487766613
  0
LINE
  5
708
100
AcDbEntity
  8
00_COMPONENTS
100
AcDbLine
 62
7
  6
CONTINUOUS
 10
85.2339726917
 20
29.2917766613
 11
85.2339726917
 21
29.0417766613
  0
LINE
  5
709
100
AcDbEntity
  8
00_COMPONENTS
100
AcDbLine
 62
8
  6
HIDDEN
 10
85.2339726917
 20
28.9487766613
 11
85.2339726917
 21
29.0417766613
  0
LINE
  5
70A
100
AcDbEntity
  8
00_COMPONENTS
100
AcDbLine
 62
8
  6
HIDDEN
 10
85.9099078358
 20
28.2717766613
 11
85.9099078358
 21
28.2187766613
  0
LINE
  5
70B
100
AcDbEntity
  8
00_COMPONENTS
100
AcDbLine
 62
8
  6
HIDDEN
 10
86.2769078358
 20
28.2187766613
 11
86.2769078358
 21
28.2717766613
  0
LINE
  5
70C
100
AcDbEntity
  8
00_COMPONENTS
100
AcDbLine
 62
8
  6
HIDDEN
 10
86.2774078358
 20
28.2187766613
 11
86.2774078358
 21
28.2717766613
  0
LINE
  5
70D
100
AcDbEntity
  8
00_COMPONENTS
100
AcDbLine
 62
9
  6
CONTINUOUS
 10
86.4100336917
 20
29.2917766613
 11
86.4100336917
 21
29.0417766613
  0
LINE
  5
70E
100
AcDbEntity
  8
00_COMPONENTS
100
AcDbLine
 62
8
  6
HIDDEN
 10
86.4100336917
 20
29.0417766613
 11
86.4100336917
 21
28.9487766613
  0
LINE
  5
70F
100
AcDbEntity
  8
00_COMPONENTS
100
AcDbLine
 62
8
  6
HIDDEN
 10
86.4504078358
 20
28.2187766613
 11
86.4504078358
 21
28.2717766613
  0
LINE
  5
710
100
AcDbEntity
  8
00_COMPONENTS
100
AcDbLine
 62
8
  6
HIDDEN
 10
86.4509078358
 20
28.2187766613
 11
86.4509078358
 21
28.2717766613
  0
LINE
  5
711
100
AcDbEntity
  8
00_COMPONENTS
100
AcDbLine
 62
7
  6
CONTINUOUS
 10
86.4839726917
 20
29.2917766613
 11
86.4839726917
 21
29.0417766613
  0
LINE
  5
712
100
AcDbEntity
  8
00_COMPONENTS
100
AcDbLine
 62
8
  6
HIDDEN
 10
86.4839726917
 20
28.9487766613
 11
86.4839726917
 21
29.0417766613
  0
LINE
  5
713
100
AcDbEntity
  8
00_COMPONENTS
100
AcDbLine
 62
8
  6
HIDDEN
 10
86.6079078358
 20
28.2187766613
 11
86.6079078358
 21
28.2717766613
  0
LINE
  5
714
100
AcDbEntity
  8
00_COMPONENTS
100
AcDbLine
 62
8
  6
HIDDEN
 10
86.6609078358
 20
28.3247766613
 11
86.6609078358
 21
28.8427766613
  0
LINE
  5
715
100
AcDbEntity
  8
00_COMPONENTS
100
AcDbLine
 62
8
  6
HIDDEN
 10
86.7139078358
 20
28.3247766613
 11
86.7139078358
 21
28.8427766613
  0
LINE
  5
716
100
AcDbEntity
  8
00_COMPONENTS
100
AcDbLine
 62
8
  6
HIDDEN
 10
86.7669078358
 20
28.9487766613
 11
86.7669078358
 21
28.8957766613
  0
LINE
  5
717
100
AcDbEntity
  8
00_COMPONENTS
100
AcDbLine
 62
8
  6
HIDDEN
 10
87.3309078358
 20
28.9487766613
 11
87.3309078358
 21
28.8957766613
  0
LINE
  5
718
100
AcDbEntity
  8
00_COMPONENTS
100
AcDbLine
 62
8
  6
HIDDEN
 10
88.5419078358
 20
29.0417766613
 11
88.5419078358
 21
28.9487766613
  0
LINE
  5
719
100
AcDbEntity
  8
00_COMPONENTS
100
AcDbLine
 62
8
  6
HIDDEN
 10
88.6319078358
 20
28.8587766613
 11
88.6319078358
 21
28.2287766613
  0
LINE
  5
71A
100
AcDbEntity
  8
00_COMPONENTS
100
AcDbLine
 62
7
  6
CONTINUOUS
 10
88.7249078358
 20
28.2287766613
 11
88.7249078358
 21
28.8587766613
  0
ARC
  5
71B
100
AcDbEntity
  8
00_COMPONENTS
100
AcDbCircle
 62
7
  6
CONTINUOUS
 10
25.3318239948
 20
39.167983267
 40
0.6442551507
100
AcDbArc
 50
322.6018231033
 51
323.6790333406
  0
ARC
  5
71C
100
AcDbEntity
  8
00_COMPONENTS
100
AcDbCircle
 62
7
  6
CONTINUOUS
 10
34.7709158969
 20
43.3137947942
 40
0.6301514804
100
AcDbArc
 50
180.0
 51
270.0
  0
ARC
  5
71D
100
AcDbEntity
  8
00_COMPONENTS
100
AcDbCircle
 62
7
  6
CONTINUOUS
 10
33.5209158969
 20
43.3137947942
 40
0.6301514804
100
AcDbArc
 50
180.0
 51
270.0
  0
ARC
  5
71E
100
AcDbEntity
  8
00_COMPONENTS
100
AcDbCircle
 62
7
  6
CONTINUOUS
 10
32.2709158969
 20
43.3137947942
 40
0.6301514804
100
AcDbArc
 50
180.0
 51
270.0
  0
ARC
  5
71F
100
AcDbEntity
  8
00_COMPONENTS
100
AcDbCircle
 62
7
  6
CONTINUOUS
 10
31.0209158969
 20
43.3137947942
 40
0.6301514804
100
AcDbArc
 50
180.0
 51
270.0
  0
ARC
  5
720
100
AcDbEntity
  8
00_COMPONENTS
100
AcDbCircle
 62
7
  6
CONTINUOUS
 10
29.7709158969
 20
43.3137947942
 40
0.6301514804
100
AcDbArc
 50
180.0
 51
270.0
  0
ARC
  5
721
100
AcDbEntity
  8
00_COMPONENTS
100
AcDbCircle
 62
7
  6
CONTINUOUS
 10
28.5209158969
 20
43.3137947942
 40
0.6301514804
100
AcDbArc
 50
180.0
 51
270.0
  0
ARC
  5
722
100
AcDbEntity
  8
00_COMPONENTS
100
AcDbCircle
 62
7
  6
CONTINUOUS
 10
36.0209158969
 20
43.3137947942
 40
0.6301514804
100
AcDbArc
 50
180.0
 51
270.0
  0
ARC
  5
723
100
AcDbEntity
  8
00_COMPONENTS
100
AcDbCircle
 62
7
  6
CONTINUOUS
 10
33.7249078358
 20
40.9448857497
 40
0.45
100
AcDbArc
 50
117.2660444507
 51
152.7339555493
  0
ARC
  5
724
100
AcDbEntity
  8
00_COMPONENTS
100
AcDbCircle
 62
7
  6
CONTINUOUS
 10
33.7249078358
 20
40.9448857497
 40
0.45
100
AcDbArc
 50
27.2660444507
 51
62.7339555493
  0
ARC
  5
725
100
AcDbEntity
  8
00_COMPONENTS
100
AcDbCircle
 62
7
  6
CONTINUOUS
 10
33.7249078358
 20
40.9448857497
 40
0.45
100
AcDbArc
 50
297.2660444507
 51
332.7339555493
  0
ARC
  5
726
100
AcDbEntity
  8
00_COMPONENTS
100
AcDbCircle
 62
7
  6
CONTINUOUS
 10
33.7249078358
 20
40.9448857497
 40
0.45
100
AcDbArc
 50
207.2660444507
 51
242.7339555493
  0
ARC
  5
727
100
AcDbEntity
  8
00_COMPONENTS
100
AcDbCircle
 62
3
  6
CONTINUOUS
 10
25.6029543751
 20
39.2028620577
 40
0.445380048
100
AcDbArc
 50
301.1838141973
 51
303.829495256
  0
ARC
  5
728
100
AcDbEntity
  8
00_COMPONENTS
100
AcDbCircle
 62
3
  6
CONTINUOUS
 10
25.6493623019
 20
39.1265418806
 40
0.3560580334
100
AcDbArc
 50
298.988510395
 51
301.154044239
  0
ARC
  5
729
100
AcDbEntity
  8
00_COMPONENTS
100
AcDbCircle
 62
9
  6
CONTINUOUS
 10
29.7709158969
 20
43.3137947942
 40
0.3
100
AcDbArc
 50
180.0
 51
270.0
  0
ARC
  5
72A
100
AcDbEntity
  8
00_COMPONENTS
100
AcDbCircle
 62
9
  6
CONTINUOUS
 10
31.0209158969
 20
43.3137947942
 40
0.3
100
AcDbArc
 50
180.0
 51
270.0
  0
ARC
  5
72B
100
AcDbEntity
  8
00_COMPONENTS
100
AcDbCircle
 62
9
  6
CONTINUOUS
 10
32.2709158969
 20
43.3137947942
 40
0.3
100
AcDbArc
 50
180.0
 51
270.0
  0
ARC
  5
72C
100
AcDbEntity
  8
00_COMPONENTS
100
AcDbCircle
 62
9
  6
CONTINUOUS
 10
33.5209158969
 20
43.3137947942
 40
0.3
100
AcDbArc
 50
180.0
 51
270.0
  0
ARC
  5
72D
100
AcDbEntity
  8
00_COMPONENTS
100
AcDbCircle
 62
9
  6
CONTINUOUS
 10
28.5209158969
 20
43.3137947942
 40
0.3
100
AcDbArc
 50
180.0
 51
270.0
  0
ARC
  5
72E
100
AcDbEntity
  8
00_COMPONENTS
100
AcDbCircle
 62
9
  6
CONTINUOUS
 10
34.7709158969
 20
43.3137947942
 40
0.3
100
AcDbArc
 50
180.0
 51
270.0
  0
ARC
  5
72F
100
AcDbEntity
  8
00_COMPONENTS
100
AcDbCircle
 62
9
  6
CONTINUOUS
 10
36.0209158969
 20
43.3137947942
 40
0.3
100
AcDbArc
 50
180.0
 51
270.0
  0
ARC
  5
730
100
AcDbEntity
  8
00_COMPONENTS
100
AcDbCircle
 62
3
  6
CONTINUOUS
 10
25.7174756556
 20
38.9873250812
 40
0.2008937317
100
AcDbArc
 50
288.0110312726
 51
291.1339605013
  0
ARC
  5
731
100
AcDbEntity
  8
00_COMPONENTS
100
AcDbCircle
 62
7
  6
CONTINUOUS
 10
31.0209158969
 20
48.3137947942
 40
0.6301514804
100
AcDbArc
 50
180.0
 51
270.0
  0
ARC
  5
732
100
AcDbEntity
  8
00_COMPONENTS
100
AcDbCircle
 62
7
  6
CONTINUOUS
 10
31.0209158969
 20
46.4137947942
 40
0.6301514804
100
AcDbArc
 50
90.0
 51
180.0
  0
ARC
  5
733
100
AcDbEntity
  8
00_COMPONENTS
100
AcDbCircle
 62
7
  6
CONTINUOUS
 10
29.7709158969
 20
48.3137947942
 40
0.6301514804
100
AcDbArc
 50
180.0
 51
270.0
  0
ARC
  5
734
100
AcDbEntity
  8
00_COMPONENTS
100
AcDbCircle
 62
7
  6
CONTINUOUS
 10
29.7709158969
 20
46.4137947942
 40
0.6301514804
100
AcDbArc
 50
90.0
 51
180.0
  0
ARC
  5
735
100
AcDbEntity
  8
00_COMPONENTS
100
AcDbCircle
 62
7
  6
CONTINUOUS
 10
28.5209158969
 20
48.3137947942
 40
0.6301514804
100
AcDbArc
 50
180.0
 51
270.0
  0
ARC
  5
736
100
AcDbEntity
  8
00_COMPONENTS
100
AcDbCircle
 62
7
  6
CONTINUOUS
 10
28.5209158969
 20
46.4137947942
 40
0.6301514804
100
AcDbArc
 50
90.0
 51
180.0
  0
ARC
  5
737
100
AcDbEntity
  8
00_COMPONENTS
100
AcDbCircle
 62
9
  6
CONTINUOUS
 10
29.7709158969
 20
46.4137947942
 40
0.3
100
AcDbArc
 50
90.0
 51
180.0
  0
ARC
  5
738
100
AcDbEntity
  8
00_COMPONENTS
100
AcDbCircle
 62
9
  6
CONTINUOUS
 10
29.7709158969
 20
48.3137947942
 40
0.3
100
AcDbArc
 50
180.0
 51
270.0
  0
ARC
  5
739
100
AcDbEntity
  8
00_COMPONENTS
100
AcDbCircle
 62
9
  6
CONTINUOUS
 10
31.0209158969
 20
46.4137947942
 40
0.3
100
AcDbArc
 50
90.0
 51
180.0
  0
ARC
  5
73A
100
AcDbEntity
  8
00_COMPONENTS
100
AcDbCircle
 62
9
  6
CONTINUOUS
 10
31.0209158969
 20
48.3137947942
 40
0.3
100
AcDbArc
 50
180.0
 51
270.0
  0
ARC
  5
73B
100
AcDbEntity
  8
00_COMPONENTS
100
AcDbCircle
 62
9
  6
CONTINUOUS
 10
28.5209158969
 20
46.4137947942
 40
0.3
100
AcDbArc
 50
90.0
 51
180.0
  0
ARC
  5
73C
100
AcDbEntity
  8
00_COMPONENTS
100
AcDbCircle
 62
9
  6
CONTINUOUS
 10
28.5209158969
 20
48.3137947942
 40
0.3
100
AcDbArc
 50
180.0
 51
270.0
  0
ARC
  5
73D
100
AcDbEntity
  8
00_COMPONENTS
100
AcDbCircle
 62
7
  6
CONTINUOUS
 10
31.0209158969
 20
51.4137947942
 40
0.6301514804
100
AcDbArc
 50
90.0
 51
180.0
  0
ARC
  5
73E
100
AcDbEntity
  8
00_COMPONENTS
100
AcDbCircle
 62
7
  6
CONTINUOUS
 10
29.7709158969
 20
51.4137947942
 40
0.6301514804
100
AcDbArc
 50
90.0
 51
180.0
  0
ARC
  5
73F
100
AcDbEntity
  8
00_COMPONENTS
100
AcDbCircle
 62
7
  6
CONTINUOUS
 10
28.5209158969
 20
51.4137947942
 40
0.6301514804
100
AcDbArc
 50
90.0
 51
180.0
  0
ARC
  5
740
100
AcDbEntity
  8
00_COMPONENTS
100
AcDbCircle
 62
9
  6
CONTINUOUS
 10
29.7709158969
 20
51.4137947942
 40
0.3
100
AcDbArc
 50
90.0
 51
180.0
  0
ARC
  5
741
100
AcDbEntity
  8
00_COMPONENTS
100
AcDbCircle
 62
9
  6
CONTINUOUS
 10
31.0209158969
 20
51.4137947942
 40
0.3
100
AcDbArc
 50
90.0
 51
180.0
  0
ARC
  5
742
100
AcDbEntity
  8
00_COMPONENTS
100
AcDbCircle
 62
9
  6
CONTINUOUS
 10
28.5209158969
 20
51.4137947942
 40
0.3
100
AcDbArc
 50
90.0
 51
180.0
  0
ARC
  5
743
100
AcDbEntity
  8
00_COMPONENTS
100
AcDbCircle
 62
7
  6
CONTINUOUS
 10
34.7709158969
 20
48.3137947942
 40
0.6301514804
100
AcDbArc
 50
180.0
 51
270.0
  0
ARC
  5
744
100
AcDbEntity
  8
00_COMPONENTS
100
AcDbCircle
 62
7
  6
CONTINUOUS
 10
34.7709158969
 20
46.4137947942
 40
0.6301514804
100
AcDbArc
 50
90.0
 51
180.0
  0
ARC
  5
745
100
AcDbEntity
  8
00_COMPONENTS
100
AcDbCircle
 62
7
  6
CONTINUOUS
 10
33.5209158969
 20
48.3137947942
 40
0.6301514804
100
AcDbArc
 50
180.0
 51
270.0
  0
ARC
  5
746
100
AcDbEntity
  8
00_COMPONENTS
100
AcDbCircle
 62
7
  6
CONTINUOUS
 10
33.5209158969
 20
46.4137947942
 40
0.6301514804
100
AcDbArc
 50
90.0
 51
180.0
  0
ARC
  5
747
100
AcDbEntity
  8
00_COMPONENTS
100
AcDbCircle
 62
7
  6
CONTINUOUS
 10
32.2709158969
 20
48.3137947942
 40
0.6301514804
100
AcDbArc
 50
180.0
 51
270.0
  0
ARC
  5
748
100
AcDbEntity
  8
00_COMPONENTS
100
AcDbCircle
 62
7
  6
CONTINUOUS
 10
32.2709158969
 20
46.4137947942
 40
0.6301514804
100
AcDbArc
 50
90.0
 51
180.0
  0
ARC
  5
749
100
AcDbEntity
  8
00_COMPONENTS
100
AcDbCircle
 62
7
  6
CONTINUOUS
 10
36.0209158969
 20
48.3137947942
 40
0.6301514804
100
AcDbArc
 50
180.0
 51
270.0
  0
ARC
  5
74A
100
AcDbEntity
  8
00_COMPONENTS
100
AcDbCircle
 62
7
  6
CONTINUOUS
 10
36.0209158969
 20
46.4137947942
 40
0.6301514804
100
AcDbArc
 50
90.0
 51
180.0
  0
ARC
  5
74B
100
AcDbEntity
  8
00_COMPONENTS
100
AcDbCircle
 62
9
  6
CONTINUOUS
 10
32.2709158969
 20
46.4137947942
 40
0.3
100
AcDbArc
 50
90.0
 51
180.0
  0
ARC
  5
74C
100
AcDbEntity
  8
00_COMPONENTS
100
AcDbCircle
 62
9
  6
CONTINUOUS
 10
32.2709158969
 20
48.3137947942
 40
0.3
100
AcDbArc
 50
180.0
 51
270.0
  0
ARC
  5
74D
100
AcDbEntity
  8
00_COMPONENTS
100
AcDbCircle
 62
9
  6
CONTINUOUS
 10
33.5209158969
 20
46.4137947942
 40
0.3
100
AcDbArc
 50
90.0
 51
180.0
  0
ARC
  5
74E
100
AcDbEntity
  8
00_COMPONENTS
100
AcDbCircle
 62
9
  6
CONTINUOUS
 10
33.5209158969
 20
48.3137947942
 40
0.3
100
AcDbArc
 50
180.0
 51
270.0
  0
ARC
  5
74F
100
AcDbEntity
  8
00_COMPONENTS
100
AcDbCircle
 62
9
  6
CONTINUOUS
 10
34.7709158969
 20
46.4137947942
 40
0.3
100
AcDbArc
 50
90.0
 51
180.0
  0
ARC
  5
750
100
AcDbEntity
  8
00_COMPONENTS
100
AcDbCircle
 62
9
  6
CONTINUOUS
 10
34.7709158969
 20
48.3137947942
 40
0.3
100
AcDbArc
 50
180.0
 51
270.0
  0
ARC
  5
751
100
AcDbEntity
  8
00_COMPONENTS
100
AcDbCircle
 62
9
  6
CONTINUOUS
 10
36.0209158969
 20
46.4137947942
 40
0.3
100
AcDbArc
 50
90.0
 51
180.0
  0
ARC
  5
752
100
AcDbEntity
  8
00_COMPONENTS
100
AcDbCircle
 62
9
  6
CONTINUOUS
 10
36.0209158969
 20
48.3137947942
 40
0.3
100
AcDbArc
 50
180.0
 51
270.0
  0
ARC
  5
753
100
AcDbEntity
  8
00_COMPONENTS
100
AcDbCircle
 62
7
  6
CONTINUOUS
 10
34.7709158969
 20
51.4137947942
 40
0.6301514804
100
AcDbArc
 50
90.0
 51
180.0
  0
ARC
  5
754
100
AcDbEntity
  8
00_COMPONENTS
100
AcDbCircle
 62
7
  6
CONTINUOUS
 10
33.5209158969
 20
51.4137947942
 40
0.6301514804
100
AcDbArc
 50
90.0
 51
180.0
  0
ARC
  5
755
100
AcDbEntity
  8
00_COMPONENTS
100
AcDbCircle
 62
7
  6
CONTINUOUS
 10
32.2709158969
 20
51.4137947942
 40
0.6301514804
100
AcDbArc
 50
90.0
 51
180.0
  0
ARC
  5
756
100
AcDbEntity
  8
00_COMPONENTS
100
AcDbCircle
 62
7
  6
CONTINUOUS
 10
36.0209158969
 20
51.4137947942
 40
0.6301514804
100
AcDbArc
 50
90.0
 51
180.0
  0
ARC
  5
757
100
AcDbEntity
  8
00_COMPONENTS
100
AcDbCircle
 62
9
  6
CONTINUOUS
 10
32.2709158969
 20
51.4137947942
 40
0.3
100
AcDbArc
 50
90.0
 51
180.0
  0
ARC
  5
758
100
AcDbEntity
  8
00_COMPONENTS
100
AcDbCircle
 62
9
  6
CONTINUOUS
 10
33.5209158969
 20
51.4137947942
 40
0.3
100
AcDbArc
 50
90.0
 51
180.0
  0
ARC
  5
759
100
AcDbEntity
  8
00_COMPONENTS
100
AcDbCircle
 62
9
  6
CONTINUOUS
 10
34.7709158969
 20
51.4137947942
 40
0.3
100
AcDbArc
 50
90.0
 51
180.0
  0
ARC
  5
75A
100
AcDbEntity
  8
00_COMPONENTS
100
AcDbCircle
 62
9
  6
CONTINUOUS
 10
36.0209158969
 20
51.4137947942
 40
0.3
100
AcDbArc
 50
90.0
 51
180.0
  0
ARC
  5
75B
100
AcDbEntity
  8
00_COMPONENTS
100
AcDbCircle
 62
7
  6
CONTINUOUS
 10
45.4749078358
 20
40.9448857497
 40
0.45
100
AcDbArc
 50
117.2660444507
 51
152.7339555493
  0
ARC
  5
75C
100
AcDbEntity
  8
00_COMPONENTS
100
AcDbCircle
 62
7
  6
CONTINUOUS
 10
45.4749078358
 20
40.9448857497
 40
0.45
100
AcDbArc
 50
27.2660444507
 51
62.7339555493
  0
ARC
  5
75D
100
AcDbEntity
  8
00_COMPONENTS
100
AcDbCircle
 62
7
  6
CONTINUOUS
 10
45.4749078358
 20
40.9448857497
 40
0.45
100
AcDbArc
 50
297.2660444507
 51
332.7339555493
  0
ARC
  5
75E
100
AcDbEntity
  8
00_COMPONENTS
100
AcDbCircle
 62
7
  6
CONTINUOUS
 10
45.4749078358
 20
40.9448857497
 40
0.45
100
AcDbArc
 50
207.2660444507
 51
242.7339555493
  0
CIRCLE
  5
75F
100
AcDbEntity
  8
00_COMPONENTS
100
AcDbCircle
 62
7
  6
CONTINUOUS
 10
56.4449078358
 20
40.9448857497
 40
0.11
  0
ARC
  5
760
100
AcDbEntity
  8
00_COMPONENTS
100
AcDbCircle
 62
7
  6
CONTINUOUS
 10
29.7709158969
 20
58.3137947942
 40
0.6301514804
100
AcDbArc
 50
180.0
 51
270.0
  0
ARC
  5
761
100
AcDbEntity
  8
00_COMPONENTS
100
AcDbCircle
 62
7
  6
CONTINUOUS
 10
29.7709158969
 20
53.3137947942
 40
0.6301514804
100
AcDbArc
 50
180.0
 51
270.0
  0
ARC
  5
762
100
AcDbEntity
  8
00_COMPONENTS
100
AcDbCircle
 62
7
  6
CONTINUOUS
 10
29.7709158969
 20
56.4137947942
 40
0.6301514804
100
AcDbArc
 50
90.0
 51
180.0
  0
ARC
  5
763
100
AcDbEntity
  8
00_COMPONENTS
100
AcDbCircle
 62
7
  6
CONTINUOUS
 10
28.5209158969
 20
58.3137947942
 40
0.6301514804
100
AcDbArc
 50
180.0
 51
270.0
  0
ARC
  5
764
100
AcDbEntity
  8
00_COMPONENTS
100
AcDbCircle
 62
7
  6
CONTINUOUS
 10
28.5209158969
 20
53.3137947942
 40
0.6301514804
100
AcDbArc
 50
180.0
 51
270.0
  0
ARC
  5
765
100
AcDbEntity
  8
00_COMPONENTS
100
AcDbCircle
 62
7
  6
CONTINUOUS
 10
28.5209158969
 20
56.4137947942
 40
0.6301514804
100
AcDbArc
 50
90.0
 51
180.0
  0
ARC
  5
766
100
AcDbEntity
  8
00_COMPONENTS
100
AcDbCircle
 62
9
  6
CONTINUOUS
 10
29.7709158969
 20
53.3137947942
 40
0.3
100
AcDbArc
 50
180.0
 51
270.0
  0
ARC
  5
767
100
AcDbEntity
  8
00_COMPONENTS
100
AcDbCircle
 62
9
  6
CONTINUOUS
 10
29.7709158969
 20
56.4137947942
 40
0.3
100
AcDbArc
 50
90.0
 51
180.0
  0
ARC
  5
768
100
AcDbEntity
  8
00_COMPONENTS
100
AcDbCircle
 62
9
  6
CONTINUOUS
 10
29.7709158969
 20
58.3137947942
 40
0.3
100
AcDbArc
 50
180.0
 51
270.0
  0
ARC
  5
769
100
AcDbEntity
  8
00_COMPONENTS
100
AcDbCircle
 62
9
  6
CONTINUOUS
 10
28.5209158969
 20
53.3137947942
 40
0.3
100
AcDbArc
 50
180.0
 51
270.0
  0
ARC
  5
76A
100
AcDbEntity
  8
00_COMPONENTS
100
AcDbCircle
 62
9
  6
CONTINUOUS
 10
28.5209158969
 20
56.4137947942
 40
0.3
100
AcDbArc
 50
90.0
 51
180.0
  0
ARC
  5
76B
100
AcDbEntity
  8
00_COMPONENTS
100
AcDbCircle
 62
9
  6
CONTINUOUS
 10
28.5209158969
 20
58.3137947942
 40
0.3
100
AcDbArc
 50
180.0
 51
270.0
  0
ARC
  5
76C
100
AcDbEntity
  8
00_COMPONENTS
100
AcDbCircle
 62
7
  6
CONTINUOUS
 10
29.7709158969
 20
61.4137947942
 40
0.6301514804
100
AcDbArc
 50
90.0
 51
180.0
  0
ARC
  5
76D
100
AcDbEntity
  8
00_COMPONENTS
100
AcDbCircle
 62
7
  6
CONTINUOUS
 10
28.5209158969
 20
61.4137947942
 40
0.6301514804
100
AcDbArc
 50
90.0
 51
180.0
  0
ARC
  5
76E
100
AcDbEntity
  8
00_COMPONENTS
100
AcDbCircle
 62
3
  6
CONTINUOUS
 10
25.6029543751
 20
65.1669094416
 40
0.445380048
100
AcDbArc
 50
56.170504744
 51
58.8161858026
  0
ARC
  5
76F
100
AcDbEntity
  8
00_COMPONENTS
100
AcDbCircle
 62
3
  6
CONTINUOUS
 10
25.649362302
 20
65.2432296188
 40
0.3560580334
100
AcDbArc
 50
58.8459557608
 51
61.0114896052
  0
ARC
  5
770
100
AcDbEntity
  8
00_COMPONENTS
100
AcDbCircle
 62
9
  6
CONTINUOUS
 10
29.7709158969
 20
61.4137947942
 40
0.3
100
AcDbArc
 50
90.0
 51
180.0
  0
ARC
  5
771
100
AcDbEntity
  8
00_COMPONENTS
100
AcDbCircle
 62
9
  6
CONTINUOUS
 10
28.5209158969
 20
61.4137947942
 40
0.3
100
AcDbArc
 50
90.0
 51
180.0
  0
ARC
  5
772
100
AcDbEntity
  8
00_COMPONENTS
100
AcDbCircle
 62
7
  6
CONTINUOUS
 10
25.6576198419
 20
65.483902246
 40
0.2126497374
100
AcDbArc
 50
47.5530571484
 51
49.3311164206
  0
ARC
  5
773
100
AcDbEntity
  8
00_COMPONENTS
100
AcDbCircle
 62
3
  6
CONTINUOUS
 10
25.7174756556
 20
65.3824464182
 40
0.2008937317
100
AcDbArc
 50
68.8660394987
 51
71.9889687276
  0
ARC
  5
774
100
AcDbEntity
  8
00_COMPONENTS
100
AcDbCircle
 62
7
  6
CONTINUOUS
 10
32.2709158969
 20
53.3137947942
 40
0.6301514804
100
AcDbArc
 50
180.0
 51
270.0
  0
ARC
  5
775
100
AcDbEntity
  8
00_COMPONENTS
100
AcDbCircle
 62
7
  6
CONTINUOUS
 10
31.0209158969
 20
53.3137947942
 40
0.6301514804
100
AcDbArc
 50
180.0
 51
270.0
  0
ARC
  5
776
100
AcDbEntity
  8
00_COMPONENTS
100
AcDbCircle
 62
9
  6
CONTINUOUS
 10
31.0209158969
 20
53.3137947942
 40
0.3
100
AcDbArc
 50
180.0
 51
270.0
  0
ARC
  5
777
100
AcDbEntity
  8
00_COMPONENTS
100
AcDbCircle
 62
9
  6
CONTINUOUS
 10
32.2709158969
 20
53.3137947942
 40
0.3
100
AcDbArc
 50
180.0
 51
270.0
  0
ARC
  5
778
100
AcDbEntity
  8
00_COMPONENTS
100
AcDbCircle
 62
7
  6
CONTINUOUS
 10
32.2709158969
 20
58.3137947942
 40
0.6301514804
100
AcDbArc
 50
180.0
 51
270.0
  0
ARC
  5
779
100
AcDbEntity
  8
00_COMPONENTS
100
AcDbCircle
 62
7
  6
CONTINUOUS
 10
32.2709158969
 20
56.4137947942
 40
0.6301514804
100
AcDbArc
 50
90.0
 51
180.0
  0
ARC
  5
77A
100
AcDbEntity
  8
00_COMPONENTS
100
AcDbCircle
 62
7
  6
CONTINUOUS
 10
31.0209158969
 20
58.3137947942
 40
0.6301514804
100
AcDbArc
 50
180.0
 51
270.0
  0
ARC
  5
77B
100
AcDbEntity
  8
00_COMPONENTS
100
AcDbCircle
 62
7
  6
CONTINUOUS
 10
31.0209158969
 20
56.4137947942
 40
0.6301514804
100
AcDbArc
 50
90.0
 51
180.0
  0
ARC
  5
77C
100
AcDbEntity
  8
00_COMPONENTS
100
AcDbCircle
 62
9
  6
CONTINUOUS
 10
31.0209158969
 20
56.4137947942
 40
0.3
100
AcDbArc
 50
90.0
 51
180.0
  0
ARC
  5
77D
100
AcDbEntity
  8
00_COMPONENTS
100
AcDbCircle
 62
9
  6
CONTINUOUS
 10
31.0209158969
 20
58.3137947942
 40
0.3
100
AcDbArc
 50
180.0
 51
270.0
  0
ARC
  5
77E
100
AcDbEntity
  8
00_COMPONENTS
100
AcDbCircle
 62
9
  6
CONTINUOUS
 10
32.2709158969
 20
56.4137947942
 40
0.3
100
AcDbArc
 50
90.0
 51
180.0
  0
ARC
  5
77F
100
AcDbEntity
  8
00_COMPONENTS
100
AcDbCircle
 62
9
  6
CONTINUOUS
 10
32.2709158969
 20
58.3137947942
 40
0.3
100
AcDbArc
 50
180.0
 51
270.0
  0
ARC
  5
780
100
AcDbEntity
  8
00_COMPONENTS
100
AcDbCircle
 62
7
  6
CONTINUOUS
 10
34.7709158969
 20
53.3137947942
 40
0.6301514804
100
AcDbArc
 50
180.0
 51
270.0
  0
ARC
  5
781
100
AcDbEntity
  8
00_COMPONENTS
100
AcDbCircle
 62
7
  6
CONTINUOUS
 10
33.5209158969
 20
53.3137947942
 40
0.6301514804
100
AcDbArc
 50
180.0
 51
270.0
  0
ARC
  5
782
100
AcDbEntity
  8
00_COMPONENTS
100
AcDbCircle
 62
7
  6
CONTINUOUS
 10
36.0209158969
 20
53.3137947942
 40
0.6301514804
100
AcDbArc
 50
180.0
 51
270.0
  0
ARC
  5
783
100
AcDbEntity
  8
00_COMPONENTS
100
AcDbCircle
 62
9
  6
CONTINUOUS
 10
33.5209158969
 20
53.3137947942
 40
0.3
100
AcDbArc
 50
180.0
 51
270.0
  0
ARC
  5
784
100
AcDbEntity
  8
00_COMPONENTS
100
AcDbCircle
 62
9
  6
CONTINUOUS
 10
34.7709158969
 20
53.3137947942
 40
0.3
100
AcDbArc
 50
180.0
 51
270.0
  0
ARC
  5
785
100
AcDbEntity
  8
00_COMPONENTS
100
AcDbCircle
 62
9
  6
CONTINUOUS
 10
36.0209158969
 20
53.3137947942
 40
0.3
100
AcDbArc
 50
180.0
 51
270.0
  0
ARC
  5
786
100
AcDbEntity
  8
00_COMPONENTS
100
AcDbCircle
 62
7
  6
CONTINUOUS
 10
34.7709158969
 20
58.3137947942
 40
0.6301514804
100
AcDbArc
 50
180.0
 51
270.0
  0
ARC
  5
787
100
AcDbEntity
  8
00_COMPONENTS
100
AcDbCircle
 62
7
  6
CONTINUOUS
 10
34.7709158969
 20
56.4137947942
 40
0.6301514804
100
AcDbArc
 50
90.0
 51
180.0
  0
ARC
  5
788
100
AcDbEntity
  8
00_COMPONENTS
100
AcDbCircle
 62
7
  6
CONTINUOUS
 10
33.5209158969
 20
58.3137947942
 40
0.6301514804
100
AcDbArc
 50
180.0
 51
270.0
  0
ARC
  5
789
100
AcDbEntity
  8
00_COMPONENTS
100
AcDbCircle
 62
7
  6
CONTINUOUS
 10
33.5209158969
 20
56.4137947942
 40
0.6301514804
100
AcDbArc
 50
90.0
 51
180.0
  0
ARC
  5
78A
100
AcDbEntity
  8
00_COMPONENTS
100
AcDbCircle
 62
7
  6
CONTINUOUS
 10
36.0209158969
 20
58.3137947942
 40
0.6301514804
100
AcDbArc
 50
180.0
 51
270.0
  0
ARC
  5
78B
100
AcDbEntity
  8
00_COMPONENTS
100
AcDbCircle
 62
7
  6
CONTINUOUS
 10
36.0209158969
 20
56.4137947942
 40
0.6301514804
100
AcDbArc
 50
90.0
 51
180.0
  0
ARC
  5
78C
100
AcDbEntity
  8
00_COMPONENTS
100
AcDbCircle
 62
9
  6
CONTINUOUS
 10
33.5209158969
 20
56.4137947942
 40
0.3
100
AcDbArc
 50
90.0
 51
180.0
  0
ARC
  5
78D
100
AcDbEntity
  8
00_COMPONENTS
100
AcDbCircle
 62
9
  6
CONTINUOUS
 10
33.5209158969
 20
58.3137947942
 40
0.3
100
AcDbArc
 50
180.0
 51
270.0
  0
ARC
  5
78E
100
AcDbEntity
  8
00_COMPONENTS
100
AcDbCircle
 62
9
  6
CONTINUOUS
 10
34.7709158969
 20
56.4137947942
 40
0.3
100
AcDbArc
 50
90.0
 51
180.0
  0
ARC
  5
78F
100
AcDbEntity
  8
00_COMPONENTS
100
AcDbCircle
 62
9
  6
CONTINUOUS
 10
34.7709158969
 20
58.3137947942
 40
0.3
100
AcDbArc
 50
180.0
 51
270.0
  0
ARC
  5
790
100
AcDbEntity
  8
00_COMPONENTS
100
AcDbCircle
 62
9
  6
CONTINUOUS
 10
36.0209158969
 20
56.4137947942
 40
0.3
100
AcDbArc
 50
90.0
 51
180.0
  0
ARC
  5
791
100
AcDbEntity
  8
00_COMPONENTS
100
AcDbCircle
 62
9
  6
CONTINUOUS
 10
36.0209158969
 20
58.3137947942
 40
0.3
100
AcDbArc
 50
180.0
 51
270.0
  0
ARC
  5
792
100
AcDbEntity
  8
00_COMPONENTS
100
AcDbCircle
 62
7
  6
CONTINUOUS
 10
34.7709158969
 20
61.4137947942
 40
0.6301514804
100
AcDbArc
 50
90.0
 51
180.0
  0
ARC
  5
793
100
AcDbEntity
  8
00_COMPONENTS
100
AcDbCircle
 62
7
  6
CONTINUOUS
 10
33.5209158969
 20
61.4137947942
 40
0.6301514804
100
AcDbArc
 50
90.0
 51
180.0
  0
ARC
  5
794
100
AcDbEntity
  8
00_COMPONENTS
100
AcDbCircle
 62
7
  6
CONTINUOUS
 10
32.2709158969
 20
61.4137947942
 40
0.6301514804
100
AcDbArc
 50
90.0
 51
180.0
  0
ARC
  5
795
100
AcDbEntity
  8
00_COMPONENTS
100
AcDbCircle
 62
7
  6
CONTINUOUS
 10
31.0209158969
 20
61.4137947942
 40
0.6301514804
100
AcDbArc
 50
90.0
 51
180.0
  0
ARC
  5
796
100
AcDbEntity
  8
00_COMPONENTS
100
AcDbCircle
 62
7
  6
CONTINUOUS
 10
36.0209158969
 20
61.4137947942
 40
0.6301514804
100
AcDbArc
 50
90.0
 51
180.0
  0
ARC
  5
797
100
AcDbEntity
  8
00_COMPONENTS
100
AcDbCircle
 62
9
  6
CONTINUOUS
 10
31.0209158969
 20
61.4137947942
 40
0.3
100
AcDbArc
 50
90.0
 51
180.0
  0
ARC
  5
798
100
AcDbEntity
  8
00_COMPONENTS
100
AcDbCircle
 62
9
  6
CONTINUOUS
 10
32.2709158969
 20
61.4137947942
 40
0.3
100
AcDbArc
 50
90.0
 51
180.0
  0
ARC
  5
799
100
AcDbEntity
  8
00_COMPONENTS
100
AcDbCircle
 62
9
  6
CONTINUOUS
 10
33.5209158969
 20
61.4137947942
 40
0.3
100
AcDbArc
 50
90.0
 51
180.0
  0
ARC
  5
79A
100
AcDbEntity
  8
00_COMPONENTS
100
AcDbCircle
 62
9
  6
CONTINUOUS
 10
34.7709158969
 20
61.4137947942
 40
0.3
100
AcDbArc
 50
90.0
 51
180.0
  0
ARC
  5
79B
100
AcDbEntity
  8
00_COMPONENTS
100
AcDbCircle
 62
9
  6
CONTINUOUS
 10
36.0209158969
 20
61.4137947942
 40
0.3
100
AcDbArc
 50
90.0
 51
180.0
  0
CIRCLE
  5
79C
100
AcDbEntity
  8
00_COMPONENTS
100
AcDbCircle
 62
7
  6
CONTINUOUS
 10
57.3549078358
 20
40.9448857497
 40
0.47
  0
ARC
  5
79D
100
AcDbEntity
  8
00_COMPONENTS
100
AcDbCircle
 62
7
  6
CONTINUOUS
 10
68.9749078358
 20
40.9448857497
 40
0.45
100
AcDbArc
 50
117.2660444507
 51
152.7339555493
  0
ARC
  5
79E
100
AcDbEntity
  8
00_COMPONENTS
100
AcDbCircle
 62
7
  6
CONTINUOUS
 10
68.9749078358
 20
40.9448857497
 40
0.45
100
AcDbArc
 50
27.2660444507
 51
62.7339555493
  0
ARC
  5
79F
100
AcDbEntity
  8
00_COMPONENTS
100
AcDbCircle
 62
7
  6
CONTINUOUS
 10
68.9749078358
 20
40.9448857497
 40
0.45
100
AcDbArc
 50
297.2660444507
 51
332.7339555493
  0
ARC
  5
7A0
100
AcDbEntity
  8
00_COMPONENTS
100
AcDbCircle
 62
7
  6
CONTINUOUS
 10
68.9749078358
 20
40.9448857497
 40
0.45
100
AcDbArc
 50
207.2660444507
 51
242.7339555493
  0
CIRCLE
  5
7A1
100
AcDbEntity
  8
00_COMPONENTS
100
AcDbCircle
 62
7
  6
CONTINUOUS
 10
58.2649078358
 20
40.9448857497
 40
0.11
  0
ARC
  5
7A2
100
AcDbEntity
  8
00_COMPONENTS
100
AcDbCircle
 62
7
  6
CONTINUOUS
 10
81.4100336917
 20
43.3137947942
 40
0.6301514804
100
AcDbArc
 50
180.0
 51
270.0
  0
ARC
  5
7A3
100
AcDbEntity
  8
00_COMPONENTS
100
AcDbCircle
 62
7
  6
CONTINUOUS
 10
82.6600336917
 20
43.3137947942
 40
0.6301514804
100
AcDbArc
 50
180.0
 51
270.0
  0
ARC
  5
7A4
100
AcDbEntity
  8
00_COMPONENTS
100
AcDbCircle
 62
7
  6
CONTINUOUS
 10
83.9100336917
 20
43.3137947942
 40
0.6301514804
100
AcDbArc
 50
180.0
 51
270.0
  0
ARC
  5
7A5
100
AcDbEntity
  8
00_COMPONENTS
100
AcDbCircle
 62
7
  6
CONTINUOUS
 10
78.9100336917
 20
43.3137947942
 40
0.6301514804
100
AcDbArc
 50
180.0
 51
270.0
  0
ARC
  5
7A6
100
AcDbEntity
  8
00_COMPONENTS
100
AcDbCircle
 62
7
  6
CONTINUOUS
 10
85.1600336917
 20
43.3137947942
 40
0.6301514804
100
AcDbArc
 50
180.0
 51
270.0
  0
ARC
  5
7A7
100
AcDbEntity
  8
00_COMPONENTS
100
AcDbCircle
 62
7
  6
CONTINUOUS
 10
80.1600336917
 20
43.3137947942
 40
0.6301514804
100
AcDbArc
 50
180.0
 51
270.0
  0
ARC
  5
7A8
100
AcDbEntity
  8
00_COMPONENTS
100
AcDbCircle
 62
7
  6
CONTINUOUS
 10
86.4100336917
 20
43.3137947942
 40
0.6301514804
100
AcDbArc
 50
180.0
 51
270.0
  0
ARC
  5
7A9
100
AcDbEntity
  8
00_COMPONENTS
100
AcDbCircle
 62
7
  6
CONTINUOUS
 10
80.7249078358
 20
40.9448857497
 40
0.45
100
AcDbArc
 50
117.2660444507
 51
152.7339555493
  0
ARC
  5
7AA
100
AcDbEntity
  8
00_COMPONENTS
100
AcDbCircle
 62
7
  6
CONTINUOUS
 10
80.7249078358
 20
40.9448857497
 40
0.45
100
AcDbArc
 50
27.2660444507
 51
62.7339555493
  0
ARC
  5
7AB
100
AcDbEntity
  8
00_COMPONENTS
100
AcDbCircle
 62
7
  6
CONTINUOUS
 10
80.7249078358
 20
40.9448857497
 40
0.45
100
AcDbArc
 50
297.2660444507
 51
332.7339555493
  0
ARC
  5
7AC
100
AcDbEntity
  8
00_COMPONENTS
100
AcDbCircle
 62
7
  6
CONTINUOUS
 10
80.7249078358
 20
40.9448857497
 40
0.45
100
AcDbArc
 50
207.2660444507
 51
242.7339555493
  0
ARC
  5
7AD
100
AcDbEntity
  8
00_COMPONENTS
100
AcDbCircle
 62
3
  6
CONTINUOUS
 10
88.8508612964
 20
39.2028620578
 40
0.445380048
100
AcDbArc
 50
236.170504744
 51
238.8161858027
  0
ARC
  5
7AE
100
AcDbEntity
  8
00_COMPONENTS
100
AcDbCircle
 62
3
  6
CONTINUOUS
 10
88.8044533696
 20
39.1265418806
 40
0.3560580334
100
AcDbArc
 50
238.8459557608
 51
241.0114896051
  0
ARC
  5
7AF
100
AcDbEntity
  8
00_COMPONENTS
100
AcDbCircle
 62
9
  6
CONTINUOUS
 10
78.9100336917
 20
43.3137947942
 40
0.3
100
AcDbArc
 50
180.0
 51
270.0
  0
ARC
  5
7B0
100
AcDbEntity
  8
00_COMPONENTS
100
AcDbCircle
 62
9
  6
CONTINUOUS
 10
80.1600336917
 20
43.3137947942
 40
0.3
100
AcDbArc
 50
180.0
 51
270.0
  0
ARC
  5
7B1
100
AcDbEntity
  8
00_COMPONENTS
100
AcDbCircle
 62
9
  6
CONTINUOUS
 10
81.4100336917
 20
43.3137947942
 40
0.3
100
AcDbArc
 50
180.0
 51
270.0
  0
ARC
  5
7B2
100
AcDbEntity
  8
00_COMPONENTS
100
AcDbCircle
 62
9
  6
CONTINUOUS
 10
82.6600336917
 20
43.3137947942
 40
0.3
100
AcDbArc
 50
180.0
 51
270.0
  0
ARC
  5
7B3
100
AcDbEntity
  8
00_COMPONENTS
100
AcDbCircle
 62
9
  6
CONTINUOUS
 10
86.4100336917
 20
43.3137947942
 40
0.3
100
AcDbArc
 50
180.0
 51
270.0
  0
ARC
  5
7B4
100
AcDbEntity
  8
00_COMPONENTS
100
AcDbCircle
 62
9
  6
CONTINUOUS
 10
83.9100336917
 20
43.3137947942
 40
0.3
100
AcDbArc
 50
180.0
 51
270.0
  0
ARC
  5
7B5
100
AcDbEntity
  8
00_COMPONENTS
100
AcDbCircle
 62
9
  6
CONTINUOUS
 10
85.1600336917
 20
43.3137947942
 40
0.3
100
AcDbArc
 50
180.0
 51
270.0
  0
ARC
  5
7B6
100
AcDbEntity
  8
00_COMPONENTS
100
AcDbCircle
 62
7
  6
CONTINUOUS
 10
88.7961958296
 20
38.8858692533
 40
0.2126497373
100
AcDbArc
 50
227.5530571479
 51
229.3311164208
  0
ARC
  5
7B7
100
AcDbEntity
  8
00_COMPONENTS
100
AcDbCircle
 62
3
  6
CONTINUOUS
 10
88.736340016
 20
38.9873250812
 40
0.2008937317
100
AcDbArc
 50
248.8660394988
 51
251.9889687274
  0
ARC
  5
7B8
100
AcDbEntity
  8
00_COMPONENTS
100
AcDbCircle
 62
7
  6
CONTINUOUS
 10
81.4100336917
 20
48.3137947942
 40
0.6301514804
100
AcDbArc
 50
180.0
 51
270.0
  0
ARC
  5
7B9
100
AcDbEntity
  8
00_COMPONENTS
100
AcDbCircle
 62
7
  6
CONTINUOUS
 10
80.1600336917
 20
46.4137947942
 40
0.6301514804
100
AcDbArc
 50
90.0
 51
180.0
  0
ARC
  5
7BA
100
AcDbEntity
  8
00_COMPONENTS
100
AcDbCircle
 62
7
  6
CONTINUOUS
 10
81.4100336917
 20
46.4137947942
 40
0.6301514804
100
AcDbArc
 50
90.0
 51
180.0
  0
ARC
  5
7BB
100
AcDbEntity
  8
00_COMPONENTS
100
AcDbCircle
 62
7
  6
CONTINUOUS
 10
80.1600336917
 20
48.3137947942
 40
0.6301514804
100
AcDbArc
 50
180.0
 51
270.0
  0
ARC
  5
7BC
100
AcDbEntity
  8
00_COMPONENTS
100
AcDbCircle
 62
7
  6
CONTINUOUS
 10
78.9100336917
 20
48.3137947942
 40
0.6301514804
100
AcDbArc
 50
180.0
 51
270.0
  0
ARC
  5
7BD
100
AcDbEntity
  8
00_COMPONENTS
100
AcDbCircle
 62
7
  6
CONTINUOUS
 10
78.9100336917
 20
46.4137947942
 40
0.6301514804
100
AcDbArc
 50
90.0
 51
180.0
  0
ARC
  5
7BE
100
AcDbEntity
  8
00_COMPONENTS
100
AcDbCircle
 62
9
  6
CONTINUOUS
 10
78.9100336917
 20
48.3137947942
 40
0.3
100
AcDbArc
 50
180.0
 51
270.0
  0
ARC
  5
7BF
100
AcDbEntity
  8
00_COMPONENTS
100
AcDbCircle
 62
9
  6
CONTINUOUS
 10
78.9100336917
 20
46.4137947942
 40
0.3
100
AcDbArc
 50
90.0
 51
180.0
  0
ARC
  5
7C0
100
AcDbEntity
  8
00_COMPONENTS
100
AcDbCircle
 62
9
  6
CONTINUOUS
 10
80.1600336917
 20
48.3137947942
 40
0.3
100
AcDbArc
 50
180.0
 51
270.0
  0
ARC
  5
7C1
100
AcDbEntity
  8
00_COMPONENTS
100
AcDbCircle
 62
9
  6
CONTINUOUS
 10
80.1600336917
 20
46.4137947942
 40
0.3
100
AcDbArc
 50
90.0
 51
180.0
  0
ARC
  5
7C2
100
AcDbEntity
  8
00_COMPONENTS
100
AcDbCircle
 62
9
  6
CONTINUOUS
 10
81.4100336917
 20
48.3137947942
 40
0.3
100
AcDbArc
 50
180.0
 51
270.0
  0
ARC
  5
7C3
100
AcDbEntity
  8
00_COMPONENTS
100
AcDbCircle
 62
9
  6
CONTINUOUS
 10
81.4100336917
 20
46.4137947942
 40
0.3
100
AcDbArc
 50
90.0
 51
180.0
  0
ARC
  5
7C4
100
AcDbEntity
  8
00_COMPONENTS
100
AcDbCircle
 62
7
  6
CONTINUOUS
 10
81.4100336917
 20
51.4137947942
 40
0.6301514804
100
AcDbArc
 50
90.0
 51
180.0
  0
ARC
  5
7C5
100
AcDbEntity
  8
00_COMPONENTS
100
AcDbCircle
 62
7
  6
CONTINUOUS
 10
80.1600336917
 20
51.4137947942
 40
0.6301514804
100
AcDbArc
 50
90.0
 51
180.0
  0
ARC
  5
7C6
100
AcDbEntity
  8
00_COMPONENTS
100
AcDbCircle
 62
7
  6
CONTINUOUS
 10
78.9100336917
 20
51.4137947942
 40
0.6301514804
100
AcDbArc
 50
90.0
 51
180.0
  0
ARC
  5
7C7
100
AcDbEntity
  8
00_COMPONENTS
100
AcDbCircle
 62
9
  6
CONTINUOUS
 10
78.9100336917
 20
51.4137947942
 40
0.3
100
AcDbArc
 50
90.0
 51
180.0
  0
ARC
  5
7C8
100
AcDbEntity
  8
00_COMPONENTS
100
AcDbCircle
 62
9
  6
CONTINUOUS
 10
80.1600336917
 20
51.4137947942
 40
0.3
100
AcDbArc
 50
90.0
 51
180.0
  0
ARC
  5
7C9
100
AcDbEntity
  8
00_COMPONENTS
100
AcDbCircle
 62
9
  6
CONTINUOUS
 10
81.4100336917
 20
51.4137947942
 40
0.3
100
AcDbArc
 50
90.0
 51
180.0
  0
ARC
  5
7CA
100
AcDbEntity
  8
00_COMPONENTS
100
AcDbCircle
 62
7
  6
CONTINUOUS
 10
82.6600336917
 20
48.3137947942
 40
0.6301514804
100
AcDbArc
 50
180.0
 51
270.0
  0
ARC
  5
7CB
100
AcDbEntity
  8
00_COMPONENTS
100
AcDbCircle
 62
7
  6
CONTINUOUS
 10
82.6600336917
 20
46.4137947942
 40
0.6301514804
100
AcDbArc
 50
90.0
 51
180.0
  0
ARC
  5
7CC
100
AcDbEntity
  8
00_COMPONENTS
100
AcDbCircle
 62
7
  6
CONTINUOUS
 10
83.9100336917
 20
48.3137947942
 40
0.6301514804
100
AcDbArc
 50
180.0
 51
270.0
  0
ARC
  5
7CD
100
AcDbEntity
  8
00_COMPONENTS
100
AcDbCircle
 62
7
  6
CONTINUOUS
 10
83.9100336917
 20
46.4137947942
 40
0.6301514804
100
AcDbArc
 50
90.0
 51
180.0
  0
ARC
  5
7CE
100
AcDbEntity
  8
00_COMPONENTS
100
AcDbCircle
 62
7
  6
CONTINUOUS
 10
85.1600336917
 20
48.3137947942
 40
0.6301514804
100
AcDbArc
 50
180.0
 51
270.0
  0
ARC
  5
7CF
100
AcDbEntity
  8
00_COMPONENTS
100
AcDbCircle
 62
7
  6
CONTINUOUS
 10
85.1600336917
 20
46.4137947942
 40
0.6301514804
100
AcDbArc
 50
90.0
 51
180.0
  0
ARC
  5
7D0
100
AcDbEntity
  8
00_COMPONENTS
100
AcDbCircle
 62
7
  6
CONTINUOUS
 10
86.4100336917
 20
48.3137947942
 40
0.6301514804
100
AcDbArc
 50
180.0
 51
270.0
  0
ARC
  5
7D1
100
AcDbEntity
  8
00_COMPONENTS
100
AcDbCircle
 62
7
  6
CONTINUOUS
 10
86.4100336917
 20
46.4137947942
 40
0.6301514804
100
AcDbArc
 50
90.0
 51
180.0
  0
ARC
  5
7D2
100
AcDbEntity
  8
00_COMPONENTS
100
AcDbCircle
 62
9
  6
CONTINUOUS
 10
82.6600336917
 20
48.3137947942
 40
0.3
100
AcDbArc
 50
180.0
 51
270.0
  0
ARC
  5
7D3
100
AcDbEntity
  8
00_COMPONENTS
100
AcDbCircle
 62
9
  6
CONTINUOUS
 10
82.6600336917
 20
46.4137947942
 40
0.3
100
AcDbArc
 50
90.0
 51
180.0
  0
ARC
  5
7D4
100
AcDbEntity
  8
00_COMPONENTS
100
AcDbCircle
 62
9
  6
CONTINUOUS
 10
86.4100336917
 20
46.4137947942
 40
0.3
100
AcDbArc
 50
90.0
 51
180.0
  0
ARC
  5
7D5
100
AcDbEntity
  8
00_COMPONENTS
100
AcDbCircle
 62
9
  6
CONTINUOUS
 10
86.4100336917
 20
48.3137947942
 40
0.3
100
AcDbArc
 50
180.0
 51
270.0
  0
ARC
  5
7D6
100
AcDbEntity
  8
00_COMPONENTS
100
AcDbCircle
 62
9
  6
CONTINUOUS
 10
83.9100336917
 20
48.3137947942
 40
0.3
100
AcDbArc
 50
180.0
 51
270.0
  0
ARC
  5
7D7
100
AcDbEntity
  8
00_COMPONENTS
100
AcDbCircle
 62
9
  6
CONTINUOUS
 10
83.9100336917
 20
46.4137947942
 40
0.3
100
AcDbArc
 50
90.0
 51
180.0
  0
ARC
  5
7D8
100
AcDbEntity
  8
00_COMPONENTS
100
AcDbCircle
 62
9
  6
CONTINUOUS
 10
85.1600336917
 20
46.4137947942
 40
0.3
100
AcDbArc
 50
90.0
 51
180.0
  0
ARC
  5
7D9
100
AcDbEntity
  8
00_COMPONENTS
100
AcDbCircle
 62
9
  6
CONTINUOUS
 10
85.1600336917
 20
48.3137947942
 40
0.3
100
AcDbArc
 50
180.0
 51
270.0
  0
ARC
  5
7DA
100
AcDbEntity
  8
00_COMPONENTS
100
AcDbCircle
 62
7
  6
CONTINUOUS
 10
82.6600336917
 20
51.4137947942
 40
0.6301514804
100
AcDbArc
 50
90.0
 51
180.0
  0
ARC
  5
7DB
100
AcDbEntity
  8
00_COMPONENTS
100
AcDbCircle
 62
7
  6
CONTINUOUS
 10
83.9100336917
 20
51.4137947942
 40
0.6301514804
100
AcDbArc
 50
90.0
 51
180.0
  0
ARC
  5
7DC
100
AcDbEntity
  8
00_COMPONENTS
100
AcDbCircle
 62
7
  6
CONTINUOUS
 10
85.1600336917
 20
51.4137947942
 40
0.6301514804
100
AcDbArc
 50
90.0
 51
180.0
  0
ARC
  5
7DD
100
AcDbEntity
  8
00_COMPONENTS
100
AcDbCircle
 62
7
  6
CONTINUOUS
 10
86.4100336917
 20
51.4137947942
 40
0.6301514804
100
AcDbArc
 50
90.0
 51
180.0
  0
ARC
  5
7DE
100
AcDbEntity
  8
00_COMPONENTS
100
AcDbCircle
 62
9
  6
CONTINUOUS
 10
82.6600336917
 20
51.4137947942
 40
0.3
100
AcDbArc
 50
90.0
 51
180.0
  0
ARC
  5
7DF
100
AcDbEntity
  8
00_COMPONENTS
100
AcDbCircle
 62
9
  6
CONTINUOUS
 10
86.4100336917
 20
51.4137947942
 40
0.3
100
AcDbArc
 50
90.0
 51
180.0
  0
ARC
  5
7E0
100
AcDbEntity
  8
00_COMPONENTS
100
AcDbCircle
 62
9
  6
CONTINUOUS
 10
83.9100336917
 20
51.4137947942
 40
0.3
100
AcDbArc
 50
90.0
 51
180.0
  0
ARC
  5
7E1
100
AcDbEntity
  8
00_COMPONENTS
100
AcDbCircle
 62
9
  6
CONTINUOUS
 10
85.1600336917
 20
51.4137947942
 40
0.3
100
AcDbArc
 50
90.0
 51
180.0
  0
ARC
  5
7E2
100
AcDbEntity
  8
00_COMPONENTS
100
AcDbCircle
 62
7
  6
CONTINUOUS
 10
78.9100336917
 20
53.3137947942
 40
0.6301514804
100
AcDbArc
 50
180.0
 51
270.0
  0
ARC
  5
7E3
100
AcDbEntity
  8
00_COMPONENTS
100
AcDbCircle
 62
7
  6
CONTINUOUS
 10
80.1600336917
 20
53.3137947942
 40
0.6301514804
100
AcDbArc
 50
180.0
 51
270.0
  0
ARC
  5
7E4
100
AcDbEntity
  8
00_COMPONENTS
100
AcDbCircle
 62
9
  6
CONTINUOUS
 10
78.9100336917
 20
53.3137947942
 40
0.3
100
AcDbArc
 50
180.0
 51
270.0
  0
ARC
  5
7E5
100
AcDbEntity
  8
00_COMPONENTS
100
AcDbCircle
 62
9
  6
CONTINUOUS
 10
80.1600336917
 20
53.3137947942
 40
0.3
100
AcDbArc
 50
180.0
 51
270.0
  0
ARC
  5
7E6
100
AcDbEntity
  8
00_COMPONENTS
100
AcDbCircle
 62
7
  6
CONTINUOUS
 10
78.9100336917
 20
58.3137947942
 40
0.6301514804
100
AcDbArc
 50
180.0
 51
270.0
  0
ARC
  5
7E7
100
AcDbEntity
  8
00_COMPONENTS
100
AcDbCircle
 62
7
  6
CONTINUOUS
 10
80.1600336917
 20
58.3137947942
 40
0.6301514804
100
AcDbArc
 50
180.0
 51
270.0
  0
ARC
  5
7E8
100
AcDbEntity
  8
00_COMPONENTS
100
AcDbCircle
 62
7
  6
CONTINUOUS
 10
78.9100336917
 20
56.4137947942
 40
0.6301514804
100
AcDbArc
 50
90.0
 51
180.0
  0
ARC
  5
7E9
100
AcDbEntity
  8
00_COMPONENTS
100
AcDbCircle
 62
7
  6
CONTINUOUS
 10
80.1600336917
 20
56.4137947942
 40
0.6301514804
100
AcDbArc
 50
90.0
 51
180.0
  0
ARC
  5
7EA
100
AcDbEntity
  8
00_COMPONENTS
100
AcDbCircle
 62
9
  6
CONTINUOUS
 10
78.9100336917
 20
58.3137947942
 40
0.3
100
AcDbArc
 50
180.0
 51
270.0
  0
ARC
  5
7EB
100
AcDbEntity
  8
00_COMPONENTS
100
AcDbCircle
 62
9
  6
CONTINUOUS
 10
78.9100336917
 20
56.4137947942
 40
0.3
100
AcDbArc
 50
90.0
 51
180.0
  0
ARC
  5
7EC
100
AcDbEntity
  8
00_COMPONENTS
100
AcDbCircle
 62
9
  6
CONTINUOUS
 10
80.1600336917
 20
58.3137947942
 40
0.3
100
AcDbArc
 50
180.0
 51
270.0
  0
ARC
  5
7ED
100
AcDbEntity
  8
00_COMPONENTS
100
AcDbCircle
 62
9
  6
CONTINUOUS
 10
80.1600336917
 20
56.4137947942
 40
0.3
100
AcDbArc
 50
90.0
 51
180.0
  0
ARC
  5
7EE
100
AcDbEntity
  8
00_COMPONENTS
100
AcDbCircle
 62
7
  6
CONTINUOUS
 10
82.6600336917
 20
53.3137947942
 40
0.6301514804
100
AcDbArc
 50
180.0
 51
270.0
  0
ARC
  5
7EF
100
AcDbEntity
  8
00_COMPONENTS
100
AcDbCircle
 62
7
  6
CONTINUOUS
 10
83.9100336917
 20
53.3137947942
 40
0.6301514804
100
AcDbArc
 50
180.0
 51
270.0
  0
ARC
  5
7F0
100
AcDbEntity
  8
00_COMPONENTS
100
AcDbCircle
 62
7
  6
CONTINUOUS
 10
81.4100336917
 20
53.3137947942
 40
0.6301514804
100
AcDbArc
 50
180.0
 51
270.0
  0
ARC
  5
7F1
100
AcDbEntity
  8
00_COMPONENTS
100
AcDbCircle
 62
9
  6
CONTINUOUS
 10
81.4100336917
 20
53.3137947942
 40
0.3
100
AcDbArc
 50
180.0
 51
270.0
  0
ARC
  5
7F2
100
AcDbEntity
  8
00_COMPONENTS
100
AcDbCircle
 62
9
  6
CONTINUOUS
 10
82.6600336917
 20
53.3137947942
 40
0.3
100
AcDbArc
 50
180.0
 51
270.0
  0
ARC
  5
7F3
100
AcDbEntity
  8
00_COMPONENTS
100
AcDbCircle
 62
9
  6
CONTINUOUS
 10
83.9100336917
 20
53.3137947942
 40
0.3
100
AcDbArc
 50
180.0
 51
270.0
  0
ARC
  5
7F4
100
AcDbEntity
  8
00_COMPONENTS
100
AcDbCircle
 62
7
  6
CONTINUOUS
 10
82.6600336917
 20
58.3137947942
 40
0.6301514804
100
AcDbArc
 50
180.0
 51
270.0
  0
ARC
  5
7F5
100
AcDbEntity
  8
00_COMPONENTS
100
AcDbCircle
 62
7
  6
CONTINUOUS
 10
82.6600336917
 20
56.4137947942
 40
0.6301514804
100
AcDbArc
 50
90.0
 51
180.0
  0
ARC
  5
7F6
100
AcDbEntity
  8
00_COMPONENTS
100
AcDbCircle
 62
7
  6
CONTINUOUS
 10
83.9100336917
 20
58.3137947942
 40
0.6301514804
100
AcDbArc
 50
180.0
 51
270.0
  0
ARC
  5
7F7
100
AcDbEntity
  8
00_COMPONENTS
100
AcDbCircle
 62
7
  6
CONTINUOUS
 10
83.9100336917
 20
56.4137947942
 40
0.6301514804
100
AcDbArc
 50
90.0
 51
180.0
  0
ARC
  5
7F8
100
AcDbEntity
  8
00_COMPONENTS
100
AcDbCircle
 62
7
  6
CONTINUOUS
 10
81.4100336917
 20
58.3137947942
 40
0.6301514804
100
AcDbArc
 50
180.0
 51
270.0
  0
ARC
  5
7F9
100
AcDbEntity
  8
00_COMPONENTS
100
AcDbCircle
 62
7
  6
CONTINUOUS
 10
81.4100336917
 20
56.4137947942
 40
0.6301514804
100
AcDbArc
 50
90.0
 51
180.0
  0
ARC
  5
7FA
100
AcDbEntity
  8
00_COMPONENTS
100
AcDbCircle
 62
9
  6
CONTINUOUS
 10
81.4100336917
 20
58.3137947942
 40
0.3
100
AcDbArc
 50
180.0
 51
270.0
  0
ARC
  5
7FB
100
AcDbEntity
  8
00_COMPONENTS
100
AcDbCircle
 62
9
  6
CONTINUOUS
 10
81.4100336917
 20
56.4137947942
 40
0.3
100
AcDbArc
 50
90.0
 51
180.0
  0
ARC
  5
7FC
100
AcDbEntity
  8
00_COMPONENTS
100
AcDbCircle
 62
9
  6
CONTINUOUS
 10
82.6600336917
 20
58.3137947942
 40
0.3
100
AcDbArc
 50
180.0
 51
270.0
  0
ARC
  5
7FD
100
AcDbEntity
  8
00_COMPONENTS
100
AcDbCircle
 62
9
  6
CONTINUOUS
 10
82.6600336917
 20
56.4137947942
 40
0.3
100
AcDbArc
 50
90.0
 51
180.0
  0
ARC
  5
7FE
100
AcDbEntity
  8
00_COMPONENTS
100
AcDbCircle
 62
9
  6
CONTINUOUS
 10
83.9100336917
 20
58.3137947942
 40
0.3
100
AcDbArc
 50
180.0
 51
270.0
  0
ARC
  5
7FF
100
AcDbEntity
  8
00_COMPONENTS
100
AcDbCircle
 62
9
  6
CONTINUOUS
 10
83.9100336917
 20
56.4137947942
 40
0.3
100
AcDbArc
 50
90.0
 51
180.0
  0
ARC
  5
800
100
AcDbEntity
  8
00_COMPONENTS
100
AcDbCircle
 62
7
  6
CONTINUOUS
 10
82.6600336917
 20
61.4137947942
 40
0.6301514804
100
AcDbArc
 50
90.0
 51
180.0
  0
ARC
  5
801
100
AcDbEntity
  8
00_COMPONENTS
100
AcDbCircle
 62
7
  6
CONTINUOUS
 10
78.9100336917
 20
61.4137947942
 40
0.6301514804
100
AcDbArc
 50
90.0
 51
180.0
  0
ARC
  5
802
100
AcDbEntity
  8
00_COMPONENTS
100
AcDbCircle
 62
7
  6
CONTINUOUS
 10
83.9100336917
 20
61.4137947942
 40
0.6301514804
100
AcDbArc
 50
90.0
 51
180.0
  0
ARC
  5
803
100
AcDbEntity
  8
00_COMPONENTS
100
AcDbCircle
 62
7
  6
CONTINUOUS
 10
81.4100336917
 20
61.4137947942
 40
0.6301514804
100
AcDbArc
 50
90.0
 51
180.0
  0
ARC
  5
804
100
AcDbEntity
  8
00_COMPONENTS
100
AcDbCircle
 62
7
  6
CONTINUOUS
 10
80.1600336917
 20
61.4137947942
 40
0.6301514804
100
AcDbArc
 50
90.0
 51
180.0
  0
ARC
  5
805
100
AcDbEntity
  8
00_COMPONENTS
100
AcDbCircle
 62
9
  6
CONTINUOUS
 10
78.9100336917
 20
61.4137947942
 40
0.3
100
AcDbArc
 50
90.0
 51
180.0
  0
ARC
  5
806
100
AcDbEntity
  8
00_COMPONENTS
100
AcDbCircle
 62
9
  6
CONTINUOUS
 10
80.1600336917
 20
61.4137947942
 40
0.3
100
AcDbArc
 50
90.0
 51
180.0
  0
ARC
  5
807
100
AcDbEntity
  8
00_COMPONENTS
100
AcDbCircle
 62
9
  6
CONTINUOUS
 10
81.4100336917
 20
61.4137947942
 40
0.3
100
AcDbArc
 50
90.0
 51
180.0
  0
ARC
  5
808
100
AcDbEntity
  8
00_COMPONENTS
100
AcDbCircle
 62
9
  6
CONTINUOUS
 10
82.6600336917
 20
61.4137947942
 40
0.3
100
AcDbArc
 50
90.0
 51
180.0
  0
ARC
  5
809
100
AcDbEntity
  8
00_COMPONENTS
100
AcDbCircle
 62
9
  6
CONTINUOUS
 10
83.9100336917
 20
61.4137947942
 40
0.3
100
AcDbArc
 50
90.0
 51
180.0
  0
ARC
  5
80A
100
AcDbEntity
  8
00_COMPONENTS
100
AcDbCircle
 62
7
  6
CONTINUOUS
 10
85.1600336917
 20
58.3137947942
 40
0.6301514804
100
AcDbArc
 50
180.0
 51
270.0
  0
ARC
  5
80B
100
AcDbEntity
  8
00_COMPONENTS
100
AcDbCircle
 62
7
  6
CONTINUOUS
 10
85.1600336917
 20
53.3137947942
 40
0.6301514804
100
AcDbArc
 50
180.0
 51
270.0
  0
ARC
  5
80C
100
AcDbEntity
  8
00_COMPONENTS
100
AcDbCircle
 62
7
  6
CONTINUOUS
 10
85.1600336917
 20
56.4137947942
 40
0.6301514804
100
AcDbArc
 50
90.0
 51
180.0
  0
ARC
  5
80D
100
AcDbEntity
  8
00_COMPONENTS
100
AcDbCircle
 62
7
  6
CONTINUOUS
 10
86.4100336917
 20
58.3137947942
 40
0.6301514804
100
AcDbArc
 50
180.0
 51
270.0
  0
ARC
  5
80E
100
AcDbEntity
  8
00_COMPONENTS
100
AcDbCircle
 62
7
  6
CONTINUOUS
 10
86.4100336917
 20
53.3137947942
 40
0.6301514804
100
AcDbArc
 50
180.0
 51
270.0
  0
ARC
  5
80F
100
AcDbEntity
  8
00_COMPONENTS
100
AcDbCircle
 62
7
  6
CONTINUOUS
 10
86.4100336917
 20
56.4137947942
 40
0.6301514804
100
AcDbArc
 50
90.0
 51
180.0
  0
ARC
  5
810
100
AcDbEntity
  8
00_COMPONENTS
100
AcDbCircle
 62
9
  6
CONTINUOUS
 10
86.4100336917
 20
53.3137947942
 40
0.3
100
AcDbArc
 50
180.0
 51
270.0
  0
ARC
  5
811
100
AcDbEntity
  8
00_COMPONENTS
100
AcDbCircle
 62
9
  6
CONTINUOUS
 10
86.4100336917
 20
56.4137947942
 40
0.3
100
AcDbArc
 50
90.0
 51
180.0
  0
ARC
  5
812
100
AcDbEntity
  8
00_COMPONENTS
100
AcDbCircle
 62
9
  6
CONTINUOUS
 10
86.4100336917
 20
58.3137947942
 40
0.3
100
AcDbArc
 50
180.0
 51
270.0
  0
ARC
  5
813
100
AcDbEntity
  8
00_COMPONENTS
100
AcDbCircle
 62
9
  6
CONTINUOUS
 10
85.1600336917
 20
58.3137947942
 40
0.3
100
AcDbArc
 50
180.0
 51
270.0
  0
ARC
  5
814
100
AcDbEntity
  8
00_COMPONENTS
100
AcDbCircle
 62
9
  6
CONTINUOUS
 10
85.1600336917
 20
56.4137947942
 40
0.3
100
AcDbArc
 50
90.0
 51
180.0
  0
ARC
  5
815
100
AcDbEntity
  8
00_COMPONENTS
100
AcDbCircle
 62
9
  6
CONTINUOUS
 10
85.1600336917
 20
53.3137947942
 40
0.3
100
AcDbArc
 50
180.0
 51
270.0
  0
ARC
  5
816
100
AcDbEntity
  8
00_COMPONENTS
100
AcDbCircle
 62
7
  6
CONTINUOUS
 10
89.1219916765
 20
65.2017882325
 40
0.6442551504
100
AcDbArc
 50
142.6018231031
 51
143.6790333408
  0
ARC
  5
817
100
AcDbEntity
  8
00_COMPONENTS
100
AcDbCircle
 62
7
  6
CONTINUOUS
 10
85.1600336917
 20
61.4137947942
 40
0.6301514804
100
AcDbArc
 50
90.0
 51
180.0
  0
ARC
  5
818
100
AcDbEntity
  8
00_COMPONENTS
100
AcDbCircle
 62
7
  6
CONTINUOUS
 10
86.4100336917
 20
61.4137947942
 40
0.6301514804
100
AcDbArc
 50
90.0
 51
180.0
  0
ARC
  5
819
100
AcDbEntity
  8
00_COMPONENTS
100
AcDbCircle
 62
3
  6
CONTINUOUS
 10
88.8508612964
 20
65.1669094416
 40
0.4453800481
100
AcDbArc
 50
121.1838141974
 51
123.8294952559
  0
ARC
  5
81A
100
AcDbEntity
  8
00_COMPONENTS
100
AcDbCircle
 62
3
  6
CONTINUOUS
 10
88.8044533696
 20
65.2432296187
 40
0.3560580334
100
AcDbArc
 50
118.9885103949
 51
121.154044239
  0
ARC
  5
81B
100
AcDbEntity
  8
00_COMPONENTS
100
AcDbCircle
 62
9
  6
CONTINUOUS
 10
86.4100336917
 20
61.4137947942
 40
0.3
100
AcDbArc
 50
90.0
 51
180.0
  0
ARC
  5
81C
100
AcDbEntity
  8
00_COMPONENTS
100
AcDbCircle
 62
9
  6
CONTINUOUS
 10
85.1600336917
 20
61.4137947942
 40
0.3
100
AcDbArc
 50
90.0
 51
180.0
  0
ARC
  5
81D
100
AcDbEntity
  8
00_COMPONENTS
100
AcDbCircle
 62
3
  6
CONTINUOUS
 10
88.736340016
 20
65.3824464182
 40
0.2008937317
100
AcDbArc
 50
108.0110312724
 51
111.1339605015
  0
ARC
  5
81E
100
AcDbEntity
  8
00_COMPONENTS
100
AcDbCircle
 62
8
  6
HIDDEN
 10
36.1339078358
 20
28.3247766613
 40
0.106
100
AcDbArc
 50
291.4874600832
 51
360.0
  0
ARC
  5
81F
100
AcDbEntity
  8
00_COMPONENTS
100
AcDbCircle
 62
8
  6
HIDDEN
 10
27.8459078358
 20
28.3247766613
 40
0.106
100
AcDbArc
 50
180.0
 51
248.5125399168
  0
ARC
  5
820
100
AcDbEntity
  8
00_COMPONENTS
100
AcDbCircle
 62
8
  6
HIDDEN
 10
28.2620011982
 20
28.3247766613
 40
0.106
100
AcDbArc
 50
270.0
 51
307.0167024559
  0
ARC
  5
821
100
AcDbEntity
  8
00_COMPONENTS
100
AcDbCircle
 62
8
  6
HIDDEN
 10
29.5120011982
 20
28.3247766613
 40
0.106
100
AcDbArc
 50
270.0
 51
307.0167024559
  0
ARC
  5
822
100
AcDbEntity
  8
00_COMPONENTS
100
AcDbCircle
 62
8
  6
HIDDEN
 10
30.7620011982
 20
28.3247766613
 40
0.106
100
AcDbArc
 50
270.0
 51
307.0167024559
  0
ARC
  5
823
100
AcDbEntity
  8
00_COMPONENTS
100
AcDbCircle
 62
8
  6
HIDDEN
 10
32.0120011982
 20
28.3247766613
 40
0.106
100
AcDbArc
 50
270.0
 51
307.0167024559
  0
ARC
  5
824
100
AcDbEntity
  8
00_COMPONENTS
100
AcDbCircle
 62
8
  6
HIDDEN
 10
33.2620011982
 20
28.3247766613
 40
0.106
100
AcDbArc
 50
270.0
 51
307.0167024559
  0
ARC
  5
825
100
AcDbEntity
  8
00_COMPONENTS
100
AcDbCircle
 62
8
  6
HIDDEN
 10
34.5120011982
 20
28.3247766613
 40
0.106
100
AcDbArc
 50
270.0
 51
307.0167024559
  0
ARC
  5
826
100
AcDbEntity
  8
00_COMPONENTS
100
AcDbCircle
 62
7
  6
CONTINUOUS
 10
36.1339078358
 20
28.3247766613
 40
0.106
100
AcDbArc
 50
270.0
 51
291.4874600832
  0
ARC
  5
827
100
AcDbEntity
  8
00_COMPONENTS
100
AcDbCircle
 62
7
  6
CONTINUOUS
 10
27.8459078358
 20
28.3247766613
 40
0.106
100
AcDbArc
 50
248.5125399168
 51
270.0
  0
CIRCLE
  5
828
100
AcDbEntity
  8
00_COMPONENTS
100
AcDbCircle
 62
8
  6
HIDDEN
 10
30.9149078358
 20
28.4787766613
 40
0.095
  0
CIRCLE
  5
829
100
AcDbEntity
  8
00_COMPONENTS
100
AcDbCircle
 62
8
  6
HIDDEN
 10
30.2149078358
 20
28.4787766613
 40
0.095
  0
ARC
  5
82A
100
AcDbEntity
  8
00_COMPONENTS
100
AcDbCircle
 62
8
  6
HIDDEN
 10
36.1339078358
 20
28.3247766613
 40
0.053
100
AcDbArc
 50
270.0
 51
360.0
  0
ARC
  5
82B
100
AcDbEntity
  8
00_COMPONENTS
100
AcDbCircle
 62
8
  6
HIDDEN
 10
27.8459078358
 20
28.3247766613
 40
0.053
100
AcDbArc
 50
180.0
 51
270.0
  0
ARC
  5
82C
100
AcDbEntity
  8
00_COMPONENTS
100
AcDbCircle
 62
8
  6
HIDDEN
 10
28.2620011982
 20
28.3247766613
 40
0.053
100
AcDbArc
 50
270.0
 51
307.0167024559
  0
ARC
  5
82D
100
AcDbEntity
  8
00_COMPONENTS
100
AcDbCircle
 62
8
  6
HIDDEN
 10
29.5120011982
 20
28.3247766613
 40
0.053
100
AcDbArc
 50
270.0
 51
307.0167024559
  0
ARC
  5
82E
100
AcDbEntity
  8
00_COMPONENTS
100
AcDbCircle
 62
8
  6
HIDDEN
 10
30.7620011982
 20
28.3247766613
 40
0.053
100
AcDbArc
 50
270.0
 51
307.0167024559
  0
ARC
  5
82F
100
AcDbEntity
  8
00_COMPONENTS
100
AcDbCircle
 62
8
  6
HIDDEN
 10
32.0120011982
 20
28.3247766613
 40
0.053
100
AcDbArc
 50
270.0
 51
307.0167024559
  0
ARC
  5
830
100
AcDbEntity
  8
00_COMPONENTS
100
AcDbCircle
 62
8
  6
HIDDEN
 10
33.2620011982
 20
28.3247766613
 40
0.053
100
AcDbArc
 50
270.0
 51
307.0167024559
  0
ARC
  5
831
100
AcDbEntity
  8
00_COMPONENTS
100
AcDbCircle
 62
8
  6
HIDDEN
 10
34.5120011982
 20
28.3247766613
 40
0.053
100
AcDbArc
 50
270.0
 51
307.0167024559
  0
ARC
  5
832
100
AcDbEntity
  8
00_COMPONENTS
100
AcDbCircle
 62
7
  6
CONTINUOUS
 10
25.9655971903
 20
28.8713465642
 40
0.1855914262
100
AcDbArc
 50
128.16781678
 51
130.6830896319
  0
ARC
  5
833
100
AcDbEntity
  8
00_COMPONENTS
100
AcDbCircle
 62
7
  6
CONTINUOUS
 10
25.9119078358
 20
28.8587766613
 40
0.183
100
AcDbArc
 50
90.0
 51
180.0
  0
ARC
  5
834
100
AcDbEntity
  8
00_COMPONENTS
100
AcDbCircle
 62
8
  6
HIDDEN
 10
37.0139078358
 20
28.7917766613
 40
0.157
100
AcDbArc
 50
90.0
 51
180.0
  0
ARC
  5
835
100
AcDbEntity
  8
00_COMPONENTS
100
AcDbCircle
 62
8
  6
HIDDEN
 10
27.6869078358
 20
28.8427766613
 40
0.106
100
AcDbArc
 50
0.0
 51
90.0
  0
ARC
  5
836
100
AcDbEntity
  8
00_COMPONENTS
100
AcDbCircle
 62
8
  6
HIDDEN
 10
36.2929078358
 20
28.8427766613
 40
0.106
100
AcDbArc
 50
90.0
 51
180.0
  0
ARC
  5
837
100
AcDbEntity
  8
00_COMPONENTS
100
AcDbCircle
 62
8
  6
HIDDEN
 10
25.9119078358
 20
28.8587766613
 40
0.09
100
AcDbArc
 50
90.0
 51
180.0
  0
ARC
  5
838
100
AcDbEntity
  8
00_COMPONENTS
100
AcDbCircle
 62
8
  6
HIDDEN
 10
37.0139078358
 20
28.7917766613
 40
0.06
100
AcDbArc
 50
90.0
 51
180.0
  0
ARC
  5
839
100
AcDbEntity
  8
00_COMPONENTS
100
AcDbCircle
 62
8
  6
HIDDEN
 10
27.6869078358
 20
28.8427766613
 40
0.053
100
AcDbArc
 50
0.0
 51
90.0
  0
ARC
  5
83A
100
AcDbEntity
  8
00_COMPONENTS
100
AcDbCircle
 62
8
  6
HIDDEN
 10
36.2929078358
 20
28.8427766613
 40
0.053
100
AcDbArc
 50
90.0
 51
180.0
  0
CIRCLE
  5
83B
100
AcDbEntity
  8
00_COMPONENTS
100
AcDbCircle
 62
8
  6
HIDDEN
 10
48.6849078358
 20
28.4787766613
 40
0.095
  0
CIRCLE
  5
83C
100
AcDbEntity
  8
00_COMPONENTS
100
AcDbCircle
 62
8
  6
HIDDEN
 10
47.9849078358
 20
28.4787766613
 40
0.095
  0
ARC
  5
83D
100
AcDbEntity
  8
00_COMPONENTS
100
AcDbCircle
 62
7
  6
CONTINUOUS
 10
28.2209158969
 20
28.9487766613
 40
0.343
100
AcDbArc
 50
90.0
 51
164.2680622641
  0
ARC
  5
83E
100
AcDbEntity
  8
00_COMPONENTS
100
AcDbCircle
 62
7
  6
CONTINUOUS
 10
29.4709158969
 20
28.9487766613
 40
0.343
100
AcDbArc
 50
90.0
 51
164.2680622641
  0
ARC
  5
83F
100
AcDbEntity
  8
00_COMPONENTS
100
AcDbCircle
 62
7
  6
CONTINUOUS
 10
30.7209158969
 20
28.9487766613
 40
0.343
100
AcDbArc
 50
90.0
 51
164.2680622641
  0
ARC
  5
840
100
AcDbEntity
  8
00_COMPONENTS
100
AcDbCircle
 62
7
  6
CONTINUOUS
 10
31.9709158969
 20
28.9487766613
 40
0.343
100
AcDbArc
 50
90.0
 51
164.2680622641
  0
ARC
  5
841
100
AcDbEntity
  8
00_COMPONENTS
100
AcDbCircle
 62
8
  6
HIDDEN
 10
28.2209158969
 20
28.9487766613
 40
0.25
100
AcDbArc
 50
90.0
 51
180.0
  0
ARC
  5
842
100
AcDbEntity
  8
00_COMPONENTS
100
AcDbCircle
 62
8
  6
HIDDEN
 10
29.4709158969
 20
28.9487766613
 40
0.25
100
AcDbArc
 50
90.0
 51
180.0
  0
ARC
  5
843
100
AcDbEntity
  8
00_COMPONENTS
100
AcDbCircle
 62
8
  6
HIDDEN
 10
30.7209158969
 20
28.9487766613
 40
0.25
100
AcDbArc
 50
90.0
 51
180.0
  0
ARC
  5
844
100
AcDbEntity
  8
00_COMPONENTS
100
AcDbCircle
 62
8
  6
HIDDEN
 10
31.9709158969
 20
28.9487766613
 40
0.25
100
AcDbArc
 50
90.0
 51
180.0
  0
ARC
  5
845
100
AcDbEntity
  8
00_COMPONENTS
100
AcDbCircle
 62
7
  6
CONTINUOUS
 10
33.2209158969
 20
28.9487766613
 40
0.343
100
AcDbArc
 50
90.0
 51
164.2680622641
  0
ARC
  5
846
100
AcDbEntity
  8
00_COMPONENTS
100
AcDbCircle
 62
7
  6
CONTINUOUS
 10
34.4709158969
 20
28.9487766613
 40
0.343
100
AcDbArc
 50
90.0
 51
164.2680622641
  0
ARC
  5
847
100
AcDbEntity
  8
00_COMPONENTS
100
AcDbCircle
 62
8
  6
HIDDEN
 10
33.2209158969
 20
28.9487766613
 40
0.25
100
AcDbArc
 50
90.0
 51
180.0
  0
ARC
  5
848
100
AcDbEntity
  8
00_COMPONENTS
100
AcDbCircle
 62
8
  6
HIDDEN
 10
34.4709158969
 20
28.9487766613
 40
0.25
100
AcDbArc
 50
90.0
 51
180.0
  0
ARC
  5
849
100
AcDbEntity
  8
00_COMPONENTS
100
AcDbCircle
 62
7
  6
CONTINUOUS
 10
35.7209158969
 20
28.9487766613
 40
0.343
100
AcDbArc
 50
90.0
 51
164.2680622641
  0
ARC
  5
84A
100
AcDbEntity
  8
00_COMPONENTS
100
AcDbCircle
 62
8
  6
HIDDEN
 10
35.7209158969
 20
28.9487766613
 40
0.25
100
AcDbArc
 50
90.0
 51
180.0
  0
ARC
  5
84B
100
AcDbEntity
  8
00_COMPONENTS
100
AcDbCircle
 62
8
  6
HIDDEN
 10
37.5469078358
 20
29.0087766613
 40
0.157
100
AcDbArc
 50
270.0
 51
360.0
  0
ARC
  5
84C
100
AcDbEntity
  8
00_COMPONENTS
100
AcDbCircle
 62
8
  6
HIDDEN
 10
37.5469078358
 20
29.0087766613
 40
0.06
100
AcDbArc
 50
270.0
 51
360.0
  0
ARC
  5
84D
100
AcDbEntity
  8
00_COMPONENTS
100
AcDbCircle
 62
3
  6
CONTINUOUS
 10
37.5469078358
 20
29.5517766613
 40
0.157
100
AcDbArc
 50
0.0
 51
90.0
  0
ARC
  5
84E
100
AcDbEntity
  8
00_COMPONENTS
100
AcDbCircle
 62
7
  6
CONTINUOUS
 10
37.5469078358
 20
29.5517766613
 40
0.06
100
AcDbArc
 50
0.0
 51
90.0
  0
CIRCLE
  5
84F
100
AcDbEntity
  8
00_COMPONENTS
100
AcDbCircle
 62
8
  6
HIDDEN
 10
66.4549078358
 20
28.4787766613
 40
0.095
  0
CIRCLE
  5
850
100
AcDbEntity
  8
00_COMPONENTS
100
AcDbCircle
 62
8
  6
HIDDEN
 10
65.7549078358
 20
28.4787766613
 40
0.095
  0
ARC
  5
851
100
AcDbEntity
  8
00_COMPONENTS
100
AcDbCircle
 62
8
  6
HIDDEN
 10
86.6079078358
 20
28.3247766613
 40
0.106
100
AcDbArc
 50
291.4874600832
 51
360.0
  0
ARC
  5
852
100
AcDbEntity
  8
00_COMPONENTS
100
AcDbCircle
 62
8
  6
HIDDEN
 10
78.3199078358
 20
28.3247766613
 40
0.106
100
AcDbArc
 50
180.0
 51
248.5125399168
  0
ARC
  5
853
100
AcDbEntity
  8
00_COMPONENTS
100
AcDbCircle
 62
8
  6
HIDDEN
 10
78.7360011982
 20
28.3247766613
 40
0.106
100
AcDbArc
 50
270.0
 51
307.0167024559
  0
ARC
  5
854
100
AcDbEntity
  8
00_COMPONENTS
100
AcDbCircle
 62
8
  6
HIDDEN
 10
79.9860011982
 20
28.3247766613
 40
0.106
100
AcDbArc
 50
270.0
 51
307.0167024559
  0
ARC
  5
855
100
AcDbEntity
  8
00_COMPONENTS
100
AcDbCircle
 62
8
  6
HIDDEN
 10
81.2360011982
 20
28.3247766613
 40
0.106
100
AcDbArc
 50
270.0
 51
307.0167024559
  0
ARC
  5
856
100
AcDbEntity
  8
00_COMPONENTS
100
AcDbCircle
 62
8
  6
HIDDEN
 10
82.4860011982
 20
28.3247766613
 40
0.106
100
AcDbArc
 50
270.0
 51
307.0167024559
  0
ARC
  5
857
100
AcDbEntity
  8
00_COMPONENTS
100
AcDbCircle
 62
8
  6
HIDDEN
 10
83.7360011982
 20
28.3247766613
 40
0.106
100
AcDbArc
 50
270.0
 51
307.0167024559
  0
ARC
  5
858
100
AcDbEntity
  8
00_COMPONENTS
100
AcDbCircle
 62
8
  6
HIDDEN
 10
84.9860011982
 20
28.3247766613
 40
0.106
100
AcDbArc
 50
270.0
 51
307.0167024559
  0
ARC
  5
859
100
AcDbEntity
  8
00_COMPONENTS
100
AcDbCircle
 62
7
  6
CONTINUOUS
 10
86.6079078358
 20
28.3247766613
 40
0.106
100
AcDbArc
 50
270.0
 51
291.4874600832
  0
ARC
  5
85A
100
AcDbEntity
  8
00_COMPONENTS
100
AcDbCircle
 62
7
  6
CONTINUOUS
 10
78.3199078358
 20
28.3247766613
 40
0.106
100
AcDbArc
 50
248.5125399168
 51
270.0
  0
CIRCLE
  5
85B
100
AcDbEntity
  8
00_COMPONENTS
100
AcDbCircle
 62
8
  6
HIDDEN
 10
84.2249078358
 20
28.4787766613
 40
0.095
  0
CIRCLE
  5
85C
100
AcDbEntity
  8
00_COMPONENTS
100
AcDbCircle
 62
8
  6
HIDDEN
 10
83.5249078358
 20
28.4787766613
 40
0.095
  0
ARC
  5
85D
100
AcDbEntity
  8
00_COMPONENTS
100
AcDbCircle
 62
8
  6
HIDDEN
 10
86.6079078358
 20
28.3247766613
 40
0.053
100
AcDbArc
 50
270.0
 51
360.0
  0
ARC
  5
85E
100
AcDbEntity
  8
00_COMPONENTS
100
AcDbCircle
 62
8
  6
HIDDEN
 10
78.3199078358
 20
28.3247766613
 40
0.053
100
AcDbArc
 50
180.0
 51
270.0
  0
ARC
  5
85F
100
AcDbEntity
  8
00_COMPONENTS
100
AcDbCircle
 62
8
  6
HIDDEN
 10
78.7360011982
 20
28.3247766613
 40
0.053
100
AcDbArc
 50
270.0
 51
307.0167024559
  0
ARC
  5
860
100
AcDbEntity
  8
00_COMPONENTS
100
AcDbCircle
 62
8
  6
HIDDEN
 10
79.9860011982
 20
28.3247766613
 40
0.053
100
AcDbArc
 50
270.0
 51
307.0167024559
  0
ARC
  5
861
100
AcDbEntity
  8
00_COMPONENTS
100
AcDbCircle
 62
8
  6
HIDDEN
 10
81.2360011982
 20
28.3247766613
 40
0.053
100
AcDbArc
 50
270.0
 51
307.0167024559
  0
ARC
  5
862
100
AcDbEntity
  8
00_COMPONENTS
100
AcDbCircle
 62
8
  6
HIDDEN
 10
82.4860011982
 20
28.3247766613
 40
0.053
100
AcDbArc
 50
270.0
 51
307.0167024559
  0
ARC
  5
863
100
AcDbEntity
  8
00_COMPONENTS
100
AcDbCircle
 62
8
  6
HIDDEN
 10
83.7360011982
 20
28.3247766613
 40
0.053
100
AcDbArc
 50
270.0
 51
307.0167024559
  0
ARC
  5
864
100
AcDbEntity
  8
00_COMPONENTS
100
AcDbCircle
 62
8
  6
HIDDEN
 10
84.9860011982
 20
28.3247766613
 40
0.053
100
AcDbArc
 50
270.0
 51
307.0167024559
  0
ARC
  5
865
100
AcDbEntity
  8
00_COMPONENTS
100
AcDbCircle
 62
8
  6
HIDDEN
 10
88.4882184812
 20
28.8713465642
 40
0.1855914262
100
AcDbArc
 50
49.3169103681
 51
51.8321832201
  0
ARC
  5
866
100
AcDbEntity
  8
00_COMPONENTS
100
AcDbCircle
 62
7
  6
CONTINUOUS
 10
88.5419078358
 20
28.8587766613
 40
0.183
100
AcDbArc
 50
0.0
 51
90.0
  0
ARC
  5
867
100
AcDbEntity
  8
00_COMPONENTS
100
AcDbCircle
 62
8
  6
HIDDEN
 10
77.4399078358
 20
28.7917766613
 40
0.157
100
AcDbArc
 50
0.0
 51
90.0
  0
ARC
  5
868
100
AcDbEntity
  8
00_COMPONENTS
100
AcDbCircle
 62
8
  6
HIDDEN
 10
78.1609078358
 20
28.8427766613
 40
0.106
100
AcDbArc
 50
0.0
 51
90.0
  0
ARC
  5
869
100
AcDbEntity
  8
00_COMPONENTS
100
AcDbCircle
 62
8
  6
HIDDEN
 10
86.7669078358
 20
28.8427766613
 40
0.106
100
AcDbArc
 50
90.0
 51
180.0
  0
ARC
  5
86A
100
AcDbEntity
  8
00_COMPONENTS
100
AcDbCircle
 62
8
  6
HIDDEN
 10
88.5419078358
 20
28.8587766613
 40
0.09
100
AcDbArc
 50
0.0
 51
90.0
  0
ARC
  5
86B
100
AcDbEntity
  8
00_COMPONENTS
100
AcDbCircle
 62
8
  6
HIDDEN
 10
77.4399078358
 20
28.7917766613
 40
0.06
100
AcDbArc
 50
0.0
 51
90.0
  0
ARC
  5
86C
100
AcDbEntity
  8
00_COMPONENTS
100
AcDbCircle
 62
8
  6
HIDDEN
 10
78.1609078358
 20
28.8427766613
 40
0.053
100
AcDbArc
 50
0.0
 51
90.0
  0
ARC
  5
86D
100
AcDbEntity
  8
00_COMPONENTS
100
AcDbCircle
 62
8
  6
HIDDEN
 10
86.7669078358
 20
28.8427766613
 40
0.053
100
AcDbArc
 50
90.0
 51
180.0
  0
ARC
  5
86E
100
AcDbEntity
  8
00_COMPONENTS
100
AcDbCircle
 62
7
  6
CONTINUOUS
 10
78.6100336917
 20
28.9487766613
 40
0.343
100
AcDbArc
 50
90.0
 51
164.2680622641
  0
ARC
  5
86F
100
AcDbEntity
  8
00_COMPONENTS
100
AcDbCircle
 62
7
  6
CONTINUOUS
 10
79.8600336917
 20
28.9487766613
 40
0.343
100
AcDbArc
 50
90.0
 51
164.2680622641
  0
ARC
  5
870
100
AcDbEntity
  8
00_COMPONENTS
100
AcDbCircle
 62
7
  6
CONTINUOUS
 10
81.1100336917
 20
28.9487766613
 40
0.343
100
AcDbArc
 50
90.0
 51
164.2680622641
  0
ARC
  5
871
100
AcDbEntity
  8
00_COMPONENTS
100
AcDbCircle
 62
8
  6
HIDDEN
 10
78.6100336917
 20
28.9487766613
 40
0.25
100
AcDbArc
 50
90.0
 51
180.0
  0
ARC
  5
872
100
AcDbEntity
  8
00_COMPONENTS
100
AcDbCircle
 62
8
  6
HIDDEN
 10
79.8600336917
 20
28.9487766613
 40
0.25
100
AcDbArc
 50
90.0
 51
180.0
  0
ARC
  5
873
100
AcDbEntity
  8
00_COMPONENTS
100
AcDbCircle
 62
8
  6
HIDDEN
 10
81.1100336917
 20
28.9487766613
 40
0.25
100
AcDbArc
 50
90.0
 51
180.0
  0
ARC
  5
874
100
AcDbEntity
  8
00_COMPONENTS
100
AcDbCircle
 62
8
  6
HIDDEN
 10
76.9069078358
 20
29.0087766613
 40
0.157
100
AcDbArc
 50
180.0
 51
270.0
  0
ARC
  5
875
100
AcDbEntity
  8
00_COMPONENTS
100
AcDbCircle
 62
8
  6
HIDDEN
 10
76.9069078358
 20
29.0087766613
 40
0.06
100
AcDbArc
 50
180.0
 51
270.0
  0
ARC
  5
876
100
AcDbEntity
  8
00_COMPONENTS
100
AcDbCircle
 62
7
  6
CONTINUOUS
 10
82.3600336917
 20
28.9487766613
 40
0.343
100
AcDbArc
 50
90.0
 51
164.2680622641
  0
ARC
  5
877
100
AcDbEntity
  8
00_COMPONENTS
100
AcDbCircle
 62
7
  6
CONTINUOUS
 10
83.6100336917
 20
28.9487766613
 40
0.343
100
AcDbArc
 50
90.0
 51
164.2680622641
  0
ARC
  5
878
100
AcDbEntity
  8
00_COMPONENTS
100
AcDbCircle
 62
7
  6
CONTINUOUS
 10
84.8600336917
 20
28.9487766613
 40
0.343
100
AcDbArc
 50
90.0
 51
164.2680622641
  0
ARC
  5
879
100
AcDbEntity
  8
00_COMPONENTS
100
AcDbCircle
 62
7
  6
CONTINUOUS
 10
86.1100336917
 20
28.9487766613
 40
0.343
100
AcDbArc
 50
90.0
 51
164.2680622641
  0
ARC
  5
87A
100
AcDbEntity
  8
00_COMPONENTS
100
AcDbCircle
 62
8
  6
HIDDEN
 10
82.3600336917
 20
28.9487766613
 40
0.25
100
AcDbArc
 50
90.0
 51
180.0
  0
ARC
  5
87B
100
AcDbEntity
  8
00_COMPONENTS
100
AcDbCircle
 62
8
  6
HIDDEN
 10
83.6100336917
 20
28.9487766613
 40
0.25
100
AcDbArc
 50
90.0
 51
180.0
  0
ARC
  5
87C
100
AcDbEntity
  8
00_COMPONENTS
100
AcDbCircle
 62
8
  6
HIDDEN
 10
84.8600336917
 20
28.9487766613
 40
0.25
100
AcDbArc
 50
90.0
 51
180.0
  0
ARC
  5
87D
100
AcDbEntity
  8
00_COMPONENTS
100
AcDbCircle
 62
8
  6
HIDDEN
 10
86.1100336917
 20
28.9487766613
 40
0.25
100
AcDbArc
 50
90.0
 51
180.0
  0
SPLINE
  5
87E
100
AcDbEntity
  8
00_COMPONENTS
100
AcDbSpline
 62
7
  6
CONTINUOUS
 70
0
 71
3
 72
9
 73
5
 74
0
 42
0.0000001
 43
0.0000001
 44
0.0000000001
 40
0.0
 40
0.0
 40
0.0
 40
0.0
 40
0.4615686992
 40
1.0
 40
1.0
 40
1.0
 40
1.0
 10
88.7249078358
 20
38.6948857497
 30
0.0
 10
88.7134086677
 20
38.6948857497
 30
0.0
 10
88.6884031729
 20
38.7012259218
 30
0.0
 10
88.6677919599
 20
38.7158382772
 30
0.0
 10
88.6576148501
 20
38.724576901
 30
0.0
  0
SPLINE
  5
87F
100
AcDbEntity
  8
00_COMPONENTS
100
AcDbSpline
 62
7
  6
CONTINUOUS
 70
0
 71
3
 72
9
 73
5
 74
0
 42
0.0000001
 43
0.0000001
 44
0.0000000001
 40
0.0
 40
0.0
 40
0.0
 40
0.0
 40
0.2290652564
 40
1.0
 40
1.0
 40
1.0
 40
1.0
 10
88.6526769944
 20
38.7289544525
 30
0.0
 10
88.6483898071
 20
38.7328732231
 30
0.0
 10
88.6303360879
 20
38.7507074416
 30
0.0
 10
88.6144903981
 20
38.7706383071
 30
0.0
 10
88.6029078358
 20
38.7863857497
 30
0.0
  0
SPLINE
  5
880
100
AcDbEntity
  8
00_COMPONENTS
100
AcDbSpline
 62
7
  6
CONTINUOUS
 70
0
 71
3
 72
9
 73
5
 74
0
 42
0.0000001
 43
0.0000001
 44
0.0000000001
 40
0.0
 40
0.0
 40
0.0
 40
0.0
 40
0.239426754
 40
1.0
 40
1.0
 40
1.0
 40
1.0
 10
88.6029078358
 20
38.7863857497
 30
0.0
 10
88.5977069454
 20
38.7934567863
 30
0.0
 10
88.576540666
 20
38.8234002074
 30
0.0
 10
88.556882232
 20
38.8543640231
 30
0.0
 10
88.5419078358
 20
38.8778857497
 30
0.0
  0
SPLINE
  5
881
100
AcDbEntity
  8
00_COMPONENTS
100
AcDbSpline
 62
7
  6
CONTINUOUS
 70
0
 71
3
 72
10
 73
6
 74
0
 42
0.0000001
 43
0.0000001
 44
0.0000000001
 40
0.0
 40
0.0
 40
0.0
 40
0.0
 40
0.3940088751
 40
0.6659399519
 40
1.0
 40
1.0
 40
1.0
 40
1.0
 10
25.7289078358
 20
38.7978857497
 30
0.0
 10
25.7289078358
 20
38.8027974018
 30
0.0
 10
25.7337624883
 20
38.810726692
 30
0.0
 10
25.7433159098
 20
38.8185104741
 30
0.0
 10
25.7497868471
 20
38.8225265319
 30
0.0
 10
25.7534251869
 20
38.8245524163
 30
0.0
  0
SPLINE
  5
882
100
AcDbEntity
  8
00_COMPONENTS
100
AcDbSpline
 62
7
  6
CONTINUOUS
 70
0
 71
3
 72
9
 73
5
 74
0
 42
0.0000001
 43
0.0000001
 44
0.0000000001
 40
0.0
 40
0.0
 40
0.0
 40
0.0
 40
0.4436662094
 40
1.0
 40
1.0
 40
1.0
 40
1.0
 10
25.7534251869
 20
38.8245524163
 30
0.0
 10
25.7627501108
 20
38.8297446798
 30
0.0
 10
25.7849207725
 20
38.8393069689
 30
0.0
 10
25.8076668425
 20
38.8471223582
 30
0.0
 10
25.8204078358
 20
38.851219083
 30
0.0
  0
SPLINE
  5
883
100
AcDbEntity
  8
00_COMPONENTS
100
AcDbSpline
 62
7
  6
CONTINUOUS
 70
0
 71
3
 72
9
 73
5
 74
0
 42
0.0000001
 43
0.0000001
 44
0.0000000001
 40
0.0
 40
0.0
 40
0.0
 40
0.0
 40
0.2358522184
 40
1.0
 40
1.0
 40
1.0
 40
1.0
 10
25.8204078358
 20
38.851219083
 30
0.0
 10
25.8275412686
 20
38.8535127591
 30
0.0
 10
25.8578993365
 20
38.862887902
 30
0.0
 10
25.888519421
 20
38.8713766667
 30
0.0
 10
25.9119078358
 20
38.8778857497
 30
0.0
  0
SPLINE
  5
884
100
AcDbEntity
  8
00_COMPONENTS
100
AcDbSpline
 62
7
  6
CONTINUOUS
 70
0
 71
3
 72
9
 73
5
 74
0
 42
0.0000001
 43
0.0000001
 44
0.0000000001
 40
0.0
 40
0.0
 40
0.0
 40
0.0
 40
0.2576656515
 40
1.0
 40
1.0
 40
1.0
 40
1.0
 10
88.5419078358
 20
65.4918857497
 30
0.0
 10
88.5469804769
 20
65.4998538358
 30
0.0
 10
88.5666767004
 20
65.5307658642
 30
0.0
 10
88.586783794
 20
65.5614637935
 30
0.0
 10
88.6029078358
 20
65.5833857497
 30
0.0
  0
SPLINE
  5
885
100
AcDbEntity
  8
00_COMPONENTS
100
AcDbSpline
 62
7
  6
CONTINUOUS
 70
0
 71
3
 72
9
 73
5
 74
0
 42
0.0000001
 43
0.0000001
 44
0.0000000001
 40
0.0
 40
0.0
 40
0.0
 40
0.0
 40
0.268024786
 40
1.0
 40
1.0
 40
1.0
 40
1.0
 10
88.6101735149
 20
65.59307696
 30
0.0
 10
88.613645211
 20
65.5976157029
 30
0.0
 10
88.626841025
 20
65.6143510628
 30
0.0
 10
88.6411583082
 20
65.6302882115
 30
0.0
 10
88.6526769944
 20
65.6408170469
 30
0.0
  0
SPLINE
  5
886
100
AcDbEntity
  8
00_COMPONENTS
100
AcDbSpline
 62
7
  6
CONTINUOUS
 70
0
 71
3
 72
9
 73
5
 74
0
 42
0.0000001
 43
0.0000001
 44
0.0000000001
 40
0.0
 40
0.0
 40
0.0
 40
0.0
 40
0.2720982761
 40
1.0
 40
1.0
 40
1.0
 40
1.0
 10
88.6526769944
 20
65.6408170469
 30
0.0
 10
88.6559202959
 20
65.6437816374
 30
0.0
 10
88.6681385551
 20
65.6543179467
 30
0.0
 10
88.681898813
 20
65.6632719914
 30
0.0
 10
88.6927034015
 20
65.6679017866
 30
0.0
  0
SPLINE
  5
887
100
AcDbEntity
  8
00_COMPONENTS
100
AcDbSpline
 62
7
  6
CONTINUOUS
 70
0
 71
3
 72
9
 73
5
 74
0
 42
0.0000001
 43
0.0000001
 44
0.0000000001
 40
0.0
 40
0.0
 40
0.0
 40
0.0
 40
0.2600868539
 40
1.0
 40
1.0
 40
1.0
 40
1.0
 10
88.6927034015
 20
65.6679017866
 30
0.0
 10
88.6953392812
 20
65.6690312681
 30
0.0
 10
88.7056460923
 20
65.6729449634
 30
0.0
 10
88.7167496597
 20
65.6748857497
 30
0.0
 10
88.7249078358
 20
65.6748857497
 30
0.0
  0
SPLINE
  5
888
100
AcDbEntity
  8
00_COMPONENTS
100
AcDbSpline
 62
7
  6
CONTINUOUS
 70
0
 71
3
 72
9
 73
5
 74
0
 42
0.0000001
 43
0.0000001
 44
0.0000000001
 40
0.0
 40
0.0
 40
0.0
 40
0.0
 40
0.2601730147
 40
1.0
 40
1.0
 40
1.0
 40
1.0
 10
25.9119078358
 20
65.4918857497
 30
0.0
 10
25.9039448669
 20
65.4941018736
 30
0.0
 10
25.8733425994
 20
65.5026285833
 30
0.0
 10
25.8427836123
 20
65.511357734
 30
0.0
 10
25.8204078358
 20
65.5185524163
 30
0.0
  0
SPLINE
  5
889
100
AcDbEntity
  8
00_COMPONENTS
100
AcDbSpline
 62
7
  6
CONTINUOUS
 70
0
 71
3
 72
9
 73
5
 74
0
 42
0.0000001
 43
0.0000001
 44
0.0000000001
 40
0.0
 40
0.0
 40
0.0
 40
0.0
 40
0.5563337906
 40
1.0
 40
1.0
 40
1.0
 40
1.0
 10
25.8204078358
 20
65.5185524163
 30
0.0
 10
25.8076668425
 20
65.5226491412
 30
0.0
 10
25.7849207725
 20
65.5304645304
 30
0.0
 10
25.7627501108
 20
65.5400268195
 30
0.0
 10
25.7534251869
 20
65.545219083
 30
0.0
  0
SPLINE
  5
88A
100
AcDbEntity
  8
00_COMPONENTS
100
AcDbSpline
 62
7
  6
CONTINUOUS
 70
0
 71
3
 72
10
 73
6
 74
0
 42
0.0000001
 43
0.0000001
 44
0.0000000001
 40
0.0
 40
0.0
 40
0.0
 40
0.0
 40
0.3340600481
 40
0.6059911249
 40
1.0
 40
1.0
 40
1.0
 40
1.0
 10
25.7534251869
 20
65.545219083
 30
0.0
 10
25.7497868471
 20
65.5472449675
 30
0.0
 10
25.7433159098
 20
65.5512610252
 30
0.0
 10
25.7337624883
 20
65.5590448074
 30
0.0
 10
25.7289078358
 20
65.5669740975
 30
0.0
 10
25.7289078358
 20
65.5718857497
 30
0.0
  0
SPLINE
  5
88B
100
AcDbEntity
  8
00_COMPONENTS
100
AcDbSpline
 62
7
  6
CONTINUOUS
 70
0
 71
3
 72
10
 73
6
 74
0
 42
0.0000001
 43
0.0000001
 44
0.0000000001
 40
0.0
 40
0.0
 40
0.0
 40
0.0
 40
0.3940088751
 40
0.6659399519
 40
1.0
 40
1.0
 40
1.0
 40
1.0
 10
88.7249078358
 20
65.5718857497
 30
0.0
 10
88.7249078358
 20
65.5669740975
 30
0.0
 10
88.7200531832
 20
65.5590448074
 30
0.0
 10
88.7104997617
 20
65.5512610252
 30
0.0
 10
88.7040288244
 20
65.5472449675
 30
0.0
 10
88.7003904847
 20
65.545219083
 30
0.0
  0
SPLINE
  5
88C
100
AcDbEntity
  8
00_COMPONENTS
100
AcDbSpline
 62
7
  6
CONTINUOUS
 70
0
 71
3
 72
9
 73
5
 74
0
 42
0.0000001
 43
0.0000001
 44
0.0000000001
 40
0.0
 40
0.0
 40
0.0
 40
0.0
 40
0.4436662094
 40
1.0
 40
1.0
 40
1.0
 40
1.0
 10
88.7003904847
 20
65.545219083
 30
0.0
 10
88.6910655607
 20
65.5400268195
 30
0.0
 10
88.6688948991
 20
65.5304645304
 30
0.0
 10
88.646148829
 20
65.5226491412
 30
0.0
 10
88.6334078358
 20
65.5185524163
 30
0.0
  0
SPLINE
  5
88D
100
AcDbEntity
  8
00_COMPONENTS
100
AcDbSpline
 62
7
  6
CONTINUOUS
 70
0
 71
3
 72
9
 73
5
 74
0
 42
0.0000001
 43
0.0000001
 44
0.0000000001
 40
0.0
 40
0.0
 40
0.0
 40
0.0
 40
0.2358522184
 40
1.0
 40
1.0
 40
1.0
 40
1.0
 10
88.6334078358
 20
65.5185524163
 30
0.0
 10
88.626274403
 20
65.5162587403
 30
0.0
 10
88.595916335
 20
65.5068835973
 30
0.0
 10
88.5652962506
 20
65.4983948327
 30
0.0
 10
88.5419078358
 20
65.4918857497
 30
0.0
  0
SPLINE
  5
88E
100
AcDbEntity
  8
00_COMPONENTS
100
AcDbSpline
 62
7
  6
CONTINUOUS
 70
0
 71
3
 72
9
 73
5
 74
0
 42
0.0000001
 43
0.0000001
 44
0.0000000001
 40
0.0
 40
0.0
 40
0.0
 40
0.0
 40
0.2576656515
 40
1.0
 40
1.0
 40
1.0
 40
1.0
 10
25.9119078358
 20
38.8778857497
 30
0.0
 10
25.9068351946
 20
38.8699176635
 30
0.0
 10
25.8871389711
 20
38.8390056352
 30
0.0
 10
25.8670318776
 20
38.8083077058
 30
0.0
 10
25.8509078358
 20
38.7863857497
 30
0.0
  0
SPLINE
  5
88F
100
AcDbEntity
  8
00_COMPONENTS
100
AcDbSpline
 62
7
  6
CONTINUOUS
 70
0
 71
3
 72
9
 73
5
 74
0
 42
0.0000001
 43
0.0000001
 44
0.0000000001
 40
0.0
 40
0.0
 40
0.0
 40
0.0
 40
0.268024786
 40
1.0
 40
1.0
 40
1.0
 40
1.0
 10
25.8436421566
 20
38.7766945393
 30
0.0
 10
25.8401704605
 20
38.7721557965
 30
0.0
 10
25.8269746465
 20
38.7554204366
 30
0.0
 10
25.8126573634
 20
38.7394832879
 30
0.0
 10
25.8011386772
 20
38.7289544525
 30
0.0
  0
SPLINE
  5
890
100
AcDbEntity
  8
00_COMPONENTS
100
AcDbSpline
 62
7
  6
CONTINUOUS
 70
0
 71
3
 72
9
 73
5
 74
0
 42
0.0000001
 43
0.0000001
 44
0.0000000001
 40
0.0
 40
0.0
 40
0.0
 40
0.0
 40
0.2720982761
 40
1.0
 40
1.0
 40
1.0
 40
1.0
 10
25.8011386772
 20
38.7289544525
 30
0.0
 10
25.7978953756
 20
38.7259898619
 30
0.0
 10
25.7856771164
 20
38.7154535527
 30
0.0
 10
25.7719168585
 20
38.706499508
 30
0.0
 10
25.7611122701
 20
38.7018697128
 30
0.0
  0
SPLINE
  5
891
100
AcDbEntity
  8
00_COMPONENTS
100
AcDbSpline
 62
7
  6
CONTINUOUS
 70
0
 71
3
 72
9
 73
5
 74
0
 42
0.0000001
 43
0.0000001
 44
0.0000000001
 40
0.0
 40
0.0
 40
0.0
 40
0.0
 40
0.2600868539
 40
1.0
 40
1.0
 40
1.0
 40
1.0
 10
25.7611122701
 20
38.7018697128
 30
0.0
 10
25.7584763904
 20
38.7007402312
 30
0.0
 10
25.7481695792
 20
38.6968265359
 30
0.0
 10
25.7370660119
 20
38.6948857497
 30
0.0
 10
25.7289078358
 20
38.6948857497
 30
0.0
  0
SPLINE
  5
892
100
AcDbEntity
  8
00_COMPONENTS
100
AcDbSpline
 62
7
  6
CONTINUOUS
 70
0
 71
3
 72
9
 73
5
 74
0
 42
0.0000001
 43
0.0000001
 44
0.0000000001
 40
0.0
 40
0.0
 40
0.0
 40
0.0
 40
0.4615686992
 40
1.0
 40
1.0
 40
1.0
 40
1.0
 10
25.7289078358
 20
65.6748857497
 30
0.0
 10
25.7404070038
 20
65.6748857497
 30
0.0
 10
25.7654124987
 20
65.6685455776
 30
0.0
 10
25.7860237116
 20
65.6539332222
 30
0.0
 10
25.7962008214
 20
65.6451945983
 30
0.0
  0
SPLINE
  5
893
100
AcDbEntity
  8
00_COMPONENTS
100
AcDbSpline
 62
7
  6
CONTINUOUS
 70
0
 71
3
 72
9
 73
5
 74
0
 42
0.0000001
 43
0.0000001
 44
0.0000000001
 40
0.0
 40
0.0
 40
0.0
 40
0.0
 40
0.2290652564
 40
1.0
 40
1.0
 40
1.0
 40
1.0
 10
25.8011386772
 20
65.6408170469
 30
0.0
 10
25.8054258645
 20
65.6368982762
 30
0.0
 10
25.8234795836
 20
65.6190640577
 30
0.0
 10
25.8393252735
 20
65.5991331923
 30
0.0
 10
25.8509078358
 20
65.5833857497
 30
0.0
  0
SPLINE
  5
894
100
AcDbEntity
  8
00_COMPONENTS
100
AcDbSpline
 62
7
  6
CONTINUOUS
 70
0
 71
3
 72
9
 73
5
 74
0
 42
0.0000001
 43
0.0000001
 44
0.0000000001
 40
0.0
 40
0.0
 40
0.0
 40
0.0
 40
0.239426754
 40
1.0
 40
1.0
 40
1.0
 40
1.0
 10
25.8509078358
 20
65.5833857497
 30
0.0
 10
25.8561087261
 20
65.576314713
 30
0.0
 10
25.8772750055
 20
65.546371292
 30
0.0
 10
25.8969334395
 20
65.5154074763
 30
0.0
 10
25.9119078358
 20
65.4918857497
 30
0.0
  0
SPLINE
  5
895
100
AcDbEntity
  8
00_COMPONENTS
100
AcDbSpline
 62
7
  6
CONTINUOUS
 70
0
 71
3
 72
9
 73
5
 74
0
 42
0.0000001
 43
0.0000001
 44
0.0000000001
 40
0.0
 40
0.0
 40
0.0
 40
0.0
 40
0.2601730147
 40
1.0
 40
1.0
 40
1.0
 40
1.0
 10
88.5419078358
 20
38.8778857497
 30
0.0
 10
88.5498708047
 20
38.8756696258
 30
0.0
 10
88.5804730721
 20
38.8671429161
 30
0.0
 10
88.6110320592
 20
38.8584137654
 30
0.0
 10
88.6334078358
 20
38.851219083
 30
0.0
  0
SPLINE
  5
896
100
AcDbEntity
  8
00_COMPONENTS
100
AcDbSpline
 62
7
  6
CONTINUOUS
 70
0
 71
3
 72
9
 73
5
 74
0
 42
0.0000001
 43
0.0000001
 44
0.0000000001
 40
0.0
 40
0.0
 40
0.0
 40
0.0
 40
0.5563337906
 40
1.0
 40
1.0
 40
1.0
 40
1.0
 10
88.6334078358
 20
38.851219083
 30
0.0
 10
88.646148829
 20
38.8471223582
 30
0.0
 10
88.6688948991
 20
38.8393069689
 30
0.0
 10
88.6910655607
 20
38.8297446798
 30
0.0
 10
88.7003904847
 20
38.8245524163
 30
0.0
  0
SPLINE
  5
897
100
AcDbEntity
  8
00_COMPONENTS
100
AcDbSpline
 62
7
  6
CONTINUOUS
 70
0
 71
3
 72
10
 73
6
 74
0
 42
0.0000001
 43
0.0000001
 44
0.0000000001
 40
0.0
 40
0.0
 40
0.0
 40
0.0
 40
0.3340600481
 40
0.6059911249
 40
1.0
 40
1.0
 40
1.0
 40
1.0
 10
88.7003904847
 20
38.8245524163
 30
0.0
 10
88.7040288244
 20
38.8225265319
 30
0.0
 10
88.7104997617
 20
38.8185104741
 30
0.0
 10
88.7200531832
 20
38.810726692
 30
0.0
 10
88.7249078358
 20
38.8027974018
 30
0.0
 10
88.7249078358
 20
38.7978857497
 30
0.0
  0
SPLINE
  5
898
100
AcDbEntity
  8
00_COMPONENTS
100
AcDbSpline
 62
3
  6
CONTINUOUS
 70
0
 71
3
 72
9
 73
5
 74
0
 42
0.0000001
 43
0.0000001
 44
0.0000000001
 40
0.0
 40
0.0
 40
0.0
 40
0.0
 40
0.2462729404
 40
1.0
 40
1.0
 40
1.0
 40
1.0
 10
88.7249078358
 20
38.7878857497
 30
0.0
 10
88.7206803274
 20
38.7878857497
 30
0.0
 10
88.7035157025
 20
38.7886210735
 30
0.0
 10
88.6865296149
 20
38.7922799283
 30
0.0
 10
88.6742236546
 20
38.7962757444
 30
0.0
  0
SPLINE
  5
899
100
AcDbEntity
  8
00_COMPONENTS
100
AcDbSpline
 62
3
  6
CONTINUOUS
 70
0
 71
3
 72
9
 73
5
 74
0
 42
0.0000001
 43
0.0000001
 44
0.0000000001
 40
0.0
 40
0.0
 40
0.0
 40
0.0
 40
0.244050246
 40
1.0
 40
1.0
 40
1.0
 40
1.0
 10
88.6639078358
 20
38.7999434633
 30
0.0
 10
88.6612189158
 20
38.800981701
 30
0.0
 10
88.6502889116
 20
38.8054633725
 30
0.0
 10
88.6397075757
 20
38.810769273
 30
0.0
 10
88.6318954617
 20
38.8150918982
 30
0.0
  0
SPLINE
  5
89A
100
AcDbEntity
  8
00_COMPONENTS
100
AcDbSpline
 62
3
  6
CONTINUOUS
 70
0
 71
3
 72
9
 73
5
 74
0
 42
0.0000001
 43
0.0000001
 44
0.0000000001
 40
0.0
 40
0.0
 40
0.0
 40
0.0
 40
0.2446555673
 40
1.0
 40
1.0
 40
1.0
 40
1.0
 10
88.6029078358
 20
38.8328857497
 30
0.0
 10
88.5977681982
 20
38.8363223522
 30
0.0
 10
88.577013382
 20
38.8507491445
 30
0.0
 10
88.557013711
 20
38.8662161169
 30
0.0
 10
88.5419078358
 20
38.8778857497
 30
0.0
  0
SPLINE
  5
89B
100
AcDbEntity
  8
00_COMPONENTS
100
AcDbSpline
 62
3
  6
CONTINUOUS
 70
0
 71
3
 72
10
 73
6
 74
0
 42
0.0000001
 43
0.0000001
 44
0.0000000001
 40
0.0
 40
0.0
 40
0.0
 40
0.0
 40
0.2048223536
 40
0.4461055495
 40
1.0
 40
1.0
 40
1.0
 40
1.0
 10
25.8330571473
 20
38.8235047876
 30
0.0
 10
25.8373117818
 20
38.8285047637
 30
0.0
 10
25.8479566151
 20
38.8381976644
 30
0.0
 10
25.8741717705
 20
38.8566777319
 30
0.0
 10
25.8964562604
 20
38.8691419467
 30
0.0
 10
25.9119078358
 20
38.8778857497
 30
0.0
  0
SPLINE
  5
89C
100
AcDbEntity
  8
00_COMPONENTS
100
AcDbSpline
 62
3
  6
CONTINUOUS
 70
0
 71
3
 72
9
 73
5
 74
0
 42
0.0000001
 43
0.0000001
 44
0.0000000001
 40
0.0
 40
0.0
 40
0.0
 40
0.0
 40
0.2462729404
 40
1.0
 40
1.0
 40
1.0
 40
1.0
 10
25.7289078358
 20
65.5818857497
 30
0.0
 10
25.7331353441
 20
65.5818857497
 30
0.0
 10
25.750299969
 20
65.5811504258
 30
0.0
 10
25.7672860566
 20
65.577491571
 30
0.0
 10
25.779592017
 20
65.5734957549
 30
0.0
  0
SPLINE
  5
89D
100
AcDbEntity
  8
00_COMPONENTS
100
AcDbSpline
 62
3
  6
CONTINUOUS
 70
0
 71
3
 72
9
 73
5
 74
0
 42
0.0000001
 43
0.0000001
 44
0.0000000001
 40
0.0
 40
0.0
 40
0.0
 40
0.0
 40
0.244050246
 40
1.0
 40
1.0
 40
1.0
 40
1.0
 10
25.7899078358
 20
65.569828036
 30
0.0
 10
25.7925967557
 20
65.5687897984
 30
0.0
 10
25.8035267599
 20
65.5643081268
 30
0.0
 10
25.8141080958
 20
65.5590022263
 30
0.0
 10
25.8219202099
 20
65.5546796012
 30
0.0
  0
SPLINE
  5
89E
100
AcDbEntity
  8
00_COMPONENTS
100
AcDbSpline
 62
3
  6
CONTINUOUS
 70
0
 71
3
 72
9
 73
5
 74
0
 42
0.0000001
 43
0.0000001
 44
0.0000000001
 40
0.0
 40
0.0
 40
0.0
 40
0.0
 40
0.2446555673
 40
1.0
 40
1.0
 40
1.0
 40
1.0
 10
25.8509078358
 20
65.5368857497
 30
0.0
 10
25.8560474734
 20
65.5334491471
 30
0.0
 10
25.8768022895
 20
65.5190223549
 30
0.0
 10
25.8968019606
 20
65.5035553824
 30
0.0
 10
25.9119078358
 20
65.4918857497
 30
0.0
  0
SPLINE
  5
89F
100
AcDbEntity
  8
00_COMPONENTS
100
AcDbSpline
 62
3
  6
CONTINUOUS
 70
0
 71
3
 72
10
 73
6
 74
0
 42
0.0000001
 43
0.0000001
 44
0.0000000001
 40
0.0
 40
0.0
 40
0.0
 40
0.0
 40
0.2048223536
 40
0.4461055495
 40
1.0
 40
1.0
 40
1.0
 40
1.0
 10
88.6207585242
 20
65.5462667118
 30
0.0
 10
88.6165038898
 20
65.5412667357
 30
0.0
 10
88.6058590564
 20
65.531573835
 30
0.0
 10
88.579643901
 20
65.5130937674
 30
0.0
 10
88.5573594111
 20
65.5006295527
 30
0.0
 10
88.5419078358
 20
65.4918857497
 30
0.0
  0
SPLINE
  5
8A0
100
AcDbEntity
  8
00_COMPONENTS
100
AcDbSpline
 62
3
  6
CONTINUOUS
 70
0
 71
3
 72
10
 73
6
 74
0
 42
0.0000001
 43
0.0000001
 44
0.0000000001
 40
0.0
 40
0.0
 40
0.0
 40
0.0
 40
0.5538944505
 40
0.7951776464
 40
1.0
 40
1.0
 40
1.0
 40
1.0
 10
88.5419078358
 20
38.8778857497
 30
0.0
 10
88.5573594111
 20
38.8691419467
 30
0.0
 10
88.579643901
 20
38.8566777319
 30
0.0
 10
88.6058590564
 20
38.8381976644
 30
0.0
 10
88.6165038898
 20
38.8285047637
 30
0.0
 10
88.6207585242
 20
38.8235047876
 30
0.0
  0
SPLINE
  5
8A1
100
AcDbEntity
  8
00_COMPONENTS
100
AcDbSpline
 62
3
  6
CONTINUOUS
 70
0
 71
3
 72
9
 73
5
 74
0
 42
0.0000001
 43
0.0000001
 44
0.0000000001
 40
0.0
 40
0.0
 40
0.0
 40
0.0
 40
0.2539215338
 40
1.0
 40
1.0
 40
1.0
 40
1.0
 10
88.5419078358
 20
65.4918857497
 30
0.0
 10
88.5469855562
 20
65.4958084044
 30
0.0
 10
88.566983695
 20
65.5112498679
 30
0.0
 10
88.5872356239
 20
65.5264065744
 30
0.0
 10
88.6029078358
 20
65.5368857497
 30
0.0
  0
SPLINE
  5
8A2
100
AcDbEntity
  8
00_COMPONENTS
100
AcDbSpline
 62
3
  6
CONTINUOUS
 70
0
 71
3
 72
9
 73
5
 74
0
 42
0.0000001
 43
0.0000001
 44
0.0000000001
 40
0.0
 40
0.0
 40
0.0
 40
0.0
 40
0.256135666
 40
1.0
 40
1.0
 40
1.0
 40
1.0
 10
88.6318954617
 20
65.5546796012
 30
0.0
 10
88.6345422776
 20
65.5561441462
 30
0.0
 10
88.64495375
 20
65.5617174868
 30
0.0
 10
88.6557124313
 20
65.5666636512
 30
0.0
 10
88.6639078358
 20
65.569828036
 30
0.0
  0
SPLINE
  5
8A3
100
AcDbEntity
  8
00_COMPONENTS
100
AcDbSpline
 62
3
  6
CONTINUOUS
 70
0
 71
3
 72
9
 73
5
 74
0
 42
0.0000001
 43
0.0000001
 44
0.0000000001
 40
0.0
 40
0.0
 40
0.0
 40
0.0
 40
0.2559611805
 40
1.0
 40
1.0
 40
1.0
 40
1.0
 10
88.6742236546
 20
65.5734957549
 30
0.0
 10
88.6784020515
 20
65.5748525045
 30
0.0
 10
88.6948961088
 20
65.5795985568
 30
0.0
 10
88.7121376398
 20
65.5818857497
 30
0.0
 10
88.7249078358
 20
65.5818857497
 30
0.0
  0
SPLINE
  5
8A4
100
AcDbEntity
  8
00_COMPONENTS
100
AcDbSpline
 62
3
  6
CONTINUOUS
 70
0
 71
3
 72
10
 73
6
 74
0
 42
0.0000001
 43
0.0000001
 44
0.0000000001
 40
0.0
 40
0.0
 40
0.0
 40
0.0
 40
0.5538944505
 40
0.7951776464
 40
1.0
 40
1.0
 40
1.0
 40
1.0
 10
25.9119078358
 20
65.4918857497
 30
0.0
 10
25.8964562604
 20
65.5006295527
 30
0.0
 10
25.8741717705
 20
65.5130937674
 30
0.0
 10
25.8479566151
 20
65.531573835
 30
0.0
 10
25.8373117818
 20
65.5412667357
 30
0.0
 10
25.8330571473
 20
65.5462667118
 30
0.0
  0
SPLINE
  5
8A5
100
AcDbEntity
  8
00_COMPONENTS
100
AcDbSpline
 62
3
  6
CONTINUOUS
 70
0
 71
3
 72
9
 73
5
 74
0
 42
0.0000001
 43
0.0000001
 44
0.0000000001
 40
0.0
 40
0.0
 40
0.0
 40
0.0
 40
0.2539215338
 40
1.0
 40
1.0
 40
1.0
 40
1.0
 10
25.9119078358
 20
38.8778857497
 30
0.0
 10
25.9068301153
 20
38.8739630949
 30
0.0
 10
25.8868319765
 20
38.8585216314
 30
0.0
 10
25.8665800476
 20
38.8433649249
 30
0.0
 10
25.8509078358
 20
38.8328857497
 30
0.0
  0
SPLINE
  5
8A6
100
AcDbEntity
  8
00_COMPONENTS
100
AcDbSpline
 62
3
  6
CONTINUOUS
 70
0
 71
3
 72
9
 73
5
 74
0
 42
0.0000001
 43
0.0000001
 44
0.0000000001
 40
0.0
 40
0.0
 40
0.0
 40
0.0
 40
0.256135666
 40
1.0
 40
1.0
 40
1.0
 40
1.0
 10
25.8219202099
 20
38.8150918982
 30
0.0
 10
25.819273394
 20
38.8136273531
 30
0.0
 10
25.8088619216
 20
38.8080540125
 30
0.0
 10
25.7981032403
 20
38.8031078481
 30
0.0
 10
25.7899078358
 20
38.7999434633
 30
0.0
  0
SPLINE
  5
8A7
100
AcDbEntity
  8
00_COMPONENTS
100
AcDbSpline
 62
3
  6
CONTINUOUS
 70
0
 71
3
 72
9
 73
5
 74
0
 42
0.0000001
 43
0.0000001
 44
0.0000000001
 40
0.0
 40
0.0
 40
0.0
 40
0.0
 40
0.2559611805
 40
1.0
 40
1.0
 40
1.0
 40
1.0
 10
25.779592017
 20
38.7962757444
 30
0.0
 10
25.77541362
 20
38.7949189949
 30
0.0
 10
25.7589195627
 20
38.7901729426
 30
0.0
 10
25.7416780318
 20
38.7878857497
 30
0.0
 10
25.7289078358
 20
38.7878857497
 30
0.0
  0
SPLINE
  5
8A8
100
AcDbEntity
  8
00_COMPONENTS
100
AcDbSpline
 62
8
  6
HIDDEN
 70
0
 71
3
 72
12
 73
8
 74
0
 42
0.0000001
 43
0.0000001
 44
0.0000000001
 40
0.0
 40
0.0
 40
0.0
 40
0.0
 40
0.2757702929
 40
0.4737399561
 40
0.6597701261
 40
0.8337024102
 40
1.0
 40
1.0
 40
1.0
 40
1.0
 10
88.7249078358
 20
28.8587766613
 30
0.0
 10
88.7098019606
 20
28.8704462941
 30
0.0
 10
88.6838580087
 20
28.8905199707
 30
0.0
 10
88.6459199919
 20
28.9160185381
 30
0.0
 10
88.6117162035
 20
28.9341936769
 30
0.0
 10
88.5770362037
 20
28.9459684239
 30
0.0
 10
88.5534187142
 20
28.9487766613
 30
0.0
 10
88.5419078358
 20
28.9487766613
 30
0.0
  0
SPLINE
  5
8A9
100
AcDbEntity
  8
00_COMPONENTS
100
AcDbSpline
 62
8
  6
HIDDEN
 70
0
 71
3
 72
10
 73
6
 74
0
 42
0.0000001
 43
0.0000001
 44
0.0000000001
 40
0.0
 40
0.0
 40
0.0
 40
0.0
 40
0.2230805107
 40
0.5905693608
 40
1.0
 40
1.0
 40
1.0
 40
1.0
 10
25.9119078358
 20
28.9487766613
 30
0.0
 10
25.8964872753
 20
28.9487766613
 30
0.0
 10
25.8554944372
 20
28.9421392237
 30
0.0
 10
25.7936731018
 20
28.908980171
 30
0.0
 10
25.7513050895
 20
28.8760790501
 30
0.0
 10
25.7289078358
 20
28.8587766613
 30
0.0
  0
LINE
  5
8AA
100
AcDbEntity
  8
00_COMPONENTS
100
AcDbLine
 62
8
  6
HIDDEN
 10
25.8446112194
 20
29.0120897471
 11
25.8509078358
 21
29.0172593102
  0
SPLINE
  5
8AB
100
AcDbEntity
  8
00_COMPONENTS
100
AcDbSpline
 62
8
  6
HIDDEN
 70
0
 71
3
 72
9
 73
5
 74
0
 42
0.0000001
 43
0.0000001
 44
0.0000000001
 40
0.0
 40
0.0
 40
0.0
 40
0.0
 40
0.2654710655
 40
1.0
 40
1.0
 40
1.0
 40
1.0
 10
25.8509078358
 20
29.0172593102
 30
0.0
 10
25.8532579116
 20
29.0191043653
 30
0.0
 10
25.8622852496
 20
29.0258203155
 30
0.0
 10
25.8721046649
 20
29.0315366192
 30
0.0
 10
25.8797034015
 20
29.0347926982
 30
0.0
  0
SPLINE
  5
8AC
100
AcDbEntity
  8
00_COMPONENTS
100
AcDbSpline
 62
8
  6
HIDDEN
 70
0
 71
3
 72
9
 73
5
 74
0
 42
0.0000001
 43
0.0000001
 44
0.0000000001
 40
0.0
 40
0.0
 40
0.0
 40
0.0
 40
0.2600868539
 40
1.0
 40
1.0
 40
1.0
 40
1.0
 10
25.8797034015
 20
29.0347926982
 30
0.0
 10
25.8823392812
 20
29.0359221798
 30
0.0
 10
25.8926460923
 20
29.0398358751
 30
0.0
 10
25.9037496597
 20
29.0417766613
 30
0.0
 10
25.9119078358
 20
29.0417766613
 30
0.0
  0
SPLINE
  5
8AD
100
AcDbEntity
  8
00_COMPONENTS
100
AcDbSpline
 62
8
  6
HIDDEN
 70
0
 71
3
 72
9
 73
5
 74
0
 42
0.0000001
 43
0.0000001
 44
0.0000000001
 40
0.0
 40
0.0
 40
0.0
 40
0.0
 40
0.4669885445
 40
1.0
 40
1.0
 40
1.0
 40
1.0
 10
88.5419078358
 20
29.0417766613
 30
0.0
 10
88.5522872554
 20
29.0417766613
 30
0.0
 10
88.5746114069
 20
29.0367126789
 30
0.0
 10
88.5935896701
 20
29.0245750442
 30
0.0
 10
88.6029078358
 20
29.0172593102
 30
0.0
  0
SPLINE
  5
8AE
100
AcDbEntity
  8
00_COMPONENTS
100
AcDbSpline
 62
8
  6
HIDDEN
 70
0
 71
3
 72
9
 73
5
 74
0
 42
0.0000001
 43
0.0000001
 44
0.0000000001
 40
0.0
 40
0.0
 40
0.0
 40
0.0
 40
0.2547045924
 40
1.0
 40
1.0
 40
1.0
 40
1.0
 10
25.7289078358
 20
28.8587766613
 30
0.0
 10
25.7344744983
 20
28.8630770349
 30
0.0
 10
25.7563303712
 20
28.8799510399
 30
0.0
 10
25.778522521
 20
28.8964605035
 30
0.0
 10
25.7957960785
 20
28.9076537146
 30
0.0
  0
SPLINE
  5
8AF
100
AcDbEntity
  8
00_COMPONENTS
100
AcDbSpline
 62
8
  6
HIDDEN
 70
0
 71
3
 72
9
 73
5
 74
0
 42
0.0000001
 43
0.0000001
 44
0.0000000001
 40
0.0
 40
0.0
 40
0.0
 40
0.0
 40
0.2601552124
 40
1.0
 40
1.0
 40
1.0
 40
1.0
 10
25.7957960785
 20
28.9076537146
 30
0.0
 10
25.8003344427
 20
28.9105945604
 30
0.0
 10
25.8179672837
 20
28.9215881161
 30
0.0
 10
25.8365608729
 20
28.9311793418
 30
0.0
 10
25.8509078358
 20
28.9367189477
 30
0.0
  0
SPLINE
  5
8B0
100
AcDbEntity
  8
00_COMPONENTS
100
AcDbSpline
 62
8
  6
HIDDEN
 70
0
 71
3
 72
9
 73
5
 74
0
 42
0.0000001
 43
0.0000001
 44
0.0000000001
 40
0.0
 40
0.0
 40
0.0
 40
0.0
 40
0.25830161
 40
1.0
 40
1.0
 40
1.0
 40
1.0
 10
25.8509078358
 20
28.9367189477
 30
0.0
 10
25.8559176729
 20
28.9386533308
 30
0.0
 10
25.8755786397
 20
28.9454033647
 30
0.0
 10
25.8964872753
 20
28.9487766613
 30
0.0
 10
25.9119078358
 20
28.9487766613
 30
0.0
  0
SPLINE
  5
8B1
100
AcDbEntity
  8
00_COMPONENTS
100
AcDbSpline
 62
8
  6
HIDDEN
 70
0
 71
3
 72
9
 73
5
 74
0
 42
0.0000001
 43
0.0000001
 44
0.0000000001
 40
0.0
 40
0.0
 40
0.0
 40
0.0
 40
0.2447839373
 40
1.0
 40
1.0
 40
1.0
 40
1.0
 10
88.6646703934
 20
28.9032657989
 30
0.0
 10
88.6697444626
 20
28.8998600154
 30
0.0
 10
88.6902296321
 20
28.8855818082
 30
0.0
 10
88.7099873288
 20
28.8703030929
 30
0.0
 10
88.7249078358
 20
28.8587766613
 30
0.0
  0
LINE
  5
8B2
100
AcDbEntity
  8
00_COMPONENTS
100
AcDbLine
 62
7
  6
CONTINUOUS
 10
88.7249078358
 20
28.8587766613
 11
88.6963254115
 21
28.903221197
  0
SPLINE
  5
8B3
100
AcDbEntity
  8
00_COMPONENTS
100
AcDbSpline
 62
7
  6
CONTINUOUS
 70
0
 71
3
 72
9
 73
5
 74
0
 42
0.0000001
 43
0.0000001
 44
0.0000000001
 40
0.0
 40
0.0
 40
0.0
 40
0.0
 40
0.2567913304
 40
1.0
 40
1.0
 40
1.0
 40
1.0
 10
88.6963254115
 20
28.903221197
 30
0.0
 10
88.6936417497
 20
28.9073106646
 30
0.0
 10
88.6831278546
 20
28.9231935332
 30
0.0
 10
88.6722958319
 20
28.9388724932
 30
0.0
 10
88.6639078358
 20
28.9502766613
 30
0.0
  0
SPLINE
  5
8B4
100
AcDbEntity
  8
00_COMPONENTS
100
AcDbSpline
 62
7
  6
CONTINUOUS
 70
0
 71
3
 72
9
 73
5
 74
0
 42
0.0000001
 43
0.0000001
 44
0.0000000001
 40
0.0
 40
0.0
 40
0.0
 40
0.0
 40
0.5355965852
 40
1.0
 40
1.0
 40
1.0
 40
1.0
 10
88.6639078358
 20
28.9502766613
 30
0.0
 10
88.6543040017
 20
28.9633338608
 30
0.0
 10
88.635561861
 20
28.9871242571
 30
0.0
 10
88.613962221
 20
29.0085804625
 30
0.0
 10
88.6029078358
 20
29.0172593102
 30
0.0
  0
SPLINE
  5
8B5
100
AcDbEntity
  8
00_COMPONENTS
100
AcDbSpline
 62
7
  6
CONTINUOUS
 70
0
 71
3
 72
9
 73
5
 74
0
 42
0.0000001
 43
0.0000001
 44
0.0000000001
 40
0.0
 40
0.0
 40
0.0
 40
0.0
 40
0.2654710655
 40
1.0
 40
1.0
 40
1.0
 40
1.0
 10
88.6029078358
 20
29.0172593102
 30
0.0
 10
88.60055776
 20
29.0191043653
 30
0.0
 10
88.591530422
 20
29.0258203155
 30
0.0
 10
88.5817110067
 20
29.0315366192
 30
0.0
 10
88.5741122701
 20
29.0347926982
 30
0.0
  0
SPLINE
  5
8B6
100
AcDbEntity
  8
00_COMPONENTS
100
AcDbSpline
 62
7
  6
CONTINUOUS
 70
0
 71
3
 72
9
 73
5
 74
0
 42
0.0000001
 43
0.0000001
 44
0.0000000001
 40
0.0
 40
0.0
 40
0.0
 40
0.0
 40
0.2600868539
 40
1.0
 40
1.0
 40
1.0
 40
1.0
 10
88.5741122701
 20
29.0347926982
 30
0.0
 10
88.5714763904
 20
29.0359221798
 30
0.0
 10
88.5611695792
 20
29.0398358751
 30
0.0
 10
88.5500660119
 20
29.0417766613
 30
0.0
 10
88.5419078358
 20
29.0417766613
 30
0.0
  0
SPLINE
  5
8B7
100
AcDbEntity
  8
00_COMPONENTS
100
AcDbSpline
 62
7
  6
CONTINUOUS
 70
0
 71
3
 72
9
 73
5
 74
0
 42
0.0000001
 43
0.0000001
 44
0.0000000001
 40
0.0
 40
0.0
 40
0.0
 40
0.0
 40
0.4669885445
 40
1.0
 40
1.0
 40
1.0
 40
1.0
 10
25.9119078358
 20
29.0417766613
 30
0.0
 10
25.9015284161
 20
29.0417766613
 30
0.0
 10
25.8792042647
 20
29.0367126789
 30
0.0
 10
25.8602260015
 20
29.0245750442
 30
0.0
 10
25.8509078358
 20
29.0172593102
 30
0.0
  0
SPLINE
  5
8B8
100
AcDbEntity
  8
00_COMPONENTS
100
AcDbSpline
 62
7
  6
CONTINUOUS
 70
0
 71
3
 72
9
 73
5
 74
0
 42
0.0000001
 43
0.0000001
 44
0.0000000001
 40
0.0
 40
0.0
 40
0.0
 40
0.0
 40
0.2264512764
 40
1.0
 40
1.0
 40
1.0
 40
1.0
 10
25.8446148501
 20
29.01208551
 30
0.0
 10
25.8398815415
 20
29.008021232
 30
0.0
 10
25.8198202657
 20
28.9890915994
 30
0.0
 10
25.8025350729
 20
28.9674444249
 30
0.0
 10
25.7899078358
 20
28.9502766613
 30
0.0
  0
SPLINE
  5
8B9
100
AcDbEntity
  8
00_COMPONENTS
100
AcDbSpline
 62
7
  6
CONTINUOUS
 70
0
 71
3
 72
9
 73
5
 74
0
 42
0.0000001
 43
0.0000001
 44
0.0000000001
 40
0.0
 40
0.0
 40
0.0
 40
0.0
 40
0.2424138334
 40
1.0
 40
1.0
 40
1.0
 40
1.0
 10
25.7899078358
 20
28.9502766613
 30
0.0
 10
25.7871718567
 20
28.9465568735
 30
0.0
 10
25.7760379806
 20
28.9310997212
 30
0.0
 10
25.7654077474
 20
28.9152861707
 30
0.0
 10
25.75749026
 20
28.903221197
 30
0.0
  0
LINE
  5
8BA
100
AcDbEntity
  8
00_COMPONENTS
100
AcDbLine
 62
7
  6
CONTINUOUS
 10
25.75749026
 20
28.903221197
 11
25.7289078358
 21
28.8587766613
  0
ENDSEC
  0
SECTION
  2
OBJECTS
  0
DICTIONARY
  5
C
100
AcDbDictionary
280
0
281
1
  3
ACAD_GROUP
350
D
  3
ACAD_MLINESTYLE
350
17
  3
ACAD_LAYOUT
350
1A
  3
ACAD_PLOTSETTINGS
350
19
  3
ACAD_PLOTSTYLENAME
350
E
  3
ACAD_TABLESTYLE
350
       8BB
  0
DICTIONARY
  5
D
102
{ACAD_REACTORS
330
C
102
}
100
AcDbDictionary
280
0
281
1
  0
ACDBDICTIONARYWDFLT
  5
E
102
{ACAD_REACTORS
330
C
102
}
100
AcDbDictionary
281
1
  3
Normal
350
F
100
AcDbDictionaryWithDefault
340
F
  0
DICTIONARY
  5
17
102
{ACAD_REACTORS
330
C
102
}
100
AcDbDictionary
280
0
281
1
  3
Standard
350
18
  0
DICTIONARY
  5
8BB
330
C
100
AcDbDictionary
281
1
  3
Standard
350
       8BE
  3
Standard1
350
       8BF
  0
DICTIONARY
  5
19
102
{ACAD_REACTORS
330
C
102
}
100
AcDbDictionary
281
1
  0
DICTIONARY
  5
1A
102
{ACAD_REACTORS
330
C
102
}
100
AcDbDictionary
281
1
  3
Model
350
8BC
  3
Layout1
350
8BD
  0
ACDBPLACEHOLDER
  5
F
102
{ACAD_REACTORS
330
E
102
}
  0
MLINESTYLE
  5
18
102
{ACAD_REACTORS
330
17
102
}
100
AcDbMlineStyle
  2
STANDARD
 70
0
  3

 62
256
 51
90.0
 52
90.0
 71
2
 49
0.5
 62
256
  6
BYLAYER
 49
-0.5
 62
256
  6
BYLAYER
  0
LAYOUT
  5
8BC
102
{ACAD_REACTORS
330
1A
102
}
100
AcDbPlotSettings
  1

  2
none_device
  4
ISO_A2_(594.00_x_420.00_MM)
  6

 40
0.0
 41
0.0
 42
0.0
 43
0.0
 44
594.0
 45
420.0
 46
0.0
 47
0.0
 48
0.0
 49
0.0
140
0.0
141
0.0
142
1.0
143
1.0
 70
1024
 72
0
 73
0
 74
0
  7

 75
0
147
1.0
148
0.0
149
0.0
100
AcDbLayout
  1
Model
 70
0
 71
0
 10
0.0
 20
0.0
 11
23.3858267717
 21
16.5354330709
 12
0.0
 22
0.0
 32
0.0
 14
0.0
 24
0.0
 34
0.0
 15
0.0
 25
0.0
 35
0.0
146
0.0
 13
0.0
 23
0.0
 33
0.0
 16
1.0
 26
0.0
 36
0.0
 17
0.0
 27
1.0
 37
0.0
 76
0
330
221
345
0
346
0
  0
LAYOUT
  5
8BD
102
{ACAD_REACTORS
330
1A
102
}
100
AcDbPlotSettings
  1

  2
none_device
  4
ISO_A2_(594.00_x_420.00_MM)
  6

 40
0.0
 41
0.0
 42
0.0
 43
0.0
 44
594.0
 45
420.0
 46
0.0
 47
0.0
 48
0.0
 49
0.0
140
0.0
141
0.0
142
1.0
143
1.0
 70
0
 72
0
 73
0
 74
0
  7

 75
0
147
1.0
148
0.0
149
0.0
100
AcDbLayout
  1
Layout1
 70
0
 71
1
 10
0.0
 20
0.0
 11
23.3858267717
 21
16.5354330709
 12
0.0
 22
0.0
 32
0.0
 14
0.0
 24
0.0
 34
0.0
 15
0.0
 25
0.0
 35
0.0
146
0.0
 13
0.0
 23
0.0
 33
0.0
 16
1.0
 26
0.0
 36
0.0
 17
0.0
 27
1.0
 37
0.0
 76
0
330
222
345
0
346
0
  0
TABLESTYLE
  5
8BE
102
{ACAD_REACTORS
330
8BB
330
2AA
102
}
330
8BB
100
AcDbTableStyle
  3
Standard
 70
0
 71
0
 40
0.06
 41
0.06
280
1
281
1
  7
Standard
140
0.18
170
1
 62
0
 63
7
283
0
  7
Standard
140
0.18
170
1
 62
0
 63
7
283
0
  7
Standard
140
0.18
170
1
 62
0
 63
7
283
0
  0
TABLESTYLE
  5
8BF
102
{ACAD_REACTORS
330
8BB
330
2A9
102
}
330
8BB
100
AcDbTableStyle
  3
Standard1
 70
1
 71
0
 40
0.06
 41
0.06
280
1
281
1
  7
Standard
140
0.18
170
1
 62
0
 63
7
283
0
  7
Standard
140
0.18
170
1
 62
0
 63
7
283
0
  7
Standard
140
0.18
170
1
 62
0
 63
7
283
0
  0
ENDSEC
  0
EOF
