  0
SECTION
  2
HEADER
  9
$ACADVER
  1
AC1009
  9
$INSBASE
 10
402.590624
 20
-1.041018
 30
0.0
  9
$EXTMIN
 10
-3.387907
 20
0.145801
 30
0.0
  9
$EXTMAX
 10
75.779215
 20
100.981955
 30
0.0
  9
$LIMMIN
 10
-407.970438
 20
-367.832444
  9
$LIMMAX
 10
429.804077
 20
234.370848
  9
$ORTHOMODE
 70
     0
  9
$REGENMODE
 70
     1
  9
$FILLMODE
 70
     1
  9
$QTEXTMODE
 70
     0
  9
$MIRRTEXT
 70
     1
  9
$DRAGMODE
 70
     2
  9
$LTSCALE
 40
10.0
  9
$OSMODE
 70
    35
  9
$ATTMODE
 70
     1
  9
$TEXTSIZE
 40
6.0
  9
$TRACEWID
 40
1.0
  9
$TEXTSTYLE
  7
ROMANS
  9
$CLAYER
  8
ALPHA
  9
$CELTYPE
  6
BYLAYER
  9
$CECOLOR
 62
   256
  9
$DIMSCALE
 40
1.0
  9
$DIMASZ
 40
5.0
  9
$DIMEXO
 40
2.0
  9
$DIMDLI
 40
0.38
  9
$DIMRND
 40
0.0
  9
$DIMDLE
 40
0.0
  9
$DIMEXE
 40
2.5
  9
$DIMTP
 40
0.0
  9
$DIMTM
 40
0.0
  9
$DIMTXT
 40
2.5
  9
$DIMCEN
 40
0.0
  9
$DIMTSZ
 40
0.0
  9
$DIMTOL
 70
     0
  9
$DIMLIM
 70
     0
  9
$DIMTIH
 70
     1
  9
$DIMTOH
 70
     1
  9
$DIMSE1
 70
     0
  9
$DIMSE2
 70
     0
  9
$DIMTAD
 70
     1
  9
$DIMZIN
 70
    12
  9
$DIMBLK
  1
OPEN30
  9
$DIMASO
 70
     1
  9
$DIMSHO
 70
     1
  9
$DIMPOST
  1

  9
$DIMAPOST
  1

  9
$DIMALT
 70
     0
  9
$DIMALTD
 70
     2
  9
$DIMALTF
 40
25.4
  9
$DIMLFAC
 40
1.0
  9
$DIMTOFL
 70
     0
  9
$DIMTVP
 40
0.0
  9
$DIMTIX
 70
     0
  9
$DIMSOXD
 70
     0
  9
$DIMSAH
 70
     0
  9
$DIMBLK1
  1

  9
$DIMBLK2
  1

  9
$DIMSTYLE
  2
SC_DEFAUT
  9
$DIMCLRD
 70
     0
  9
$DIMCLRE
 70
     0
  9
$DIMCLRT
 70
     0
  9
$DIMTFAC
 40
1.0
  9
$DIMGAP
 40
2.0
  9
$LUNITS
 70
     2
  9
$LUPREC
 70
     1
  9
$SKETCHINC
 40
0.1
  9
$FILLETRAD
 40
0.0
  9
$AUNITS
 70
     0
  9
$AUPREC
 70
     0
  9
$MENU
  1
acad
  9
$ELEVATION
 40
0.0
  9
$PELEVATION
 40
0.0
  9
$THICKNESS
 40
0.0
  9
$LIMCHECK
 70
     0
  9
$BLIPMODE
 70
     0
  9
$CHAMFERA
 40
0.0
  9
$CHAMFERB
 40
0.0
  9
$SKPOLY
 70
     0
  9
$TDCREATE
 40
2450373.687919
  9
$TDUPDATE
 40
2453038.402005
  9
$TDINDWG
 40
1.140823
  9
$TDUSRTIMER
 40
1.140823
  9
$USRTIMER
 70
     1
  9
$ANGBASE
 50
0.0
  9
$ANGDIR
 70
     0
  9
$PDMODE
 70
    32
  9
$PDSIZE
 40
0.0
  9
$PLINEWID
 40
0.0
  9
$COORDS
 70
     1
  9
$SPLFRAME
 70
     0
  9
$SPLINETYPE
 70
     6
  9
$SPLINESEGS
 70
     8
  9
$ATTDIA
 70
     0
  9
$ATTREQ
 70
     1
  9
$HANDLING
 70
     1
  9
$HANDSEED
  5
DF85
  9
$SURFTAB1
 70
     6
  9
$SURFTAB2
 70
     6
  9
$SURFTYPE
 70
     6
  9
$SURFU
 70
     6
  9
$SURFV
 70
     6
  9
$UCSNAME
  2

  9
$UCSORG
 10
0.0
 20
0.0
 30
0.0
  9
$UCSXDIR
 10
1.0
 20
0.0
 30
0.0
  9
$UCSYDIR
 10
0.0
 20
1.0
 30
0.0
  9
$PUCSNAME
  2

  9
$PUCSORG
 10
0.0
 20
0.0
 30
0.0
  9
$PUCSXDIR
 10
1.0
 20
0.0
 30
0.0
  9
$PUCSYDIR
 10
0.0
 20
1.0
 30
0.0
  9
$USERI1
 70
     0
  9
$USERI2
 70
     0
  9
$USERI3
 70
     0
  9
$USERI4
 70
     0
  9
$USERI5
 70
     0
  9
$USERR1
 40
0.0
  9
$USERR2
 40
0.0
  9
$USERR3
 40
0.0
  9
$USERR4
 40
0.0
  9
$USERR5
 40
0.0
  9
$WORLDVIEW
 70
     1
  9
$SHADEDGE
 70
     3
  9
$SHADEDIF
 70
    70
  9
$TILEMODE
 70
     1
  9
$MAXACTVP
 70
    16
  9
$PLIMCHECK
 70
     0
  9
$PEXTMIN
 10
-1.452248
 20
-0.437698
 30
0.0
  9
$PEXTMAX
 10
12.749749
 20
8.310198
 30
0.0
  9
$PLIMMIN
 10
0.0
 20
0.0
  9
$PLIMMAX
 10
12.0
 20
9.0
  9
$UNITMODE
 70
     0
  9
$VISRETAIN
 70
     0
  9
$PLINEGEN
 70
     0
  9
$PSLTSCALE
 70
     0
  0
ENDSEC
  0
SECTION
  2
TABLES
  0
TABLE
  2
VPORT
 70
     2
  0
VPORT
  2
*ACTIVE
 70
     0
 10
0.0
 20
0.0
 11
1.0
 21
1.0
 12
36.196044
 22
50.565423
 13
0.0
 23
0.0
 14
1.0
 24
1.0
 15
10.0
 25
10.0
 16
0.0
 26
0.0
 36
1.0
 17
0.0
 27
0.0
 37
0.0
 40
101.620772
 41
1.466346
 42
50.0
 43
0.0
 44
0.0
 50
0.0
 51
0.0
 71
     0
 72
   100
 73
     1
 74
     0
 75
     0
 76
     0
 77
     0
 78
     0
  0
ENDTAB
  0
TABLE
  2
LTYPE
 70
     2
  0
LTYPE
  2
CONTINUOUS
 70
     0
  3
Solid line
 72
    65
 73
     0
 40
0.0
  0
LTYPE
  2
AXES2
 70
     0
  3
___ _ ___ _ ___ _ ___ _ ___ _ ___ _ ___ _ ___ _
 72
    65
 73
     4
 40
1.125
 49
0.75
 49
-0.125
 49
0.125
 49
-0.125
  0
ENDTAB
  0
TABLE
  2
LAYER
 70
     5
  0
LAYER
  2
0
 70
     0
 62
   255
  6
CONTINUOUS
  0
LAYER
  2
COTATION1
 70
     0
 62
     2
  6
CONTINUOUS
  0
LAYER
  2
AXE
 70
     0
 62
    80
  6
AXES2
  0
LAYER
  2
DEFPOINTS
 70
     0
 62
     7
  6
CONTINUOUS
  0
LAYER
  2
ALPHA
 70
     0
 62
   254
  6
CONTINUOUS
  0
ENDTAB
  0
TABLE
  2
STYLE
 70
     2
  0
STYLE
  2
ROMANS
 70
     0
 40
0.0
 41
1.0
 50
0.0
 71
     0
 42
6.0
  3
romans
  4

  0
STYLE
  2
STANDARD
 70
     0
 40
0.0
 41
1.0
 50
0.0
 71
     0
 42
0.2
  3
txt
  4

  0
ENDTAB
  0
TABLE
  2
VIEW
 70
     0
  0
ENDTAB
  0
TABLE
  2
UCS
 70
     0
  0
ENDTAB
  0
TABLE
  2
APPID
 70
     1
  0
APPID
  2
ACAD
 70
     0
  0
ENDTAB
  0
TABLE
  2
DIMSTYLE
 70
     2
  0
DIMSTYLE
  2
SC_DEFAUT
 70
     0
  3

  4

  5
OPEN30
  6

  7

 40
1.0
 41
5.0
 42
2.0
 43
0.38
 44
2.5
 45
0.0
 46
0.0
 47
0.0
 48
0.0
140
2.5
141
0.0
142
0.0
143
25.4
144
1.0
145
0.0
146
1.0
147
2.0
 71
     0
 72
     0
 73
     1
 74
     1
 75
     0
 76
     0
 77
     1
 78
    12
170
     0
171
     2
172
     0
173
     0
174
     0
175
     0
176
     0
177
     0
178
     0
  0
DIMSTYLE
  2
STANDARD
 70
     0
  3

  4

  5

  6

  7

 40
1.0
 41
0.18
 42
0.0625
 43
0.38
 44
0.18
 45
0.0
 46
0.0
 47
0.0
 48
0.0
140
0.18
141
0.09
142
0.0
143
25.4
144
1.0
145
0.0
146
1.0
147
0.09
 71
     0
 72
     0
 73
     1
 74
     1
 75
     0
 76
     0
 77
     0
 78
     0
170
     0
171
     2
172
     0
173
     0
174
     0
175
     0
176
     0
177
     0
178
     0
  0
ENDTAB
  0
ENDSEC
  0
SECTION
  2
BLOCKS
  0
BLOCK
  8
0
  2
$MODEL_SPACE
 70
     0
 10
0.0
 20
0.0
 30
0.0
  3
$MODEL_SPACE
  1

  0
ENDBLK
  5
DAD2
  8
0
  0
BLOCK
 67
     1
  8
0
  2
$PAPER_SPACE
 70
     0
 10
0.0
 20
0.0
 30
0.0
  3
$PAPER_SPACE
  1

  0
ENDBLK
  5
DAD0
 67
     1
  8
0
  0
BLOCK
  8
0
  2
COTE
 70
     0
 10
0.0
 20
0.0
 30
0.0
  3
COTE
  1

  0
ENDBLK
  5
F
  8
0
  0
BLOCK
  8
0
  2
FOND
 70
     0
 10
0.0
 20
0.0
 30
0.0
  3
FOND
  1

  0
ENDBLK
  5
75
  8
0
  0
BLOCK
  8
0
  2
_OPEN30
 70
     0
 10
0.0
 20
0.0
 30
0.0
  3
_OPEN30
  1

  0
LINE
  5
4B05
  8
COTATION1
 62
     0
 10
-1.0
 20
0.267949
 30
0.0
 11
0.0
 21
0.0
 31
0.0
1001
ACAD
1000
RTLwPs
1070
   158
  0
LINE
  5
4B06
  8
COTATION1
 62
     0
 10
0.0
 20
0.0
 30
0.0
 11
-1.0
 21
-0.267949
 31
0.0
1001
ACAD
1000
RTLwPs
1070
   158
  0
LINE
  5
4B07
  8
COTATION1
 62
     0
 10
0.0
 20
0.0
 30
0.0
 11
-1.0
 21
0.0
 31
0.0
1001
ACAD
1000
RTLwPs
1070
   158
  0
ENDBLK
  5
4B09
  8
0
  0
BLOCK
  8
0
  2
*D3
 70
     1
 10
0.0
 20
0.0
 30
0.0
  3
*D3
  1

  0
LINE
  5
D5B1
  8
COTATION1
 62
     0
 10
21.229215
 20
21.181955
 30
0.0
 11
21.229215
 21
0.145801
 31
0.0
1001
ACAD
1000
RTLwPs
1070
   158
  0
LINE
  5
D5B2
  8
COTATION1
 62
     0
 10
52.029215
 20
21.181955
 30
0.0
 11
52.029215
 21
0.145801
 31
0.0
1001
ACAD
1000
RTLwPs
1070
   158
  0
LINE
  5
D5B3
  8
COTATION1
 62
     0
 10
26.229215
 20
2.645801
 30
0.0
 11
47.029215
 21
2.645801
 31
0.0
1001
ACAD
1000
RTLwPs
1070
   158
  0
INSERT
  5
D5B4
  8
COTATION1
 62
     0
  2
_OPEN30
 10
21.229215
 20
2.645801
 30
0.0
 41
5.0
 42
5.0
 43
5.0
 50
180.0
1001
ACAD
1000
RTLwPs
1070
   158
  0
INSERT
  5
D5B5
  8
COTATION1
 62
     0
  2
_OPEN30
 10
52.029215
 20
2.645801
 30
0.0
 41
5.0
 42
5.0
 43
5.0
1001
ACAD
1000
RTLwPs
1070
   158
  0
TEXT
  5
D5B6
  8
COTATION1
 62
     0
 10
32.462548
 20
4.645801
 30
0.0
 40
2.5
  1
30.8
1001
ACAD
1000
MTEXTBEGIN
1070
    73
1070
     1
1070
    44
1040
1.0
1070
    74
1070
     0
1000
MTEXTEND
  0
POINT
  5
D5B7
  8
DEFPOINTS
 62
     0
 10
21.229215
 20
23.181955
 30
0.0
  0
POINT
  5
D5B8
  8
DEFPOINTS
 62
     0
 10
52.029215
 20
23.181955
 30
0.0
  0
POINT
  5
D5B9
  8
DEFPOINTS
 62
     0
 10
52.029215
 20
2.645801
 30
0.0
  0
ENDBLK
  5
D507
  8
0
  0
BLOCK
  8
0
  2
*D4
 70
     1
 10
0.0
 20
0.0
 30
0.0
  3
*D4
  1

  0
LINE
  5
D5A7
  8
COTATION1
 62
     0
 10
46.629215
 20
88.481955
 30
0.0
 11
74.529215
 21
88.481955
 31
0.0
1001
ACAD
1000
RTLwPs
1070
   158
  0
LINE
  5
D5A8
  8
COTATION1
 62
     0
 10
54.029215
 20
23.181955
 30
0.0
 11
74.529215
 21
23.181955
 31
0.0
1001
ACAD
1000
RTLwPs
1070
   158
  0
LINE
  5
D5A9
  8
COTATION1
 62
     0
 10
72.029215
 20
83.481955
 30
0.0
 11
72.029215
 21
59.081955
 31
0.0
1001
ACAD
1000
RTLwPs
1070
   158
  0
LINE
  5
D5AA
  8
COTATION1
 62
     0
 10
72.029215
 20
28.181955
 30
0.0
 11
72.029215
 21
52.581955
 31
0.0
1001
ACAD
1000
RTLwPs
1070
   158
  0
INSERT
  5
D5AB
  8
COTATION1
 62
     0
  2
_OPEN30
 10
72.029215
 20
88.481955
 30
0.0
 41
5.0
 42
5.0
 43
5.0
 50
90.0
1001
ACAD
1000
RTLwPs
1070
   158
  0
INSERT
  5
D5AC
  8
COTATION1
 62
     0
  2
_OPEN30
 10
72.029215
 20
23.181955
 30
0.0
 41
5.0
 42
5.0
 43
5.0
 50
270.0
1001
ACAD
1000
RTLwPs
1070
   158
  0
TEXT
  5
D5AD
  8
COTATION1
 62
     0
 10
67.803025
 20
54.581955
 30
0.0
 40
2.5
  1
65.3
1001
ACAD
1000
MTEXTBEGIN
1070
    73
1070
     1
1070
    44
1040
1.0
1070
    74
1070
     0
1000
MTEXTEND
  0
POINT
  5
D5AE
  8
DEFPOINTS
 62
     0
 10
44.629215
 20
88.481955
 30
0.0
  0
POINT
  5
D5AF
  8
DEFPOINTS
 62
     0
 10
52.029215
 20
23.181955
 30
0.0
  0
POINT
  5
D5B0
  8
DEFPOINTS
 62
     0
 10
72.029215
 20
23.181955
 30
0.0
  0
ENDBLK
  5
D54C
  8
0
  0
ENDSEC
  0
SECTION
  2
ENTITIES
  0
INSERT
  5
A
  8
0
  2
COTE
 10
0.0
 20
0.0
 30
0.0
  0
INSERT
  5
17
  8
0
  2
COTE
 10
284.010391
 20
6.373258
 30
0.0
  0
INSERT
  5
72
  8
0
  2
FOND
 10
0.0
 20
0.0
 30
0.0
  0
ARC
  5
D2C7
  8
ALPHA
 10
36.629215
 20
95.881955
 30
0.0
 40
15.1
 50
287.751353
 51
314.091085
  0
ARC
  5
D2C8
  8
ALPHA
 10
46.629215
 20
78.481955
 30
0.0
 40
2.1
 50
121.588136
 51
270.0
  0
ARC
  5
D2C9
  8
ALPHA
 10
44.679215
 20
83.812716
 30
0.0
 40
0.2
 50
302.950817
 51
0.0
  0
ARC
  5
D2CA
  8
ALPHA
 10
36.629215
 20
28.191955
 30
0.0
 40
59.89
 50
75.99646
 51
104.00354
  0
ARC
  5
D2CB
  8
ALPHA
 10
36.629215
 20
28.191955
 30
0.0
 40
60.29
 50
75.99646
 51
104.00354
  0
ARC
  5
D2CC
  8
ALPHA
 10
36.629215
 20
95.931955
 30
0.0
 40
15.0
 50
285.683403
 51
304.518108
  0
LINE
  5
D2CD
  8
ALPHA
 10
46.838301
 20
85.931955
 30
0.0
 11
26.420129
 21
85.931955
 31
0.0
  0
POLYLINE
  5
D2CE
  8
ALPHA
 66
     1
 10
0.0
 20
0.0
 30
0.0
  0
VERTEX
  5
DAD8
  8
ALPHA
 10
26.420129
 20
85.931955
 30
0.0
  0
VERTEX
  5
DAD9
  8
ALPHA
 10
30.71965
 20
86.598761
 30
0.0
  0
VERTEX
  5
DADA
  8
ALPHA
 10
34.691546
 20
86.895784
 30
0.0
  0
VERTEX
  5
DADB
  8
ALPHA
 10
38.298067
 20
86.90499
 30
0.0
  0
VERTEX
  5
DADC
  8
ALPHA
 10
41.53193
 20
86.702713
 30
0.0
  0
VERTEX
  5
DADD
  8
ALPHA
 10
44.380567
 20
86.357704
 30
0.0
  0
VERTEX
  5
DADE
  8
ALPHA
 10
46.838301
 20
85.931955
 30
0.0
  0
SEQEND
  5
DADF
  8
ALPHA
  0
LINE
  5
D2CF
  8
ALPHA
 10
44.629215
 20
88.481955
 30
0.0
 11
45.243704
 21
87.867466
 31
0.0
  0
LINE
  5
D2D0
  8
ALPHA
 10
44.879215
 20
85.331955
 30
0.0
 11
46.529215
 21
85.331955
 31
0.0
  0
LINE
  5
D2D1
  8
ALPHA
 10
46.529215
 20
85.296947
 30
0.0
 11
44.879215
 21
85.296947
 31
0.0
  0
LINE
  5
D2D2
  8
ALPHA
 10
45.109217
 20
84.521949
 30
0.0
 11
44.879215
 21
84.521949
 31
0.0
  0
LINE
  5
D2D3
  8
ALPHA
 10
44.879215
 20
84.431222
 30
0.0
 11
45.129215
 21
84.431222
 31
0.0
  0
POLYLINE
  5
D2D4
  8
ALPHA
 66
     1
 10
0.0
 20
0.0
 30
0.0
  0
VERTEX
  5
DAE0
  8
ALPHA
 10
45.287705
 20
73.189328
 30
0.0
  0
VERTEX
  5
DAE1
  8
ALPHA
 10
45.190757
 20
73.232022
 30
0.0
  0
VERTEX
  5
DAE2
  8
ALPHA
 10
45.085218
 20
73.276589
 30
0.0
  0
VERTEX
  5
DAE3
  8
ALPHA
 10
44.970927
 20
73.3226
 30
0.0
  0
VERTEX
  5
DAE4
  8
ALPHA
 10
44.84775
 20
73.369646
 30
0.0
  0
VERTEX
  5
DAE5
  8
ALPHA
 10
44.715598
 20
73.417281
 30
0.0
  0
SEQEND
  5
DAE6
  8
ALPHA
  0
POLYLINE
  5
D2D5
  8
ALPHA
 66
     1
 10
0.0
 20
0.0
 30
0.0
  0
VERTEX
  5
DAE7
  8
ALPHA
 10
44.984539
 20
74.251552
 30
0.0
  0
VERTEX
  5
DAE8
  8
ALPHA
 10
44.761589
 20
74.348895
 30
0.0
  0
VERTEX
  5
DAE9
  8
ALPHA
 10
44.546258
 20
74.458916
 30
0.0
  0
VERTEX
  5
DAEA
  8
ALPHA
 10
44.338118
 20
74.581673
 30
0.0
  0
VERTEX
  5
DAEB
  8
ALPHA
 10
44.136996
 20
74.717357
 30
0.0
  0
VERTEX
  5
DAEC
  8
ALPHA
 10
43.944494
 20
74.864995
 30
0.0
  0
VERTEX
  5
DAED
  8
ALPHA
 10
43.761308
 20
75.024054
 30
0.0
  0
VERTEX
  5
DAEE
  8
ALPHA
 10
43.588395
 20
75.193659
 30
0.0
  0
SEQEND
  5
DAEF
  8
ALPHA
  0
LINE
  5
D2D6
  8
ALPHA
 10
45.014537
 20
73.24014
 30
0.0
 11
44.863611
 21
73.268455
 31
0.0
  0
LINE
  5
D2D7
  8
ALPHA
 10
44.889922
 20
73.120652
 30
0.0
 11
44.716178
 21
73.152629
 31
0.0
  0
POLYLINE
  5
D2D8
  8
ALPHA
 66
     1
 10
0.0
 20
0.0
 30
0.0
  0
VERTEX
  5
DAF0
  8
ALPHA
 10
43.334685
 20
73.160707
 30
0.0
  0
VERTEX
  5
DAF1
  8
ALPHA
 10
43.538966
 20
73.132263
 30
0.0
  0
VERTEX
  5
DAF2
  8
ALPHA
 10
43.731947
 20
73.109105
 30
0.0
  0
VERTEX
  5
DAF3
  8
ALPHA
 10
43.913776
 20
73.090568
 30
0.0
  0
VERTEX
  5
DAF4
  8
ALPHA
 10
44.084632
 20
73.076039
 30
0.0
  0
VERTEX
  5
DAF5
  8
ALPHA
 10
44.244723
 20
73.064955
 30
0.0
  0
VERTEX
  5
DAF6
  8
ALPHA
 10
44.394295
 20
73.0568
 30
0.0
  0
VERTEX
  5
DAF7
  8
ALPHA
 10
44.533636
 20
73.051111
 30
0.0
  0
VERTEX
  5
DAF8
  8
ALPHA
 10
44.663042
 20
73.047468
 30
0.0
  0
VERTEX
  5
DAF9
  8
ALPHA
 10
44.782828
 20
73.0455
 30
0.0
  0
VERTEX
  5
DAFA
  8
ALPHA
 10
44.893499
 20
73.044878
 30
0.0
  0
VERTEX
  5
DAFB
  8
ALPHA
 10
44.995742
 20
73.045321
 30
0.0
  0
VERTEX
  5
DAFC
  8
ALPHA
 10
45.090257
 20
73.046598
 30
0.0
  0
VERTEX
  5
DAFD
  8
ALPHA
 10
45.177745
 20
73.048521
 30
0.0
  0
VERTEX
  5
DAFE
  8
ALPHA
 10
45.258912
 20
73.050941
 30
0.0
  0
SEQEND
  5
DAFF
  8
ALPHA
  0
POLYLINE
  5
D2D9
  8
ALPHA
 66
     1
 10
0.0
 20
0.0
 30
0.0
  0
VERTEX
  5
DB00
  8
ALPHA
 10
42.695409
 20
76.906822
 30
0.0
  0
VERTEX
  5
DB01
  8
ALPHA
 10
43.025312
 20
76.107318
 30
0.0
  0
VERTEX
  5
DB02
  8
ALPHA
 10
43.522814
 20
75.393498
 30
0.0
  0
VERTEX
  5
DB03
  8
ALPHA
 10
44.155597
 20
74.809579
 30
0.0
  0
VERTEX
  5
DB04
  8
ALPHA
 10
44.907014
 20
74.370922
 30
0.0
  0
SEQEND
  5
DB05
  8
ALPHA
  0
POLYLINE
  5
D2DA
  8
ALPHA
 66
     1
 10
0.0
 20
0.0
 30
0.0
  0
VERTEX
  5
DB06
  8
ALPHA
 10
22.337757
 20
27.616068
 30
0.0
  0
VERTEX
  5
DB07
  8
ALPHA
 10
24.577105
 20
27.772262
 30
0.0
  0
VERTEX
  5
DB08
  8
ALPHA
 10
26.797704
 20
27.904083
 30
0.0
  0
VERTEX
  5
DB09
  8
ALPHA
 10
29.001883
 20
28.010532
 30
0.0
  0
VERTEX
  5
DB0A
  8
ALPHA
 10
31.191384
 20
28.090858
 30
0.0
  0
VERTEX
  5
DB0B
  8
ALPHA
 10
33.369672
 20
28.144625
 30
0.0
  0
VERTEX
  5
DB0C
  8
ALPHA
 10
35.543191
 20
28.1716
 30
0.0
  0
VERTEX
  5
DB0D
  8
ALPHA
 10
37.715246
 20
28.1716
 30
0.0
  0
VERTEX
  5
DB0E
  8
ALPHA
 10
39.888776
 20
28.144624
 30
0.0
  0
VERTEX
  5
DB0F
  8
ALPHA
 10
42.067071
 20
28.090857
 30
0.0
  0
VERTEX
  5
DB10
  8
ALPHA
 10
44.25656
 20
28.010532
 30
0.0
  0
VERTEX
  5
DB11
  8
ALPHA
 10
46.460739
 20
27.904082
 30
0.0
  0
VERTEX
  5
DB12
  8
ALPHA
 10
48.681339
 20
27.772261
 30
0.0
  0
VERTEX
  5
DB13
  8
ALPHA
 10
50.920673
 20
27.616068
 30
0.0
  0
SEQEND
  5
DB14
  8
ALPHA
  0
LINE
  5
D2DB
  8
ALPHA
 10
48.758065
 20
26.381955
 30
0.0
 11
24.500365
 21
26.381955
 31
0.0
  0
POLYLINE
  5
D2DC
  8
ALPHA
 66
     1
 10
0.0
 20
0.0
 30
0.0
  0
VERTEX
  5
DB15
  8
ALPHA
 10
22.426422
 20
26.764813
 30
0.0
  0
VERTEX
  5
DB16
  8
ALPHA
 10
24.651908
 20
26.928616
 30
0.0
  0
VERTEX
  5
DB17
  8
ALPHA
 10
26.858835
 20
27.066878
 30
0.0
  0
VERTEX
  5
DB18
  8
ALPHA
 10
29.049378
 20
27.178534
 30
0.0
  0
VERTEX
  5
DB19
  8
ALPHA
 10
31.225265
 20
27.262791
 30
0.0
  0
VERTEX
  5
DB1A
  8
ALPHA
 10
33.390022
 20
27.319191
 30
0.0
  0
VERTEX
  5
DB1B
  8
ALPHA
 10
35.549971
 20
27.347488
 30
0.0
  0
VERTEX
  5
DB1C
  8
ALPHA
 10
37.708465
 20
27.347487
 30
0.0
  0
VERTEX
  5
DB1D
  8
ALPHA
 10
39.868425
 20
27.319191
 30
0.0
  0
VERTEX
  5
DB1E
  8
ALPHA
 10
42.03319
 20
27.26279
 30
0.0
  0
VERTEX
  5
DB1F
  8
ALPHA
 10
44.209062
 20
27.178533
 30
0.0
  0
VERTEX
  5
DB20
  8
ALPHA
 10
46.399605
 20
27.066878
 30
0.0
  0
VERTEX
  5
DB21
  8
ALPHA
 10
48.606534
 20
26.928615
 30
0.0
  0
VERTEX
  5
DB22
  8
ALPHA
 10
50.832008
 20
26.764813
 30
0.0
  0
SEQEND
  5
DB23
  8
ALPHA
  0
LINE
  5
D2DD
  8
ALPHA
 10
47.91947
 20
25.489062
 30
0.0
 11
25.33896
 21
25.489062
 31
0.0
  0
LINE
  5
D2DE
  8
ALPHA
 10
47.214682
 20
23.744652
 30
0.0
 11
26.043748
 21
23.744652
 31
0.0
  0
LINE
  5
D2DF
  8
ALPHA
 10
46.75109
 20
23.431955
 30
0.0
 11
26.50734
 21
23.431955
 31
0.0
  0
POLYLINE
  5
D2E1
  8
ALPHA
 66
     1
 10
0.0
 20
0.0
 30
0.0
  0
VERTEX
  5
DB24
  8
ALPHA
 10
22.337757
 20
27.616068
 30
0.0
  0
VERTEX
  5
DB25
  8
ALPHA
 10
22.271861
 20
50.065321
 30
0.0
  0
VERTEX
  5
DB26
  8
ALPHA
 10
22.163728
 20
71.574496
 30
0.0
  0
SEQEND
  5
DB27
  8
ALPHA
  0
LINE
  5
D2E2
  8
ALPHA
 10
21.229215
 20
70.618352
 30
0.0
 11
21.229212
 21
26.979687
 31
0.0
  0
POLYLINE
  5
D2E3
  8
ALPHA
 66
     1
 10
0.0
 20
0.0
 30
0.0
  0
VERTEX
  5
DB28
  8
ALPHA
 10
21.457999
 20
27.575936
 30
0.0
  0
VERTEX
  5
DB29
  8
ALPHA
 10
21.391929
 20
50.228673
 30
0.0
  0
VERTEX
  5
DB2A
  8
ALPHA
 10
21.283214
 20
71.92421
 30
0.0
  0
SEQEND
  5
DB2B
  8
ALPHA
  0
LINE
  5
D2E4
  8
0
  6
CONTINUOUS
 62
     2
 10
38.037356
 20
31.331955
 30
0.0
 11
3.297154
 21
31.331955
 31
0.0
  0
LINE
  5
D2E5
  8
0
  6
CONTINUOUS
 62
     2
 10
-1.702846
 20
43.831955
 30
0.0
 11
8.297154
 21
43.831955
 31
0.0
  0
LINE
  5
D2E6
  8
0
  6
CONTINUOUS
 62
     2
 10
8.297154
 20
38.831955
 30
0.0
 11
-1.702846
 21
38.831955
 31
0.0
  0
TEXT
  5
D2E7
  8
0
  6
CONTINUOUS
 62
     2
 10
-0.452846
 20
40.081955
 30
0.0
 40
2.5
  1
ENTRY
 41
0.642857
  7
STANDARD
 72
     5
 11
7.047154
 21
40.081955
 31
0.0
  0
SOLID
  5
D2E8
  8
0
  6
CONTINUOUS
 62
     2
 10
4.74053
 20
31.331955
 30
0.0
 11
1.853778
 21
31.331955
 31
0.0
 12
3.297154
 22
33.831955
 32
0.0
 13
3.297154
 23
33.831955
 33
0.0
  0
LINE
  5
D2E9
  8
0
  6
CONTINUOUS
 62
     2
 10
3.297154
 20
33.831955
 30
0.0
 11
3.297154
 21
38.831955
 31
0.0
  0
LINE
  5
D2EA
  8
0
  6
CONTINUOUS
 62
     2
 10
-1.702846
 20
38.831955
 30
0.0
 11
-1.702846
 21
43.831955
 31
0.0
  0
LINE
  5
D2EB
  8
0
  6
CONTINUOUS
 62
     2
 10
8.297154
 20
43.831955
 30
0.0
 11
8.297154
 21
38.831955
 31
0.0
  0
POLYLINE
  5
D2EC
  8
ALPHA
 66
     1
 10
0.0
 20
0.0
 30
0.0
  0
VERTEX
  5
DB2C
  8
ALPHA
 10
21.264573
 20
23.217366
 30
0.0
  0
VERTEX
  5
DB2D
  8
ALPHA
 10
21.349096
 20
23.25051
 30
0.0
  0
VERTEX
  5
DB2E
  8
ALPHA
 10
21.433462
 20
23.318382
 30
0.0
  0
VERTEX
  5
DB2F
  8
ALPHA
 10
21.517651
 20
23.420939
 30
0.0
  0
VERTEX
  5
DB30
  8
ALPHA
 10
21.601636
 20
23.558114
 30
0.0
  0
VERTEX
  5
DB31
  8
ALPHA
 10
21.685371
 20
23.729701
 30
0.0
  0
VERTEX
  5
DB32
  8
ALPHA
 10
21.768835
 20
23.935382
 30
0.0
  0
VERTEX
  5
DB33
  8
ALPHA
 10
21.852042
 20
24.174788
 30
0.0
  0
VERTEX
  5
DB34
  8
ALPHA
 10
21.935007
 20
24.447533
 30
0.0
  0
VERTEX
  5
DB35
  8
ALPHA
 10
22.017732
 20
24.753318
 30
0.0
  0
VERTEX
  5
DB36
  8
ALPHA
 10
22.100206
 20
25.091955
 30
0.0
  0
VERTEX
  5
DB37
  8
ALPHA
 10
22.182399
 20
25.463191
 30
0.0
  0
VERTEX
  5
DB38
  8
ALPHA
 10
22.264235
 20
25.866465
 30
0.0
  0
VERTEX
  5
DB39
  8
ALPHA
 10
22.345614
 20
26.300783
 30
0.0
  0
VERTEX
  5
DB3A
  8
ALPHA
 10
22.426422
 20
26.764813
 30
0.0
  0
SEQEND
  5
DB3B
  8
ALPHA
  0
POLYLINE
  5
D2ED
  8
ALPHA
 66
     1
 10
0.0
 20
0.0
 30
0.0
  0
VERTEX
  5
DB3C
  8
ALPHA
 10
24.30183
 20
23.217366
 30
0.0
  0
VERTEX
  5
DB3D
  8
ALPHA
 10
24.35371
 20
23.458468
 30
0.0
  0
VERTEX
  5
DB3E
  8
ALPHA
 10
24.404624
 20
24.073773
 30
0.0
  0
VERTEX
  5
DB3F
  8
ALPHA
 10
24.453768
 20
25.053381
 30
0.0
  0
VERTEX
  5
DB40
  8
ALPHA
 10
24.500365
 20
26.381955
 30
0.0
  0
SEQEND
  5
DB41
  8
ALPHA
  0
POLYLINE
  5
D2EE
  8
ALPHA
 66
     1
 10
0.0
 20
0.0
 30
0.0
  0
VERTEX
  5
DB42
  8
ALPHA
 10
21.264573
 20
23.217366
 30
0.0
  0
VERTEX
  5
DB43
  8
ALPHA
 10
21.281307
 20
23.328366
 30
0.0
  0
VERTEX
  5
DB44
  8
ALPHA
 10
21.297837
 20
23.479068
 30
0.0
  0
VERTEX
  5
DB45
  8
ALPHA
 10
21.314138
 20
23.669032
 30
0.0
  0
VERTEX
  5
DB46
  8
ALPHA
 10
21.330183
 20
23.897766
 30
0.0
  0
VERTEX
  5
DB47
  8
ALPHA
 10
21.345933
 20
24.164576
 30
0.0
  0
VERTEX
  5
DB48
  8
ALPHA
 10
21.361355
 20
24.468689
 30
0.0
  0
VERTEX
  5
DB49
  8
ALPHA
 10
21.376417
 20
24.809332
 30
0.0
  0
VERTEX
  5
DB4A
  8
ALPHA
 10
21.391095
 20
25.185704
 30
0.0
  0
VERTEX
  5
DB4B
  8
ALPHA
 10
21.405373
 20
25.597191
 30
0.0
  0
VERTEX
  5
DB4C
  8
ALPHA
 10
21.419234
 20
26.043186
 30
0.0
  0
VERTEX
  5
DB4D
  8
ALPHA
 10
21.432651
 20
26.522749
 30
0.0
  0
VERTEX
  5
DB4E
  8
ALPHA
 10
21.445582
 20
27.034296
 30
0.0
  0
VERTEX
  5
DB4F
  8
ALPHA
 10
21.457985
 20
27.575936
 30
0.0
  0
SEQEND
  5
DB50
  8
ALPHA
  0
LINE
  5
D2EF
  8
ALPHA
 10
24.429215
 20
24.563951
 30
0.0
 11
24.429215
 21
23.481955
 31
0.0
  0
POLYLINE
  5
D2F0
  8
ALPHA
 66
     1
 10
0.0
 20
0.0
 30
0.0
  0
VERTEX
  5
DB51
  8
ALPHA
 10
25.588859
 20
23.557505
 30
0.0
  0
VERTEX
  5
DB52
  8
ALPHA
 10
25.577891
 20
23.684852
 30
0.0
  0
VERTEX
  5
DB53
  8
ALPHA
 10
25.550712
 20
23.810466
 30
0.0
  0
VERTEX
  5
DB54
  8
ALPHA
 10
25.507707
 20
23.932112
 30
0.0
  0
SEQEND
  5
DB55
  8
ALPHA
  0
LINE
  5
D2F1
  8
ALPHA
 10
21.229215
 20
26.978007
 30
0.0
 11
21.229215
 21
23.181955
 31
0.0
  0
LINE
  5
D2F2
  8
ALPHA
 10
26.043748
 20
23.744652
 30
0.0
 11
25.33896
 21
25.489062
 31
0.0
  0
LINE
  5
D2F3
  8
ALPHA
 10
21.264573
 20
23.217366
 30
0.0
 11
24.30183
 21
23.217366
 31
0.0
  0
LINE
  5
D2F4
  8
ALPHA
 10
24.266419
 20
23.181955
 30
0.0
 11
21.229215
 21
23.181955
 31
0.0
  0
LINE
  5
D2F5
  8
ALPHA
 10
21.229215
 20
23.181955
 30
0.0
 11
21.264573
 21
23.217366
 31
0.0
  0
LINE
  5
D2F6
  8
ALPHA
 10
24.30183
 20
23.217366
 30
0.0
 11
24.266419
 21
23.181955
 31
0.0
  0
ARC
  5
D2F7
  8
ALPHA
 10
26.50734
 20
23.931955
 30
0.0
 40
0.5
 50
202.0
 51
270.0
  0
LINE
  5
D2F8
  8
ALPHA
 10
25.590542
 20
23.481955
 30
0.0
 11
25.588859
 21
23.557505
 31
0.0
  0
LINE
  5
D2F9
  8
ALPHA
 10
25.588859
 20
23.557505
 30
0.0
 11
26.184016
 21
23.557505
 31
0.0
  0
LINE
  5
D2FA
  8
ALPHA
 10
24.429215
 20
23.481955
 30
0.0
 11
26.302132
 21
23.481955
 31
0.0
  0
POLYLINE
  5
D2FB
  8
ALPHA
 66
     1
 10
0.0
 20
0.0
 30
0.0
  0
VERTEX
  5
DB56
  8
ALPHA
 10
21.457985
 20
27.575936
 30
0.0
  0
VERTEX
  5
DB57
  8
ALPHA
 10
21.50779
 20
27.337165
 30
0.0
  0
VERTEX
  5
DB58
  8
ALPHA
 10
21.646612
 20
27.115547
 30
0.0
  0
VERTEX
  5
DB59
  8
ALPHA
 10
21.861042
 20
26.934977
 30
0.0
  0
VERTEX
  5
DB5A
  8
ALPHA
 10
22.130321
 20
26.813786
 30
0.0
  0
VERTEX
  5
DB5B
  8
ALPHA
 10
22.426422
 20
26.764813
 30
0.0
  0
SEQEND
  5
DB5C
  8
ALPHA
  0
POLYLINE
  5
D2FC
  8
ALPHA
 66
     1
 10
0.0
 20
0.0
 30
0.0
  0
VERTEX
  5
DB5D
  8
ALPHA
 10
21.457999
 20
27.575936
 30
0.0
  0
VERTEX
  5
DB5E
  8
ALPHA
 10
21.50342
 20
27.58351
 30
0.0
  0
VERTEX
  5
DB5F
  8
ALPHA
 10
21.627068
 20
27.591105
 30
0.0
  0
VERTEX
  5
DB60
  8
ALPHA
 10
21.818782
 20
27.59891
 30
0.0
  0
VERTEX
  5
DB61
  8
ALPHA
 10
22.062856
 20
27.607153
 30
0.0
  0
VERTEX
  5
DB62
  8
ALPHA
 10
22.337757
 20
27.616068
 30
0.0
  0
SEQEND
  5
DB63
  8
ALPHA
  0
POLYLINE
  5
D2FD
  8
ALPHA
 66
     1
 10
0.0
 20
0.0
 30
0.0
  0
VERTEX
  5
DB64
  8
ALPHA
 10
22.337757
 20
27.616068
 30
0.0
  0
VERTEX
  5
DB65
  8
ALPHA
 10
22.352372
 20
27.364351
 30
0.0
  0
VERTEX
  5
DB66
  8
ALPHA
 10
22.373301
 20
27.128782
 30
0.0
  0
VERTEX
  5
DB67
  8
ALPHA
 10
22.398698
 20
26.924557
 30
0.0
  0
VERTEX
  5
DB68
  8
ALPHA
 10
22.426422
 20
26.764812
 30
0.0
  0
SEQEND
  5
DB69
  8
ALPHA
  0
ARC
  5
D2FE
  8
ALPHA
 10
28.120512
 20
26.612882
 30
0.0
 40
3.0
 50
184.436814
 51
202.0
  0
LINE
  5
D2FF
  8
ALPHA
 10
24.886098
 20
26.381955
 30
0.0
 11
24.889351
 21
25.962453
 31
0.0
  0
POLYLINE
  5
D300
  8
ALPHA
 66
     1
 10
0.0
 20
0.0
 30
0.0
  0
VERTEX
  5
DB6A
  8
ALPHA
 10
25.120802
 20
24.845043
 30
0.0
  0
VERTEX
  5
DB6B
  8
ALPHA
 10
24.995143
 20
25.207184
 30
0.0
  0
VERTEX
  5
DB6C
  8
ALPHA
 10
24.917585
 20
25.581729
 30
0.0
  0
VERTEX
  5
DB6D
  8
ALPHA
 10
24.889351
 20
25.962453
 30
0.0
  0
SEQEND
  5
DB6E
  8
ALPHA
  0
POLYLINE
  5
D301
  8
ALPHA
 66
     1
 10
0.0
 20
0.0
 30
0.0
  0
VERTEX
  5
DB6F
  8
ALPHA
 10
25.507707
 20
23.932112
 30
0.0
  0
VERTEX
  5
DB70
  8
ALPHA
 10
25.379303
 20
24.2339
 30
0.0
  0
VERTEX
  5
DB71
  8
ALPHA
 10
25.250336
 20
24.53821
 30
0.0
  0
VERTEX
  5
DB72
  8
ALPHA
 10
25.120802
 20
24.845043
 30
0.0
  0
SEQEND
  5
DB73
  8
ALPHA
  0
POLYLINE
  5
D302
  8
ALPHA
 66
     1
 10
0.0
 20
0.0
 30
0.0
  0
VERTEX
  5
DB74
  8
ALPHA
 10
25.567809
 20
24.922643
 30
0.0
  0
VERTEX
  5
DB75
  8
ALPHA
 10
25.39999
 20
24.90599
 30
0.0
  0
VERTEX
  5
DB76
  8
ALPHA
 10
25.120816
 20
24.84501
 30
0.0
  0
SEQEND
  5
DB77
  8
ALPHA
  0
POLYLINE
  5
D303
  8
ALPHA
 66
     1
 10
0.0
 20
0.0
 30
0.0
  0
VERTEX
  5
DB78
  8
ALPHA
 10
25.178067
 20
26.028473
 30
0.0
  0
VERTEX
  5
DB79
  8
ALPHA
 10
25.13719
 20
26.024237
 30
0.0
  0
VERTEX
  5
DB7A
  8
ALPHA
 10
24.889352
 20
25.962425
 30
0.0
  0
SEQEND
  5
DB7B
  8
ALPHA
  0
LINE
  5
D304
  8
ALPHA
 10
25.507707
 20
23.932112
 30
0.0
 11
25.968009
 21
23.932112
 31
0.0
  0
LINE
  5
D305
  8
AXE
 10
36.629215
 20
19.481955
 30
0.0
 11
36.629215
 21
29.348118
 31
0.0
  0
LINE
  5
D306
  8
0
  6
CONTINUOUS
 62
     2
 10
28.629172
 20
88.481955
 30
0.0
 11
0.862093
 21
88.481955
 31
0.0
  0
LINE
  5
D307
  8
0
  6
CONTINUOUS
 62
     2
 10
0.862093
 20
90.981955
 30
0.0
 11
0.862093
 21
95.981955
 31
0.0
  0
SOLID
  5
D308
  8
0
  6
CONTINUOUS
 62
     2
 10
2.305469
 20
88.481955
 30
0.0
 11
-0.581283
 21
88.481955
 31
0.0
 12
0.862093
 22
90.981955
 32
0.0
 13
0.862093
 23
90.981955
 33
0.0
  0
LINE
  5
D309
  8
0
  6
CONTINUOUS
 62
     2
 10
-3.387907
 20
100.981955
 30
0.0
 11
5.112093
 21
100.981955
 31
0.0
  0
LINE
  5
D30A
  8
0
  6
CONTINUOUS
 62
     2
 10
5.112093
 20
95.981955
 30
0.0
 11
-3.387907
 21
95.981955
 31
0.0
  0
TEXT
  5
D30B
  8
0
  6
CONTINUOUS
 62
     2
 10
-2.137907
 20
97.231955
 30
0.0
 40
2.5
  1
HEAD
 41
0.654545
  7
STANDARD
 72
     5
 11
3.862093
 21
97.231955
 31
0.0
  0
LINE
  5
D30C
  8
0
  6
CONTINUOUS
 62
     2
 10
-3.387907
 20
95.981955
 30
0.0
 11
-3.387907
 21
100.981955
 31
0.0
  0
LINE
  5
D30D
  8
0
  6
CONTINUOUS
 62
     2
 10
5.112093
 20
100.981955
 30
0.0
 11
5.112093
 21
95.981955
 31
0.0
  0
ARC
  5
D30E
  8
ALPHA
 10
36.629215
 20
95.881955
 30
0.0
 40
15.1
 50
225.908915
 51
252.248647
  0
ARC
  5
D30F
  8
ALPHA
 10
26.629215
 20
78.481955
 30
0.0
 40
2.1
 50
270.0
 51
58.411864
  0
ARC
  5
D310
  8
ALPHA
 10
36.629215
 20
96.231955
 30
0.0
 40
15.0
 50
237.049183
 51
247.921031
  0
ARC
  5
D311
  8
ALPHA
 10
36.629215
 20
95.931955
 30
0.0
 40
15.0
 50
235.481892
 51
254.316597
  0
LINE
  5
D312
  8
ALPHA
 10
35.386367
 20
85.031955
 30
0.0
 11
28.379215
 21
85.031955
 31
0.0
  0
POLYLINE
  5
D313
  8
ALPHA
 66
     1
 10
0.0
 20
0.0
 30
0.0
  0
VERTEX
  5
DB7C
  8
ALPHA
 10
27.999518
 20
73.050941
 30
0.0
  0
VERTEX
  5
DB7D
  8
ALPHA
 10
28.082734
 20
73.048468
 30
0.0
  0
VERTEX
  5
DB7E
  8
ALPHA
 10
28.172495
 20
73.046521
 30
0.0
  0
VERTEX
  5
DB7F
  8
ALPHA
 10
28.269351
 20
73.045262
 30
0.0
  0
VERTEX
  5
DB80
  8
ALPHA
 10
28.373485
 20
73.044885
 30
0.0
  0
VERTEX
  5
DB81
  8
ALPHA
 10
28.484642
 20
73.045601
 30
0.0
  0
VERTEX
  5
DB82
  8
ALPHA
 10
28.6028
 20
73.047634
 30
0.0
  0
VERTEX
  5
DB83
  8
ALPHA
 10
28.728802
 20
73.051249
 30
0.0
  0
VERTEX
  5
DB84
  8
ALPHA
 10
28.863783
 20
73.056784
 30
0.0
  0
VERTEX
  5
DB85
  8
ALPHA
 10
29.008862
 20
73.064657
 30
0.0
  0
VERTEX
  5
DB86
  8
ALPHA
 10
29.165134
 20
73.075377
 30
0.0
  0
VERTEX
  5
DB87
  8
ALPHA
 10
29.333684
 20
73.089551
 30
0.0
  0
VERTEX
  5
DB88
  8
ALPHA
 10
29.515613
 20
73.107908
 30
0.0
  0
VERTEX
  5
DB89
  8
ALPHA
 10
29.711961
 20
73.131296
 30
0.0
  0
VERTEX
  5
DB8A
  8
ALPHA
 10
29.923745
 20
73.160707
 30
0.0
  0
SEQEND
  5
DB8B
  8
ALPHA
  0
POLYLINE
  5
D314
  8
ALPHA
 66
     1
 10
0.0
 20
0.0
 30
0.0
  0
VERTEX
  5
DB8C
  8
ALPHA
 10
29.891376
 20
73.376691
 30
0.0
  0
VERTEX
  5
DB8D
  8
ALPHA
 10
29.691006
 20
73.346253
 30
0.0
  0
VERTEX
  5
DB8E
  8
ALPHA
 10
29.508154
 20
73.317653
 30
0.0
  0
VERTEX
  5
DB8F
  8
ALPHA
 10
29.340819
 20
73.29076
 30
0.0
  0
VERTEX
  5
DB90
  8
ALPHA
 10
29.187323
 20
73.265464
 30
0.0
  0
VERTEX
  5
DB91
  8
ALPHA
 10
29.046189
 20
73.241661
 30
0.0
  0
VERTEX
  5
DB92
  8
ALPHA
 10
28.916169
 20
73.219275
 30
0.0
  0
VERTEX
  5
DB93
  8
ALPHA
 10
28.796428
 20
73.198287
 30
0.0
  0
VERTEX
  5
DB94
  8
ALPHA
 10
28.686236
 20
73.178671
 30
0.0
  0
VERTEX
  5
DB95
  8
ALPHA
 10
28.584822
 20
73.160374
 30
0.0
  0
VERTEX
  5
DB96
  8
ALPHA
 10
28.491758
 20
73.143393
 30
0.0
  0
VERTEX
  5
DB97
  8
ALPHA
 10
28.406863
 20
73.127758
 30
0.0
  0
VERTEX
  5
DB98
  8
ALPHA
 10
28.259275
 20
73.100271
 30
0.0
  0
SEQEND
  5
DB99
  8
ALPHA
  0
POLYLINE
  5
D315
  8
ALPHA
 66
     1
 10
0.0
 20
0.0
 30
0.0
  0
VERTEX
  5
DB9A
  8
ALPHA
 10
29.870404
 20
73.516436
 30
0.0
  0
VERTEX
  5
DB9B
  8
ALPHA
 10
29.668961
 20
73.485689
 30
0.0
  0
VERTEX
  5
DB9C
  8
ALPHA
 10
29.485142
 20
73.45677
 30
0.0
  0
VERTEX
  5
DB9D
  8
ALPHA
 10
29.316944
 20
73.429589
 30
0.0
  0
VERTEX
  5
DB9E
  8
ALPHA
 10
29.162675
 20
73.404056
 30
0.0
  0
VERTEX
  5
DB9F
  8
ALPHA
 10
29.020855
 20
73.380077
 30
0.0
  0
VERTEX
  5
DBA0
  8
ALPHA
 10
28.890255
 20
73.357567
 30
0.0
  0
VERTEX
  5
DBA1
  8
ALPHA
 10
28.770041
 20
73.336485
 30
0.0
  0
VERTEX
  5
DBA2
  8
ALPHA
 10
28.65945
 20
73.316784
 30
0.0
  0
VERTEX
  5
DBA3
  8
ALPHA
 10
28.557711
 20
73.298401
 30
0.0
  0
VERTEX
  5
DBA4
  8
ALPHA
 10
28.464429
 20
73.281329
 30
0.0
  0
VERTEX
  5
DBA5
  8
ALPHA
 10
28.379382
 20
73.265585
 30
0.0
  0
VERTEX
  5
DBA6
  8
ALPHA
 10
28.301969
 20
73.251101
 30
0.0
  0
VERTEX
  5
DBA7
  8
ALPHA
 10
28.231533
 20
73.237797
 30
0.0
  0
VERTEX
  5
DBA8
  8
ALPHA
 10
28.112531
 20
73.215044
 30
0.0
  0
SEQEND
  5
DBA9
  8
ALPHA
  0
POLYLINE
  5
D316
  8
ALPHA
 66
     1
 10
0.0
 20
0.0
 30
0.0
  0
VERTEX
  5
DBAA
  8
ALPHA
 10
27.528031
 20
74.106196
 30
0.0
  0
VERTEX
  5
DBAB
  8
ALPHA
 10
28.351416
 20
74.370922
 30
0.0
  0
VERTEX
  5
DBAC
  8
ALPHA
 10
29.102833
 20
74.809579
 30
0.0
  0
VERTEX
  5
DBAD
  8
ALPHA
 10
29.735616
 20
75.393498
 30
0.0
  0
VERTEX
  5
DBAE
  8
ALPHA
 10
30.233118
 20
76.107318
 30
0.0
  0
VERTEX
  5
DBAF
  8
ALPHA
 10
30.563021
 20
76.906822
 30
0.0
  0
SEQEND
  5
DBB0
  8
ALPHA
  0
POLYLINE
  5
D317
  8
ALPHA
 66
     1
 10
0.0
 20
0.0
 30
0.0
  0
VERTEX
  5
DBB1
  8
ALPHA
 10
28.542832
 20
73.417281
 30
0.0
  0
VERTEX
  5
DBB2
  8
ALPHA
 10
28.410741
 20
73.369669
 30
0.0
  0
VERTEX
  5
DBB3
  8
ALPHA
 10
28.287592
 20
73.322635
 30
0.0
  0
VERTEX
  5
DBB4
  8
ALPHA
 10
28.173299
 20
73.276625
 30
0.0
  0
VERTEX
  5
DBB5
  8
ALPHA
 10
28.067731
 20
73.232046
 30
0.0
  0
VERTEX
  5
DBB6
  8
ALPHA
 10
27.970726
 20
73.189328
 30
0.0
  0
SEQEND
  5
DBB7
  8
ALPHA
  0
POLYLINE
  5
D318
  8
ALPHA
 66
     1
 10
0.0
 20
0.0
 30
0.0
  0
VERTEX
  5
DBB8
  8
ALPHA
 10
29.670024
 20
75.19367
 30
0.0
  0
VERTEX
  5
DBB9
  8
ALPHA
 10
29.517802
 20
75.043281
 30
0.0
  0
VERTEX
  5
DBBA
  8
ALPHA
 10
29.359678
 20
74.902905
 30
0.0
  0
VERTEX
  5
DBBB
  8
ALPHA
 10
29.195107
 20
74.771678
 30
0.0
  0
VERTEX
  5
DBBC
  8
ALPHA
 10
29.022733
 20
74.648548
 30
0.0
  0
VERTEX
  5
DBBD
  8
ALPHA
 10
28.843653
 20
74.534478
 30
0.0
  0
VERTEX
  5
DBBE
  8
ALPHA
 10
28.659747
 20
74.430604
 30
0.0
  0
VERTEX
  5
DBBF
  8
ALPHA
 10
28.470498
 20
74.336543
 30
0.0
  0
VERTEX
  5
DBC0
  8
ALPHA
 10
28.273891
 20
74.251552
 30
0.0
  0
SEQEND
  5
DBC1
  8
ALPHA
  0
LINE
  5
D319
  8
ALPHA
 10
28.629215
 20
88.481955
 30
0.0
 11
28.014726
 21
87.867466
 31
0.0
  0
ARC
  5
D31A
  8
ALPHA
 10
25.629215
 20
80.481955
 30
0.0
 40
2.1
 50
0.0
 51
180.0
  0
LINE
  5
D31B
  8
ALPHA
 10
21.829215
 20
83.966147
 30
0.0
 11
21.829215
 21
72.787458
 31
0.0
  0
LINE
  5
D31C
  8
ALPHA
 10
21.729215
 20
72.501417
 30
0.0
 11
21.729215
 21
84.714174
 31
0.0
  0
POLYLINE
  5
D31D
  8
ALPHA
 66
     1
 10
0.0
 20
0.0
 30
0.0
  0
VERTEX
  5
DBC2
  8
ALPHA
 10
21.285815
 20
72.207113
 30
0.0
  0
VERTEX
  5
DBC3
  8
ALPHA
 10
21.376652
 20
74.013756
 30
0.0
  0
VERTEX
  5
DBC4
  8
ALPHA
 10
21.494989
 20
76.860662
 30
0.0
  0
VERTEX
  5
DBC5
  8
ALPHA
 10
21.584644
 20
79.631433
 30
0.0
  0
VERTEX
  5
DBC6
  8
ALPHA
 10
21.645648
 20
82.331855
 30
0.0
  0
VERTEX
  5
DBC7
  8
ALPHA
 10
21.678006
 20
84.962083
 30
0.0
  0
SEQEND
  5
DBC8
  8
ALPHA
  0
POLYLINE
  5
D31E
  8
ALPHA
 66
     1
 10
0.0
 20
0.0
 30
0.0
  0
VERTEX
  5
DBC9
  8
ALPHA
 10
21.232567
 20
72.046369
 30
0.0
  0
VERTEX
  5
DBCA
  8
ALPHA
 10
21.239989
 20
74.184
 30
0.0
  0
VERTEX
  5
DBCB
  8
ALPHA
 10
21.250667
 20
77.191316
 30
0.0
  0
VERTEX
  5
DBCC
  8
ALPHA
 10
21.261255
 20
80.114076
 30
0.0
  0
VERTEX
  5
DBCD
  8
ALPHA
 10
21.271746
 20
82.958374
 30
0.0
  0
VERTEX
  5
DBCE
  8
ALPHA
 10
21.282111
 20
85.723666
 30
0.0
  0
SEQEND
  5
DBCF
  8
ALPHA
  0
ARC
  5
D31F
  8
ALPHA
 10
25.629215
 20
78.481955
 30
0.0
 40
2.1
 50
180.0
 51
270.0
  0
ARC
  5
D320
  8
ALPHA
 10
36.629215
 20
29.831955
 30
0.0
 40
45.2
 50
101.616127
 51
109.482366
  0
POLYLINE
  5
D321
  8
ALPHA
 66
     1
 10
0.0
 20
0.0
 30
0.0
  0
VERTEX
  5
DBD0
  8
ALPHA
 10
27.581107
 20
74.044285
 30
0.0
  0
VERTEX
  5
DBD1
  8
ALPHA
 10
26.377749
 20
73.782546
 30
0.0
  0
VERTEX
  5
DBD2
  8
ALPHA
 10
25.178952
 20
73.487483
 30
0.0
  0
VERTEX
  5
DBD3
  8
ALPHA
 10
23.985161
 20
73.158921
 30
0.0
  0
VERTEX
  5
DBD4
  8
ALPHA
 10
22.797323
 20
72.796809
 30
0.0
  0
VERTEX
  5
DBD5
  8
ALPHA
 10
21.616097
 20
72.401018
 30
0.0
  0
SEQEND
  5
DBD6
  8
ALPHA
  0
LINE
  5
D322
  8
ALPHA
 10
23.344977
 20
73.522626
 30
0.0
 11
27.905367
 21
74.659659
 31
0.0
  0
POLYLINE
  5
D323
  8
ALPHA
 66
     1
 10
0.0
 20
0.0
 30
0.0
  0
VERTEX
  5
DBD7
  8
ALPHA
 10
27.706643
 20
73.06474
 30
0.0
  0
VERTEX
  5
DBD8
  8
ALPHA
 10
26.589138
 20
72.82467
 30
0.0
  0
VERTEX
  5
DBD9
  8
ALPHA
 10
25.475602
 20
72.555723
 30
0.0
  0
VERTEX
  5
DBDA
  8
ALPHA
 10
24.366384
 20
72.257752
 30
0.0
  0
VERTEX
  5
DBDB
  8
ALPHA
 10
23.262233
 20
71.930708
 30
0.0
  0
VERTEX
  5
DBDC
  8
ALPHA
 10
22.163728
 20
71.574496
 30
0.0
  0
SEQEND
  5
DBDD
  8
ALPHA
  0
ARC
  5
D324
  8
ALPHA
 10
22.129215
 20
72.787458
 30
0.0
 40
0.3
 50
180.0
 51
227.588555
  0
POLYLINE
  5
D325
  8
ALPHA
 66
     1
 10
0.0
 20
0.0
 30
0.0
  0
VERTEX
  5
DBDE
  8
ALPHA
 10
22.163729
 20
71.574496
 30
0.0
  0
VERTEX
  5
DBDF
  8
ALPHA
 10
21.88041
 20
71.677102
 30
0.0
  0
VERTEX
  5
DBE0
  8
ALPHA
 10
21.633554
 20
71.770108
 30
0.0
  0
VERTEX
  5
DBE1
  8
ALPHA
 10
21.444803
 20
71.845143
 30
0.0
  0
VERTEX
  5
DBE2
  8
ALPHA
 10
21.32636
 20
71.897455
 30
0.0
  0
VERTEX
  5
DBE3
  8
ALPHA
 10
21.283399
 20
71.924212
 30
0.0
  0
SEQEND
  5
DBE4
  8
ALPHA
  0
LINE
  5
D326
  8
ALPHA
 10
21.282456
 20
71.926513
 30
0.0
 11
21.221078
 21
71.969646
 31
0.0
  0
LINE
  5
D327
  8
ALPHA
 10
21.616097
 20
72.401018
 30
0.0
 11
21.554259
 21
72.443992
 31
0.0
  0
POLYLINE
  5
D328
  8
ALPHA
 66
     1
 10
0.0
 20
0.0
 30
0.0
  0
VERTEX
  5
DBE5
  8
ALPHA
 10
22.163729
 20
71.574496
 30
0.0
  0
VERTEX
  5
DBE6
  8
ALPHA
 10
21.977564
 20
71.814969
 30
0.0
  0
VERTEX
  5
DBE7
  8
ALPHA
 10
21.818374
 20
72.032947
 30
0.0
  0
VERTEX
  5
DBE8
  8
ALPHA
 10
21.700366
 20
72.209212
 30
0.0
  0
VERTEX
  5
DBE9
  8
ALPHA
 10
21.631015
 20
72.331854
 30
0.0
  0
VERTEX
  5
DBEA
  8
ALPHA
 10
21.613161
 20
72.394782
 30
0.0
  0
SEQEND
  5
DBEB
  8
ALPHA
  0
POLYLINE
  5
D329
  8
ALPHA
 66
     1
 10
0.0
 20
0.0
 30
0.0
  0
VERTEX
  5
DBEC
  8
ALPHA
 10
21.283193
 20
71.92421
 30
0.0
  0
VERTEX
  5
DBED
  8
ALPHA
 10
21.282823
 20
71.925808
 30
0.0
  0
VERTEX
  5
DBEE
  8
ALPHA
 10
21.282456
 20
71.926513
 30
0.0
  0
SEQEND
  5
DBEF
  8
ALPHA
  0
POLYLINE
  5
D32A
  8
ALPHA
 66
     1
 10
0.0
 20
0.0
 30
0.0
  0
VERTEX
  5
DBF0
  8
ALPHA
 10
21.221078
 20
71.969646
 30
0.0
  0
VERTEX
  5
DBF1
  8
ALPHA
 10
21.243901
 20
72.122058
 30
0.0
  0
VERTEX
  5
DBF2
  8
ALPHA
 10
21.311898
 20
72.260041
 30
0.0
  0
VERTEX
  5
DBF3
  8
ALPHA
 10
21.418629
 20
72.370816
 30
0.0
  0
VERTEX
  5
DBF4
  8
ALPHA
 10
21.554259
 20
72.443992
 30
0.0
  0
SEQEND
  5
DBF5
  8
ALPHA
  0
LINE
  5
D32B
  8
ALPHA
 10
21.221078
 20
71.969646
 30
0.0
 11
21.229215
 21
70.618352
 31
0.0
  0
POLYLINE
  5
D32C
  8
ALPHA
 66
     1
 10
0.0
 20
0.0
 30
0.0
  0
VERTEX
  5
DBF6
  8
ALPHA
 10
21.613137
 20
72.394848
 30
0.0
  0
VERTEX
  5
DBF7
  8
ALPHA
 10
21.614465
 20
72.398778
 30
0.0
  0
VERTEX
  5
DBF8
  8
ALPHA
 10
21.616096
 20
72.401019
 30
0.0
  0
SEQEND
  5
DBF9
  8
ALPHA
  0
POLYLINE
  5
D32D
  8
ALPHA
 66
     1
 10
0.0
 20
0.0
 30
0.0
  0
VERTEX
  5
DBFA
  8
ALPHA
 10
21.283193
 20
71.92421
 30
0.0
  0
VERTEX
  5
DBFB
  8
ALPHA
 10
21.323646
 20
72.122509
 30
0.0
  0
VERTEX
  5
DBFC
  8
ALPHA
 10
21.44004
 20
72.288535
 30
0.0
  0
VERTEX
  5
DBFD
  8
ALPHA
 10
21.613137
 20
72.394848
 30
0.0
  0
SEQEND
  5
DBFE
  8
ALPHA
  0
POLYLINE
  5
D32E
  8
ALPHA
 66
     1
 10
0.0
 20
0.0
 30
0.0
  0
VERTEX
  5
DBFF
  8
ALPHA
 10
21.282456
 20
71.926513
 30
0.0
  0
VERTEX
  5
DC00
  8
ALPHA
 10
21.323219
 20
72.127216
 30
0.0
  0
VERTEX
  5
DC01
  8
ALPHA
 10
21.441021
 20
72.294755
 30
0.0
  0
VERTEX
  5
DC02
  8
ALPHA
 10
21.616097
 20
72.401018
 30
0.0
  0
SEQEND
  5
DC03
  8
ALPHA
  0
LINE
  5
D32F
  8
ALPHA
 10
23.793707
 20
73.582976
 30
0.0
 11
23.939251
 21
73.619264
 31
0.0
  0
LINE
  5
D330
  8
ALPHA
 10
24.035642
 20
73.232662
 30
0.0
 11
23.927155
 21
73.667779
 31
0.0
  0
LINE
  5
D331
  8
ALPHA
 10
23.781611
 20
73.631491
 30
0.0
 11
23.891079
 21
73.192437
 31
0.0
  0
LINE
  5
D332
  8
ALPHA
 10
23.490522
 20
73.558914
 30
0.0
 11
23.601953
 21
73.111989
 31
0.0
  0
LINE
  5
D333
  8
ALPHA
 10
23.344977
 20
73.522626
 30
0.0
 11
23.458109
 21
73.068882
 31
0.0
  0
LINE
  5
D334
  8
ALPHA
 10
23.529215
 20
78.481955
 30
0.0
 11
23.529215
 21
80.481955
 31
0.0
  0
POLYLINE
  5
D335
  8
ALPHA
 66
     1
 10
0.0
 20
0.0
 30
0.0
  0
VERTEX
  5
DC04
  8
ALPHA
 10
27.651061
 20
74.059133
 30
0.0
  0
VERTEX
  5
DC05
  8
ALPHA
 10
27.616122
 20
74.051554
 30
0.0
  0
VERTEX
  5
DC06
  8
ALPHA
 10
27.581107
 20
74.044285
 30
0.0
  0
SEQEND
  5
DC07
  8
ALPHA
  0
LINE
  5
D336
  8
ALPHA
 10
27.335286
 20
74.465991
 30
0.0
 11
27.48083
 21
74.502279
 31
0.0
  0
POLYLINE
  5
D337
  8
ALPHA
 66
     1
 10
0.0
 20
0.0
 30
0.0
  0
VERTEX
  5
DC08
  8
ALPHA
 10
27.999518
 20
73.050941
 30
0.0
  0
VERTEX
  5
DC09
  8
ALPHA
 10
27.967403
 20
73.052826
 30
0.0
  0
VERTEX
  5
DC0A
  8
ALPHA
 10
27.938027
 20
73.056359
 30
0.0
  0
VERTEX
  5
DC0B
  8
ALPHA
 10
27.911446
 20
73.061889
 30
0.0
  0
VERTEX
  5
DC0C
  8
ALPHA
 10
27.888051
 20
73.070176
 30
0.0
  0
VERTEX
  5
DC0D
  8
ALPHA
 10
27.869571
 20
73.082875
 30
0.0
  0
VERTEX
  5
DC0E
  8
ALPHA
 10
27.862232
 20
73.102568
 30
0.0
  0
VERTEX
  5
DC0F
  8
ALPHA
 10
27.871775
 20
73.123804
 30
0.0
  0
VERTEX
  5
DC10
  8
ALPHA
 10
27.890334
 20
73.141976
 30
0.0
  0
VERTEX
  5
DC11
  8
ALPHA
 10
27.913703
 20
73.158171
 30
0.0
  0
VERTEX
  5
DC12
  8
ALPHA
 10
27.940815
 20
73.173242
 30
0.0
  0
VERTEX
  5
DC13
  8
ALPHA
 10
27.97097
 20
73.188465
 30
0.0
  0
SEQEND
  5
DC14
  8
ALPHA
  0
LINE
  5
D338
  8
ALPHA
 10
28.259275
 20
73.100271
 30
0.0
 11
28.140187
 21
73.077806
 31
0.0
  0
LINE
  5
D339
  8
ALPHA
 10
28.140187
 20
73.077806
 30
0.0
 11
27.999518
 21
73.050941
 31
0.0
  0
LINE
  5
D33A
  8
ALPHA
 10
28.112531
 20
73.215044
 30
0.0
 11
27.971354
 21
73.187602
 31
0.0
  0
LINE
  5
D33B
  8
ALPHA
 10
27.528031
 20
74.106196
 30
0.0
 11
27.581107
 21
74.044285
 31
0.0
  0
LINE
  5
D33C
  8
ALPHA
 10
28.005117
 20
74.259584
 30
0.0
 11
27.905367
 21
74.659659
 31
0.0
  0
LINE
  5
D33D
  8
ALPHA
 10
27.759823
 20
74.623371
 30
0.0
 11
27.861998
 21
74.21357
 31
0.0
  0
LINE
  5
D33E
  8
ALPHA
 10
27.576568
 20
74.118298
 30
0.0
 11
27.468734
 21
74.550794
 31
0.0
  0
LINE
  5
D33F
  8
ALPHA
 10
27.32319
 20
74.514506
 30
0.0
 11
27.43057
 21
74.083826
 31
0.0
  0
POLYLINE
  5
D340
  8
ALPHA
 66
     1
 10
0.0
 20
0.0
 30
0.0
  0
VERTEX
  5
DC15
  8
ALPHA
 10
27.581107
 20
74.044285
 30
0.0
  0
VERTEX
  5
DC16
  8
ALPHA
 10
27.570297
 20
74.004206
 30
0.0
  0
VERTEX
  5
DC17
  8
ALPHA
 10
27.573301
 20
73.902705
 30
0.0
  0
VERTEX
  5
DC18
  8
ALPHA
 10
27.589921
 20
73.746419
 30
0.0
  0
VERTEX
  5
DC19
  8
ALPHA
 10
27.619071
 20
73.545566
 30
0.0
  0
VERTEX
  5
DC1A
  8
ALPHA
 10
27.658845
 20
73.313278
 30
0.0
  0
VERTEX
  5
DC1B
  8
ALPHA
 10
27.706643
 20
73.06474
 30
0.0
  0
SEQEND
  5
DC1C
  8
ALPHA
  0
POLYLINE
  5
D341
  8
ALPHA
 66
     1
 10
0.0
 20
0.0
 30
0.0
  0
VERTEX
  5
DC1D
  8
ALPHA
 10
28.273891
 20
74.251552
 30
0.0
  0
VERTEX
  5
DC1E
  8
ALPHA
 10
28.069368
 20
74.175975
 30
0.0
  0
VERTEX
  5
DC1F
  8
ALPHA
 10
27.861704
 20
74.111846
 30
0.0
  0
VERTEX
  5
DC20
  8
ALPHA
 10
27.651061
 20
74.059133
 30
0.0
  0
SEQEND
  5
DC21
  8
ALPHA
  0
POLYLINE
  5
D342
  8
ALPHA
 66
     1
 10
0.0
 20
0.0
 30
0.0
  0
VERTEX
  5
DC22
  8
ALPHA
 10
27.97097
 20
73.188465
 30
0.0
  0
VERTEX
  5
DC23
  8
ALPHA
 10
27.906084
 20
73.159993
 30
0.0
  0
VERTEX
  5
DC24
  8
ALPHA
 10
27.845881
 20
73.131969
 30
0.0
  0
VERTEX
  5
DC25
  8
ALPHA
 10
27.792339
 20
73.094339
 30
0.0
  0
SEQEND
  5
DC26
  8
ALPHA
  0
POLYLINE
  5
D343
  8
ALPHA
 66
     1
 10
0.0
 20
0.0
 30
0.0
  0
VERTEX
  5
DC27
  8
ALPHA
 10
27.792339
 20
73.094339
 30
0.0
  0
VERTEX
  5
DC28
  8
ALPHA
 10
27.75407
 20
73.074537
 30
0.0
  0
VERTEX
  5
DC29
  8
ALPHA
 10
27.706643
 20
73.06474
 30
0.0
  0
SEQEND
  5
DC2A
  8
ALPHA
  0
LINE
  5
D344
  8
ALPHA
 10
26.629215
 20
76.381955
 30
0.0
 11
25.629215
 21
76.381955
 31
0.0
  0
LINE
  5
D345
  8
ALPHA
 10
27.729215
 20
80.481955
 30
0.0
 11
27.729215
 21
80.270809
 31
0.0
  0
LINE
  5
D346
  8
ALPHA
 10
25.814699
 20
86.145046
 30
0.0
 11
21.679016
 21
85.113904
 31
0.0
  0
LINE
  5
D347
  8
ALPHA
 10
25.887276
 20
85.853957
 30
0.0
 11
21.715004
 21
84.813693
 31
0.0
  0
LINE
  5
D348
  8
ALPHA
 10
21.751292
 20
84.668148
 30
0.0
 11
25.923564
 21
85.708412
 31
0.0
  0
LINE
  5
D349
  8
ALPHA
 10
22.029894
 20
84.170774
 30
0.0
 11
25.911077
 21
85.138461
 31
0.0
  0
LINE
  5
D34A
  8
ALPHA
 10
21.682092
 20
85.722156
 30
0.0
 11
21.282111
 21
85.723666
 31
0.0
  0
LINE
  5
D34B
  8
ALPHA
 10
21.739196
 20
84.716663
 30
0.0
 11
21.729215
 21
84.714174
 31
0.0
  0
LINE
  5
D34C
  8
ALPHA
 10
22.017798
 20
84.219289
 30
0.0
 11
21.872253
 21
84.183
 31
0.0
  0
LINE
  5
D34D
  8
ALPHA
 10
21.829215
 20
83.966147
 30
0.0
 11
22.066182
 21
84.02523
 31
0.0
  0
POLYLINE
  5
D34E
  8
ALPHA
 66
     1
 10
0.0
 20
0.0
 30
0.0
  0
VERTEX
  5
DC2B
  8
ALPHA
 10
21.679016
 20
85.113904
 30
0.0
  0
VERTEX
  5
DC2C
  8
ALPHA
 10
21.660763
 20
85.109105
 30
0.0
  0
VERTEX
  5
DC2D
  8
ALPHA
 10
21.642658
 20
85.103855
 30
0.0
  0
SEQEND
  5
DC2E
  8
ALPHA
  0
LINE
  5
D34F
  8
ALPHA
 10
22.136922
 20
86.302071
 30
0.0
 11
22.040129
 21
86.690183
 31
0.0
  0
LINE
  5
D350
  8
ALPHA
 10
22.066182
 20
84.02523
 30
0.0
 11
21.896837
 21
84.704437
 31
0.0
  0
LINE
  5
D351
  8
ALPHA
 10
21.642658
 20
85.103855
 30
0.0
 11
21.920638
 21
83.988941
 31
0.0
  0
POLYLINE
  5
D352
  8
ALPHA
 66
     1
 10
0.0
 20
0.0
 30
0.0
  0
VERTEX
  5
DC2F
  8
ALPHA
 10
21.679016
 20
85.113904
 30
0.0
  0
VERTEX
  5
DC30
  8
ALPHA
 10
21.680751
 20
85.418518
 30
0.0
  0
VERTEX
  5
DC31
  8
ALPHA
 10
21.682092
 20
85.722156
 30
0.0
  0
SEQEND
  5
DC32
  8
ALPHA
  0
POLYLINE
  5
D353
  8
ALPHA
 66
     1
 10
0.0
 20
0.0
 30
0.0
  0
VERTEX
  5
DC33
  8
ALPHA
 10
21.682092
 20
85.722156
 30
0.0
  0
VERTEX
  5
DC34
  8
ALPHA
 10
21.68445
 20
85.773075
 30
0.0
  0
VERTEX
  5
DC35
  8
ALPHA
 10
21.69082
 20
85.821879
 30
0.0
  0
VERTEX
  5
DC36
  8
ALPHA
 10
21.701066
 20
85.869599
 30
0.0
  0
VERTEX
  5
DC37
  8
ALPHA
 10
21.715422
 20
85.917092
 30
0.0
  0
VERTEX
  5
DC38
  8
ALPHA
 10
21.733942
 20
85.963886
 30
0.0
  0
VERTEX
  5
DC39
  8
ALPHA
 10
21.756233
 20
86.008811
 30
0.0
  0
VERTEX
  5
DC3A
  8
ALPHA
 10
21.781658
 20
86.0509
 30
0.0
  0
VERTEX
  5
DC3B
  8
ALPHA
 10
21.809971
 20
86.090165
 30
0.0
  0
VERTEX
  5
DC3C
  8
ALPHA
 10
21.841396
 20
86.127062
 30
0.0
  0
VERTEX
  5
DC3D
  8
ALPHA
 10
21.876332
 20
86.161886
 30
0.0
  0
VERTEX
  5
DC3E
  8
ALPHA
 10
21.914793
 20
86.19433
 30
0.0
  0
VERTEX
  5
DC3F
  8
ALPHA
 10
21.955954
 20
86.223514
 30
0.0
  0
VERTEX
  5
DC40
  8
ALPHA
 10
21.998724
 20
86.248762
 30
0.0
  0
VERTEX
  5
DC41
  8
ALPHA
 10
22.042636
 20
86.270041
 30
0.0
  0
VERTEX
  5
DC42
  8
ALPHA
 10
22.088416
 20
86.287777
 30
0.0
  0
VERTEX
  5
DC43
  8
ALPHA
 10
22.136922
 20
86.302071
 30
0.0
  0
SEQEND
  5
DC44
  8
ALPHA
  0
POLYLINE
  5
D354
  8
ALPHA
 66
     1
 10
0.0
 20
0.0
 30
0.0
  0
VERTEX
  5
DC45
  8
ALPHA
 10
21.282111
 20
85.723666
 30
0.0
  0
VERTEX
  5
DC46
  8
ALPHA
 10
21.286039
 20
85.808525
 30
0.0
  0
VERTEX
  5
DC47
  8
ALPHA
 10
21.296654
 20
85.889865
 30
0.0
  0
VERTEX
  5
DC48
  8
ALPHA
 10
21.313728
 20
85.969395
 30
0.0
  0
VERTEX
  5
DC49
  8
ALPHA
 10
21.337653
 20
86.048551
 30
0.0
  0
VERTEX
  5
DC4A
  8
ALPHA
 10
21.368518
 20
86.126543
 30
0.0
  0
VERTEX
  5
DC4B
  8
ALPHA
 10
21.405671
 20
86.201421
 30
0.0
  0
VERTEX
  5
DC4C
  8
ALPHA
 10
21.448045
 20
86.271573
 30
0.0
  0
VERTEX
  5
DC4D
  8
ALPHA
 10
21.495233
 20
86.337015
 30
0.0
  0
VERTEX
  5
DC4E
  8
ALPHA
 10
21.547608
 20
86.398511
 30
0.0
  0
VERTEX
  5
DC4F
  8
ALPHA
 10
21.605837
 20
86.456554
 30
0.0
  0
VERTEX
  5
DC50
  8
ALPHA
 10
21.669941
 20
86.510629
 30
0.0
  0
VERTEX
  5
DC51
  8
ALPHA
 10
21.738543
 20
86.559268
 30
0.0
  0
VERTEX
  5
DC52
  8
ALPHA
 10
21.809825
 20
86.601348
 30
0.0
  0
VERTEX
  5
DC53
  8
ALPHA
 10
21.883011
 20
86.636809
 30
0.0
  0
VERTEX
  5
DC54
  8
ALPHA
 10
21.959313
 20
86.66637
 30
0.0
  0
VERTEX
  5
DC55
  8
ALPHA
 10
22.040129
 20
86.690183
 30
0.0
  0
SEQEND
  5
DC56
  8
ALPHA
  0
LINE
  5
D355
  8
ALPHA
 10
26.420129
 20
85.883751
 30
0.0
 11
25.911468
 21
85.756927
 31
0.0
  0
LINE
  5
D356
  8
ALPHA
 10
26.044525
 20
85.223265
 30
0.0
 11
25.898981
 21
85.186976
 31
0.0
  0
LINE
  5
D357
  8
ALPHA
 10
25.947365
 20
84.992917
 30
0.0
 11
26.122619
 21
85.036613
 31
0.0
  0
LINE
  5
D358
  8
ALPHA
 10
26.092909
 20
85.029205
 30
0.0
 11
25.814699
 21
86.145046
 31
0.0
  0
LINE
  5
D359
  8
ALPHA
 10
25.947365
 20
84.992917
 30
0.0
 11
25.77802
 21
85.672124
 31
0.0
  0
LINE
  5
D35A
  8
ALPHA
 10
26.420129
 20
85.931955
 30
0.0
 11
26.420129
 21
85.883751
 31
0.0
  0
ARC
  5
D35B
  8
ALPHA
 10
28.579215
 20
83.812716
 30
0.0
 40
0.2
 50
180.0
 51
237.049183
  0
ARC
  5
D35C
  8
ALPHA
 10
28.629215
 20
84.381955
 30
0.0
 40
0.5
 50
120.124298
 51
163.74051
  0
POLYLINE
  5
D35D
  8
ALPHA
 66
     1
 10
0.0
 20
0.0
 30
0.0
  0
VERTEX
  5
DC57
  8
ALPHA
 10
27.129215
 20
84.815283
 30
0.0
  0
VERTEX
  5
DC58
  8
ALPHA
 10
26.929138
 20
84.84002
 30
0.0
  0
VERTEX
  5
DC59
  8
ALPHA
 10
26.729215
 20
84.867961
 30
0.0
  0
SEQEND
  5
DC5A
  8
ALPHA
  0
LINE
  5
D35E
  8
ALPHA
 10
26.729215
 20
85.331955
 30
0.0
 11
28.379215
 21
85.331955
 31
0.0
  0
LINE
  5
D35F
  8
ALPHA
 10
28.379215
 20
85.296947
 30
0.0
 11
26.729215
 21
85.296947
 31
0.0
  0
LINE
  5
D360
  8
ALPHA
 10
28.273407
 20
84.731955
 30
0.0
 11
27.129215
 21
84.731955
 31
0.0
  0
LINE
  5
D361
  8
ALPHA
 10
28.196202
 20
84.631955
 30
0.0
 11
27.029215
 21
84.631955
 31
0.0
  0
LINE
  5
D362
  8
ALPHA
 10
28.379215
 20
84.521949
 30
0.0
 11
28.149213
 21
84.521949
 31
0.0
  0
LINE
  5
D363
  8
ALPHA
 10
28.129215
 20
84.431222
 30
0.0
 11
28.379215
 21
84.431222
 31
0.0
  0
LINE
  5
D364
  8
ALPHA
 10
26.80712
 20
84.422494
 30
0.0
 11
28.129215
 21
84.422494
 31
0.0
  0
LINE
  5
D365
  8
ALPHA
 10
26.607326
 20
84.601745
 30
0.0
 11
27.029215
 21
84.6145
 31
0.0
  0
LINE
  5
D366
  8
ALPHA
 10
28.379215
 20
83.812716
 30
0.0
 11
28.379215
 21
85.931955
 31
0.0
  0
LINE
  5
D367
  8
ALPHA
 10
28.129215
 20
84.422494
 30
0.0
 11
28.129215
 21
83.572748
 31
0.0
  0
LINE
  5
D368
  8
ALPHA
 10
27.729215
 20
85.931955
 30
0.0
 11
27.729215
 21
85.331955
 31
0.0
  0
LINE
  5
D369
  8
ALPHA
 10
27.129215
 20
84.731961
 30
0.0
 11
27.129215
 21
84.815283
 31
0.0
  0
LINE
  5
D36A
  8
ALPHA
 10
27.029215
 20
84.6145
 30
0.0
 11
27.029215
 21
84.827647
 31
0.0
  0
LINE
  5
D36B
  8
ALPHA
 10
26.729215
 20
84.867961
 30
0.0
 11
26.729215
 21
85.931955
 31
0.0
  0
LINE
  5
D36C
  8
ALPHA
 10
26.512681
 20
84.686658
 30
0.0
 11
26.512681
 21
85.931955
 31
0.0
  0
LINE
  5
D36D
  8
ALPHA
 10
26.424493
 20
84.765779
 30
0.0
 11
26.424493
 21
85.884839
 31
0.0
  0
LINE
  5
D36E
  8
AXE
 10
36.629215
 20
69.981955
 30
0.0
 11
36.629215
 21
92.481955
 31
0.0
  0
CIRCLE
  5
D36F
  8
ALPHA
 10
36.629215
 20
78.131955
 30
0.0
 40
3.016722
  0
CIRCLE
  5
D370
  8
ALPHA
 10
36.629215
 20
78.131955
 30
0.0
 40
3.215973
  0
ARC
  5
D371
  8
ALPHA
 10
36.629215
 20
82.881955
 30
0.0
 40
2.5
 50
41.344523
 51
138.655477
  0
CIRCLE
  5
D372
  8
ALPHA
 10
36.629215
 20
78.131955
 30
0.0
 40
3.0
  0
ARC
  5
D373
  8
ALPHA
 10
36.629215
 20
78.131955
 30
0.0
 40
0.851277
 50
64.237525
 51
115.762475
  0
ARC
  5
D374
  8
ALPHA
 10
36.629215
 20
78.131955
 30
0.0
 40
0.851277
 50
244.237525
 51
295.762475
  0
CIRCLE
  5
D375
  8
ALPHA
 10
36.629215
 20
78.131955
 30
0.0
 40
0.65
  0
ARC
  5
D376
  8
ALPHA
 10
36.629215
 20
78.131955
 30
0.0
 40
2.399515
 50
193.434923
 51
346.565077
  0
CIRCLE
  5
D377
  8
ALPHA
 10
36.629215
 20
78.131955
 30
0.0
 40
2.65766
  0
ARC
  5
D378
  8
ALPHA
 10
36.629215
 20
78.131955
 30
0.0
 40
2.399515
 50
13.434923
 51
166.565077
  0
CIRCLE
  5
D379
  8
ALPHA
 10
36.629215
 20
78.131955
 30
0.0
 40
2.723097
  0
CIRCLE
  5
D37A
  8
ALPHA
 10
36.629215
 20
78.131955
 30
0.0
 40
2.725
  0
LINE
  5
D37C
  8
ALPHA
 10
28.629172
 20
88.481955
 30
0.0
 11
44.629258
 21
88.481955
 31
0.0
  0
POLYLINE
  5
D37D
  8
ALPHA
 66
     1
 10
0.0
 20
0.0
 30
0.0
  0
VERTEX
  5
DC5B
  8
ALPHA
 10
36.629215
 20
81.422213
 30
0.0
  0
VERTEX
  5
DC5C
  8
ALPHA
 10
37.06021
 20
81.394058
 30
0.0
  0
VERTEX
  5
DC5D
  8
ALPHA
 10
37.49573
 20
81.306987
 30
0.0
  0
VERTEX
  5
DC5E
  8
ALPHA
 10
37.946217
 20
81.149774
 30
0.0
  0
VERTEX
  5
DC5F
  8
ALPHA
 10
38.420895
 20
80.897878
 30
0.0
  0
VERTEX
  5
DC60
  8
ALPHA
 10
38.906058
 20
80.520895
 30
0.0
  0
VERTEX
  5
DC61
  8
ALPHA
 10
39.360912
 20
79.995434
 30
0.0
  0
VERTEX
  5
DC62
  8
ALPHA
 10
39.719703
 20
79.33075
 30
0.0
  0
VERTEX
  5
DC63
  8
ALPHA
 10
39.924816
 20
78.561365
 30
0.0
  0
VERTEX
  5
DC64
  8
ALPHA
 10
39.940513
 20
77.767178
 30
0.0
  0
VERTEX
  5
DC65
  8
ALPHA
 10
39.766223
 20
76.99155
 30
0.0
  0
VERTEX
  5
DC66
  8
ALPHA
 10
39.412782
 20
76.281151
 30
0.0
  0
VERTEX
  5
DC67
  8
ALPHA
 10
38.898792
 20
75.67352
 30
0.0
  0
VERTEX
  5
DC68
  8
ALPHA
 10
38.274109
 20
75.216359
 30
0.0
  0
VERTEX
  5
DC69
  8
ALPHA
 10
37.588497
 20
74.923918
 30
0.0
  0
SEQEND
  5
DC6A
  8
ALPHA
  0
POLYLINE
  5
D37E
  8
ALPHA
 66
     1
 10
0.0
 20
0.0
 30
0.0
  0
VERTEX
  5
DC6B
  8
ALPHA
 10
36.999215
 20
79.370123
 30
0.0
  0
VERTEX
  5
DC6C
  8
ALPHA
 10
36.814751
 20
79.373651
 30
0.0
  0
VERTEX
  5
DC6D
  8
ALPHA
 10
36.629215
 20
79.374834
 30
0.0
  0
VERTEX
  5
DC6E
  8
ALPHA
 10
36.443679
 20
79.373651
 30
0.0
  0
VERTEX
  5
DC6F
  8
ALPHA
 10
36.259215
 20
79.370123
 30
0.0
  0
SEQEND
  5
DC70
  8
ALPHA
  0
LINE
  5
D37F
  8
ALPHA
 10
36.259215
 20
79.104382
 30
0.0
 11
36.999215
 21
79.104382
 31
0.0
  0
POLYLINE
  5
D380
  8
ALPHA
 66
     1
 10
0.0
 20
0.0
 30
0.0
  0
VERTEX
  5
DC71
  8
ALPHA
 10
38.47054
 20
84.502136
 30
0.0
  0
VERTEX
  5
DC72
  8
ALPHA
 10
38.344579
 20
84.635354
 30
0.0
  0
VERTEX
  5
DC73
  8
ALPHA
 10
38.209061
 20
84.758735
 30
0.0
  0
VERTEX
  5
DC74
  8
ALPHA
 10
38.069856
 20
84.867901
 30
0.0
  0
VERTEX
  5
DC75
  8
ALPHA
 10
37.933495
 20
84.960254
 30
0.0
  0
VERTEX
  5
DC76
  8
ALPHA
 10
37.801266
 20
85.037802
 30
0.0
  0
VERTEX
  5
DC77
  8
ALPHA
 10
37.673618
 20
85.102626
 30
0.0
  0
VERTEX
  5
DC78
  8
ALPHA
 10
37.550784
 20
85.156497
 30
0.0
  0
VERTEX
  5
DC79
  8
ALPHA
 10
37.432823
 20
85.200926
 30
0.0
  0
VERTEX
  5
DC7A
  8
ALPHA
 10
37.319851
 20
85.237147
 30
0.0
  0
VERTEX
  5
DC7B
  8
ALPHA
 10
37.211883
 20
85.266242
 30
0.0
  0
VERTEX
  5
DC7C
  8
ALPHA
 10
37.10896
 20
85.289137
 30
0.0
  0
VERTEX
  5
DC7D
  8
ALPHA
 10
37.010305
 20
85.306773
 30
0.0
  0
VERTEX
  5
DC7E
  8
ALPHA
 10
36.916495
 20
85.319716
 30
0.0
  0
VERTEX
  5
DC7F
  8
ALPHA
 10
36.825539
 20
85.328758
 30
0.0
  0
VERTEX
  5
DC80
  8
ALPHA
 10
36.738745
 20
85.334201
 30
0.0
  0
VERTEX
  5
DC81
  8
ALPHA
 10
36.652235
 20
85.336548
 30
0.0
  0
VERTEX
  5
DC82
  8
ALPHA
 10
36.566085
 20
85.33584
 30
0.0
  0
VERTEX
  5
DC83
  8
ALPHA
 10
36.479149
 20
85.332042
 30
0.0
  0
VERTEX
  5
DC84
  8
ALPHA
 10
36.389414
 20
85.32486
 30
0.0
  0
VERTEX
  5
DC85
  8
ALPHA
 10
36.297331
 20
85.314018
 30
0.0
  0
VERTEX
  5
DC86
  8
ALPHA
 10
36.20133
 20
85.29892
 30
0.0
  0
VERTEX
  5
DC87
  8
ALPHA
 10
36.100918
 20
85.278908
 30
0.0
  0
VERTEX
  5
DC88
  8
ALPHA
 10
35.995858
 20
85.253231
 30
0.0
  0
VERTEX
  5
DC89
  8
ALPHA
 10
35.885793
 20
85.220962
 30
0.0
  0
VERTEX
  5
DC8A
  8
ALPHA
 10
35.770732
 20
85.181108
 30
0.0
  0
VERTEX
  5
DC8B
  8
ALPHA
 10
35.650739
 20
85.132523
 30
0.0
  0
VERTEX
  5
DC8C
  8
ALPHA
 10
35.525849
 20
85.073834
 30
0.0
  0
VERTEX
  5
DC8D
  8
ALPHA
 10
35.396336
 20
85.003494
 30
0.0
  0
VERTEX
  5
DC8E
  8
ALPHA
 10
35.261888
 20
84.919199
 30
0.0
  0
VERTEX
  5
DC8F
  8
ALPHA
 10
35.126091
 20
84.820889
 30
0.0
  0
VERTEX
  5
DC90
  8
ALPHA
 10
34.999065
 20
84.715067
 30
0.0
  0
VERTEX
  5
DC91
  8
ALPHA
 10
34.886452
 20
84.608024
 30
0.0
  0
VERTEX
  5
DC92
  8
ALPHA
 10
34.787891
 20
84.502134
 30
0.0
  0
SEQEND
  5
DC93
  8
ALPHA
  0
POLYLINE
  5
D381
  8
ALPHA
 66
     1
 10
0.0
 20
0.0
 30
0.0
  0
VERTEX
  5
DC94
  8
ALPHA
 10
37.411951
 20
83.944903
 30
0.0
  0
VERTEX
  5
DC95
  8
ALPHA
 10
37.357799
 20
84.000567
 30
0.0
  0
VERTEX
  5
DC96
  8
ALPHA
 10
37.299774
 20
84.051692
 30
0.0
  0
VERTEX
  5
DC97
  8
ALPHA
 10
37.240393
 20
84.096444
 30
0.0
  0
VERTEX
  5
DC98
  8
ALPHA
 10
37.18242
 20
84.133812
 30
0.0
  0
VERTEX
  5
DC99
  8
ALPHA
 10
37.12636
 20
84.164705
 30
0.0
  0
VERTEX
  5
DC9A
  8
ALPHA
 10
37.072351
 20
84.190056
 30
0.0
  0
VERTEX
  5
DC9B
  8
ALPHA
 10
37.020439
 20
84.210658
 30
0.0
  0
VERTEX
  5
DC9C
  8
ALPHA
 10
36.970597
 20
84.227199
 30
0.0
  0
VERTEX
  5
DC9D
  8
ALPHA
 10
36.922837
 20
84.240259
 30
0.0
  0
VERTEX
  5
DC9E
  8
ALPHA
 10
36.877134
 20
84.250352
 30
0.0
  0
VERTEX
  5
DC9F
  8
ALPHA
 10
36.833494
 20
84.257934
 30
0.0
  0
VERTEX
  5
DCA0
  8
ALPHA
 10
36.791585
 20
84.26345
 30
0.0
  0
VERTEX
  5
DCA1
  8
ALPHA
 10
36.751666
 20
84.267224
 30
0.0
  0
VERTEX
  5
DCA2
  8
ALPHA
 10
36.712914
 20
84.269631
 30
0.0
  0
VERTEX
  5
DCA3
  8
ALPHA
 10
36.675914
 20
84.270929
 30
0.0
  0
VERTEX
  5
DCA4
  8
ALPHA
 10
36.639031
 20
84.271513
 30
0.0
  0
VERTEX
  5
DCA5
  8
ALPHA
 10
36.602295
 20
84.271374
 30
0.0
  0
VERTEX
  5
DCA6
  8
ALPHA
 10
36.565224
 20
84.270552
 30
0.0
  0
VERTEX
  5
DCA7
  8
ALPHA
 10
36.526959
 20
84.268836
 30
0.0
  0
VERTEX
  5
DCA8
  8
ALPHA
 10
36.48772
 20
84.265894
 30
0.0
  0
VERTEX
  5
DCA9
  8
ALPHA
 10
36.446865
 20
84.261413
 30
0.0
  0
VERTEX
  5
DCAA
  8
ALPHA
 10
36.404203
 20
84.255043
 30
0.0
  0
VERTEX
  5
DCAB
  8
ALPHA
 10
36.359645
 20
84.246398
 30
0.0
  0
VERTEX
  5
DCAC
  8
ALPHA
 10
36.313033
 20
84.235028
 30
0.0
  0
VERTEX
  5
DCAD
  8
ALPHA
 10
36.264353
 20
84.220452
 30
0.0
  0
VERTEX
  5
DCAE
  8
ALPHA
 10
36.213601
 20
84.202126
 30
0.0
  0
VERTEX
  5
DCAF
  8
ALPHA
 10
36.160749
 20
84.17942
 30
0.0
  0
VERTEX
  5
DCB0
  8
ALPHA
 10
36.105864
 20
84.151631
 30
0.0
  0
VERTEX
  5
DCB1
  8
ALPHA
 10
36.048761
 20
84.11775
 30
0.0
  0
VERTEX
  5
DCB2
  8
ALPHA
 10
35.990921
 20
84.077664
 30
0.0
  0
VERTEX
  5
DCB3
  8
ALPHA
 10
35.936648
 20
84.034018
 30
0.0
  0
VERTEX
  5
DCB4
  8
ALPHA
 10
35.888381
 20
83.989487
 30
0.0
  0
VERTEX
  5
DCB5
  8
ALPHA
 10
35.846378
 20
83.944956
 30
0.0
  0
SEQEND
  5
DCB6
  8
ALPHA
  0
POLYLINE
  5
D382
  8
ALPHA
 66
     1
 10
0.0
 20
0.0
 30
0.0
  0
VERTEX
  5
DCB7
  8
ALPHA
 10
36.259215
 20
76.893787
 30
0.0
  0
VERTEX
  5
DCB8
  8
ALPHA
 10
36.443679
 20
76.890259
 30
0.0
  0
VERTEX
  5
DCB9
  8
ALPHA
 10
36.629215
 20
76.889076
 30
0.0
  0
VERTEX
  5
DCBA
  8
ALPHA
 10
36.814751
 20
76.890259
 30
0.0
  0
VERTEX
  5
DCBB
  8
ALPHA
 10
36.999215
 20
76.893787
 30
0.0
  0
SEQEND
  5
DCBC
  8
ALPHA
  0
LINE
  5
D383
  8
ALPHA
 10
36.259215
 20
77.159528
 30
0.0
 11
36.999215
 21
77.159528
 31
0.0
  0
POLYLINE
  5
D384
  8
ALPHA
 66
     1
 10
0.0
 20
0.0
 30
0.0
  0
VERTEX
  5
DCBD
  8
ALPHA
 10
43.388026
 20
73.516436
 30
0.0
  0
VERTEX
  5
DCBE
  8
ALPHA
 10
42.818241
 20
73.598094
 30
0.0
  0
VERTEX
  5
DCBF
  8
ALPHA
 10
42.179804
 20
73.680697
 30
0.0
  0
VERTEX
  5
DCC0
  8
ALPHA
 10
41.470044
 20
73.76163
 30
0.0
  0
VERTEX
  5
DCC1
  8
ALPHA
 10
40.686468
 20
73.837842
 30
0.0
  0
VERTEX
  5
DCC2
  8
ALPHA
 10
39.825897
 20
73.905881
 30
0.0
  0
VERTEX
  5
DCC3
  8
ALPHA
 10
38.879252
 20
73.961992
 30
0.0
  0
VERTEX
  5
DCC4
  8
ALPHA
 10
37.841688
 20
74.001097
 30
0.0
  0
VERTEX
  5
DCC5
  8
ALPHA
 10
36.738971
 20
74.017
 30
0.0
  0
VERTEX
  5
DCC6
  8
ALPHA
 10
35.608316
 20
74.005759
 30
0.0
  0
VERTEX
  5
DCC7
  8
ALPHA
 10
34.511786
 20
73.968294
 30
0.0
  0
VERTEX
  5
DCC8
  8
ALPHA
 10
33.511538
 20
73.911312
 30
0.0
  0
VERTEX
  5
DCC9
  8
ALPHA
 10
32.616521
 20
73.841765
 30
0.0
  0
VERTEX
  5
DCCA
  8
ALPHA
 10
31.815493
 20
73.764495
 30
0.0
  0
VERTEX
  5
DCCB
  8
ALPHA
 10
31.097881
 20
73.683043
 30
0.0
  0
VERTEX
  5
DCCC
  8
ALPHA
 10
30.453239
 20
73.599876
 30
0.0
  0
VERTEX
  5
DCCD
  8
ALPHA
 10
29.870404
 20
73.516436
 30
0.0
  0
SEQEND
  5
DCCE
  8
ALPHA
  0
POLYLINE
  5
D385
  8
ALPHA
 66
     1
 10
0.0
 20
0.0
 30
0.0
  0
VERTEX
  5
DCCF
  8
ALPHA
 10
43.367054
 20
73.376691
 30
0.0
  0
VERTEX
  5
DCD0
  8
ALPHA
 10
42.799078
 20
73.458072
 30
0.0
  0
VERTEX
  5
DCD1
  8
ALPHA
 10
42.162656
 20
73.540395
 30
0.0
  0
VERTEX
  5
DCD2
  8
ALPHA
 10
41.455121
 20
73.621056
 30
0.0
  0
VERTEX
  5
DCD3
  8
ALPHA
 10
40.67398
 20
73.697013
 30
0.0
  0
VERTEX
  5
DCD4
  8
ALPHA
 10
39.816063
 20
73.764827
 30
0.0
  0
VERTEX
  5
DCD5
  8
ALPHA
 10
38.872325
 20
73.820754
 30
0.0
  0
VERTEX
  5
DCD6
  8
ALPHA
 10
37.837946
 20
73.859729
 30
0.0
  0
VERTEX
  5
DCD7
  8
ALPHA
 10
36.738631
 20
73.875579
 30
0.0
  0
VERTEX
  5
DCD8
  8
ALPHA
 10
35.611468
 20
73.864375
 30
0.0
  0
VERTEX
  5
DCD9
  8
ALPHA
 10
34.518305
 20
73.827034
 30
0.0
  0
VERTEX
  5
DCDA
  8
ALPHA
 10
33.521128
 20
73.77024
 30
0.0
  0
VERTEX
  5
DCDB
  8
ALPHA
 10
32.62887
 20
73.700924
 30
0.0
  0
VERTEX
  5
DCDC
  8
ALPHA
 10
31.83033
 20
73.623912
 30
0.0
  0
VERTEX
  5
DCDD
  8
ALPHA
 10
31.114968
 20
73.542734
 30
0.0
  0
VERTEX
  5
DCDE
  8
ALPHA
 10
30.47236
 20
73.459848
 30
0.0
  0
VERTEX
  5
DCDF
  8
ALPHA
 10
29.891376
 20
73.376691
 30
0.0
  0
SEQEND
  5
DCE0
  8
ALPHA
  0
POLYLINE
  5
D386
  8
ALPHA
 66
     1
 10
0.0
 20
0.0
 30
0.0
  0
VERTEX
  5
DCE1
  8
ALPHA
 10
43.421122
 20
73.737271
 30
0.0
  0
VERTEX
  5
DCE2
  8
ALPHA
 10
40.724487
 20
74.056927
 30
0.0
  0
VERTEX
  5
DCE3
  8
ALPHA
 10
37.997819
 20
74.21756
 30
0.0
  0
VERTEX
  5
DCE4
  8
ALPHA
 10
35.260135
 20
74.217546
 30
0.0
  0
VERTEX
  5
DCE5
  8
ALPHA
 10
32.533627
 20
74.056899
 30
0.0
  0
VERTEX
  5
DCE6
  8
ALPHA
 10
29.837308
 20
73.737271
 30
0.0
  0
SEQEND
  5
DCE7
  8
ALPHA
  0
POLYLINE
  5
D387
  8
ALPHA
 66
     1
 10
0.0
 20
0.0
 30
0.0
  0
VERTEX
  5
DCE8
  8
ALPHA
 10
29.923745
 20
73.160707
 30
0.0
  0
VERTEX
  5
DCE9
  8
ALPHA
 10
32.580235
 20
73.475952
 30
0.0
  0
VERTEX
  5
DCEA
  8
ALPHA
 10
35.274933
 20
73.634998
 30
0.0
  0
VERTEX
  5
DCEB
  8
ALPHA
 10
37.983744
 20
73.63499
 30
0.0
  0
VERTEX
  5
DCEC
  8
ALPHA
 10
40.678358
 20
73.475938
 30
0.0
  0
VERTEX
  5
DCED
  8
ALPHA
 10
43.334685
 20
73.160707
 30
0.0
  0
SEQEND
  5
DCEE
  8
ALPHA
  0
POLYLINE
  5
D388
  8
ALPHA
 66
     1
 10
0.0
 20
0.0
 30
0.0
  0
VERTEX
  5
DCEF
  8
ALPHA
 10
37.588497
 20
74.923918
 30
0.0
  0
VERTEX
  5
DCF0
  8
ALPHA
 10
37.210205
 20
74.834135
 30
0.0
  0
VERTEX
  5
DCF1
  8
ALPHA
 10
36.824101
 20
74.788914
 30
0.0
  0
VERTEX
  5
DCF2
  8
ALPHA
 10
36.435384
 20
74.788852
 30
0.0
  0
SEQEND
  5
DCF3
  8
ALPHA
  0
ARC
  5
D389
  8
ALPHA
 10
49.767358
 20
71.321713
 30
0.0
 40
20.0
 50
138.655477
 51
163.784227
  0
POLYLINE
  5
D38A
  8
ALPHA
 66
     1
 10
0.0
 20
0.0
 30
0.0
  0
VERTEX
  5
DCF4
  8
ALPHA
 10
35.694412
 20
83.773411
 30
0.0
  0
VERTEX
  5
DCF5
  8
ALPHA
 10
35.42041
 20
83.458317
 30
0.0
  0
VERTEX
  5
DCF6
  8
ALPHA
 10
35.167637
 20
83.162017
 30
0.0
  0
VERTEX
  5
DCF7
  8
ALPHA
 10
34.930208
 20
82.877055
 30
0.0
  0
VERTEX
  5
DCF8
  8
ALPHA
 10
34.660622
 20
82.544071
 30
0.0
  0
VERTEX
  5
DCF9
  8
ALPHA
 10
34.348226
 20
82.1429
 30
0.0
  0
VERTEX
  5
DCFA
  8
ALPHA
 10
33.986633
 20
81.653263
 30
0.0
  0
VERTEX
  5
DCFB
  8
ALPHA
 10
33.577112
 20
81.057338
 30
0.0
  0
VERTEX
  5
DCFC
  8
ALPHA
 10
33.175115
 20
80.417578
 30
0.0
  0
VERTEX
  5
DCFD
  8
ALPHA
 10
32.814908
 20
79.784008
 30
0.0
  0
VERTEX
  5
DCFE
  8
ALPHA
 10
32.49357
 20
79.155741
 30
0.0
  0
VERTEX
  5
DCFF
  8
ALPHA
 10
32.207728
 20
78.529874
 30
0.0
  0
VERTEX
  5
DD00
  8
ALPHA
 10
31.953882
 20
77.902062
 30
0.0
  0
VERTEX
  5
DD01
  8
ALPHA
 10
31.730791
 20
77.271904
 30
0.0
  0
VERTEX
  5
DD02
  8
ALPHA
 10
31.537758
 20
76.639895
 30
0.0
  0
SEQEND
  5
DD03
  8
ALPHA
  0
POLYLINE
  5
D38B
  8
ALPHA
 66
     1
 10
0.0
 20
0.0
 30
0.0
  0
VERTEX
  5
DD04
  8
ALPHA
 10
34.633481
 20
84.323232
 30
0.0
  0
VERTEX
  5
DD05
  8
ALPHA
 10
34.357361
 20
83.992231
 30
0.0
  0
VERTEX
  5
DD06
  8
ALPHA
 10
34.106128
 20
83.677847
 30
0.0
  0
VERTEX
  5
DD07
  8
ALPHA
 10
33.872866
 20
83.3738
 30
0.0
  0
VERTEX
  5
DD08
  8
ALPHA
 10
33.61114
 20
83.017586
 30
0.0
  0
VERTEX
  5
DD09
  8
ALPHA
 10
33.311496
 20
82.58836
 30
0.0
  0
VERTEX
  5
DD0A
  8
ALPHA
 10
32.968458
 20
82.065587
 30
0.0
  0
VERTEX
  5
DD0B
  8
ALPHA
 10
32.583153
 20
81.432329
 30
0.0
  0
VERTEX
  5
DD0C
  8
ALPHA
 10
32.206293
 20
80.756834
 30
0.0
  0
VERTEX
  5
DD0D
  8
ALPHA
 10
31.867815
 20
80.092337
 30
0.0
  0
VERTEX
  5
DD0E
  8
ALPHA
 10
31.563905
 20
79.437793
 30
0.0
  0
VERTEX
  5
DD0F
  8
ALPHA
 10
31.290228
 20
78.789269
 30
0.0
  0
VERTEX
  5
DD10
  8
ALPHA
 10
31.043322
 20
78.142589
 30
0.0
  0
VERTEX
  5
DD11
  8
ALPHA
 10
30.821514
 20
77.496405
 30
0.0
  0
VERTEX
  5
DD12
  8
ALPHA
 10
30.623799
 20
76.850411
 30
0.0
  0
SEQEND
  5
DD13
  8
ALPHA
  0
POLYLINE
  5
D38C
  8
ALPHA
 66
     1
 10
0.0
 20
0.0
 30
0.0
  0
VERTEX
  5
DD14
  8
ALPHA
 10
30.339281
 20
74.502138
 30
0.0
  0
VERTEX
  5
DD15
  8
ALPHA
 10
30.896225
 20
74.576005
 30
0.0
  0
VERTEX
  5
DD16
  8
ALPHA
 10
31.506547
 20
74.648921
 30
0.0
  0
VERTEX
  5
DD17
  8
ALPHA
 10
32.180019
 20
74.719742
 30
0.0
  0
VERTEX
  5
DD18
  8
ALPHA
 10
32.925757
 20
74.786478
 30
0.0
  0
VERTEX
  5
DD19
  8
ALPHA
 10
33.751208
 20
74.846136
 30
0.0
  0
VERTEX
  5
DD1A
  8
ALPHA
 10
34.663702
 20
74.894801
 30
0.0
  0
VERTEX
  5
DD1B
  8
ALPHA
 10
35.669927
 20
74.923918
 30
0.0
  0
SEQEND
  5
DD1C
  8
ALPHA
  0
POLYLINE
  5
D38D
  8
ALPHA
 66
     1
 10
0.0
 20
0.0
 30
0.0
  0
VERTEX
  5
DD1D
  8
ALPHA
 10
30.609817
 20
76.802898
 30
0.0
  0
VERTEX
  5
DD1E
  8
ALPHA
 10
30.564447
 20
76.66175
 30
0.0
  0
VERTEX
  5
DD1F
  8
ALPHA
 10
30.508771
 20
76.509221
 30
0.0
  0
VERTEX
  5
DD20
  8
ALPHA
 10
30.44351
 20
76.351282
 30
0.0
  0
VERTEX
  5
DD21
  8
ALPHA
 10
30.370142
 20
76.193456
 30
0.0
  0
VERTEX
  5
DD22
  8
ALPHA
 10
30.290676
 20
76.040321
 30
0.0
  0
VERTEX
  5
DD23
  8
ALPHA
 10
30.207179
 20
75.894966
 30
0.0
  0
VERTEX
  5
DD24
  8
ALPHA
 10
30.121536
 20
75.759157
 30
0.0
  0
VERTEX
  5
DD25
  8
ALPHA
 10
30.034274
 20
75.632191
 30
0.0
  0
VERTEX
  5
DD26
  8
ALPHA
 10
29.94519
 20
75.512596
 30
0.0
  0
VERTEX
  5
DD27
  8
ALPHA
 10
29.854781
 20
75.40012
 30
0.0
  0
VERTEX
  5
DD28
  8
ALPHA
 10
29.763199
 20
75.294162
 30
0.0
  0
VERTEX
  5
DD29
  8
ALPHA
 10
29.670035
 20
75.193659
 30
0.0
  0
SEQEND
  5
DD2A
  8
ALPHA
  0
POLYLINE
  5
D38E
  8
ALPHA
 66
     1
 10
0.0
 20
0.0
 30
0.0
  0
VERTEX
  5
DD2B
  8
ALPHA
 10
31.520124
 20
76.578606
 30
0.0
  0
VERTEX
  5
DD2C
  8
ALPHA
 10
31.462991
 20
76.396467
 30
0.0
  0
VERTEX
  5
DD2D
  8
ALPHA
 10
31.392916
 20
76.199559
 30
0.0
  0
VERTEX
  5
DD2E
  8
ALPHA
 10
31.310817
 20
75.995607
 30
0.0
  0
VERTEX
  5
DD2F
  8
ALPHA
 10
31.218557
 20
75.791769
 30
0.0
  0
VERTEX
  5
DD30
  8
ALPHA
 10
31.118665
 20
75.593988
 30
0.0
  0
VERTEX
  5
DD31
  8
ALPHA
 10
31.013742
 20
75.406284
 30
0.0
  0
VERTEX
  5
DD32
  8
ALPHA
 10
30.906152
 20
75.230962
 30
0.0
  0
VERTEX
  5
DD33
  8
ALPHA
 10
30.796556
 20
75.067127
 30
0.0
  0
VERTEX
  5
DD34
  8
ALPHA
 10
30.684694
 20
74.912886
 30
0.0
  0
VERTEX
  5
DD35
  8
ALPHA
 10
30.571187
 20
74.767923
 30
0.0
  0
VERTEX
  5
DD36
  8
ALPHA
 10
30.456222
 20
74.631464
 30
0.0
  0
VERTEX
  5
DD37
  8
ALPHA
 10
30.339281
 20
74.502137
 30
0.0
  0
SEQEND
  5
DD38
  8
ALPHA
  0
POLYLINE
  5
D38F
  8
ALPHA
 66
     1
 10
0.0
 20
0.0
 30
0.0
  0
VERTEX
  5
DD39
  8
ALPHA
 10
29.837308
 20
73.737271
 30
0.0
  0
VERTEX
  5
DD3A
  8
ALPHA
 10
29.654555
 20
73.707694
 30
0.0
  0
VERTEX
  5
DD3B
  8
ALPHA
 10
29.482583
 20
73.675317
 30
0.0
  0
VERTEX
  5
DD3C
  8
ALPHA
 10
29.321025
 20
73.640591
 30
0.0
  0
VERTEX
  5
DD3D
  8
ALPHA
 10
29.169457
 20
73.604042
 30
0.0
  0
SEQEND
  5
DD3E
  8
ALPHA
  0
POLYLINE
  5
D390
  8
ALPHA
 66
     1
 10
0.0
 20
0.0
 30
0.0
  0
VERTEX
  5
DD3F
  8
ALPHA
 10
29.169457
 20
73.604042
 30
0.0
  0
VERTEX
  5
DD40
  8
ALPHA
 10
28.925377
 20
73.538371
 30
0.0
  0
VERTEX
  5
DD41
  8
ALPHA
 10
28.69051
 20
73.466943
 30
0.0
  0
SEQEND
  5
DD42
  8
ALPHA
  0
POLYLINE
  5
D391
  8
ALPHA
 66
     1
 10
0.0
 20
0.0
 30
0.0
  0
VERTEX
  5
DD43
  8
ALPHA
 10
29.670024
 20
75.19367
 30
0.0
  0
VERTEX
  5
DD44
  8
ALPHA
 10
29.699638
 20
75.150216
 30
0.0
  0
VERTEX
  5
DD45
  8
ALPHA
 10
29.792118
 20
75.047924
 30
0.0
  0
VERTEX
  5
DD46
  8
ALPHA
 10
29.939069
 20
74.896083
 30
0.0
  0
VERTEX
  5
DD47
  8
ALPHA
 10
30.127148
 20
74.708477
 30
0.0
  0
VERTEX
  5
DD48
  8
ALPHA
 10
30.339281
 20
74.502138
 30
0.0
  0
SEQEND
  5
DD49
  8
ALPHA
  0
LINE
  5
D392
  8
ALPHA
 10
29.837307
 20
73.737271
 30
0.0
 11
29.870404
 21
73.516436
 31
0.0
  0
LINE
  5
D393
  8
ALPHA
 10
29.891376
 20
73.376691
 30
0.0
 11
29.923744
 21
73.160707
 31
0.0
  0
POLYLINE
  5
D394
  8
ALPHA
 66
     1
 10
0.0
 20
0.0
 30
0.0
  0
VERTEX
  5
DD4A
  8
ALPHA
 10
29.891376
 20
73.376691
 30
0.0
  0
VERTEX
  5
DD4B
  8
ALPHA
 10
29.883295
 20
73.420778
 30
0.0
  0
VERTEX
  5
DD4C
  8
ALPHA
 10
29.875621
 20
73.471919
 30
0.0
  0
VERTEX
  5
DD4D
  8
ALPHA
 10
29.870404
 20
73.516436
 30
0.0
  0
SEQEND
  5
DD4E
  8
ALPHA
  0
POLYLINE
  5
D395
  8
ALPHA
 66
     1
 10
0.0
 20
0.0
 30
0.0
  0
VERTEX
  5
DD4F
  8
ALPHA
 10
30.339281
 20
74.502138
 30
0.0
  0
VERTEX
  5
DD50
  8
ALPHA
 10
30.125577
 20
74.293962
 30
0.0
  0
VERTEX
  5
DD51
  8
ALPHA
 10
29.902624
 20
74.101086
 30
0.0
  0
VERTEX
  5
DD52
  8
ALPHA
 10
29.669393
 20
73.922078
 30
0.0
  0
VERTEX
  5
DD53
  8
ALPHA
 10
29.4236
 20
73.755391
 30
0.0
  0
VERTEX
  5
DD54
  8
ALPHA
 10
29.169457
 20
73.604042
 30
0.0
  0
SEQEND
  5
DD55
  8
ALPHA
  0
ARC
  5
D396
  8
ALPHA
 10
50.429215
 20
71.481955
 30
0.0
 40
20.6
 50
152.244201
 51
164.726248
  0
ARC
  5
D397
  8
ALPHA
 10
31.933958
 20
81.21517
 30
0.0
 40
0.3
 50
332.244201
 51
72.248647
  0
POLYLINE
  5
D398
  8
ALPHA
 66
     1
 10
0.0
 20
0.0
 30
0.0
  0
VERTEX
  5
DD56
  8
ALPHA
 10
30.623799
 20
76.850411
 30
0.0
  0
VERTEX
  5
DD57
  8
ALPHA
 10
30.675289
 20
76.851444
 30
0.0
  0
VERTEX
  5
DD58
  8
ALPHA
 10
30.806894
 20
76.827875
 30
0.0
  0
VERTEX
  5
DD59
  8
ALPHA
 10
31.007014
 20
76.78178
 30
0.0
  0
VERTEX
  5
DD5A
  8
ALPHA
 10
31.258009
 20
76.717223
 30
0.0
  0
VERTEX
  5
DD5B
  8
ALPHA
 10
31.537758
 20
76.639895
 30
0.0
  0
SEQEND
  5
DD5C
  8
ALPHA
  0
LINE
  5
D399
  8
ALPHA
 10
30.563021
 20
76.906822
 30
0.0
 11
30.623799
 21
76.850411
 31
0.0
  0
POLYLINE
  5
D39A
  8
ALPHA
 66
     1
 10
0.0
 20
0.0
 30
0.0
  0
VERTEX
  5
DD5D
  8
ALPHA
 10
30.623799
 20
76.850411
 30
0.0
  0
VERTEX
  5
DD5E
  8
ALPHA
 10
30.614547
 20
76.818727
 30
0.0
  0
VERTEX
  5
DD5F
  8
ALPHA
 10
30.609817
 20
76.802898
 30
0.0
  0
SEQEND
  5
DD60
  8
ALPHA
  0
POLYLINE
  5
D39B
  8
ALPHA
 66
     1
 10
0.0
 20
0.0
 30
0.0
  0
VERTEX
  5
DD61
  8
ALPHA
 10
31.537758
 20
76.639895
 30
0.0
  0
VERTEX
  5
DD62
  8
ALPHA
 10
31.526084
 20
76.599027
 30
0.0
  0
VERTEX
  5
DD63
  8
ALPHA
 10
31.520124
 20
76.578606
 30
0.0
  0
SEQEND
  5
DD64
  8
ALPHA
  0
POLYLINE
  5
D39C
  8
ALPHA
 66
     1
 10
0.0
 20
0.0
 30
0.0
  0
VERTEX
  5
DD65
  8
ALPHA
 10
35.669927
 20
74.923918
 30
0.0
  0
VERTEX
  5
DD66
  8
ALPHA
 10
34.982173
 20
75.217576
 30
0.0
  0
VERTEX
  5
DD67
  8
ALPHA
 10
34.360585
 20
75.672641
 30
0.0
  0
VERTEX
  5
DD68
  8
ALPHA
 10
33.850545
 20
76.273727
 30
0.0
  0
VERTEX
  5
DD69
  8
ALPHA
 10
33.498204
 20
76.974822
 30
0.0
  0
VERTEX
  5
DD6A
  8
ALPHA
 10
33.320646
 20
77.741163
 30
0.0
  0
VERTEX
  5
DD6B
  8
ALPHA
 10
33.329291
 20
78.529588
 30
0.0
  0
VERTEX
  5
DD6C
  8
ALPHA
 10
33.526178
 20
79.298943
 30
0.0
  0
VERTEX
  5
DD6D
  8
ALPHA
 10
33.879459
 20
79.969268
 30
0.0
  0
VERTEX
  5
DD6E
  8
ALPHA
 10
34.333288
 20
80.502875
 30
0.0
  0
VERTEX
  5
DD6F
  8
ALPHA
 10
34.821072
 20
80.887294
 30
0.0
  0
VERTEX
  5
DD70
  8
ALPHA
 10
35.299639
 20
81.144318
 30
0.0
  0
VERTEX
  5
DD71
  8
ALPHA
 10
35.754287
 20
81.3047
 30
0.0
  0
VERTEX
  5
DD72
  8
ALPHA
 10
36.193973
 20
81.393498
 30
0.0
  0
VERTEX
  5
DD73
  8
ALPHA
 10
36.629215
 20
81.422213
 30
0.0
  0
SEQEND
  5
DD74
  8
ALPHA
  0
POLYLINE
  5
D39D
  8
ALPHA
 66
     1
 10
0.0
 20
0.0
 30
0.0
  0
VERTEX
  5
DD75
  8
ALPHA
 10
36.435384
 20
74.788852
 30
0.0
  0
VERTEX
  5
DD76
  8
ALPHA
 10
36.177011
 20
74.813973
 30
0.0
  0
VERTEX
  5
DD77
  8
ALPHA
 10
35.921348
 20
74.859083
 30
0.0
  0
VERTEX
  5
DD78
  8
ALPHA
 10
35.669927
 20
74.923918
 30
0.0
  0
SEQEND
  5
DD79
  8
ALPHA
  0
LINE
  5
D39E
  8
ALPHA
 10
36.059215
 20
78.681955
 30
0.0
 11
34.051352
 21
78.681955
 31
0.0
  0
POLYLINE
  5
D39F
  8
ALPHA
 66
     1
 10
0.0
 20
0.0
 30
0.0
  0
VERTEX
  5
DD7A
  8
ALPHA
 10
34.295365
 20
78.68946
 30
0.0
  0
VERTEX
  5
DD7B
  8
ALPHA
 10
34.582067
 20
78.693138
 30
0.0
  0
VERTEX
  5
DD7C
  8
ALPHA
 10
34.851578
 20
78.696073
 30
0.0
  0
VERTEX
  5
DD7D
  8
ALPHA
 10
35.101459
 20
78.698375
 30
0.0
  0
VERTEX
  5
DD7E
  8
ALPHA
 10
35.329984
 20
78.700146
 30
0.0
  0
VERTEX
  5
DD7F
  8
ALPHA
 10
35.535768
 20
78.70148
 30
0.0
  0
VERTEX
  5
DD80
  8
ALPHA
 10
35.721645
 20
78.702478
 30
0.0
  0
VERTEX
  5
DD81
  8
ALPHA
 10
35.892994
 20
78.703228
 30
0.0
  0
SEQEND
  5
DD82
  8
ALPHA
  0
POLYLINE
  5
D3A0
  8
ALPHA
 66
     1
 10
0.0
 20
0.0
 30
0.0
  0
VERTEX
  5
DD83
  8
ALPHA
 10
35.892994
 20
77.560682
 30
0.0
  0
VERTEX
  5
DD84
  8
ALPHA
 10
35.721645
 20
77.561432
 30
0.0
  0
VERTEX
  5
DD85
  8
ALPHA
 10
35.535768
 20
77.56243
 30
0.0
  0
VERTEX
  5
DD86
  8
ALPHA
 10
35.329984
 20
77.563763
 30
0.0
  0
VERTEX
  5
DD87
  8
ALPHA
 10
35.101459
 20
77.565535
 30
0.0
  0
VERTEX
  5
DD88
  8
ALPHA
 10
34.851578
 20
77.567837
 30
0.0
  0
VERTEX
  5
DD89
  8
ALPHA
 10
34.582067
 20
77.570772
 30
0.0
  0
VERTEX
  5
DD8A
  8
ALPHA
 10
34.295365
 20
77.57445
 30
0.0
  0
SEQEND
  5
DD8B
  8
ALPHA
  0
LINE
  5
D3A1
  8
ALPHA
 10
36.059215
 20
77.581955
 30
0.0
 11
34.051352
 21
77.581955
 31
0.0
  0
ARC
  5
D3A2
  8
ALPHA
 10
36.629215
 20
78.131955
 30
0.0
 40
2.635882
 50
167.956235
 51
192.043765
  0
POLYLINE
  5
D3A3
  8
ALPHA
 66
     1
 10
0.0
 20
0.0
 30
0.0
  0
VERTEX
  5
DD8C
  8
ALPHA
 10
34.295365
 20
78.68946
 30
0.0
  0
VERTEX
  5
DD8D
  8
ALPHA
 10
34.21377
 20
78.688054
 30
0.0
  0
VERTEX
  5
DD8E
  8
ALPHA
 10
34.143921
 20
78.68627
 30
0.0
  0
VERTEX
  5
DD8F
  8
ALPHA
 10
34.089457
 20
78.684214
 30
0.0
  0
VERTEX
  5
DD90
  8
ALPHA
 10
34.051352
 20
78.681955
 30
0.0
  0
SEQEND
  5
DD91
  8
ALPHA
  0
POLYLINE
  5
D3A4
  8
ALPHA
 66
     1
 10
0.0
 20
0.0
 30
0.0
  0
VERTEX
  5
DD92
  8
ALPHA
 10
34.051352
 20
77.581955
 30
0.0
  0
VERTEX
  5
DD93
  8
ALPHA
 10
34.089462
 20
77.579695
 30
0.0
  0
VERTEX
  5
DD94
  8
ALPHA
 10
34.143923
 20
77.57764
 30
0.0
  0
VERTEX
  5
DD95
  8
ALPHA
 10
34.213766
 20
77.575856
 30
0.0
  0
VERTEX
  5
DD96
  8
ALPHA
 10
34.295365
 20
77.57445
 30
0.0
  0
SEQEND
  5
DD97
  8
ALPHA
  0
ARC
  5
D3A5
  8
ALPHA
 10
36.629215
 20
78.131955
 30
0.0
 40
0.851277
 50
154.237525
 51
205.762475
  0
ARC
  5
D3A6
  8
ALPHA
 10
35.959215
 20
78.601955
 30
0.0
 40
0.1
 50
270.0
 51
0.0
  0
ARC
  5
D3A7
  8
ALPHA
 10
36.159215
 20
78.801955
 30
0.0
 40
0.1
 50
270.0
 51
0.0
  0
ARC
  5
D3A8
  8
ALPHA
 10
36.159215
 20
77.461955
 30
0.0
 40
0.1
 50
0.0
 51
90.0
  0
ARC
  5
D3A9
  8
ALPHA
 10
35.959215
 20
77.661955
 30
0.0
 40
0.1
 50
0.0
 51
90.0
  0
LINE
  5
D3AA
  8
ALPHA
 10
35.892994
 20
78.703228
 30
0.0
 11
36.059215
 21
78.695329
 31
0.0
  0
LINE
  5
D3AB
  8
ALPHA
 10
36.159215
 20
78.701955
 30
0.0
 11
36.059215
 21
78.701955
 31
0.0
  0
LINE
  5
D3AC
  8
ALPHA
 10
35.959215
 20
78.501955
 30
0.0
 11
35.862552
 21
78.501955
 31
0.0
  0
LINE
  5
D3AD
  8
ALPHA
 10
35.862552
 20
77.761955
 30
0.0
 11
35.959215
 21
77.761955
 31
0.0
  0
POLYLINE
  5
D3AE
  8
ALPHA
 66
     1
 10
0.0
 20
0.0
 30
0.0
  0
VERTEX
  5
DD98
  8
ALPHA
 10
35.730243
 20
79.030927
 30
0.0
  0
VERTEX
  5
DD99
  8
ALPHA
 10
35.920998
 20
78.9379
 30
0.0
  0
VERTEX
  5
DD9A
  8
ALPHA
 10
36.093927
 20
78.849445
 30
0.0
  0
VERTEX
  5
DD9B
  8
ALPHA
 10
36.252157
 20
78.765053
 30
0.0
  0
SEQEND
  5
DD9C
  8
ALPHA
  0
LINE
  5
D3AF
  8
ALPHA
 10
36.059215
 20
77.561955
 30
0.0
 11
36.159215
 21
77.561955
 31
0.0
  0
LINE
  5
D3B0
  8
ALPHA
 10
36.059215
 20
77.56858
 30
0.0
 11
35.892994
 21
77.560682
 31
0.0
  0
LINE
  5
D3B1
  8
ALPHA
 10
35.730243
 20
79.030927
 30
0.0
 11
36.059215
 21
78.701955
 31
0.0
  0
POLYLINE
  5
D3B2
  8
ALPHA
 66
     1
 10
0.0
 20
0.0
 30
0.0
  0
VERTEX
  5
DD9D
  8
ALPHA
 10
35.892994
 20
78.703228
 30
0.0
  0
VERTEX
  5
DD9E
  8
ALPHA
 10
35.840445
 20
78.805986
 30
0.0
  0
VERTEX
  5
DD9F
  8
ALPHA
 10
35.786373
 20
78.914668
 30
0.0
  0
VERTEX
  5
DDA0
  8
ALPHA
 10
35.730243
 20
79.030927
 30
0.0
  0
SEQEND
  5
DDA1
  8
ALPHA
  0
LINE
  5
D3B3
  8
ALPHA
 10
36.259215
 20
77.461955
 30
0.0
 11
36.259215
 21
76.893787
 31
0.0
  0
LINE
  5
D3B4
  8
ALPHA
 10
36.259215
 20
79.370123
 30
0.0
 11
36.259215
 21
78.801955
 31
0.0
  0
LINE
  5
D3B5
  8
ALPHA
 10
36.059215
 20
77.561955
 30
0.0
 11
36.059215
 21
77.661955
 31
0.0
  0
LINE
  5
D3B6
  8
ALPHA
 10
36.059215
 20
78.701955
 30
0.0
 11
36.059215
 21
78.601955
 31
0.0
  0
POLYLINE
  5
D3B7
  8
ALPHA
 66
     1
 10
0.0
 20
0.0
 30
0.0
  0
VERTEX
  5
DDA2
  8
ALPHA
 10
35.730243
 20
77.232983
 30
0.0
  0
VERTEX
  5
DDA3
  8
ALPHA
 10
35.786378
 20
77.349251
 30
0.0
  0
VERTEX
  5
DDA4
  8
ALPHA
 10
35.840692
 20
77.458414
 30
0.0
  0
VERTEX
  5
DDA5
  8
ALPHA
 10
35.892994
 20
77.560682
 30
0.0
  0
SEQEND
  5
DDA6
  8
ALPHA
  0
LINE
  5
D3B8
  8
ALPHA
 10
35.730243
 20
77.232983
 30
0.0
 11
36.059215
 21
77.561955
 31
0.0
  0
POLYLINE
  5
D3B9
  8
ALPHA
 66
     1
 10
0.0
 20
0.0
 30
0.0
  0
VERTEX
  5
DDA7
  8
ALPHA
 10
36.252157
 20
77.498856
 30
0.0
  0
VERTEX
  5
DDA8
  8
ALPHA
 10
36.093927
 20
77.414465
 30
0.0
  0
VERTEX
  5
DDA9
  8
ALPHA
 10
35.920998
 20
77.32601
 30
0.0
  0
VERTEX
  5
DDAA
  8
ALPHA
 10
35.730243
 20
77.232983
 30
0.0
  0
SEQEND
  5
DDAB
  8
ALPHA
  0
LINE
  5
D3BA
  8
ALPHA
 10
33.098256
 20
82.331955
 30
0.0
 11
30.990953
 21
82.331955
 31
0.0
  0
POLYLINE
  5
D3BC
  8
ALPHA
 66
     1
 10
0.0
 20
0.0
 30
0.0
  0
VERTEX
  5
DDAC
  8
ALPHA
 10
34.787891
 20
84.502134
 30
0.0
  0
VERTEX
  5
DDAD
  8
ALPHA
 10
34.888531
 20
84.52654
 30
0.0
  0
VERTEX
  5
DDAE
  8
ALPHA
 10
35.05903
 20
84.476961
 30
0.0
  0
VERTEX
  5
DDAF
  8
ALPHA
 10
35.287005
 20
84.356956
 30
0.0
  0
VERTEX
  5
DDB0
  8
ALPHA
 10
35.555942
 20
84.175223
 30
0.0
  0
VERTEX
  5
DDB1
  8
ALPHA
 10
35.846378
 20
83.944956
 30
0.0
  0
SEQEND
  5
DDB2
  8
ALPHA
  0
POLYLINE
  5
D3BD
  8
ALPHA
 66
     1
 10
0.0
 20
0.0
 30
0.0
  0
VERTEX
  5
DDB3
  8
ALPHA
 10
34.633479
 20
84.32323
 30
0.0
  0
VERTEX
  5
DDB4
  8
ALPHA
 10
34.732601
 20
84.347314
 30
0.0
  0
VERTEX
  5
DDB5
  8
ALPHA
 10
34.902659
 20
84.298336
 30
0.0
  0
VERTEX
  5
DDB6
  8
ALPHA
 10
35.131261
 20
84.179865
 30
0.0
  0
VERTEX
  5
DDB7
  8
ALPHA
 10
35.401749
 20
84.000534
 30
0.0
  0
VERTEX
  5
DDB8
  8
ALPHA
 10
35.694412
 20
83.773411
 30
0.0
  0
SEQEND
  5
DDB9
  8
ALPHA
  0
LINE
  5
D3BE
  8
ALPHA
 10
34.787891
 20
84.502134
 30
0.0
 11
34.752337
 21
84.533418
 31
0.0
  0
POLYLINE
  5
D3BF
  8
ALPHA
 66
     1
 10
0.0
 20
0.0
 30
0.0
  0
VERTEX
  5
DDBA
  8
ALPHA
 10
35.846378
 20
83.944956
 30
0.0
  0
VERTEX
  5
DDBB
  8
ALPHA
 10
35.7954
 20
83.887963
 30
0.0
  0
VERTEX
  5
DDBC
  8
ALPHA
 10
35.744717
 20
83.830696
 30
0.0
  0
VERTEX
  5
DDBD
  8
ALPHA
 10
35.694412
 20
83.773411
 30
0.0
  0
SEQEND
  5
DDBE
  8
ALPHA
  0
POLYLINE
  5
D3C0
  8
ALPHA
 66
     1
 10
0.0
 20
0.0
 30
0.0
  0
VERTEX
  5
DDBF
  8
ALPHA
 10
34.787891
 20
84.502134
 30
0.0
  0
VERTEX
  5
DDC0
  8
ALPHA
 10
34.736182
 20
84.442696
 30
0.0
  0
VERTEX
  5
DDC1
  8
ALPHA
 10
34.684654
 20
84.382995
 30
0.0
  0
VERTEX
  5
DDC2
  8
ALPHA
 10
34.633481
 20
84.323232
 30
0.0
  0
SEQEND
  5
DDC3
  8
ALPHA
  0
ARC
  5
D3C1
  8
ALPHA
 10
23.491072
 20
71.321713
 30
0.0
 40
20.0
 50
16.215773
 51
41.344523
  0
POLYLINE
  5
D3C2
  8
ALPHA
 66
     1
 10
0.0
 20
0.0
 30
0.0
  0
VERTEX
  5
DDC4
  8
ALPHA
 10
41.720671
 20
76.639894
 30
0.0
  0
VERTEX
  5
DDC5
  8
ALPHA
 10
41.528125
 20
77.269604
 30
0.0
  0
VERTEX
  5
DDC6
  8
ALPHA
 10
41.304533
 20
77.899649
 30
0.0
  0
VERTEX
  5
DDC7
  8
ALPHA
 10
41.048971
 20
78.529677
 30
0.0
  0
VERTEX
  5
DDC8
  8
ALPHA
 10
40.760384
 20
79.159248
 30
0.0
  0
VERTEX
  5
DDC9
  8
ALPHA
 10
40.434201
 20
79.794495
 30
0.0
  0
VERTEX
  5
DDCA
  8
ALPHA
 10
40.066484
 20
80.438728
 30
0.0
  0
VERTEX
  5
DDCB
  8
ALPHA
 10
39.65697
 20
81.088082
 30
0.0
  0
VERTEX
  5
DDCC
  8
ALPHA
 10
39.251645
 20
81.676698
 30
0.0
  0
VERTEX
  5
DDCD
  8
ALPHA
 10
38.894464
 20
82.160446
 30
0.0
  0
VERTEX
  5
DDCE
  8
ALPHA
 10
38.584222
 20
82.559383
 30
0.0
  0
VERTEX
  5
DDCF
  8
ALPHA
 10
38.316837
 20
82.890159
 30
0.0
  0
VERTEX
  5
DDD0
  8
ALPHA
 10
38.079745
 20
83.174994
 30
0.0
  0
VERTEX
  5
DDD1
  8
ALPHA
 10
37.83526
 20
83.46164
 30
0.0
  0
VERTEX
  5
DDD2
  8
ALPHA
 10
37.564017
 20
83.77341
 30
0.0
  0
SEQEND
  5
DDD3
  8
ALPHA
  0
POLYLINE
  5
D3C3
  8
ALPHA
 66
     1
 10
0.0
 20
0.0
 30
0.0
  0
VERTEX
  5
DDD4
  8
ALPHA
 10
42.634631
 20
76.850412
 30
0.0
  0
VERTEX
  5
DDD5
  8
ALPHA
 10
42.437663
 20
77.494116
 30
0.0
  0
VERTEX
  5
DDD6
  8
ALPHA
 10
42.215936
 20
78.140346
 30
0.0
  0
VERTEX
  5
DDD7
  8
ALPHA
 10
41.968119
 20
78.789554
 30
0.0
  0
VERTEX
  5
DDD8
  8
ALPHA
 10
41.69261
 20
79.442227
 30
0.0
  0
VERTEX
  5
DDD9
  8
ALPHA
 10
41.384812
 20
80.104392
 30
0.0
  0
VERTEX
  5
DDDA
  8
ALPHA
 10
41.039621
 20
80.780418
 30
0.0
  0
VERTEX
  5
DDDB
  8
ALPHA
 10
40.655516
 20
81.466246
 30
0.0
  0
VERTEX
  5
DDDC
  8
ALPHA
 10
40.273419
 20
82.091741
 30
0.0
  0
VERTEX
  5
DDDD
  8
ALPHA
 10
39.933644
 20
82.607976
 30
0.0
  0
VERTEX
  5
DDDE
  8
ALPHA
 10
39.635167
 20
83.03449
 30
0.0
  0
VERTEX
  5
DDDF
  8
ALPHA
 10
39.374867
 20
83.388025
 30
0.0
  0
VERTEX
  5
DDE0
  8
ALPHA
 10
39.141451
 20
83.691701
 30
0.0
  0
VERTEX
  5
DDE1
  8
ALPHA
 10
38.898236
 20
83.995701
 30
0.0
  0
VERTEX
  5
DDE2
  8
ALPHA
 10
38.624949
 20
84.323232
 30
0.0
  0
SEQEND
  5
DDE3
  8
ALPHA
  0
POLYLINE
  5
D3C4
  8
ALPHA
 66
     1
 10
0.0
 20
0.0
 30
0.0
  0
VERTEX
  5
DDE4
  8
ALPHA
 10
37.588497
 20
74.923918
 30
0.0
  0
VERTEX
  5
DDE5
  8
ALPHA
 10
38.593929
 20
74.894835
 30
0.0
  0
VERTEX
  5
DDE6
  8
ALPHA
 10
39.50591
 20
74.846219
 30
0.0
  0
VERTEX
  5
DDE7
  8
ALPHA
 10
40.331155
 20
74.786601
 30
0.0
  0
VERTEX
  5
DDE8
  8
ALPHA
 10
41.076994
 20
74.719881
 30
0.0
  0
VERTEX
  5
DDE9
  8
ALPHA
 10
41.750849
 20
74.649037
 30
0.0
  0
VERTEX
  5
DDEA
  8
ALPHA
 10
42.361712
 20
74.576068
 30
0.0
  0
VERTEX
  5
DDEB
  8
ALPHA
 10
42.919149
 20
74.502138
 30
0.0
  0
SEQEND
  5
DDEC
  8
ALPHA
  0
POLYLINE
  5
D3C5
  8
ALPHA
 66
     1
 10
0.0
 20
0.0
 30
0.0
  0
VERTEX
  5
DDED
  8
ALPHA
 10
37.37778
 20
78.703179
 30
0.0
  0
VERTEX
  5
DDEE
  8
ALPHA
 10
37.548117
 20
78.702422
 30
0.0
  0
VERTEX
  5
DDEF
  8
ALPHA
 10
37.733052
 20
78.701418
 30
0.0
  0
VERTEX
  5
DDF0
  8
ALPHA
 10
37.937695
 20
78.700081
 30
0.0
  0
VERTEX
  5
DDF1
  8
ALPHA
 10
38.164603
 20
78.698311
 30
0.0
  0
VERTEX
  5
DDF2
  8
ALPHA
 10
38.412373
 20
78.696018
 30
0.0
  0
VERTEX
  5
DDF3
  8
ALPHA
 10
38.679318
 20
78.693103
 30
0.0
  0
VERTEX
  5
DDF4
  8
ALPHA
 10
38.963066
 20
78.68946
 30
0.0
  0
SEQEND
  5
DDF5
  8
ALPHA
  0
LINE
  5
D3C6
  8
ALPHA
 10
39.207078
 20
78.681955
 30
0.0
 11
37.199215
 21
78.681955
 31
0.0
  0
LINE
  5
D3C7
  8
ALPHA
 10
39.207078
 20
77.581955
 30
0.0
 11
37.199215
 21
77.581955
 31
0.0
  0
POLYLINE
  5
D3C8
  8
ALPHA
 66
     1
 10
0.0
 20
0.0
 30
0.0
  0
VERTEX
  5
DDF6
  8
ALPHA
 10
38.963066
 20
77.57445
 30
0.0
  0
VERTEX
  5
DDF7
  8
ALPHA
 10
38.679318
 20
77.570807
 30
0.0
  0
VERTEX
  5
DDF8
  8
ALPHA
 10
38.412373
 20
77.567892
 30
0.0
  0
VERTEX
  5
DDF9
  8
ALPHA
 10
38.164603
 20
77.565599
 30
0.0
  0
VERTEX
  5
DDFA
  8
ALPHA
 10
37.937695
 20
77.563829
 30
0.0
  0
VERTEX
  5
DDFB
  8
ALPHA
 10
37.733052
 20
77.562492
 30
0.0
  0
VERTEX
  5
DDFC
  8
ALPHA
 10
37.548117
 20
77.561487
 30
0.0
  0
VERTEX
  5
DDFD
  8
ALPHA
 10
37.37778
 20
77.56073
 30
0.0
  0
SEQEND
  5
DDFE
  8
ALPHA
  0
ARC
  5
D3C9
  8
ALPHA
 10
36.629215
 20
78.131955
 30
0.0
 40
0.851277
 50
334.237525
 51
25.762475
  0
ARC
  5
D3CA
  8
ALPHA
 10
37.099215
 20
77.461955
 30
0.0
 40
0.1
 50
90.0
 51
180.0
  0
ARC
  5
D3CB
  8
ALPHA
 10
37.099215
 20
78.801955
 30
0.0
 40
0.1
 50
180.0
 51
270.0
  0
ARC
  5
D3CC
  8
ALPHA
 10
37.299215
 20
77.661955
 30
0.0
 40
0.1
 50
90.0
 51
180.0
  0
ARC
  5
D3CD
  8
ALPHA
 10
37.299215
 20
78.601955
 30
0.0
 40
0.1
 50
180.0
 51
270.0
  0
LINE
  5
D3CE
  8
ALPHA
 10
37.199215
 20
78.701955
 30
0.0
 11
37.099215
 21
78.701955
 31
0.0
  0
LINE
  5
D3CF
  8
ALPHA
 10
37.395878
 20
78.501955
 30
0.0
 11
37.299215
 21
78.501955
 31
0.0
  0
LINE
  5
D3D0
  8
ALPHA
 10
37.299215
 20
77.761955
 30
0.0
 11
37.395878
 21
77.761955
 31
0.0
  0
LINE
  5
D3D1
  8
ALPHA
 10
37.199215
 20
78.694694
 30
0.0
 11
37.37778
 21
78.703179
 31
0.0
  0
POLYLINE
  5
D3D2
  8
ALPHA
 66
     1
 10
0.0
 20
0.0
 30
0.0
  0
VERTEX
  5
DDFF
  8
ALPHA
 10
37.551249
 20
77.20992
 30
0.0
  0
VERTEX
  5
DE00
  8
ALPHA
 10
37.398373
 20
77.283535
 30
0.0
  0
VERTEX
  5
DE01
  8
ALPHA
 10
37.25701
 20
77.354327
 30
0.0
  0
VERTEX
  5
DE02
  8
ALPHA
 10
37.125691
 20
77.422437
 30
0.0
  0
VERTEX
  5
DE03
  8
ALPHA
 10
37.00274
 20
77.488271
 30
0.0
  0
SEQEND
  5
DE04
  8
ALPHA
  0
LINE
  5
D3D3
  8
ALPHA
 10
37.37778
 20
77.56073
 30
0.0
 11
37.199215
 21
77.569216
 31
0.0
  0
LINE
  5
D3D4
  8
ALPHA
 10
37.099215
 20
77.561955
 30
0.0
 11
37.199215
 21
77.561955
 31
0.0
  0
LINE
  5
D3D5
  8
ALPHA
 10
37.551249
 20
77.20992
 30
0.0
 11
37.199215
 21
77.561955
 31
0.0
  0
POLYLINE
  5
D3D6
  8
ALPHA
 66
     1
 10
0.0
 20
0.0
 30
0.0
  0
VERTEX
  5
DE05
  8
ALPHA
 10
37.37778
 20
77.56073
 30
0.0
  0
VERTEX
  5
DE06
  8
ALPHA
 10
37.433555
 20
77.451431
 30
0.0
  0
VERTEX
  5
DE07
  8
ALPHA
 10
37.491106
 20
77.335288
 30
0.0
  0
VERTEX
  5
DE08
  8
ALPHA
 10
37.551249
 20
77.20992
 30
0.0
  0
SEQEND
  5
DE09
  8
ALPHA
  0
LINE
  5
D3D7
  8
ALPHA
 10
37.199215
 20
78.601955
 30
0.0
 11
37.199215
 21
78.701955
 31
0.0
  0
LINE
  5
D3D8
  8
ALPHA
 10
37.199215
 20
77.561955
 30
0.0
 11
37.199215
 21
77.661955
 31
0.0
  0
LINE
  5
D3D9
  8
ALPHA
 10
36.999215
 20
78.801955
 30
0.0
 11
36.999215
 21
79.370123
 31
0.0
  0
LINE
  5
D3DA
  8
ALPHA
 10
36.999215
 20
76.893787
 30
0.0
 11
36.999215
 21
77.461955
 31
0.0
  0
POLYLINE
  5
D3DB
  8
ALPHA
 66
     1
 10
0.0
 20
0.0
 30
0.0
  0
VERTEX
  5
DE0A
  8
ALPHA
 10
37.551249
 20
79.053989
 30
0.0
  0
VERTEX
  5
DE0B
  8
ALPHA
 10
37.49147
 20
78.929368
 30
0.0
  0
VERTEX
  5
DE0C
  8
ALPHA
 10
37.433561
 20
78.812491
 30
0.0
  0
VERTEX
  5
DE0D
  8
ALPHA
 10
37.37778
 20
78.703179
 30
0.0
  0
SEQEND
  5
DE0E
  8
ALPHA
  0
LINE
  5
D3DC
  8
ALPHA
 10
37.551249
 20
79.053989
 30
0.0
 11
37.199215
 21
78.701955
 31
0.0
  0
POLYLINE
  5
D3DD
  8
ALPHA
 66
     1
 10
0.0
 20
0.0
 30
0.0
  0
VERTEX
  5
DE0F
  8
ALPHA
 10
37.00274
 20
78.775638
 30
0.0
  0
VERTEX
  5
DE10
  8
ALPHA
 10
37.125691
 20
78.841473
 30
0.0
  0
VERTEX
  5
DE11
  8
ALPHA
 10
37.25701
 20
78.909583
 30
0.0
  0
VERTEX
  5
DE12
  8
ALPHA
 10
37.398373
 20
78.980374
 30
0.0
  0
VERTEX
  5
DE13
  8
ALPHA
 10
37.551249
 20
79.053989
 30
0.0
  0
SEQEND
  5
DE14
  8
ALPHA
  0
ARC
  5
D3DE
  8
ALPHA
 10
36.629215
 20
78.131955
 30
0.0
 40
2.635882
 50
347.956235
 51
12.043765
  0
POLYLINE
  5
D3DF
  8
ALPHA
 66
     1
 10
0.0
 20
0.0
 30
0.0
  0
VERTEX
  5
DE15
  8
ALPHA
 10
39.207078
 20
78.681955
 30
0.0
  0
VERTEX
  5
DE16
  8
ALPHA
 10
39.168973
 20
78.684214
 30
0.0
  0
VERTEX
  5
DE17
  8
ALPHA
 10
39.114509
 20
78.68627
 30
0.0
  0
VERTEX
  5
DE18
  8
ALPHA
 10
39.04466
 20
78.688054
 30
0.0
  0
VERTEX
  5
DE19
  8
ALPHA
 10
38.963066
 20
78.68946
 30
0.0
  0
SEQEND
  5
DE1A
  8
ALPHA
  0
POLYLINE
  5
D3E0
  8
ALPHA
 66
     1
 10
0.0
 20
0.0
 30
0.0
  0
VERTEX
  5
DE1B
  8
ALPHA
 10
38.963066
 20
77.57445
 30
0.0
  0
VERTEX
  5
DE1C
  8
ALPHA
 10
39.044664
 20
77.575856
 30
0.0
  0
VERTEX
  5
DE1D
  8
ALPHA
 10
39.114507
 20
77.57764
 30
0.0
  0
VERTEX
  5
DE1E
  8
ALPHA
 10
39.168968
 20
77.579695
 30
0.0
  0
VERTEX
  5
DE1F
  8
ALPHA
 10
39.207078
 20
77.581955
 30
0.0
  0
SEQEND
  5
DE20
  8
ALPHA
  0
POLYLINE
  5
D3E1
  8
ALPHA
 66
     1
 10
0.0
 20
0.0
 30
0.0
  0
VERTEX
  5
DE21
  8
ALPHA
 10
42.919149
 20
74.502137
 30
0.0
  0
VERTEX
  5
DE22
  8
ALPHA
 10
42.794152
 20
74.640712
 30
0.0
  0
VERTEX
  5
DE23
  8
ALPHA
 10
42.670412
 20
74.788744
 30
0.0
  0
VERTEX
  5
DE24
  8
ALPHA
 10
42.548463
 20
74.946687
 30
0.0
  0
VERTEX
  5
DE25
  8
ALPHA
 10
42.428892
 20
75.115013
 30
0.0
  0
VERTEX
  5
DE26
  8
ALPHA
 10
42.311758
 20
75.295164
 30
0.0
  0
VERTEX
  5
DE27
  8
ALPHA
 10
42.19718
 20
75.489018
 30
0.0
  0
VERTEX
  5
DE28
  8
ALPHA
 10
42.086826
 20
75.696194
 30
0.0
  0
VERTEX
  5
DE29
  8
ALPHA
 10
41.983323
 20
75.913927
 30
0.0
  0
VERTEX
  5
DE2A
  8
ALPHA
 10
41.889283
 20
76.137919
 30
0.0
  0
VERTEX
  5
DE2B
  8
ALPHA
 10
41.807121
 20
76.361855
 30
0.0
  0
VERTEX
  5
DE2C
  8
ALPHA
 10
41.738306
 20
76.578606
 30
0.0
  0
SEQEND
  5
DE2D
  8
ALPHA
  0
POLYLINE
  5
D3E2
  8
ALPHA
 66
     1
 10
0.0
 20
0.0
 30
0.0
  0
VERTEX
  5
DE2E
  8
ALPHA
 10
43.588383
 20
75.193648
 30
0.0
  0
VERTEX
  5
DE2F
  8
ALPHA
 10
43.48883
 20
75.301327
 30
0.0
  0
VERTEX
  5
DE30
  8
ALPHA
 10
43.390231
 20
75.416294
 30
0.0
  0
VERTEX
  5
DE31
  8
ALPHA
 10
43.293109
 20
75.538815
 30
0.0
  0
VERTEX
  5
DE32
  8
ALPHA
 10
43.197888
 20
75.669315
 30
0.0
  0
VERTEX
  5
DE33
  8
ALPHA
 10
43.104633
 20
75.808901
 30
0.0
  0
VERTEX
  5
DE34
  8
ALPHA
 10
43.013438
 20
75.959043
 30
0.0
  0
VERTEX
  5
DE35
  8
ALPHA
 10
42.925634
 20
76.119462
 30
0.0
  0
VERTEX
  5
DE36
  8
ALPHA
 10
42.843313
 20
76.288041
 30
0.0
  0
VERTEX
  5
DE37
  8
ALPHA
 10
42.76855
 20
76.461485
 30
0.0
  0
VERTEX
  5
DE38
  8
ALPHA
 10
42.703263
 20
76.634936
 30
0.0
  0
VERTEX
  5
DE39
  8
ALPHA
 10
42.648613
 20
76.802898
 30
0.0
  0
SEQEND
  5
DE3A
  8
ALPHA
  0
POLYLINE
  5
D3E3
  8
ALPHA
 66
     1
 10
0.0
 20
0.0
 30
0.0
  0
VERTEX
  5
DE3B
  8
ALPHA
 10
44.088972
 20
73.604042
 30
0.0
  0
VERTEX
  5
DE3C
  8
ALPHA
 10
43.835105
 20
73.755216
 30
0.0
  0
VERTEX
  5
DE3D
  8
ALPHA
 10
43.589697
 20
73.921601
 30
0.0
  0
VERTEX
  5
DE3E
  8
ALPHA
 10
43.354666
 20
74.102016
 30
0.0
  0
VERTEX
  5
DE3F
  8
ALPHA
 10
43.130777
 20
74.295868
 30
0.0
  0
VERTEX
  5
DE40
  8
ALPHA
 10
42.919149
 20
74.502138
 30
0.0
  0
SEQEND
  5
DE41
  8
ALPHA
  0
POLYLINE
  5
D3E4
  8
ALPHA
 66
     1
 10
0.0
 20
0.0
 30
0.0
  0
VERTEX
  5
DE42
  8
ALPHA
 10
44.56792
 20
73.466943
 30
0.0
  0
VERTEX
  5
DE43
  8
ALPHA
 10
44.333114
 20
73.538354
 30
0.0
  0
VERTEX
  5
DE44
  8
ALPHA
 10
44.088972
 20
73.604042
 30
0.0
  0
SEQEND
  5
DE45
  8
ALPHA
  0
POLYLINE
  5
D3E5
  8
ALPHA
 66
     1
 10
0.0
 20
0.0
 30
0.0
  0
VERTEX
  5
DE46
  8
ALPHA
 10
44.088972
 20
73.604042
 30
0.0
  0
VERTEX
  5
DE47
  8
ALPHA
 10
43.940269
 20
73.639937
 30
0.0
  0
VERTEX
  5
DE48
  8
ALPHA
 10
43.779948
 20
73.674488
 30
0.0
  0
VERTEX
  5
DE49
  8
ALPHA
 10
43.607163
 20
73.707117
 30
0.0
  0
VERTEX
  5
DE4A
  8
ALPHA
 10
43.421122
 20
73.737271
 30
0.0
  0
SEQEND
  5
DE4B
  8
ALPHA
  0
LINE
  5
D3E6
  8
ALPHA
 10
44.863611
 20
73.268455
 30
0.0
 11
44.742825
 21
73.290721
 31
0.0
  0
LINE
  5
D3E7
  8
ALPHA
 10
44.742825
 20
73.290721
 30
0.0
 11
44.597397
 21
73.317068
 31
0.0
  0
LINE
  5
D3E8
  8
ALPHA
 10
44.716178
 20
73.152629
 30
0.0
 11
44.571069
 21
73.178873
 31
0.0
  0
POLYLINE
  5
D3E9
  8
ALPHA
 66
     1
 10
0.0
 20
0.0
 30
0.0
  0
VERTEX
  5
DE4C
  8
ALPHA
 10
44.597397
 20
73.317068
 30
0.0
  0
VERTEX
  5
DE4D
  8
ALPHA
 10
44.514283
 20
73.331898
 30
0.0
  0
VERTEX
  5
DE4E
  8
ALPHA
 10
44.424308
 20
73.347766
 30
0.0
  0
VERTEX
  5
DE4F
  8
ALPHA
 10
44.327181
 20
73.364677
 30
0.0
  0
VERTEX
  5
DE50
  8
ALPHA
 10
44.222396
 20
73.382667
 30
0.0
  0
VERTEX
  5
DE51
  8
ALPHA
 10
44.10939
 20
73.401772
 30
0.0
  0
VERTEX
  5
DE52
  8
ALPHA
 10
43.987347
 20
73.422059
 30
0.0
  0
VERTEX
  5
DE53
  8
ALPHA
 10
43.855329
 20
73.443598
 30
0.0
  0
VERTEX
  5
DE54
  8
ALPHA
 10
43.7123
 20
73.466456
 30
0.0
  0
VERTEX
  5
DE55
  8
ALPHA
 10
43.557008
 20
73.490711
 30
0.0
  0
VERTEX
  5
DE56
  8
ALPHA
 10
43.388026
 20
73.516436
 30
0.0
  0
SEQEND
  5
DE57
  8
ALPHA
  0
POLYLINE
  5
D3EA
  8
ALPHA
 66
     1
 10
0.0
 20
0.0
 30
0.0
  0
VERTEX
  5
DE58
  8
ALPHA
 10
44.571069
 20
73.178873
 30
0.0
  0
VERTEX
  5
DE59
  8
ALPHA
 10
44.488208
 20
73.193648
 30
0.0
  0
VERTEX
  5
DE5A
  8
ALPHA
 10
44.398558
 20
73.209451
 30
0.0
  0
VERTEX
  5
DE5B
  8
ALPHA
 10
44.301799
 20
73.226287
 30
0.0
  0
VERTEX
  5
DE5C
  8
ALPHA
 10
44.197452
 20
73.24418
 30
0.0
  0
VERTEX
  5
DE5D
  8
ALPHA
 10
44.084953
 20
73.263153
 30
0.0
  0
VERTEX
  5
DE5E
  8
ALPHA
 10
43.963474
 20
73.283266
 30
0.0
  0
VERTEX
  5
DE5F
  8
ALPHA
 10
43.832078
 20
73.304593
 30
0.0
  0
VERTEX
  5
DE60
  8
ALPHA
 10
43.689736
 20
73.327212
 30
0.0
  0
VERTEX
  5
DE61
  8
ALPHA
 10
43.535204
 20
73.35121
 30
0.0
  0
VERTEX
  5
DE62
  8
ALPHA
 10
43.367054
 20
73.376691
 30
0.0
  0
SEQEND
  5
DE63
  8
ALPHA
  0
POLYLINE
  5
D3EB
  8
ALPHA
 66
     1
 10
0.0
 20
0.0
 30
0.0
  0
VERTEX
  5
DE64
  8
ALPHA
 10
43.367054
 20
73.376691
 30
0.0
  0
VERTEX
  5
DE65
  8
ALPHA
 10
43.375135
 20
73.420778
 30
0.0
  0
VERTEX
  5
DE66
  8
ALPHA
 10
43.382809
 20
73.471919
 30
0.0
  0
VERTEX
  5
DE67
  8
ALPHA
 10
43.388026
 20
73.516436
 30
0.0
  0
SEQEND
  5
DE68
  8
ALPHA
  0
LINE
  5
D3EC
  8
ALPHA
 10
43.367054
 20
73.376691
 30
0.0
 11
43.334686
 21
73.160707
 31
0.0
  0
LINE
  5
D3ED
  8
ALPHA
 10
43.421123
 20
73.737271
 30
0.0
 11
43.388026
 21
73.516436
 31
0.0
  0
POLYLINE
  5
D3EE
  8
ALPHA
 66
     1
 10
0.0
 20
0.0
 30
0.0
  0
VERTEX
  5
DE69
  8
ALPHA
 10
43.588383
 20
75.193648
 30
0.0
  0
VERTEX
  5
DE6A
  8
ALPHA
 10
43.55877
 20
75.150194
 30
0.0
  0
VERTEX
  5
DE6B
  8
ALPHA
 10
43.466292
 20
75.047905
 30
0.0
  0
VERTEX
  5
DE6C
  8
ALPHA
 10
43.319346
 20
74.896069
 30
0.0
  0
VERTEX
  5
DE6D
  8
ALPHA
 10
43.131273
 20
74.708469
 30
0.0
  0
VERTEX
  5
DE6E
  8
ALPHA
 10
42.919149
 20
74.502137
 30
0.0
  0
SEQEND
  5
DE6F
  8
ALPHA
  0
ARC
  5
D3EF
  8
ALPHA
 10
41.324472
 20
81.21517
 30
0.0
 40
0.3
 50
107.751353
 51
207.755799
  0
ARC
  5
D3F0
  8
ALPHA
 10
22.829215
 20
71.481955
 30
0.0
 40
20.6
 50
15.273487
 51
27.755799
  0
POLYLINE
  5
D3F1
  8
ALPHA
 66
     1
 10
0.0
 20
0.0
 30
0.0
  0
VERTEX
  5
DE70
  8
ALPHA
 10
42.634632
 20
76.85041
 30
0.0
  0
VERTEX
  5
DE71
  8
ALPHA
 10
42.583131
 20
76.851478
 30
0.0
  0
VERTEX
  5
DE72
  8
ALPHA
 10
42.451521
 20
76.827926
 30
0.0
  0
VERTEX
  5
DE73
  8
ALPHA
 10
42.251401
 20
76.781831
 30
0.0
  0
VERTEX
  5
DE74
  8
ALPHA
 10
42.00041
 20
76.717257
 30
0.0
  0
VERTEX
  5
DE75
  8
ALPHA
 10
41.720671
 20
76.639894
 30
0.0
  0
SEQEND
  5
DE76
  8
ALPHA
  0
POLYLINE
  5
D3F2
  8
ALPHA
 66
     1
 10
0.0
 20
0.0
 30
0.0
  0
VERTEX
  5
DE77
  8
ALPHA
 10
42.648613
 20
76.802898
 30
0.0
  0
VERTEX
  5
DE78
  8
ALPHA
 10
42.641546
 20
76.82664
 30
0.0
  0
VERTEX
  5
DE79
  8
ALPHA
 10
42.634631
 20
76.850412
 30
0.0
  0
SEQEND
  5
DE7A
  8
ALPHA
  0
POLYLINE
  5
D3F3
  8
ALPHA
 66
     1
 10
0.0
 20
0.0
 30
0.0
  0
VERTEX
  5
DE7B
  8
ALPHA
 10
41.738306
 20
76.578606
 30
0.0
  0
VERTEX
  5
DE7C
  8
ALPHA
 10
41.729398
 20
76.609234
 30
0.0
  0
VERTEX
  5
DE7D
  8
ALPHA
 10
41.720671
 20
76.639894
 30
0.0
  0
SEQEND
  5
DE7E
  8
ALPHA
  0
LINE
  5
D3F4
  8
ALPHA
 10
42.634631
 20
76.850412
 30
0.0
 11
42.695409
 21
76.906822
 31
0.0
  0
LINE
  5
D3F5
  8
ALPHA
 10
44.879215
 20
85.031955
 30
0.0
 11
37.872063
 21
85.031955
 31
0.0
  0
LINE
  5
D3F6
  8
ALPHA
 10
42.267477
 20
82.331955
 30
0.0
 11
40.160174
 21
82.331955
 31
0.0
  0
POLYLINE
  5
D3F7
  8
ALPHA
 66
     1
 10
0.0
 20
0.0
 30
0.0
  0
VERTEX
  5
DE7F
  8
ALPHA
 10
38.624949
 20
84.323232
 30
0.0
  0
VERTEX
  5
DE80
  8
ALPHA
 10
38.525725
 20
84.347436
 30
0.0
  0
VERTEX
  5
DE81
  8
ALPHA
 10
38.355613
 20
84.298519
 30
0.0
  0
VERTEX
  5
DE82
  8
ALPHA
 10
38.12701
 20
84.180047
 30
0.0
  0
VERTEX
  5
DE83
  8
ALPHA
 10
37.856576
 20
84.000653
 30
0.0
  0
VERTEX
  5
DE84
  8
ALPHA
 10
37.564017
 20
83.77341
 30
0.0
  0
SEQEND
  5
DE85
  8
ALPHA
  0
POLYLINE
  5
D3F8
  8
ALPHA
 66
     1
 10
0.0
 20
0.0
 30
0.0
  0
VERTEX
  5
DE86
  8
ALPHA
 10
38.470539
 20
84.502138
 30
0.0
  0
VERTEX
  5
DE87
  8
ALPHA
 10
38.369782
 20
84.526668
 30
0.0
  0
VERTEX
  5
DE88
  8
ALPHA
 10
38.199225
 20
84.47713
 30
0.0
  0
VERTEX
  5
DE89
  8
ALPHA
 10
37.971226
 20
84.357113
 30
0.0
  0
VERTEX
  5
DE8A
  8
ALPHA
 10
37.702307
 20
84.175313
 30
0.0
  0
VERTEX
  5
DE8B
  8
ALPHA
 10
37.411951
 20
83.944903
 30
0.0
  0
SEQEND
  5
DE8C
  8
ALPHA
  0
POLYLINE
  5
D3F9
  8
ALPHA
 66
     1
 10
0.0
 20
0.0
 30
0.0
  0
VERTEX
  5
DE8D
  8
ALPHA
 10
38.624949
 20
84.323232
 30
0.0
  0
VERTEX
  5
DE8E
  8
ALPHA
 10
38.573783
 20
84.382989
 30
0.0
  0
VERTEX
  5
DE8F
  8
ALPHA
 10
38.522245
 20
84.442701
 30
0.0
  0
VERTEX
  5
DE90
  8
ALPHA
 10
38.47054
 20
84.502136
 30
0.0
  0
SEQEND
  5
DE91
  8
ALPHA
  0
POLYLINE
  5
D3FA
  8
ALPHA
 66
     1
 10
0.0
 20
0.0
 30
0.0
  0
VERTEX
  5
DE92
  8
ALPHA
 10
37.564017
 20
83.77341
 30
0.0
  0
VERTEX
  5
DE93
  8
ALPHA
 10
37.513683
 20
83.830672
 30
0.0
  0
VERTEX
  5
DE94
  8
ALPHA
 10
37.462958
 20
83.887931
 30
0.0
  0
VERTEX
  5
DE95
  8
ALPHA
 10
37.411951
 20
83.944903
 30
0.0
  0
SEQEND
  5
DE96
  8
ALPHA
  0
LINE
  5
D3FB
  8
ALPHA
 10
38.47054
 20
84.502136
 30
0.0
 11
38.506093
 21
84.533418
 31
0.0
  0
ARC
  5
D3FC
  8
ALPHA
 10
36.629215
 20
96.231955
 30
0.0
 40
15.0
 50
292.078969
 51
302.950817
  0
LINE
  5
D3FD
  8
ALPHA
 10
44.879215
 20
83.812716
 30
0.0
 11
44.879215
 21
85.931955
 31
0.0
  0
POLYLINE
  5
D3FF
  8
ALPHA
 66
     1
 10
0.0
 20
0.0
 30
0.0
  0
VERTEX
  5
DE97
  8
ALPHA
 10
51.975216
 20
71.924211
 30
0.0
  0
VERTEX
  5
DE98
  8
ALPHA
 10
51.866498
 20
50.227976
 30
0.0
  0
VERTEX
  5
DE99
  8
ALPHA
 10
51.800431
 20
27.575936
 30
0.0
  0
SEQEND
  5
DE9A
  8
ALPHA
  0
POLYLINE
  5
D400
  8
ALPHA
 66
     1
 10
0.0
 20
0.0
 30
0.0
  0
VERTEX
  5
DE9B
  8
ALPHA
 10
51.094701
 20
71.574496
 30
0.0
  0
VERTEX
  5
DE9C
  8
ALPHA
 10
50.986567
 20
50.064647
 30
0.0
  0
VERTEX
  5
DE9D
  8
ALPHA
 10
50.920673
 20
27.616068
 30
0.0
  0
SEQEND
  5
DE9E
  8
ALPHA
  0
LINE
  5
D401
  8
ALPHA
 10
52.029215
 20
70.618352
 30
0.0
 11
52.029218
 21
26.979687
 31
0.0
  0
LINE
  5
D403
  8
ALPHA
 10
47.214682
 20
23.744652
 30
0.0
 11
47.91947
 21
25.489062
 31
0.0
  0
POLYLINE
  5
D404
  8
ALPHA
 66
     1
 10
0.0
 20
0.0
 30
0.0
  0
VERTEX
  5
DE9F
  8
ALPHA
 10
47.750723
 20
23.932112
 30
0.0
  0
VERTEX
  5
DEA0
  8
ALPHA
 10
47.707718
 20
23.810466
 30
0.0
  0
VERTEX
  5
DEA1
  8
ALPHA
 10
47.680539
 20
23.684852
 30
0.0
  0
VERTEX
  5
DEA2
  8
ALPHA
 10
47.669571
 20
23.557505
 30
0.0
  0
SEQEND
  5
DEA3
  8
ALPHA
  0
LINE
  5
D405
  8
ALPHA
 10
52.029215
 20
23.181955
 30
0.0
 11
52.029215
 21
26.978054
 31
0.0
  0
POLYLINE
  5
D406
  8
ALPHA
 66
     1
 10
0.0
 20
0.0
 30
0.0
  0
VERTEX
  5
DEA4
  8
ALPHA
 10
51.800446
 20
27.575936
 30
0.0
  0
VERTEX
  5
DEA5
  8
ALPHA
 10
51.812848
 20
27.034294
 30
0.0
  0
VERTEX
  5
DEA6
  8
ALPHA
 10
51.825779
 20
26.522746
 30
0.0
  0
VERTEX
  5
DEA7
  8
ALPHA
 10
51.839196
 20
26.043181
 30
0.0
  0
VERTEX
  5
DEA8
  8
ALPHA
 10
51.853058
 20
25.597186
 30
0.0
  0
VERTEX
  5
DEA9
  8
ALPHA
 10
51.867336
 20
25.1857
 30
0.0
  0
VERTEX
  5
DEAA
  8
ALPHA
 10
51.882013
 20
24.80933
 30
0.0
  0
VERTEX
  5
DEAB
  8
ALPHA
 10
51.897075
 20
24.468688
 30
0.0
  0
VERTEX
  5
DEAC
  8
ALPHA
 10
51.912497
 20
24.164576
 30
0.0
  0
VERTEX
  5
DEAD
  8
ALPHA
 10
51.928247
 20
23.897766
 30
0.0
  0
VERTEX
  5
DEAE
  8
ALPHA
 10
51.944292
 20
23.669032
 30
0.0
  0
VERTEX
  5
DEAF
  8
ALPHA
 10
51.960593
 20
23.479069
 30
0.0
  0
VERTEX
  5
DEB0
  8
ALPHA
 10
51.977123
 20
23.328366
 30
0.0
  0
VERTEX
  5
DEB1
  8
ALPHA
 10
51.993857
 20
23.217366
 30
0.0
  0
SEQEND
  5
DEB2
  8
ALPHA
  0
LINE
  5
D407
  8
ALPHA
 10
48.829215
 20
24.563951
 30
0.0
 11
48.829215
 21
23.481955
 31
0.0
  0
POLYLINE
  5
D408
  8
ALPHA
 66
     1
 10
0.0
 20
0.0
 30
0.0
  0
VERTEX
  5
DEB3
  8
ALPHA
 10
50.832008
 20
26.764813
 30
0.0
  0
VERTEX
  5
DEB4
  8
ALPHA
 10
50.912816
 20
26.300782
 30
0.0
  0
VERTEX
  5
DEB5
  8
ALPHA
 10
50.994196
 20
25.866463
 30
0.0
  0
VERTEX
  5
DEB6
  8
ALPHA
 10
51.076032
 20
25.463187
 30
0.0
  0
VERTEX
  5
DEB7
  8
ALPHA
 10
51.158226
 20
25.09195
 30
0.0
  0
VERTEX
  5
DEB8
  8
ALPHA
 10
51.240699
 20
24.753315
 30
0.0
  0
VERTEX
  5
DEB9
  8
ALPHA
 10
51.323424
 20
24.447531
 30
0.0
  0
VERTEX
  5
DEBA
  8
ALPHA
 10
51.406389
 20
24.174787
 30
0.0
  0
VERTEX
  5
DEBB
  8
ALPHA
 10
51.489596
 20
23.935381
 30
0.0
  0
VERTEX
  5
DEBC
  8
ALPHA
 10
51.573059
 20
23.729701
 30
0.0
  0
VERTEX
  5
DEBD
  8
ALPHA
 10
51.656794
 20
23.558114
 30
0.0
  0
VERTEX
  5
DEBE
  8
ALPHA
 10
51.740779
 20
23.420939
 30
0.0
  0
VERTEX
  5
DEBF
  8
ALPHA
 10
51.824967
 20
23.318382
 30
0.0
  0
VERTEX
  5
DEC0
  8
ALPHA
 10
51.909334
 20
23.25051
 30
0.0
  0
VERTEX
  5
DEC1
  8
ALPHA
 10
51.993857
 20
23.217366
 30
0.0
  0
SEQEND
  5
DEC2
  8
ALPHA
  0
POLYLINE
  5
D409
  8
ALPHA
 66
     1
 10
0.0
 20
0.0
 30
0.0
  0
VERTEX
  5
DEC3
  8
ALPHA
 10
48.9566
 20
23.217366
 30
0.0
  0
VERTEX
  5
DEC4
  8
ALPHA
 10
48.90472
 20
23.458468
 30
0.0
  0
VERTEX
  5
DEC5
  8
ALPHA
 10
48.853806
 20
24.073773
 30
0.0
  0
VERTEX
  5
DEC6
  8
ALPHA
 10
48.804662
 20
25.053381
 30
0.0
  0
VERTEX
  5
DEC7
  8
ALPHA
 10
48.758065
 20
26.381955
 30
0.0
  0
SEQEND
  5
DEC8
  8
ALPHA
  0
LINE
  5
D40A
  8
ALPHA
 10
48.9566
 20
23.217366
 30
0.0
 11
48.992011
 21
23.181955
 31
0.0
  0
LINE
  5
D40B
  8
ALPHA
 10
48.9566
 20
23.217366
 30
0.0
 11
51.993857
 21
23.217366
 31
0.0
  0
ARC
  5
D40C
  8
ALPHA
 10
46.75109
 20
23.931955
 30
0.0
 40
0.5
 50
270.0
 51
338.0
  0
LINE
  5
D40D
  8
ALPHA
 10
47.669571
 20
23.557505
 30
0.0
 11
47.667888
 21
23.481955
 31
0.0
  0
LINE
  5
D40E
  8
ALPHA
 10
47.074414
 20
23.557505
 30
0.0
 11
47.669571
 21
23.557505
 31
0.0
  0
LINE
  5
D40F
  8
ALPHA
 10
46.956298
 20
23.481955
 30
0.0
 11
48.829215
 21
23.481955
 31
0.0
  0
LINE
  5
D410
  8
ALPHA
 10
52.029215
 20
23.181955
 30
0.0
 11
48.992011
 21
23.181955
 31
0.0
  0
LINE
  5
D411
  8
ALPHA
 10
51.993857
 20
23.217366
 30
0.0
 11
52.029215
 21
23.181955
 31
0.0
  0
ARC
  5
D412
  8
ALPHA
 10
45.137918
 20
26.612882
 30
0.0
 40
3.0
 50
338.0
 51
355.563186
  0
POLYLINE
  5
D413
  8
ALPHA
 66
     1
 10
0.0
 20
0.0
 30
0.0
  0
VERTEX
  5
DEC9
  8
ALPHA
 10
48.137628
 20
24.845042
 30
0.0
  0
VERTEX
  5
DECA
  8
ALPHA
 10
48.008104
 20
24.538235
 30
0.0
  0
VERTEX
  5
DECB
  8
ALPHA
 10
47.879138
 20
24.233925
 30
0.0
  0
VERTEX
  5
DECC
  8
ALPHA
 10
47.750723
 20
23.932112
 30
0.0
  0
SEQEND
  5
DECD
  8
ALPHA
  0
POLYLINE
  5
D414
  8
ALPHA
 66
     1
 10
0.0
 20
0.0
 30
0.0
  0
VERTEX
  5
DECE
  8
ALPHA
 10
48.369079
 20
25.962447
 30
0.0
  0
VERTEX
  5
DECF
  8
ALPHA
 10
48.340848
 20
25.581724
 30
0.0
  0
VERTEX
  5
DED0
  8
ALPHA
 10
48.26329
 20
25.207182
 30
0.0
  0
VERTEX
  5
DED1
  8
ALPHA
 10
48.137628
 20
24.845042
 30
0.0
  0
SEQEND
  5
DED2
  8
ALPHA
  0
LINE
  5
D415
  8
ALPHA
 10
48.369079
 20
25.962447
 30
0.0
 11
48.372332
 21
26.381955
 31
0.0
  0
POLYLINE
  5
D416
  8
ALPHA
 66
     1
 10
0.0
 20
0.0
 30
0.0
  0
VERTEX
  5
DED3
  8
ALPHA
 10
48.369078
 20
25.962425
 30
0.0
  0
VERTEX
  5
DED4
  8
ALPHA
 10
48.121071
 20
26.024262
 30
0.0
  0
VERTEX
  5
DED5
  8
ALPHA
 10
48.080363
 20
26.028479
 30
0.0
  0
SEQEND
  5
DED6
  8
ALPHA
  0
POLYLINE
  5
D417
  8
ALPHA
 66
     1
 10
0.0
 20
0.0
 30
0.0
  0
VERTEX
  5
DED7
  8
ALPHA
 10
48.137614
 20
24.84501
 30
0.0
  0
VERTEX
  5
DED8
  8
ALPHA
 10
47.858271
 20
24.906013
 30
0.0
  0
VERTEX
  5
DED9
  8
ALPHA
 10
47.690623
 20
24.922646
 30
0.0
  0
SEQEND
  5
DEDA
  8
ALPHA
  0
LINE
  5
D418
  8
ALPHA
 10
47.290421
 20
23.932112
 30
0.0
 11
47.750723
 21
23.932112
 31
0.0
  0
POLYLINE
  5
D419
  8
ALPHA
 66
     1
 10
0.0
 20
0.0
 30
0.0
  0
VERTEX
  5
DEDB
  8
ALPHA
 10
51.800446
 20
27.575936
 30
0.0
  0
VERTEX
  5
DEDC
  8
ALPHA
 10
51.750653
 20
27.337196
 30
0.0
  0
VERTEX
  5
DEDD
  8
ALPHA
 10
51.611839
 20
27.115572
 30
0.0
  0
VERTEX
  5
DEDE
  8
ALPHA
 10
51.397414
 20
26.934993
 30
0.0
  0
VERTEX
  5
DEDF
  8
ALPHA
 10
51.128145
 20
26.813797
 30
0.0
  0
VERTEX
  5
DEE0
  8
ALPHA
 10
50.832008
 20
26.764813
 30
0.0
  0
SEQEND
  5
DEE1
  8
ALPHA
  0
POLYLINE
  5
D41A
  8
ALPHA
 66
     1
 10
0.0
 20
0.0
 30
0.0
  0
VERTEX
  5
DEE2
  8
ALPHA
 10
51.800431
 20
27.575936
 30
0.0
  0
VERTEX
  5
DEE3
  8
ALPHA
 10
51.755002
 20
27.583511
 30
0.0
  0
VERTEX
  5
DEE4
  8
ALPHA
 10
51.631348
 20
27.591106
 30
0.0
  0
VERTEX
  5
DEE5
  8
ALPHA
 10
51.439627
 20
27.59891
 30
0.0
  0
VERTEX
  5
DEE6
  8
ALPHA
 10
51.19555
 20
27.607153
 30
0.0
  0
VERTEX
  5
DEE7
  8
ALPHA
 10
50.920673
 20
27.616068
 30
0.0
  0
SEQEND
  5
DEE8
  8
ALPHA
  0
POLYLINE
  5
D41B
  8
ALPHA
 66
     1
 10
0.0
 20
0.0
 30
0.0
  0
VERTEX
  5
DEE9
  8
ALPHA
 10
50.920673
 20
27.616068
 30
0.0
  0
VERTEX
  5
DEEA
  8
ALPHA
 10
50.906056
 20
27.364318
 30
0.0
  0
VERTEX
  5
DEEB
  8
ALPHA
 10
50.885125
 20
27.128752
 30
0.0
  0
VERTEX
  5
DEEC
  8
ALPHA
 10
50.859728
 20
26.924532
 30
0.0
  0
VERTEX
  5
DEED
  8
ALPHA
 10
50.832008
 20
26.764812
 30
0.0
  0
SEQEND
  5
DEEE
  8
ALPHA
  0
ARC
  5
D41C
  8
ALPHA
 10
47.629215
 20
80.481955
 30
0.0
 40
2.1
 50
0.0
 51
180.0
  0
LINE
  5
D41D
  8
ALPHA
 10
51.529215
 20
84.714174
 30
0.0
 11
51.529215
 21
72.501417
 31
0.0
  0
LINE
  5
D41E
  8
ALPHA
 10
51.429215
 20
83.966147
 30
0.0
 11
51.429215
 21
72.787458
 31
0.0
  0
POLYLINE
  5
D41F
  8
ALPHA
 66
     1
 10
0.0
 20
0.0
 30
0.0
  0
VERTEX
  5
DEEF
  8
ALPHA
 10
51.97632
 20
85.723666
 30
0.0
  0
VERTEX
  5
DEF0
  8
ALPHA
 10
51.989238
 20
82.270175
 30
0.0
  0
VERTEX
  5
DEF1
  8
ALPHA
 10
52.002345
 20
78.694017
 30
0.0
  0
VERTEX
  5
DEF2
  8
ALPHA
 10
52.015571
 20
74.998886
 30
0.0
  0
VERTEX
  5
DEF3
  8
ALPHA
 10
52.025853
 20
72.046439
 30
0.0
  0
SEQEND
  5
DEF4
  8
ALPHA
  0
POLYLINE
  5
D420
  8
ALPHA
 66
     1
 10
0.0
 20
0.0
 30
0.0
  0
VERTEX
  5
DEF5
  8
ALPHA
 10
51.580426
 20
84.96209
 30
0.0
  0
VERTEX
  5
DEF6
  8
ALPHA
 10
51.625034
 20
81.678805
 30
0.0
  0
VERTEX
  5
DEF7
  8
ALPHA
 10
51.713995
 20
78.287187
 30
0.0
  0
VERTEX
  5
DEF8
  8
ALPHA
 10
51.847201
 20
74.785636
 30
0.0
  0
VERTEX
  5
DEF9
  8
ALPHA
 10
51.974043
 20
72.204214
 30
0.0
  0
SEQEND
  5
DEFA
  8
ALPHA
  0
ARC
  5
D421
  8
ALPHA
 10
47.629215
 20
78.481955
 30
0.0
 40
2.1
 50
270.0
 51
0.0
  0
ARC
  5
D422
  8
ALPHA
 10
36.629215
 20
29.831955
 30
0.0
 40
45.2
 50
70.517634
 51
78.383873
  0
POLYLINE
  5
D423
  8
ALPHA
 66
     1
 10
0.0
 20
0.0
 30
0.0
  0
VERTEX
  5
DEFB
  8
ALPHA
 10
51.642333
 20
72.401018
 30
0.0
  0
VERTEX
  5
DEFC
  8
ALPHA
 10
50.461107
 20
72.796809
 30
0.0
  0
VERTEX
  5
DEFD
  8
ALPHA
 10
49.273269
 20
73.158921
 30
0.0
  0
VERTEX
  5
DEFE
  8
ALPHA
 10
48.079478
 20
73.487483
 30
0.0
  0
VERTEX
  5
DEFF
  8
ALPHA
 10
46.880681
 20
73.782546
 30
0.0
  0
VERTEX
  5
DF00
  8
ALPHA
 10
45.677323
 20
74.044285
 30
0.0
  0
SEQEND
  5
DF01
  8
ALPHA
  0
POLYLINE
  5
D424
  8
ALPHA
 66
     1
 10
0.0
 20
0.0
 30
0.0
  0
VERTEX
  5
DF02
  8
ALPHA
 10
51.094701
 20
71.574496
 30
0.0
  0
VERTEX
  5
DF03
  8
ALPHA
 10
49.996197
 20
71.930708
 30
0.0
  0
VERTEX
  5
DF04
  8
ALPHA
 10
48.892046
 20
72.257752
 30
0.0
  0
VERTEX
  5
DF05
  8
ALPHA
 10
47.782828
 20
72.555723
 30
0.0
  0
VERTEX
  5
DF06
  8
ALPHA
 10
46.669292
 20
72.82467
 30
0.0
  0
VERTEX
  5
DF07
  8
ALPHA
 10
45.551787
 20
73.06474
 30
0.0
  0
SEQEND
  5
DF08
  8
ALPHA
  0
LINE
  5
D425
  8
ALPHA
 10
45.353063
 20
74.659659
 30
0.0
 11
49.913453
 21
73.522626
 31
0.0
  0
POLYLINE
  5
D426
  8
ALPHA
 66
     1
 10
0.0
 20
0.0
 30
0.0
  0
VERTEX
  5
DF09
  8
ALPHA
 10
45.466091
 20
73.094339
 30
0.0
  0
VERTEX
  5
DF0A
  8
ALPHA
 10
45.412572
 20
73.131958
 30
0.0
  0
VERTEX
  5
DF0B
  8
ALPHA
 10
45.35237
 20
73.159982
 30
0.0
  0
VERTEX
  5
DF0C
  8
ALPHA
 10
45.287461
 20
73.188465
 30
0.0
  0
SEQEND
  5
DF0D
  8
ALPHA
  0
POLYLINE
  5
D427
  8
ALPHA
 66
     1
 10
0.0
 20
0.0
 30
0.0
  0
VERTEX
  5
DF0E
  8
ALPHA
 10
45.287461
 20
73.188465
 30
0.0
  0
VERTEX
  5
DF0F
  8
ALPHA
 10
45.314317
 20
73.174903
 30
0.0
  0
VERTEX
  5
DF10
  8
ALPHA
 10
45.338743
 20
73.161753
 30
0.0
  0
VERTEX
  5
DF11
  8
ALPHA
 10
45.360234
 20
73.147918
 30
0.0
  0
VERTEX
  5
DF12
  8
ALPHA
 10
45.378338
 20
73.132995
 30
0.0
  0
VERTEX
  5
DF13
  8
ALPHA
 10
45.391696
 20
73.116276
 30
0.0
  0
VERTEX
  5
DF14
  8
ALPHA
 10
45.396085
 20
73.097438
 30
0.0
  0
VERTEX
  5
DF15
  8
ALPHA
 10
45.38615
 20
73.08021
 30
0.0
  0
VERTEX
  5
DF16
  8
ALPHA
 10
45.367203
 20
73.068746
 30
0.0
  0
VERTEX
  5
DF17
  8
ALPHA
 10
45.344204
 20
73.061165
 30
0.0
  0
VERTEX
  5
DF18
  8
ALPHA
 10
45.318328
 20
73.056036
 30
0.0
  0
VERTEX
  5
DF19
  8
ALPHA
 10
45.289884
 20
73.052728
 30
0.0
  0
VERTEX
  5
DF1A
  8
ALPHA
 10
45.258912
 20
73.050941
 30
0.0
  0
SEQEND
  5
DF1B
  8
ALPHA
  0
LINE
  5
D428
  8
ALPHA
 10
44.907014
 20
74.370922
 30
0.0
 11
45.730399
 21
74.106196
 31
0.0
  0
POLYLINE
  5
D429
  8
ALPHA
 66
     1
 10
0.0
 20
0.0
 30
0.0
  0
VERTEX
  5
DF1C
  8
ALPHA
 10
45.607369
 20
74.059133
 30
0.0
  0
VERTEX
  5
DF1D
  8
ALPHA
 10
45.396726
 20
74.111846
 30
0.0
  0
VERTEX
  5
DF1E
  8
ALPHA
 10
45.189062
 20
74.175975
 30
0.0
  0
VERTEX
  5
DF1F
  8
ALPHA
 10
44.984539
 20
74.251552
 30
0.0
  0
SEQEND
  5
DF20
  8
ALPHA
  0
LINE
  5
D42A
  8
ALPHA
 10
45.923144
 20
74.465991
 30
0.0
 11
45.7776
 21
74.502279
 31
0.0
  0
POLYLINE
  5
D42B
  8
ALPHA
 66
     1
 10
0.0
 20
0.0
 30
0.0
  0
VERTEX
  5
DF21
  8
ALPHA
 10
45.677323
 20
74.044285
 30
0.0
  0
VERTEX
  5
DF22
  8
ALPHA
 10
45.653977
 20
74.049095
 30
0.0
  0
VERTEX
  5
DF23
  8
ALPHA
 10
45.630659
 20
74.054044
 30
0.0
  0
VERTEX
  5
DF24
  8
ALPHA
 10
45.607369
 20
74.059133
 30
0.0
  0
SEQEND
  5
DF25
  8
ALPHA
  0
POLYLINE
  5
D42C
  8
ALPHA
 66
     1
 10
0.0
 20
0.0
 30
0.0
  0
VERTEX
  5
DF26
  8
ALPHA
 10
45.551787
 20
73.06474
 30
0.0
  0
VERTEX
  5
DF27
  8
ALPHA
 10
45.504367
 20
73.074535
 30
0.0
  0
VERTEX
  5
DF28
  8
ALPHA
 10
45.466091
 20
73.094339
 30
0.0
  0
SEQEND
  5
DF29
  8
ALPHA
  0
LINE
  5
D42D
  8
ALPHA
 10
45.287077
 20
73.187602
 30
0.0
 11
45.151771
 21
73.213912
 31
0.0
  0
LINE
  5
D42E
  8
ALPHA
 10
45.151771
 20
73.213912
 30
0.0
 11
45.014537
 21
73.24014
 31
0.0
  0
LINE
  5
D42F
  8
ALPHA
 10
45.258912
 20
73.050941
 30
0.0
 11
45.079179
 21
73.085203
 31
0.0
  0
LINE
  5
D430
  8
ALPHA
 10
45.079179
 20
73.085203
 30
0.0
 11
44.889922
 21
73.120652
 31
0.0
  0
POLYLINE
  5
D431
  8
ALPHA
 66
     1
 10
0.0
 20
0.0
 30
0.0
  0
VERTEX
  5
DF2A
  8
ALPHA
 10
45.677323
 20
74.044285
 30
0.0
  0
VERTEX
  5
DF2B
  8
ALPHA
 10
45.688644
 20
73.988663
 30
0.0
  0
VERTEX
  5
DF2C
  8
ALPHA
 10
45.680074
 20
73.846267
 30
0.0
  0
VERTEX
  5
DF2D
  8
ALPHA
 10
45.652418
 20
73.630471
 30
0.0
  0
VERTEX
  5
DF2E
  8
ALPHA
 10
45.608274
 20
73.361543
 30
0.0
  0
VERTEX
  5
DF2F
  8
ALPHA
 10
45.551787
 20
73.06474
 30
0.0
  0
SEQEND
  5
DF30
  8
ALPHA
  0
LINE
  5
D432
  8
ALPHA
 10
45.82786
 20
74.083826
 30
0.0
 11
45.93524
 21
74.514506
 31
0.0
  0
LINE
  5
D433
  8
ALPHA
 10
45.789696
 20
74.550794
 30
0.0
 11
45.681862
 21
74.118298
 31
0.0
  0
LINE
  5
D434
  8
ALPHA
 10
45.396432
 20
74.21357
 30
0.0
 11
45.498607
 21
74.623371
 31
0.0
  0
LINE
  5
D435
  8
ALPHA
 10
45.353063
 20
74.659659
 30
0.0
 11
45.253313
 21
74.259584
 31
0.0
  0
LINE
  5
D436
  8
ALPHA
 10
45.677323
 20
74.044285
 30
0.0
 11
45.730399
 21
74.106196
 31
0.0
  0
LINE
  5
D437
  8
ALPHA
 10
46.629215
 20
76.381955
 30
0.0
 11
47.629215
 21
76.381955
 31
0.0
  0
LINE
  5
D438
  8
ALPHA
 10
45.529215
 20
80.481955
 30
0.0
 11
45.529215
 21
80.270809
 31
0.0
  0
LINE
  5
D439
  8
ALPHA
 10
49.464723
 20
73.582976
 30
0.0
 11
49.319179
 21
73.619264
 31
0.0
  0
LINE
  5
D43A
  8
ALPHA
 10
49.800321
 20
73.068882
 30
0.0
 11
49.913453
 21
73.522626
 31
0.0
  0
LINE
  5
D43B
  8
ALPHA
 10
49.656477
 20
73.111989
 30
0.0
 11
49.767908
 21
73.558914
 31
0.0
  0
LINE
  5
D43C
  8
ALPHA
 10
49.367351
 20
73.192437
 30
0.0
 11
49.47682
 21
73.631491
 31
0.0
  0
LINE
  5
D43D
  8
ALPHA
 10
49.331275
 20
73.667779
 30
0.0
 11
49.222788
 21
73.232662
 31
0.0
  0
ARC
  5
D43E
  8
ALPHA
 10
51.129215
 20
72.787458
 30
0.0
 40
0.3
 50
312.411445
 51
0.0
  0
POLYLINE
  5
D43F
  8
ALPHA
 66
     1
 10
0.0
 20
0.0
 30
0.0
  0
VERTEX
  5
DF31
  8
ALPHA
 10
51.642334
 20
72.401019
 30
0.0
  0
VERTEX
  5
DF32
  8
ALPHA
 10
51.643965
 20
72.398778
 30
0.0
  0
VERTEX
  5
DF33
  8
ALPHA
 10
51.645293
 20
72.394848
 30
0.0
  0
SEQEND
  5
DF34
  8
ALPHA
  0
POLYLINE
  5
D440
  8
ALPHA
 66
     1
 10
0.0
 20
0.0
 30
0.0
  0
VERTEX
  5
DF35
  8
ALPHA
 10
51.704171
 20
72.443992
 30
0.0
  0
VERTEX
  5
DF36
  8
ALPHA
 10
51.839801
 20
72.370816
 30
0.0
  0
VERTEX
  5
DF37
  8
ALPHA
 10
51.946532
 20
72.260041
 30
0.0
  0
VERTEX
  5
DF38
  8
ALPHA
 10
52.014529
 20
72.122058
 30
0.0
  0
SEQEND
  5
DF39
  8
ALPHA
  0
LINE
  5
D441
  8
ALPHA
 10
52.014529
 20
72.122058
 30
0.0
 11
52.037352
 21
71.969646
 31
0.0
  0
POLYLINE
  5
D442
  8
ALPHA
 66
     1
 10
0.0
 20
0.0
 30
0.0
  0
VERTEX
  5
DF3A
  8
ALPHA
 10
51.975974
 20
71.926513
 30
0.0
  0
VERTEX
  5
DF3B
  8
ALPHA
 10
51.935212
 20
72.127216
 30
0.0
  0
VERTEX
  5
DF3C
  8
ALPHA
 10
51.81741
 20
72.294755
 30
0.0
  0
VERTEX
  5
DF3D
  8
ALPHA
 10
51.642334
 20
72.401019
 30
0.0
  0
SEQEND
  5
DF3E
  8
ALPHA
  0
POLYLINE
  5
D443
  8
ALPHA
 66
     1
 10
0.0
 20
0.0
 30
0.0
  0
VERTEX
  5
DF3F
  8
ALPHA
 10
51.975031
 20
71.924212
 30
0.0
  0
VERTEX
  5
DF40
  8
ALPHA
 10
51.934618
 20
72.122482
 30
0.0
  0
VERTEX
  5
DF41
  8
ALPHA
 10
51.818288
 20
72.288483
 30
0.0
  0
VERTEX
  5
DF42
  8
ALPHA
 10
51.645269
 20
72.394782
 30
0.0
  0
SEQEND
  5
DF43
  8
ALPHA
  0
LINE
  5
D444
  8
ALPHA
 10
52.029215
 20
70.618352
 30
0.0
 11
52.037352
 21
71.969646
 31
0.0
  0
POLYLINE
  5
D445
  8
ALPHA
 66
     1
 10
0.0
 20
0.0
 30
0.0
  0
VERTEX
  5
DF44
  8
ALPHA
 10
51.645269
 20
72.394782
 30
0.0
  0
VERTEX
  5
DF45
  8
ALPHA
 10
51.627415
 20
72.331854
 30
0.0
  0
VERTEX
  5
DF46
  8
ALPHA
 10
51.558064
 20
72.209212
 30
0.0
  0
VERTEX
  5
DF47
  8
ALPHA
 10
51.440055
 20
72.032946
 30
0.0
  0
VERTEX
  5
DF48
  8
ALPHA
 10
51.280867
 20
71.814969
 30
0.0
  0
VERTEX
  5
DF49
  8
ALPHA
 10
51.094701
 20
71.574496
 30
0.0
  0
SEQEND
  5
DF4A
  8
ALPHA
  0
POLYLINE
  5
D446
  8
ALPHA
 66
     1
 10
0.0
 20
0.0
 30
0.0
  0
VERTEX
  5
DF4B
  8
ALPHA
 10
51.975974
 20
71.926513
 30
0.0
  0
VERTEX
  5
DF4C
  8
ALPHA
 10
51.975608
 20
71.925808
 30
0.0
  0
VERTEX
  5
DF4D
  8
ALPHA
 10
51.975237
 20
71.92421
 30
0.0
  0
SEQEND
  5
DF4E
  8
ALPHA
  0
LINE
  5
D447
  8
ALPHA
 10
51.704171
 20
72.443992
 30
0.0
 11
51.642333
 21
72.401018
 31
0.0
  0
LINE
  5
D448
  8
ALPHA
 10
52.037352
 20
71.969646
 30
0.0
 11
51.975974
 21
71.926513
 31
0.0
  0
POLYLINE
  5
D449
  8
ALPHA
 66
     1
 10
0.0
 20
0.0
 30
0.0
  0
VERTEX
  5
DF4F
  8
ALPHA
 10
51.975031
 20
71.924212
 30
0.0
  0
VERTEX
  5
DF50
  8
ALPHA
 10
51.93207
 20
71.897455
 30
0.0
  0
VERTEX
  5
DF51
  8
ALPHA
 10
51.813626
 20
71.845143
 30
0.0
  0
VERTEX
  5
DF52
  8
ALPHA
 10
51.624875
 20
71.770108
 30
0.0
  0
VERTEX
  5
DF53
  8
ALPHA
 10
51.37802
 20
71.677103
 30
0.0
  0
VERTEX
  5
DF54
  8
ALPHA
 10
51.094701
 20
71.574496
 30
0.0
  0
SEQEND
  5
DF55
  8
ALPHA
  0
LINE
  5
D44A
  8
ALPHA
 10
49.729215
 20
78.481955
 30
0.0
 11
49.729215
 21
80.481955
 31
0.0
  0
LINE
  5
D44B
  8
ALPHA
 10
51.579416
 20
85.113904
 30
0.0
 11
47.443731
 21
86.145046
 31
0.0
  0
LINE
  5
D44C
  8
ALPHA
 10
51.543426
 20
84.813693
 30
0.0
 11
47.371154
 21
85.853957
 31
0.0
  0
LINE
  5
D44D
  8
ALPHA
 10
47.334866
 20
85.708412
 30
0.0
 11
51.507138
 21
84.668148
 31
0.0
  0
LINE
  5
D44E
  8
ALPHA
 10
47.347353
 20
85.138461
 30
0.0
 11
51.228536
 21
84.170774
 31
0.0
  0
LINE
  5
D44F
  8
ALPHA
 10
47.346962
 20
85.756927
 30
0.0
 11
46.838301
 21
85.883751
 31
0.0
  0
ARC
  5
D450
  8
ALPHA
 10
44.629215
 20
84.381955
 30
0.0
 40
0.5
 50
16.25949
 51
59.915754
  0
LINE
  5
D451
  8
ALPHA
 10
46.229215
 20
84.6145
 30
0.0
 11
46.65111
 21
84.601745
 31
0.0
  0
LINE
  5
D452
  8
ALPHA
 10
46.129215
 20
84.731955
 30
0.0
 11
44.985247
 21
84.731955
 31
0.0
  0
LINE
  5
D453
  8
ALPHA
 10
46.229215
 20
84.631955
 30
0.0
 11
45.062228
 21
84.631955
 31
0.0
  0
LINE
  5
D454
  8
ALPHA
 10
46.451318
 20
84.422494
 30
0.0
 11
45.129215
 21
84.422494
 31
0.0
  0
POLYLINE
  5
D455
  8
ALPHA
 66
     1
 10
0.0
 20
0.0
 30
0.0
  0
VERTEX
  5
DF56
  8
ALPHA
 10
46.129215
 20
84.815283
 30
0.0
  0
VERTEX
  5
DF57
  8
ALPHA
 10
46.329292
 20
84.84002
 30
0.0
  0
VERTEX
  5
DF58
  8
ALPHA
 10
46.529215
 20
84.867961
 30
0.0
  0
SEQEND
  5
DF59
  8
ALPHA
  0
LINE
  5
D456
  8
ALPHA
 10
46.838301
 20
85.883751
 30
0.0
 11
46.838301
 21
85.931955
 31
0.0
  0
LINE
  5
D457
  8
ALPHA
 10
46.833937
 20
84.765776
 30
0.0
 11
46.833937
 21
85.884839
 31
0.0
  0
LINE
  5
D458
  8
ALPHA
 10
46.74575
 20
84.686654
 30
0.0
 11
46.74575
 21
85.931955
 31
0.0
  0
LINE
  5
D459
  8
ALPHA
 10
46.529215
 20
84.867961
 30
0.0
 11
46.529215
 21
85.931955
 31
0.0
  0
LINE
  5
D45A
  8
ALPHA
 10
46.229215
 20
84.6145
 30
0.0
 11
46.229215
 21
84.827647
 31
0.0
  0
LINE
  5
D45B
  8
ALPHA
 10
46.129215
 20
84.731961
 30
0.0
 11
46.129215
 21
84.815283
 31
0.0
  0
LINE
  5
D45C
  8
ALPHA
 10
45.529215
 20
85.931955
 30
0.0
 11
45.529215
 21
85.331955
 31
0.0
  0
LINE
  5
D45D
  8
ALPHA
 10
45.129215
 20
83.572748
 30
0.0
 11
45.129215
 21
84.422494
 31
0.0
  0
LINE
  5
D45E
  8
ALPHA
 10
47.213905
 20
85.223265
 30
0.0
 11
47.35945
 21
85.186976
 31
0.0
  0
LINE
  5
D45F
  8
ALPHA
 10
47.135811
 20
85.036613
 30
0.0
 11
47.311065
 21
84.992917
 31
0.0
  0
LINE
  5
D460
  8
ALPHA
 10
47.311065
 20
84.992917
 30
0.0
 11
47.48041
 21
85.672124
 31
0.0
  0
LINE
  5
D461
  8
ALPHA
 10
47.443731
 20
86.145046
 30
0.0
 11
47.165521
 21
85.029205
 31
0.0
  0
POLYLINE
  5
D462
  8
ALPHA
 66
     1
 10
0.0
 20
0.0
 30
0.0
  0
VERTEX
  5
DF5A
  8
ALPHA
 10
51.218301
 20
86.690183
 30
0.0
  0
VERTEX
  5
DF5B
  8
ALPHA
 10
51.303717
 20
86.664789
 30
0.0
  0
VERTEX
  5
DF5C
  8
ALPHA
 10
51.38449
 20
86.632808
 30
0.0
  0
VERTEX
  5
DF5D
  8
ALPHA
 10
51.462122
 20
86.593971
 30
0.0
  0
VERTEX
  5
DF5E
  8
ALPHA
 10
51.537622
 20
86.547513
 30
0.0
  0
VERTEX
  5
DF5F
  8
ALPHA
 10
51.60962
 20
86.493809
 30
0.0
  0
VERTEX
  5
DF60
  8
ALPHA
 10
51.676134
 20
86.434229
 30
0.0
  0
VERTEX
  5
DF61
  8
ALPHA
 10
51.735887
 20
86.370334
 30
0.0
  0
VERTEX
  5
DF62
  8
ALPHA
 10
51.789352
 20
86.302125
 30
0.0
  0
VERTEX
  5
DF63
  8
ALPHA
 10
51.837012
 20
86.229034
 30
0.0
  0
VERTEX
  5
DF64
  8
ALPHA
 10
51.878874
 20
86.150488
 30
0.0
  0
VERTEX
  5
DF65
  8
ALPHA
 10
51.913835
 20
86.067859
 30
0.0
  0
VERTEX
  5
DF66
  8
ALPHA
 10
51.940962
 20
85.983484
 30
0.0
  0
VERTEX
  5
DF67
  8
ALPHA
 10
51.960172
 20
85.898918
 30
0.0
  0
VERTEX
  5
DF68
  8
ALPHA
 10
51.971992
 20
85.812909
 30
0.0
  0
VERTEX
  5
DF69
  8
ALPHA
 10
51.97632
 20
85.723666
 30
0.0
  0
SEQEND
  5
DF6A
  8
ALPHA
  0
POLYLINE
  5
D463
  8
ALPHA
 66
     1
 10
0.0
 20
0.0
 30
0.0
  0
VERTEX
  5
DF6B
  8
ALPHA
 10
51.121508
 20
86.302071
 30
0.0
  0
VERTEX
  5
DF6C
  8
ALPHA
 10
51.172759
 20
86.286834
 30
0.0
  0
VERTEX
  5
DF6D
  8
ALPHA
 10
51.221225
 20
86.267644
 30
0.0
  0
VERTEX
  5
DF6E
  8
ALPHA
 10
51.267806
 20
86.244342
 30
0.0
  0
VERTEX
  5
DF6F
  8
ALPHA
 10
51.313108
 20
86.216467
 30
0.0
  0
VERTEX
  5
DF70
  8
ALPHA
 10
51.356308
 20
86.184244
 30
0.0
  0
VERTEX
  5
DF71
  8
ALPHA
 10
51.396218
 20
86.148495
 30
0.0
  0
VERTEX
  5
DF72
  8
ALPHA
 10
51.432071
 20
86.110158
 30
0.0
  0
VERTEX
  5
DF73
  8
ALPHA
 10
51.464152
 20
86.069232
 30
0.0
  0
VERTEX
  5
DF74
  8
ALPHA
 10
51.492749
 20
86.025377
 30
0.0
  0
VERTEX
  5
DF75
  8
ALPHA
 10
51.517867
 20
85.978249
 30
0.0
  0
VERTEX
  5
DF76
  8
ALPHA
 10
51.538845
 20
85.928671
 30
0.0
  0
VERTEX
  5
DF77
  8
ALPHA
 10
51.555122
 20
85.878045
 30
0.0
  0
VERTEX
  5
DF78
  8
ALPHA
 10
51.566648
 20
85.827306
 30
0.0
  0
VERTEX
  5
DF79
  8
ALPHA
 10
51.573741
 20
85.775699
 30
0.0
  0
VERTEX
  5
DF7A
  8
ALPHA
 10
51.576338
 20
85.722156
 30
0.0
  0
SEQEND
  5
DF7B
  8
ALPHA
  0
POLYLINE
  5
D464
  8
ALPHA
 66
     1
 10
0.0
 20
0.0
 30
0.0
  0
VERTEX
  5
DF7C
  8
ALPHA
 10
51.615772
 20
85.103855
 30
0.0
  0
VERTEX
  5
DF7D
  8
ALPHA
 10
51.597812
 20
85.109065
 30
0.0
  0
VERTEX
  5
DF7E
  8
ALPHA
 10
51.579416
 20
85.113904
 30
0.0
  0
SEQEND
  5
DF7F
  8
ALPHA
  0
LINE
  5
D465
  8
ALPHA
 10
51.529215
 20
84.714174
 30
0.0
 11
51.519234
 21
84.716663
 31
0.0
  0
LINE
  5
D466
  8
ALPHA
 10
51.240632
 20
84.219289
 30
0.0
 11
51.386177
 21
84.183
 31
0.0
  0
LINE
  5
D467
  8
ALPHA
 10
51.192248
 20
84.02523
 30
0.0
 11
51.429215
 21
83.966147
 31
0.0
  0
LINE
  5
D468
  8
ALPHA
 10
51.576338
 20
85.722156
 30
0.0
 11
51.97632
 21
85.723666
 31
0.0
  0
POLYLINE
  5
D469
  8
ALPHA
 66
     1
 10
0.0
 20
0.0
 30
0.0
  0
VERTEX
  5
DF80
  8
ALPHA
 10
51.576338
 20
85.722156
 30
0.0
  0
VERTEX
  5
DF81
  8
ALPHA
 10
51.57768
 20
85.418519
 30
0.0
  0
VERTEX
  5
DF82
  8
ALPHA
 10
51.579416
 20
85.113903
 30
0.0
  0
SEQEND
  5
DF83
  8
ALPHA
  0
LINE
  5
D46A
  8
ALPHA
 10
51.121508
 20
86.302071
 30
0.0
 11
51.218301
 21
86.690183
 31
0.0
  0
LINE
  5
D46B
  8
ALPHA
 10
51.337792
 20
83.988941
 30
0.0
 11
51.615772
 21
85.103855
 31
0.0
  0
LINE
  5
D46C
  8
ALPHA
 10
51.192248
 20
84.02523
 30
0.0
 11
51.361593
 21
84.704437
 31
0.0
  0
LINE
  5
D4E5
  8
AXE
 10
36.629215
 20
12.645801
 30
0.0
 11
36.629215
 21
93.481955
 31
0.0
  0
TEXT
  5
D4E6
  8
AXE
 10
31.581596
 20
12.645801
 30
0.0
 40
5.0
  1
Y
 72
     2
 11
35.629215
 21
12.645801
 31
0.0
  0
DIMENSION
  5
D4FB
  8
COTATION1
  2
*D3
 10
52.029215
 20
2.645801
 30
0.0
 11
36.629215
 21
5.895801
 31
0.0
 13
21.229215
 23
23.181955
 33
0.0
 14
52.029215
 24
23.181955
 34
0.0
  0
DIMENSION
  5
D53F
  8
COTATION1
  2
*D4
 10
72.029215
 20
23.181955
 30
0.0
 11
72.029215
 21
55.831955
 31
0.0
 13
44.629215
 23
88.481955
 33
0.0
 14
52.029215
 24
23.181955
 34
0.0
 50
90.0
  0
LINE
  5
D563
  8
AXE
 10
16.229215
 20
55.831955
 30
0.0
 11
62.029215
 21
55.831955
 31
0.0
  0
TEXT
  5
D564
  8
AXE
 10
57.981596
 20
56.831955
 30
0.0
 40
5.0
  1
X
 72
     2
 11
62.029215
 21
56.831955
 31
0.0
  0
VIEWPORT
  5
494D
 67
     1
  8
0
 10
4.995325
 20
6.556512
 30
0.0
 40
22.70986
 41
13.988421
 68
    -1
 69
     1
1001
ACAD
1000
MVIEW
1002
{
1070
    16
1010
0.0
1020
0.0
1030
0.0
1010
0.0
1020
0.0
1030
1.0
1040
0.0
1040
13.988421
1040
4.995325
1040
6.556512
1040
50.0
1040
0.0
1040
0.0
1070
     0
1070
   100
1070
     1
1070
     1
1070
     0
1070
     0
1070
     0
1070
     0
1040
0.0
1040
0.0
1040
0.0
1040
10.0
1040
10.0
1040
10.0
1040
10.0
1070
     0
1002
{
1002
}
1002
}
  0
ENDSEC
  0
EOF
