  0
SECTION
  2
HEADER
  9
$ACADVER
  1
AC1009
  9
$INSBASE
 10
402.590624
 20
-1.041018
 30
0.0
  9
$EXTMIN
 10
-9.977484
 20
3.019918
 30
0.0
  9
$EXTMAX
 10
79.560015
 20
70.819918
 30
0.0
  9
$LIMMIN
 10
-407.970438
 20
-367.832444
  9
$LIMMAX
 10
429.804077
 20
234.370848
  9
$ORTHOMODE
 70
     0
  9
$REGENMODE
 70
     1
  9
$FILLMODE
 70
     1
  9
$QTEXTMODE
 70
     0
  9
$MIRRTEXT
 70
     1
  9
$DRAGMODE
 70
     2
  9
$LTSCALE
 40
10.0
  9
$OSMODE
 70
    35
  9
$ATTMODE
 70
     1
  9
$TEXTSIZE
 40
6.0
  9
$TRACEWID
 40
1.0
  9
$TEXTSTYLE
  7
ROMANS
  9
$CLAYER
  8
ALPHA
  9
$CELTYPE
  6
BYLAYER
  9
$CECOLOR
 62
   256
  9
$DIMSCALE
 40
1.0
  9
$DIMASZ
 40
5.0
  9
$DIMEXO
 40
2.0
  9
$DIMDLI
 40
0.38
  9
$DIMRND
 40
0.0
  9
$DIMDLE
 40
0.0
  9
$DIMEXE
 40
2.5
  9
$DIMTP
 40
0.0
  9
$DIMTM
 40
0.0
  9
$DIMTXT
 40
2.5
  9
$DIMCEN
 40
0.0
  9
$DIMTSZ
 40
0.0
  9
$DIMTOL
 70
     0
  9
$DIMLIM
 70
     0
  9
$DIMTIH
 70
     1
  9
$DIMTOH
 70
     1
  9
$DIMSE1
 70
     0
  9
$DIMSE2
 70
     0
  9
$DIMTAD
 70
     1
  9
$DIMZIN
 70
    12
  9
$DIMBLK
  1
OPEN30
  9
$DIMASO
 70
     1
  9
$DIMSHO
 70
     1
  9
$DIMPOST
  1

  9
$DIMAPOST
  1

  9
$DIMALT
 70
     0
  9
$DIMALTD
 70
     2
  9
$DIMALTF
 40
25.4
  9
$DIMLFAC
 40
1.0
  9
$DIMTOFL
 70
     0
  9
$DIMTVP
 40
0.0
  9
$DIMTIX
 70
     0
  9
$DIMSOXD
 70
     0
  9
$DIMSAH
 70
     0
  9
$DIMBLK1
  1

  9
$DIMBLK2
  1

  9
$DIMSTYLE
  2
SC_DEFAUT
  9
$DIMCLRD
 70
     0
  9
$DIMCLRE
 70
     0
  9
$DIMCLRT
 70
     0
  9
$DIMTFAC
 40
1.0
  9
$DIMGAP
 40
2.0
  9
$LUNITS
 70
     2
  9
$LUPREC
 70
     1
  9
$SKETCHINC
 40
0.1
  9
$FILLETRAD
 40
0.0
  9
$AUNITS
 70
     0
  9
$AUPREC
 70
     0
  9
$MENU
  1
acad
  9
$ELEVATION
 40
0.0
  9
$PELEVATION
 40
0.0
  9
$THICKNESS
 40
0.0
  9
$LIMCHECK
 70
     0
  9
$BLIPMODE
 70
     0
  9
$CHAMFERA
 40
0.0
  9
$CHAMFERB
 40
0.0
  9
$SKPOLY
 70
     0
  9
$TDCREATE
 40
2450373.687919
  9
$TDUPDATE
 40
2453034.411972
  9
$TDINDWG
 40
0.922821
  9
$TDUSRTIMER
 40
0.922821
  9
$USRTIMER
 70
     1
  9
$ANGBASE
 50
0.0
  9
$ANGDIR
 70
     0
  9
$PDMODE
 70
    32
  9
$PDSIZE
 40
0.0
  9
$PLINEWID
 40
0.0
  9
$COORDS
 70
     1
  9
$SPLFRAME
 70
     0
  9
$SPLINETYPE
 70
     6
  9
$SPLINESEGS
 70
     8
  9
$ATTDIA
 70
     0
  9
$ATTREQ
 70
     1
  9
$HANDLING
 70
     1
  9
$HANDSEED
  5
A5AC
  9
$SURFTAB1
 70
     6
  9
$SURFTAB2
 70
     6
  9
$SURFTYPE
 70
     6
  9
$SURFU
 70
     6
  9
$SURFV
 70
     6
  9
$UCSNAME
  2

  9
$UCSORG
 10
0.0
 20
0.0
 30
0.0
  9
$UCSXDIR
 10
1.0
 20
0.0
 30
0.0
  9
$UCSYDIR
 10
0.0
 20
1.0
 30
0.0
  9
$PUCSNAME
  2

  9
$PUCSORG
 10
0.0
 20
0.0
 30
0.0
  9
$PUCSXDIR
 10
1.0
 20
0.0
 30
0.0
  9
$PUCSYDIR
 10
0.0
 20
1.0
 30
0.0
  9
$USERI1
 70
     0
  9
$USERI2
 70
     0
  9
$USERI3
 70
     0
  9
$USERI4
 70
     0
  9
$USERI5
 70
     0
  9
$USERR1
 40
0.0
  9
$USERR2
 40
0.0
  9
$USERR3
 40
0.0
  9
$USERR4
 40
0.0
  9
$USERR5
 40
0.0
  9
$WORLDVIEW
 70
     1
  9
$SHADEDGE
 70
     3
  9
$SHADEDIF
 70
    70
  9
$TILEMODE
 70
     1
  9
$MAXACTVP
 70
    16
  9
$PLIMCHECK
 70
     0
  9
$PEXTMIN
 10
-1.452248
 20
-0.437698
 30
0.0
  9
$PEXTMAX
 10
12.749749
 20
8.310198
 30
0.0
  9
$PLIMMIN
 10
0.0
 20
0.0
  9
$PLIMMAX
 10
12.0
 20
9.0
  9
$UNITMODE
 70
     0
  9
$VISRETAIN
 70
     0
  9
$PLINEGEN
 70
     0
  9
$PSLTSCALE
 70
     0
  0
ENDSEC
  0
SECTION
  2
TABLES
  0
TABLE
  2
VPORT
 70
     2
  0
VPORT
  2
*ACTIVE
 70
     0
 10
0.0
 20
0.0
 11
1.0
 21
1.0
 12
34.789867
 22
36.919917
 13
0.0
 23
0.0
 14
1.0
 24
1.0
 15
10.0
 25
10.0
 16
0.0
 26
0.0
 36
1.0
 17
0.0
 27
0.0
 37
0.0
 40
68.302486
 41
1.466346
 42
50.0
 43
0.0
 44
0.0
 50
0.0
 51
0.0
 71
     0
 72
   100
 73
     1
 74
     0
 75
     0
 76
     0
 77
     0
 78
     0
  0
ENDTAB
  0
TABLE
  2
LTYPE
 70
     2
  0
LTYPE
  2
CONTINUOUS
 70
     0
  3
Solid line
 72
    65
 73
     0
 40
0.0
  0
LTYPE
  2
AXES2
 70
     0
  3
___ _ ___ _ ___ _ ___ _ ___ _ ___ _ ___ _ ___ _
 72
    65
 73
     4
 40
1.125
 49
0.75
 49
-0.125
 49
0.125
 49
-0.125
  0
ENDTAB
  0
TABLE
  2
LAYER
 70
     5
  0
LAYER
  2
0
 70
     0
 62
   255
  6
CONTINUOUS
  0
LAYER
  2
COTATION1
 70
     0
 62
     2
  6
CONTINUOUS
  0
LAYER
  2
AXE
 70
     0
 62
    80
  6
AXES2
  0
LAYER
  2
DEFPOINTS
 70
     0
 62
     7
  6
CONTINUOUS
  0
LAYER
  2
ALPHA
 70
     0
 62
   254
  6
CONTINUOUS
  0
ENDTAB
  0
TABLE
  2
STYLE
 70
     2
  0
STYLE
  2
ROMANS
 70
     0
 40
0.0
 41
1.0
 50
0.0
 71
     0
 42
6.0
  3
romans
  4

  0
STYLE
  2
STANDARD
 70
     0
 40
0.0
 41
1.0
 50
0.0
 71
     0
 42
0.2
  3
txt
  4

  0
ENDTAB
  0
TABLE
  2
VIEW
 70
     0
  0
ENDTAB
  0
TABLE
  2
UCS
 70
     0
  0
ENDTAB
  0
TABLE
  2
APPID
 70
     1
  0
APPID
  2
ACAD
 70
     0
  0
ENDTAB
  0
TABLE
  2
DIMSTYLE
 70
     2
  0
DIMSTYLE
  2
SC_DEFAUT
 70
     0
  3

  4

  5
OPEN30
  6

  7

 40
1.0
 41
5.0
 42
2.0
 43
0.38
 44
2.5
 45
0.0
 46
0.0
 47
0.0
 48
0.0
140
2.5
141
0.0
142
0.0
143
25.4
144
1.0
145
0.0
146
1.0
147
2.0
 71
     0
 72
     0
 73
     1
 74
     1
 75
     0
 76
     0
 77
     1
 78
    12
170
     0
171
     2
172
     0
173
     0
174
     0
175
     0
176
     0
177
     0
178
     0
  0
DIMSTYLE
  2
STANDARD
 70
     0
  3

  4

  5

  6

  7

 40
1.0
 41
0.18
 42
0.0625
 43
0.38
 44
0.18
 45
0.0
 46
0.0
 47
0.0
 48
0.0
140
0.18
141
0.09
142
0.0
143
25.4
144
1.0
145
0.0
146
1.0
147
0.09
 71
     0
 72
     0
 73
     1
 74
     1
 75
     0
 76
     0
 77
     0
 78
     0
170
     0
171
     2
172
     0
173
     0
174
     0
175
     0
176
     0
177
     0
178
     0
  0
ENDTAB
  0
ENDSEC
  0
SECTION
  2
BLOCKS
  0
BLOCK
  8
0
  2
$MODEL_SPACE
 70
     0
 10
0.0
 20
0.0
 30
0.0
  3
$MODEL_SPACE
  1

  0
ENDBLK
  5
A58D
  8
0
  0
BLOCK
 67
     1
  8
0
  2
$PAPER_SPACE
 70
     0
 10
0.0
 20
0.0
 30
0.0
  3
$PAPER_SPACE
  1

  0
ENDBLK
  5
A58B
 67
     1
  8
0
  0
BLOCK
  8
0
  2
COTE
 70
     0
 10
0.0
 20
0.0
 30
0.0
  3
COTE
  1

  0
ENDBLK
  5
F
  8
0
  0
BLOCK
  8
0
  2
FOND
 70
     0
 10
0.0
 20
0.0
 30
0.0
  3
FOND
  1

  0
ENDBLK
  5
75
  8
0
  0
BLOCK
  8
0
  2
_OPEN30
 70
     0
 10
0.0
 20
0.0
 30
0.0
  3
_OPEN30
  1

  0
LINE
  5
4B05
  8
COTATION1
 62
     0
 10
-1.0
 20
0.267949
 30
0.0
 11
0.0
 21
0.0
 31
0.0
1001
ACAD
1000
RTLwPs
1070
   158
  0
LINE
  5
4B06
  8
COTATION1
 62
     0
 10
0.0
 20
0.0
 30
0.0
 11
-1.0
 21
-0.267949
 31
0.0
1001
ACAD
1000
RTLwPs
1070
   158
  0
LINE
  5
4B07
  8
COTATION1
 62
     0
 10
0.0
 20
0.0
 30
0.0
 11
-1.0
 21
0.0
 31
0.0
1001
ACAD
1000
RTLwPs
1070
   158
  0
ENDBLK
  5
4B09
  8
0
  0
BLOCK
  8
0
  2
*D3
 70
     1
 10
0.0
 20
0.0
 30
0.0
  3
*D3
  1

  0
LINE
  5
A4AC
  8
COTATION1
 62
     0
 10
49.075083
 20
51.319918
 30
0.0
 11
78.250492
 21
51.319918
 31
0.0
1001
ACAD
1000
RTLwPs
1070
   158
  0
LINE
  5
A4AD
  8
COTATION1
 62
     0
 10
54.925049
 20
13.019918
 30
0.0
 11
78.250492
 21
13.019918
 31
0.0
1001
ACAD
1000
RTLwPs
1070
   158
  0
LINE
  5
A4AE
  8
COTATION1
 62
     0
 10
75.750492
 20
46.319918
 30
0.0
 11
75.750492
 21
35.419918
 31
0.0
1001
ACAD
1000
RTLwPs
1070
   158
  0
LINE
  5
A4AF
  8
COTATION1
 62
     0
 10
75.750492
 20
18.019918
 30
0.0
 11
75.750492
 21
28.919918
 31
0.0
1001
ACAD
1000
RTLwPs
1070
   158
  0
TEXT
  5
A4B0
  8
COTATION1
 62
     0
 10
71.583825
 20
30.919918
 30
0.0
 40
2.5
  1
38.3
1001
ACAD
1000
MTEXTBEGIN
1070
    73
1070
     1
1070
    44
1040
1.0
1070
    74
1070
     0
1000
MTEXTEND
  0
INSERT
  5
A4B1
  8
COTATION1
 62
     0
  2
_OPEN30
 10
75.750492
 20
51.319918
 30
0.0
 41
5.0
 42
5.0
 43
5.0
 50
90.0
1001
ACAD
1000
RTLwPs
1070
   158
  0
INSERT
  5
A4B2
  8
COTATION1
 62
     0
  2
_OPEN30
 10
75.750492
 20
13.019918
 30
0.0
 41
5.0
 42
5.0
 43
5.0
 50
270.0
1001
ACAD
1000
RTLwPs
1070
   158
  0
POINT
  5
A4B3
  8
DEFPOINTS
 62
     0
 10
47.075083
 20
51.319918
 30
0.0
  0
POINT
  5
A4B4
  8
DEFPOINTS
 62
     0
 10
52.925049
 20
13.019918
 30
0.0
  0
POINT
  5
A4B5
  8
DEFPOINTS
 62
     0
 10
75.750492
 20
13.019918
 30
0.0
  0
ENDBLK
  5
A2C9
  8
0
  0
BLOCK
  8
0
  2
*D4
 70
     1
 10
0.0
 20
0.0
 30
0.0
  3
*D4
  1

  0
LINE
  5
A4B6
  8
COTATION1
 62
     0
 10
45.075049
 20
51.319918
 30
0.0
 11
23.433268
 21
51.319918
 31
0.0
1001
ACAD
1000
RTLwPs
1070
   158
  0
LINE
  5
A4B7
  8
COTATION1
 62
     0
 10
37.075049
 20
21.319918
 30
0.0
 11
23.433268
 21
21.319918
 31
0.0
1001
ACAD
1000
RTLwPs
1070
   158
  0
LINE
  5
A4B8
  8
COTATION1
 62
     0
 10
25.933268
 20
46.319918
 30
0.0
 11
25.933268
 21
39.569918
 31
0.0
1001
ACAD
1000
RTLwPs
1070
   158
  0
LINE
  5
A4B9
  8
COTATION1
 62
     0
 10
25.933268
 20
26.319918
 30
0.0
 11
25.933268
 21
33.069918
 31
0.0
1001
ACAD
1000
RTLwPs
1070
   158
  0
TEXT
  5
A4BA
  8
COTATION1
 62
     0
 10
23.552316
 20
35.069918
 30
0.0
 40
2.5
  1
30
1001
ACAD
1000
MTEXTBEGIN
1070
    73
1070
     1
1070
    44
1040
1.0
1070
    74
1070
     0
1000
MTEXTEND
  0
INSERT
  5
A4BB
  8
COTATION1
 62
     0
  2
_OPEN30
 10
25.933268
 20
51.319918
 30
0.0
 41
5.0
 42
5.0
 43
5.0
 50
90.0
1001
ACAD
1000
RTLwPs
1070
   158
  0
INSERT
  5
A4BC
  8
COTATION1
 62
     0
  2
_OPEN30
 10
25.933268
 20
21.319918
 30
0.0
 41
5.0
 42
5.0
 43
5.0
 50
270.0
1001
ACAD
1000
RTLwPs
1070
   158
  0
POINT
  5
A4BD
  8
DEFPOINTS
 62
     0
 10
47.075049
 20
51.319918
 30
0.0
  0
POINT
  5
A4BE
  8
DEFPOINTS
 62
     0
 10
39.075049
 20
21.319918
 30
0.0
  0
POINT
  5
A4BF
  8
DEFPOINTS
 62
     0
 10
25.933268
 20
21.319918
 30
0.0
  0
ENDBLK
  5
A2D6
  8
0
  0
BLOCK
  8
0
  2
*D5
 70
     1
 10
0.0
 20
0.0
 30
0.0
  3
*D5
  1

  0
LINE
  5
A4FE
  8
COTATION1
 62
     0
 10
39.075049
 20
25.704918
 30
0.0
 11
39.075049
 21
68.819918
 31
0.0
1001
ACAD
1000
RTLwPs
1070
   158
  0
LINE
  5
A4FF
  8
COTATION1
 62
     0
 10
55.075049
 20
25.704918
 30
0.0
 11
55.075049
 21
68.819918
 31
0.0
1001
ACAD
1000
RTLwPs
1070
   158
  0
LINE
  5
A500
  8
COTATION1
 62
     0
 10
44.075049
 20
66.319918
 30
0.0
 11
50.075049
 21
66.319918
 31
0.0
1001
ACAD
1000
RTLwPs
1070
   158
  0
INSERT
  5
A501
  8
COTATION1
 62
     0
  2
_OPEN30
 10
39.075049
 20
66.319918
 30
0.0
 41
5.0
 42
5.0
 43
5.0
 50
180.0
1001
ACAD
1000
RTLwPs
1070
   158
  0
INSERT
  5
A502
  8
COTATION1
 62
     0
  2
_OPEN30
 10
55.075049
 20
66.319918
 30
0.0
 41
5.0
 42
5.0
 43
5.0
1001
ACAD
1000
RTLwPs
1070
   158
  0
TEXT
  5
A503
  8
COTATION1
 62
     0
 10
43.682192
 20
68.319918
 30
0.0
 40
2.5
  1
%%c
1001
ACAD
1000
MTEXTBEGIN
1070
    73
1070
     1
1070
    44
1040
1.0
1070
    74
1070
     0
1000
MTEXTEND
  0
TEXT
  5
A55D
  8
COTATION1
 62
     0
 10
45.944096
 20
68.319918
 30
0.0
 40
2.5
  1
16
1001
ACAD
1000
R13OBJECT
1002
{
1005
A503
1002
}
  0
POINT
  5
A504
  8
DEFPOINTS
 62
     0
 10
39.075049
 20
23.704918
 30
0.0
  0
POINT
  5
A505
  8
DEFPOINTS
 62
     0
 10
55.075049
 20
23.704918
 30
0.0
  0
POINT
  5
A506
  8
DEFPOINTS
 62
     0
 10
55.075049
 20
66.319918
 30
0.0
  0
ENDBLK
  5
A2E2
  8
0
  0
ENDSEC
  0
SECTION
  2
ENTITIES
  0
INSERT
  5
A
  8
0
  2
COTE
 10
0.0
 20
0.0
 30
0.0
  0
INSERT
  5
17
  8
0
  2
COTE
 10
284.010391
 20
6.373258
 30
0.0
  0
INSERT
  5
72
  8
0
  2
FOND
 10
0.0
 20
0.0
 30
0.0
  0
ARC
  5
9EF1
  8
ALPHA
 10
47.075049
 20
45.519918
 30
0.0
 40
5.6
 50
296.542764
 51
243.457236
  0
ARC
  5
9EF2
  8
ALPHA
 10
47.075049
 20
45.519918
 30
0.0
 40
5.8
 50
295.565976
 51
244.434024
  0
LINE
  5
9EF3
  8
ALPHA
 10
49.575049
 20
38.254918
 30
0.0
 11
49.575049
 21
48.154918
 31
0.0
  0
LINE
  5
9EF4
  8
ALPHA
 10
44.575049
 20
38.254918
 30
0.0
 11
44.575049
 21
48.154918
 31
0.0
  0
LINE
  5
9F55
  8
ALPHA
 10
44.575049
 20
38.304918
 30
0.0
 11
49.575049
 21
38.304918
 31
0.0
  0
LINE
  5
9F56
  8
ALPHA
 10
50.105069
 20
38.254918
 30
0.0
 11
44.045029
 21
38.254918
 31
0.0
  0
LINE
  5
9F57
  8
ALPHA
 10
43.631563
 20
38.03607
 30
0.0
 11
50.518534
 21
38.03607
 31
0.0
  0
LINE
  5
9F58
  8
ALPHA
 10
40.531063
 20
33.476423
 30
0.0
 11
53.619034
 21
33.476423
 31
0.0
  0
LINE
  5
9F59
  8
ALPHA
 10
40.302096
 20
32.331364
 30
0.0
 11
53.848002
 21
32.331364
 31
0.0
  0
LINE
  5
9F5A
  8
ALPHA
 10
41.225049
 20
27.834905
 30
0.0
 11
52.925049
 21
27.834905
 31
0.0
  0
LINE
  5
9F5B
  8
ALPHA
 10
41.225049
 20
26.654918
 30
0.0
 11
52.925049
 21
26.654918
 31
0.0
  0
LINE
  5
9F5C
  8
ALPHA
 10
53.134567
 20
26.204918
 30
0.0
 11
41.01553
 21
26.204918
 31
0.0
  0
LINE
  5
9F5D
  8
ALPHA
 10
53.134567
 20
25.504918
 30
0.0
 11
41.01553
 21
25.504918
 31
0.0
  0
LINE
  5
9F5E
  8
ALPHA
 10
41.225049
 20
25.054918
 30
0.0
 11
52.925049
 21
25.054918
 31
0.0
  0
LINE
  5
9F5F
  8
ALPHA
 10
41.225049
 20
24.354918
 30
0.0
 11
52.925049
 21
24.354918
 31
0.0
  0
LINE
  5
9F60
  8
ALPHA
 10
39.575137
 20
24.204918
 30
0.0
 11
54.574961
 21
24.204918
 31
0.0
  0
LINE
  5
9F61
  8
ALPHA
 10
39.075049
 20
23.704918
 30
0.0
 11
55.075049
 21
23.704918
 31
0.0
  0
LINE
  5
9F63
  8
ALPHA
 10
40.302096
 20
32.331364
 30
0.0
 11
41.225049
 21
27.834905
 31
0.0
  0
LINE
  5
9F64
  8
ALPHA
 10
39.075049
 20
23.704918
 30
0.0
 11
39.575049
 21
24.204918
 31
0.0
  0
LINE
  5
9F67
  8
ALPHA
 10
39.075049
 20
21.319918
 30
0.0
 11
39.075049
 21
23.704918
 31
0.0
  0
ARC
  5
9F70
  8
ALPHA
 10
41.015049
 20
25.854918
 30
0.0
 40
0.35
 50
90.0
 51
270.0
  0
LINE
  5
9F71
  8
ALPHA
 10
41.225049
 20
26.654918
 30
0.0
 11
41.663342
 21
26.204918
 31
0.0
  0
LINE
  5
9F72
  8
ALPHA
 10
41.225049
 20
24.354918
 30
0.0
 11
41.225049
 21
25.054918
 31
0.0
  0
LINE
  5
9F73
  8
ALPHA
 10
41.663342
 20
25.504918
 30
0.0
 11
41.225049
 21
25.054918
 31
0.0
  0
LINE
  5
9F74
  8
ALPHA
 10
42.675049
 20
24.354918
 30
0.0
 11
42.675049
 21
24.204918
 31
0.0
  0
LINE
  5
9F75
  8
ALPHA
 10
41.225049
 20
27.834905
 30
0.0
 11
41.225049
 21
26.654918
 31
0.0
  0
LINE
  5
9F78
  8
ALPHA
 10
43.631563
 20
38.03607
 30
0.0
 11
40.531063
 21
33.476423
 31
0.0
  0
ARC
  5
9F79
  8
ALPHA
 10
41.771461
 20
32.632969
 30
0.0
 40
1.5
 50
145.784815
 51
191.599544
  0
ARC
  5
9F7A
  8
ALPHA
 10
44.045029
 20
37.754918
 30
0.0
 40
0.5
 50
90.0
 51
145.784814
  0
LINE
  5
9F7B
  8
ALPHA
 10
53.848002
 20
32.331364
 30
0.0
 11
52.925049
 21
27.834905
 31
0.0
  0
LINE
  5
9F7C
  8
ALPHA
 10
55.075049
 20
23.704918
 30
0.0
 11
54.575049
 21
24.204918
 31
0.0
  0
LINE
  5
9F7D
  8
ALPHA
 10
55.075049
 20
21.319918
 30
0.0
 11
55.075049
 21
23.704918
 31
0.0
  0
ARC
  5
9F7E
  8
ALPHA
 10
53.135049
 20
25.854918
 30
0.0
 40
0.35
 50
270.0
 51
90.0
  0
LINE
  5
9F7F
  8
ALPHA
 10
52.925049
 20
26.654918
 30
0.0
 11
52.486756
 21
26.204918
 31
0.0
  0
LINE
  5
9F80
  8
ALPHA
 10
51.475049
 20
24.354918
 30
0.0
 11
51.475049
 21
24.204918
 31
0.0
  0
LINE
  5
9F81
  8
ALPHA
 10
52.486756
 20
25.504918
 30
0.0
 11
52.925049
 21
25.054918
 31
0.0
  0
LINE
  5
9F82
  8
ALPHA
 10
52.925049
 20
24.354918
 30
0.0
 11
52.925049
 21
25.054918
 31
0.0
  0
LINE
  5
9F83
  8
ALPHA
 10
52.925049
 20
27.834905
 30
0.0
 11
52.925049
 21
26.654918
 31
0.0
  0
LINE
  5
9F84
  8
ALPHA
 10
50.518534
 20
38.03607
 30
0.0
 11
53.619034
 21
33.476423
 31
0.0
  0
ARC
  5
9F85
  8
ALPHA
 10
50.105069
 20
37.754918
 30
0.0
 40
0.5
 50
34.215186
 51
90.0
  0
ARC
  5
9F86
  8
ALPHA
 10
52.378637
 20
32.632969
 30
0.0
 40
1.5
 50
348.400456
 51
34.215185
  0
POLYLINE
  5
9F9A
  8
ALPHA
 66
     1
 10
0.0
 20
0.0
 30
0.0
 70
   128
210
0.0
220
0.0
230
-1.0
  0
VERTEX
  5
A593
  8
ALPHA
 10
-47.075049
 20
47.439918
 30
0.0
  0
VERTEX
  5
A594
  8
ALPHA
 10
-47.403799
 20
47.395677
 30
0.0
  0
VERTEX
  5
A595
  8
ALPHA
 10
-47.709906
 20
47.266391
 30
0.0
  0
VERTEX
  5
A596
  8
ALPHA
 10
-48.199252
 20
46.822707
 30
0.0
  0
VERTEX
  5
A597
  8
ALPHA
 10
-48.495105
 20
46.230252
 30
0.0
  0
VERTEX
  5
A598
  8
ALPHA
 10
-48.593506
 20
45.574929
 30
0.0
  0
VERTEX
  5
A599
  8
ALPHA
 10
-48.495112
 20
44.919606
 30
0.0
  0
VERTEX
  5
A59A
  8
ALPHA
 10
-48.199268
 20
44.327151
 30
0.0
  0
VERTEX
  5
A59B
  8
ALPHA
 10
-47.709933
 20
43.883454
 30
0.0
  0
VERTEX
  5
A59C
  8
ALPHA
 10
-47.403815
 20
43.754181
 30
0.0
  0
VERTEX
  5
A59D
  8
ALPHA
 10
-47.075049
 20
43.709918
 30
0.0
  0
SEQEND
  5
A59E
  8
ALPHA
  0
CIRCLE
  5
9F9B
  8
ALPHA
 10
47.075049
 20
45.574918
 30
0.0
 40
1.265
  0
CIRCLE
  5
9F9C
  8
ALPHA
 10
47.075049
 20
45.554918
 30
0.0
 40
1.09
  0
LINE
  5
9F9D
  8
ALPHA
 10
44.575049
 20
48.154918
 30
0.0
 11
49.575049
 21
48.154918
 31
0.0
  0
LINE
  5
9F9E
  8
ALPHA
 10
44.575049
 20
47.954918
 30
0.0
 11
49.575049
 21
47.954918
 31
0.0
  0
POLYLINE
  5
9F9F
  8
ALPHA
 66
     1
 10
0.0
 20
0.0
 30
0.0
 70
   128
210
0.0
220
0.0
230
-1.0
  0
VERTEX
  5
A59F
  8
ALPHA
 10
-47.075049
 20
43.709918
 30
0.0
  0
VERTEX
  5
A5A0
  8
ALPHA
 10
-46.746298
 20
43.75416
 30
0.0
  0
VERTEX
  5
A5A1
  8
ALPHA
 10
-46.440191
 20
43.883445
 30
0.0
  0
VERTEX
  5
A5A2
  8
ALPHA
 10
-45.950846
 20
44.327129
 30
0.0
  0
VERTEX
  5
A5A3
  8
ALPHA
 10
-45.654993
 20
44.919584
 30
0.0
  0
VERTEX
  5
A5A4
  8
ALPHA
 10
-45.556591
 20
45.574907
 30
0.0
  0
VERTEX
  5
A5A5
  8
ALPHA
 10
-45.654985
 20
46.23023
 30
0.0
  0
VERTEX
  5
A5A6
  8
ALPHA
 10
-45.950829
 20
46.822685
 30
0.0
  0
VERTEX
  5
A5A7
  8
ALPHA
 10
-46.440164
 20
47.266382
 30
0.0
  0
VERTEX
  5
A5A8
  8
ALPHA
 10
-46.746282
 20
47.395655
 30
0.0
  0
VERTEX
  5
A5A9
  8
ALPHA
 10
-47.075049
 20
47.439918
 30
0.0
  0
SEQEND
  5
A5AA
  8
ALPHA
  0
TEXT
  5
A23F
  8
COTATION1
 10
-8.727484
 20
50.028841
 30
0.0
 40
2.5
  1
PLANE_TO_LINE_UP
 41
0.626087
  7
STANDARD
 72
     5
 11
15.272516
 21
50.028841
 31
0.0
  0
LINE
  5
A240
  8
COTATION1
 10
16.522516
 20
48.778841
 30
0.0
 11
-9.977484
 21
48.778841
 31
0.0
  0
LINE
  5
A241
  8
COTATION1
 10
-9.977484
 20
53.778841
 30
0.0
 11
16.522516
 21
53.778841
 31
0.0
  0
LINE
  5
A242
  8
COTATION1
 10
-4.827836
 20
21.319918
 30
0.0
 11
38.075083
 21
21.319918
 31
0.0
  0
LINE
  5
A243
  8
COTATION1
 10
-9.977484
 20
48.778841
 30
0.0
 11
-9.977484
 21
53.778841
 31
0.0
  0
DIMENSION
  5
A244
  8
COTATION1
  2
*D3
 10
75.750492
 20
13.019918
 30
0.0
 11
75.750492
 21
32.169918
 31
0.0
 70
   128
 13
47.075083
 23
51.319918
 33
0.0
 14
52.925049
 24
13.019918
 34
0.0
 50
90.0
  0
LINE
  5
A245
  8
AXE
 10
47.075083
 20
3.019918
 30
0.0
 11
47.075083
 21
56.319918
 31
0.0
  0
TEXT
  5
A246
  8
AXE
 10
42.027464
 20
3.019918
 30
0.0
 40
5.0
  1
Y
 72
     2
 11
46.075083
 21
3.019918
 31
0.0
  0
LINE
  5
A247
  8
AXE
 10
34.075083
 20
20.264918
 30
0.0
 11
65.075083
 21
20.264918
 31
0.0
  0
DIMENSION
  5
A248
  8
COTATION1
  2
*D4
 10
25.933268
 20
21.319918
 30
0.0
 11
25.933268
 21
36.319918
 31
0.0
 70
   128
 13
47.075049
 23
51.319918
 33
0.0
 14
39.075049
 24
21.319918
 34
0.0
 50
90.0
  0
LINE
  5
A249
  8
COTATION1
 10
3.272516
 20
23.819918
 30
0.0
 11
3.272516
 21
48.778841
 31
0.0
  0
SOLID
  5
A24A
  8
COTATION1
 10
4.715892
 20
21.319918
 30
0.0
 11
1.82914
 21
21.319918
 31
0.0
 12
3.272516
 22
23.819918
 32
0.0
 13
3.272516
 23
23.819918
 33
0.0
  0
LINE
  5
A24B
  8
COTATION1
 10
16.522516
 20
53.778841
 30
0.0
 11
16.522516
 21
48.778841
 31
0.0
  0
DIMENSION
  5
A24E
  8
COTATION1
  2
*D5
 10
55.075049
 20
66.319918
 30
0.0
 11
47.075049
 21
69.569918
 31
0.0
  1
%%c<>
 13
39.075049
 23
23.704918
 33
0.0
 14
55.075049
 24
23.704918
 34
0.0
  0
LINE
  5
A252
  8
ALPHA
 10
39.075049
 20
21.319918
 30
0.0
 11
55.075049
 21
21.319918
 31
0.0
  0
LINE
  5
A253
  8
ALPHA
 10
40.725049
 20
13.519918
 30
0.0
 11
53.425049
 21
13.519918
 31
0.0
  0
LINE
  5
A254
  8
ALPHA
 10
53.774982
 20
19.209918
 30
0.0
 11
40.375115
 21
19.209918
 31
0.0
  0
LINE
  5
A255
  8
ALPHA
 10
53.425049
 20
17.869918
 30
0.0
 11
40.725049
 21
17.869918
 31
0.0
  0
LINE
  5
A256
  8
ALPHA
 10
53.425049
 20
16.719918
 30
0.0
 11
40.725049
 21
16.719918
 31
0.0
  0
LINE
  5
A257
  8
ALPHA
 10
53.075049
 20
15.719918
 30
0.0
 11
41.075049
 21
15.719918
 31
0.0
  0
LINE
  5
A258
  8
ALPHA
 10
40.725049
 20
15.519918
 30
0.0
 11
53.425049
 21
15.519918
 31
0.0
  0
LINE
  5
A259
  8
ALPHA
 10
52.925083
 20
13.019918
 30
0.0
 11
41.225083
 21
13.019918
 31
0.0
  0
LINE
  5
A25B
  8
ALPHA
 10
40.725049
 20
15.519918
 30
0.0
 11
40.725049
 21
13.519918
 31
0.0
  0
ARC
  5
A25C
  8
ALPHA
 10
41.225049
 20
13.519918
 30
0.0
 40
0.5
 50
180.0
 51
270.0
  0
ARC
  5
A25D
  8
ALPHA
 10
41.175049
 20
15.819918
 30
0.0
 40
0.3
 50
270.000018
 51
340.4299
  0
ARC
  5
A25E
  8
ALPHA
 10
41.075049
 20
16.219918
 30
0.0
 40
0.5
 50
90.0
 51
270.0
  0
LINE
  5
A25F
  8
ALPHA
 10
40.725049
 20
17.869918
 30
0.0
 11
40.725049
 21
16.719918
 31
0.0
  0
LINE
  5
A260
  8
ALPHA
 10
41.575049
 20
19.209918
 30
0.0
 11
41.575049
 21
17.869918
 31
0.0
  0
LINE
  5
A261
  8
ALPHA
 10
40.375049
 20
19.209918
 30
0.0
 11
40.375049
 21
21.319918
 31
0.0
  0
LINE
  5
A262
  8
ALPHA
 10
46.877663
 20
21.319918
 30
0.0
 11
46.877663
 21
19.209918
 31
0.0
  0
LINE
  5
A263
  8
ALPHA
 10
46.703092
 20
21.319918
 30
0.0
 11
46.703092
 21
19.209918
 31
0.0
  0
LINE
  5
A264
  8
ALPHA
 10
46.404416
 20
19.209918
 30
0.0
 11
46.404416
 21
21.319918
 31
0.0
  0
LINE
  5
A265
  8
ALPHA
 10
46.212424
 20
19.209918
 30
0.0
 11
46.212424
 21
21.319918
 31
0.0
  0
LINE
  5
A266
  8
ALPHA
 10
46.006077
 20
19.209918
 30
0.0
 11
46.006077
 21
21.319918
 31
0.0
  0
LINE
  5
A267
  8
ALPHA
 10
45.844225
 20
19.209918
 30
0.0
 11
45.844225
 21
21.319918
 31
0.0
  0
LINE
  5
A268
  8
ALPHA
 10
45.677068
 20
19.209918
 30
0.0
 11
45.677068
 21
21.319918
 31
0.0
  0
LINE
  5
A269
  8
ALPHA
 10
45.532374
 20
19.209918
 30
0.0
 11
45.532374
 21
21.319918
 31
0.0
  0
LINE
  5
A26A
  8
ALPHA
 10
45.151054
 20
21.319918
 30
0.0
 11
45.151054
 21
19.209918
 31
0.0
  0
LINE
  5
A26B
  8
ALPHA
 10
44.958503
 20
21.319918
 30
0.0
 11
44.958503
 21
19.209918
 31
0.0
  0
LINE
  5
A26C
  8
ALPHA
 10
44.548662
 20
19.209918
 30
0.0
 11
44.548662
 21
21.319918
 31
0.0
  0
LINE
  5
A26D
  8
ALPHA
 10
44.339613
 20
19.209918
 30
0.0
 11
44.339613
 21
21.319918
 31
0.0
  0
LINE
  5
A26E
  8
ALPHA
 10
44.147329
 20
19.209918
 30
0.0
 11
44.147329
 21
21.319918
 31
0.0
  0
LINE
  5
A26F
  8
ALPHA
 10
44.026647
 20
19.209918
 30
0.0
 11
44.026647
 21
21.319918
 31
0.0
  0
LINE
  5
A270
  8
ALPHA
 10
44.0024
 20
19.209918
 30
0.0
 11
44.0024
 21
21.319918
 31
0.0
  0
LINE
  5
A271
  8
ALPHA
 10
43.897444
 20
19.209918
 30
0.0
 11
43.897444
 21
21.319918
 31
0.0
  0
LINE
  5
A273
  8
ALPHA
 10
53.425049
 20
15.519918
 30
0.0
 11
53.425049
 21
13.519918
 31
0.0
  0
ARC
  5
A274
  8
ALPHA
 10
52.925049
 20
13.519918
 30
0.0
 40
0.5
 50
270.0
 51
0.0
  0
ARC
  5
A275
  8
ALPHA
 10
53.075049
 20
16.219918
 30
0.0
 40
0.5
 50
270.0
 51
90.0
  0
ARC
  5
A276
  8
ALPHA
 10
52.975049
 20
15.819918
 30
0.0
 40
0.3
 50
199.5701
 51
269.999982
  0
LINE
  5
A277
  8
ALPHA
 10
53.425049
 20
17.869918
 30
0.0
 11
53.425049
 21
16.719918
 31
0.0
  0
LINE
  5
A278
  8
ALPHA
 10
52.575049
 20
19.209918
 30
0.0
 11
52.575049
 21
17.869918
 31
0.0
  0
LINE
  5
A279
  8
ALPHA
 10
50.252653
 20
21.319918
 30
0.0
 11
50.252653
 21
19.209918
 31
0.0
  0
LINE
  5
A27A
  8
ALPHA
 10
50.147698
 20
21.319918
 30
0.0
 11
50.147698
 21
19.209918
 31
0.0
  0
LINE
  5
A27B
  8
ALPHA
 10
50.12345
 20
19.209918
 30
0.0
 11
50.12345
 21
21.319918
 31
0.0
  0
LINE
  5
A27C
  8
ALPHA
 10
53.775049
 20
19.209918
 30
0.0
 11
53.775049
 21
21.319918
 31
0.0
  0
LINE
  5
A27D
  8
ALPHA
 10
47.272435
 20
19.209918
 30
0.0
 11
47.272435
 21
21.319918
 31
0.0
  0
LINE
  5
A27E
  8
ALPHA
 10
50.002768
 20
19.209918
 30
0.0
 11
50.002768
 21
21.319918
 31
0.0
  0
LINE
  5
A27F
  8
ALPHA
 10
49.810484
 20
19.209918
 30
0.0
 11
49.810484
 21
21.319918
 31
0.0
  0
LINE
  5
A280
  8
ALPHA
 10
49.601435
 20
19.209918
 30
0.0
 11
49.601435
 21
21.319918
 31
0.0
  0
LINE
  5
A281
  8
ALPHA
 10
49.191595
 20
19.209918
 30
0.0
 11
49.191595
 21
21.319918
 31
0.0
  0
LINE
  5
A282
  8
ALPHA
 10
48.999044
 20
19.209918
 30
0.0
 11
48.999044
 21
21.319918
 31
0.0
  0
LINE
  5
A283
  8
ALPHA
 10
48.617723
 20
21.319918
 30
0.0
 11
48.617723
 21
19.209918
 31
0.0
  0
LINE
  5
A284
  8
ALPHA
 10
48.47303
 20
21.319918
 30
0.0
 11
48.47303
 21
19.209918
 31
0.0
  0
LINE
  5
A285
  8
ALPHA
 10
48.305872
 20
19.209918
 30
0.0
 11
48.305872
 21
21.319918
 31
0.0
  0
LINE
  5
A286
  8
ALPHA
 10
48.14402
 20
19.209918
 30
0.0
 11
48.14402
 21
21.319918
 31
0.0
  0
LINE
  5
A287
  8
ALPHA
 10
47.937674
 20
19.209918
 30
0.0
 11
47.937674
 21
21.319918
 31
0.0
  0
LINE
  5
A288
  8
ALPHA
 10
47.745682
 20
19.209918
 30
0.0
 11
47.745682
 21
21.319918
 31
0.0
  0
LINE
  5
A289
  8
ALPHA
 10
47.447005
 20
19.209918
 30
0.0
 11
47.447005
 21
21.319918
 31
0.0
  0
TEXT
  5
A2AF
  8
AXE
 10
61.027464
 20
21.264918
 30
0.0
 40
5.0
  1
X
 72
     2
 11
65.075083
 21
21.264918
 31
0.0
  0
VIEWPORT
  5
494D
 67
     1
  8
0
 10
4.995325
 20
6.556512
 30
0.0
 40
22.70986
 41
13.988421
 68
    -1
 69
     1
1001
ACAD
1000
MVIEW
1002
{
1070
    16
1010
0.0
1020
0.0
1030
0.0
1010
0.0
1020
0.0
1030
1.0
1040
0.0
1040
13.988421
1040
4.995325
1040
6.556512
1040
50.0
1040
0.0
1040
0.0
1070
     0
1070
   100
1070
     1
1070
     1
1070
     0
1070
     0
1070
     0
1070
     0
1040
0.0
1040
0.0
1040
0.0
1040
10.0
1040
10.0
1040
10.0
1040
10.0
1070
     0
1002
{
1002
}
1002
}
  0
ENDSEC
  0
EOF
