  0
SECTION
  2
HEADER
  9
$ACADVER
  1
AC1018
  9
$ACADMAINTVER
 70
    77
  9
$DWGCODEPAGE
  3
ANSI_1252
  9
$INSBASE
 10
0.0
 20
0.0
 30
0.0
  9
$EXTMIN
 10
0.0
 20
0.0
 30
0.0
  9
$EXTMAX
 10
210.0
 20
297.0
 30
0.0
  9
$LIMMIN
 10
0.0
 20
0.0
  9
$LIMMAX
 10
210.0
 20
297.0
  9
$ORTHOMODE
 70
     0
  9
$REGENMODE
 70
     1
  9
$FILLMODE
 70
     1
  9
$QTEXTMODE
 70
     0
  9
$MIRRTEXT
 70
     0
  9
$LTSCALE
 40
19.36
  9
$ATTMODE
 70
     1
  9
$TEXTSIZE
 40
0.2
  9
$TRACEWID
 40
0.05
  9
$TEXTSTYLE
  7
Standard
  9
$CLAYER
  8
0
  9
$CELTYPE
  6
ByLayer
  9
$CECOLOR
 62
   256
  9
$CELTSCALE
 40
1.0
  9
$DISPSILH
 70
     0
  9
$DIMSCALE
 40
1.0
  9
$DIMASZ
 40
3.0
  9
$DIMEXO
 40
2.2
  9
$DIMDLI
 40
13.376
  9
$DIMRND
 40
0.0
  9
$DIMDLE
 40
0.0
  9
$DIMEXE
 40
6.336
  9
$DIMTP
 40
0.0
  9
$DIMTM
 40
0.0
  9
$DIMTXT
 40
0.18
  9
$DIMCEN
 40
3.168
  9
$DIMTSZ
 40
0.0
  9
$DIMTOL
 70
     0
  9
$DIMLIM
 70
     0
  9
$DIMTIH
 70
     1
  9
$DIMTOH
 70
     1
  9
$DIMSE1
 70
     0
  9
$DIMSE2
 70
     0
  9
$DIMTAD
 70
     0
  9
$DIMZIN
 70
     0
  9
$DIMBLK
  1

  9
$DIMASO
 70
     1
  9
$DIMSHO
 70
     1
  9
$DIMPOST
  1

  9
$DIMAPOST
  1

  9
$DIMALT
 70
     0
  9
$DIMALTD
 70
     2
  9
$DIMALTF
 40
25.4
  9
$DIMLFAC
 40
1.0
  9
$DIMTOFL
 70
     0
  9
$DIMTVP
 40
0.0
  9
$DIMTIX
 70
     0
  9
$DIMSOXD
 70
     0
  9
$DIMSAH
 70
     0
  9
$DIMBLK1
  1

  9
$DIMBLK2
  1

  9
$DIMSTYLE
  2
Standard
  9
$DIMCLRD
 70
     0
  9
$DIMCLRE
 70
     0
  9
$DIMCLRT
 70
     0
  9
$DIMTFAC
 40
1.0
  9
$DIMGAP
 40
0.09
  9
$DIMJUST
 70
     0
  9
$DIMSD1
 70
     0
  9
$DIMSD2
 70
     0
  9
$DIMTOLJ
 70
     1
  9
$DIMTZIN
 70
     0
  9
$DIMALTZ
 70
     0
  9
$DIMALTTZ
 70
     0
  9
$DIMUPT
 70
     0
  9
$DIMDEC
 70
     4
  9
$DIMTDEC
 70
     4
  9
$DIMALTU
 70
     2
  9
$DIMALTTD
 70
     2
  9
$DIMTXSTY
  7
Standard
  9
$DIMAUNIT
 70
     0
  9
$DIMADEC
 70
     0
  9
$DIMALTRND
 40
0.0
  9
$DIMAZIN
 70
     0
  9
$DIMDSEP
 70
    46
  9
$DIMATFIT
 70
     3
  9
$DIMFRAC
 70
     0
  9
$DIMLDRBLK
  1

  9
$DIMLUNIT
 70
     2
  9
$DIMLWD
 70
    -2
  9
$DIMLWE
 70
    -2
  9
$DIMTMOVE
 70
     0
  9
$LUNITS
 70
     2
  9
$LUPREC
 70
     4
  9
$SKETCHINC
 40
0.1
  9
$FILLETRAD
 40
0.0
  9
$AUNITS
 70
     0
  9
$AUPREC
 70
     0
  9
$MENU
  1
.
  9
$ELEVATION
 40
0.0
  9
$PELEVATION
 40
0.0
  9
$THICKNESS
 40
0.0
  9
$LIMCHECK
 70
     0
  9
$CHAMFERA
 40
0.0
  9
$CHAMFERB
 40
0.0
  9
$CHAMFERC
 40
0.0
  9
$CHAMFERD
 40
0.0
  9
$SKPOLY
 70
     0
  9
$TDCREATE
 40
2454592.605362766
  9
$TDUCREATE
 40
2454592.522029433
  9
$TDUPDATE
 40
2454592.605870949
  9
$TDUUPDATE
 40
2454592.522537616
  9
$TDINDWG
 40
0.0005087153
  9
$TDUSRTIMER
 40
0.0005087153
  9
$USRTIMER
 70
     1
  9
$ANGBASE
 50
0.0
  9
$ANGDIR
 70
     0
  9
$PDMODE
 70
     0
  9
$PDSIZE
 40
0.0
  9
$PLINEWID
 40
0.0
  9
$SPLFRAME
 70
     0
  9
$SPLINETYPE
 70
     6
  9
$SPLINESEGS
 70
     8
  9
$HANDSEED
  5
3AA
  9
$SURFTAB1
 70
     6
  9
$SURFTAB2
 70
     6
  9
$SURFTYPE
 70
     6
  9
$SURFU
 70
     6
  9
$SURFV
 70
     6
  9
$UCSBASE
  2

  9
$UCSNAME
  2

  9
$UCSORG
 10
0.0
 20
0.0
 30
0.0
  9
$UCSXDIR
 10
1.0
 20
0.0
 30
0.0
  9
$UCSYDIR
 10
0.0
 20
1.0
 30
0.0
  9
$UCSORTHOREF
  2

  9
$UCSORTHOVIEW
 70
     0
  9
$UCSORGTOP
 10
0.0
 20
0.0
 30
0.0
  9
$UCSORGBOTTOM
 10
0.0
 20
0.0
 30
0.0
  9
$UCSORGLEFT
 10
0.0
 20
0.0
 30
0.0
  9
$UCSORGRIGHT
 10
0.0
 20
0.0
 30
0.0
  9
$UCSORGFRONT
 10
0.0
 20
0.0
 30
0.0
  9
$UCSORGBACK
 10
0.0
 20
0.0
 30
0.0
  9
$PUCSBASE
  2

  9
$PUCSNAME
  2

  9
$PUCSORG
 10
0.0
 20
0.0
 30
0.0
  9
$PUCSXDIR
 10
1.0
 20
0.0
 30
0.0
  9
$PUCSYDIR
 10
0.0
 20
1.0
 30
0.0
  9
$PUCSORTHOREF
  2

  9
$PUCSORTHOVIEW
 70
     0
  9
$PUCSORGTOP
 10
0.0
 20
0.0
 30
0.0
  9
$PUCSORGBOTTOM
 10
0.0
 20
0.0
 30
0.0
  9
$PUCSORGLEFT
 10
0.0
 20
0.0
 30
0.0
  9
$PUCSORGRIGHT
 10
0.0
 20
0.0
 30
0.0
  9
$PUCSORGFRONT
 10
0.0
 20
0.0
 30
0.0
  9
$PUCSORGBACK
 10
0.0
 20
0.0
 30
0.0
  9
$USERI1
 70
     0
  9
$USERI2
 70
     0
  9
$USERI3
 70
     0
  9
$USERI4
 70
     0
  9
$USERI5
 70
     0
  9
$USERR1
 40
0.0
  9
$USERR2
 40
0.0
  9
$USERR3
 40
0.0
  9
$USERR4
 40
0.0
  9
$USERR5
 40
0.0
  9
$WORLDVIEW
 70
     1
  9
$SHADEDGE
 70
     3
  9
$SHADEDIF
 70
    70
  9
$TILEMODE
 70
     1
  9
$MAXACTVP
 70
    64
  9
$PINSBASE
 10
0.0
 20
0.0
 30
0.0
  9
$PLIMCHECK
 70
     0
  9
$PEXTMIN
 10
1.000000000000000E+20
 20
1.000000000000000E+20
 30
1.000000000000000E+20
  9
$PEXTMAX
 10
-1.000000000000000E+20
 20
-1.000000000000000E+20
 30
-1.000000000000000E+20
  9
$PLIMMIN
 10
0.0
 20
0.0
  9
$PLIMMAX
 10
12.0
 20
9.0
  9
$UNITMODE
 70
     0
  9
$VISRETAIN
 70
     1
  9
$PLINEGEN
 70
     0
  9
$PSLTSCALE
 70
     1
  9
$TREEDEPTH
 70
  3020
  9
$CMLSTYLE
  2
Standard
  9
$CMLJUST
 70
     0
  9
$CMLSCALE
 40
1.0
  9
$PROXYGRAPHICS
 70
     1
  9
$MEASUREMENT
 70
     0
  9
$CELWEIGHT
370
    -1
  9
$ENDCAPS
280
     0
  9
$JOINSTYLE
280
     0
  9
$LWDISPLAY
290
     0
  9
$INSUNITS
 70
     0
  9
$HYPERLINKBASE
  1

  9
$STYLESHEET
  1

  9
$XEDIT
290
     1
  9
$CEPSNTYPE
380
     0
  9
$PSTYLEMODE
290
     1
  9
$FINGERPRINTGUID
  2
{9E18754F-689F-40F3-8988-60CA5AC4779E}
  9
$VERSIONGUID
  2
{4E2D767E-C973-48B5-BF33-584E13672F3A}
  9
$EXTNAMES
290
     1
  9
$PSVPSCALE
 40
0.0
  9
$OLESTARTUP
290
     0
  9
$SORTENTS
280
   127
  9
$INDEXCTL
280
     0
  9
$HIDETEXT
280
     0
  9
$XCLIPFRAME
290
     0
  9
$HALOGAP
280
     0
  9
$OBSCOLOR
 70
   257
  9
$OBSLTYPE
280
     0
  9
$INTERSECTIONDISPLAY
280
     0
  9
$INTERSECTIONCOLOR
 70
   257
  9
$DIMASSOC
280
     1
  9
$PROJECTNAME
  1

  0
ENDSEC
  0
SECTION
  2
CLASSES
  0
CLASS
  1
ACDBDICTIONARYWDFLT
  2
AcDbDictionaryWithDefault
  3
ObjectDBX Classes
 90
        0
 91
        1
280
     0
281
     0
  0
CLASS
  1
TABLESTYLE
  2
AcDbTableStyle
  3
ObjectDBX Classes
 90
     2047
 91
        1
280
     0
281
     0
  0
CLASS
  1
DICTIONARYVAR
  2
AcDbDictionaryVar
  3
ObjectDBX Classes
 90
        0
 91
        1
280
     0
281
     0
  0
ENDSEC
  0
SECTION
  2
TABLES
  0
TABLE
  2
VPORT
  5
8
330
0
100
AcDbSymbolTable
 70
     4
  0
VPORT
  5
3A9
330
8
100
AcDbSymbolTableRecord
100
AcDbViewportTableRecord
  2
*Active
 70
     0
 10
0.0
 20
0.0
 11
1.0
 21
1.0
 12
177.0945825791719
 22
226.4271033301211
 13
0.0
 23
0.0
 14
1.0
 24
1.0
 15
0.0
 25
0.0
 16
0.0
 26
0.0
 36
1.0
 17
0.0
 27
0.0
 37
0.0
 40
243.2339351506168
 41
1.382765531062124
 42
50.0
 43
0.0
 44
0.0
 50
0.0
 51
0.0
 71
     0
 72
   100
 73
     1
 74
     1
 75
     0
 76
     0
 77
     0
 78
     0
281
     0
 65
     1
110
0.0
120
0.0
130
0.0
111
1.0
121
0.0
131
0.0
112
0.0
122
1.0
132
0.0
 79
     0
146
0.0
  0
ENDTAB
  0
TABLE
  2
LTYPE
  5
5
330
0
100
AcDbSymbolTable
 70
     8
  0
LTYPE
  5
13
330
5
100
AcDbSymbolTableRecord
100
AcDbLinetypeTableRecord
  2
ByBlock
 70
     0
  3

 72
    65
 73
     0
 40
0.0
  0
LTYPE
  5
14
330
5
100
AcDbSymbolTableRecord
100
AcDbLinetypeTableRecord
  2
ByLayer
 70
     0
  3

 72
    65
 73
     0
 40
0.0
  0
LTYPE
  5
15
330
5
100
AcDbSymbolTableRecord
100
AcDbLinetypeTableRecord
  2
CONTINUOUS
 70
     0
  3
Solid line
 72
    65
 73
     0
 40
0.0
  0
LTYPE
  5
26
330
5
100
AcDbSymbolTableRecord
100
AcDbLinetypeTableRecord
  2
BYBLOCK
 70
     0
  3

 72
    65
 73
     0
 40
0.0
  0
LTYPE
  5
27
330
5
100
AcDbSymbolTableRecord
100
AcDbLinetypeTableRecord
  2
BYLAYER
 70
     0
  3

 72
    65
 73
     0
 40
0.0
  0
LTYPE
  5
28
330
5
100
AcDbSymbolTableRecord
100
AcDbLinetypeTableRecord
  2
CENTER
 70
     0
  3
____ _ ____ _ ____ _ ____ _ ____ _ ____ _ ____
 72
    65
 73
     4
 40
0.6
 49
0.375
 74
     0
 49
-0.075
 74
     0
 49
0.075
 74
     0
 49
-0.075
 74
     0
  0
LTYPE
  5
29
330
5
100
AcDbSymbolTableRecord
100
AcDbLinetypeTableRecord
  2
HIDDEN
 70
     0
  3
- - - - - - - - - - - - - - - - - - - -
 72
    65
 73
     2
 40
0.2
 49
0.1
 74
     0
 49
-0.1
 74
     0
  0
LTYPE
  5
2A
330
5
100
AcDbSymbolTableRecord
100
AcDbLinetypeTableRecord
  2
PHANTOM
 70
     0
  3
_____ _ _ _____ _ _ _____ _ _ _____
 72
    65
 73
     6
 40
0.8
 49
0.45
 74
     0
 49
-0.05
 74
     0
 49
0.1
 74
     0
 49
-0.05
 74
     0
 49
0.1
 74
     0
 49
-0.05
 74
     0
  0
LTYPE
  5
2B
330
5
100
AcDbSymbolTableRecord
100
AcDbLinetypeTableRecord
  2
DOT
 70
     0
  3
. . . . . . . . . . . . . . . . . . . .
 72
    65
 73
     2
 40
0.2
 49
0.1
 74
     0
 49
-0.1
 74
     0
  0
LTYPE
  5
2C
330
5
100
AcDbSymbolTableRecord
100
AcDbLinetypeTableRecord
  2
DASHED
 70
     0
  3
- - - - - - - - - - - - - - - - - - - -
 72
    65
 73
     2
 40
0.2
 49
0.1
 74
     0
 49
-0.1
 74
     0
  0
ENDTAB
  0
TABLE
  2
LAYER
  5
2
330
0
100
AcDbSymbolTable
 70
    70
  0
LAYER
  5
10
330
2
100
AcDbSymbolTableRecord
100
AcDbLayerTableRecord
  2
0
 70
     0
 62
     7
  6
CONTINUOUS
370
    -3
390
F
  0
LAYER
  5
2D
330
2
100
AcDbSymbolTableRecord
100
AcDbLayerTableRecord
  2
DEFAULT_1
 70
     0
 62
     7
  6
CENTER
370
    -3
390
F
  0
LAYER
  5
2E
330
2
100
AcDbSymbolTableRecord
100
AcDbLayerTableRecord
  2
DEFAULT_2
 70
     0
 62
     8
  6
HIDDEN
370
    -3
390
F
  0
LAYER
  5
2F
330
2
100
AcDbSymbolTableRecord
100
AcDbLayerTableRecord
  2
DEFAULT_3
 70
     0
 62
     7
  6
PHANTOM
370
    -3
390
F
  0
LAYER
  5
30
330
2
100
AcDbSymbolTableRecord
100
AcDbLayerTableRecord
  2
1
 70
     0
 62
     7
  6
CONTINUOUS
370
    -3
390
F
  0
LAYER
  5
31
330
2
100
AcDbSymbolTableRecord
100
AcDbLayerTableRecord
  2
10
 70
     0
 62
     7
  6
CONTINUOUS
370
    -3
390
F
  0
LAYER
  5
32
330
2
100
AcDbSymbolTableRecord
100
AcDbLayerTableRecord
  2
11
 70
     0
 62
     7
  6
CONTINUOUS
370
    -3
390
F
  0
LAYER
  5
33
330
2
100
AcDbSymbolTableRecord
100
AcDbLayerTableRecord
  2
12
 70
     0
 62
     7
  6
CONTINUOUS
370
    -3
390
F
  0
LAYER
  5
34
330
2
100
AcDbSymbolTableRecord
100
AcDbLayerTableRecord
  2
13
 70
     0
 62
     7
  6
CONTINUOUS
370
    -3
390
F
  0
LAYER
  5
35
330
2
100
AcDbSymbolTableRecord
100
AcDbLayerTableRecord
  2
14
 70
     0
 62
     7
  6
CONTINUOUS
370
    -3
390
F
  0
LAYER
  5
36
330
2
100
AcDbSymbolTableRecord
100
AcDbLayerTableRecord
  2
15
 70
     0
 62
     7
  6
CONTINUOUS
370
    -3
390
F
  0
LAYER
  5
37
330
2
100
AcDbSymbolTableRecord
100
AcDbLayerTableRecord
  2
16
 70
     0
 62
     7
  6
CONTINUOUS
370
    -3
390
F
  0
LAYER
  5
38
330
2
100
AcDbSymbolTableRecord
100
AcDbLayerTableRecord
  2
17
 70
     0
 62
     7
  6
CONTINUOUS
370
    -3
390
F
  0
LAYER
  5
39
330
2
100
AcDbSymbolTableRecord
100
AcDbLayerTableRecord
  2
18
 70
     0
 62
     7
  6
CONTINUOUS
370
    -3
390
F
  0
LAYER
  5
3A
330
2
100
AcDbSymbolTableRecord
100
AcDbLayerTableRecord
  2
19
 70
     0
 62
     7
  6
CONTINUOUS
370
    -3
390
F
  0
LAYER
  5
3B
330
2
100
AcDbSymbolTableRecord
100
AcDbLayerTableRecord
  2
2
 70
     0
 62
     7
  6
CONTINUOUS
370
    -3
390
F
  0
LAYER
  5
3C
330
2
100
AcDbSymbolTableRecord
100
AcDbLayerTableRecord
  2
20
 70
     0
 62
     7
  6
CONTINUOUS
370
    -3
390
F
  0
LAYER
  5
3D
330
2
100
AcDbSymbolTableRecord
100
AcDbLayerTableRecord
  2
21
 70
     0
 62
     7
  6
CONTINUOUS
370
    -3
390
F
  0
LAYER
  5
3E
330
2
100
AcDbSymbolTableRecord
100
AcDbLayerTableRecord
  2
22
 70
     0
 62
     7
  6
CONTINUOUS
370
    -3
390
F
  0
LAYER
  5
3F
330
2
100
AcDbSymbolTableRecord
100
AcDbLayerTableRecord
  2
23
 70
     0
 62
     7
  6
CONTINUOUS
370
    -3
390
F
  0
LAYER
  5
40
330
2
100
AcDbSymbolTableRecord
100
AcDbLayerTableRecord
  2
24
 70
     0
 62
     7
  6
CONTINUOUS
370
    -3
390
F
  0
LAYER
  5
41
330
2
100
AcDbSymbolTableRecord
100
AcDbLayerTableRecord
  2
25
 70
     0
 62
     7
  6
CONTINUOUS
370
    -3
390
F
  0
LAYER
  5
42
330
2
100
AcDbSymbolTableRecord
100
AcDbLayerTableRecord
  2
26
 70
     0
 62
     7
  6
CONTINUOUS
370
    -3
390
F
  0
LAYER
  5
43
330
2
100
AcDbSymbolTableRecord
100
AcDbLayerTableRecord
  2
27
 70
     0
 62
     7
  6
CONTINUOUS
370
    -3
390
F
  0
LAYER
  5
44
330
2
100
AcDbSymbolTableRecord
100
AcDbLayerTableRecord
  2
28
 70
     0
 62
     7
  6
CONTINUOUS
370
    -3
390
F
  0
LAYER
  5
45
330
2
100
AcDbSymbolTableRecord
100
AcDbLayerTableRecord
  2
29
 70
     0
 62
     7
  6
CONTINUOUS
370
    -3
390
F
  0
LAYER
  5
46
330
2
100
AcDbSymbolTableRecord
100
AcDbLayerTableRecord
  2
3
 70
     0
 62
     7
  6
CONTINUOUS
370
    -3
390
F
  0
LAYER
  5
47
330
2
100
AcDbSymbolTableRecord
100
AcDbLayerTableRecord
  2
30
 70
     0
 62
     7
  6
CONTINUOUS
370
    -3
390
F
  0
LAYER
  5
48
330
2
100
AcDbSymbolTableRecord
100
AcDbLayerTableRecord
  2
31
 70
     0
 62
     7
  6
CONTINUOUS
370
    -3
390
F
  0
LAYER
  5
49
330
2
100
AcDbSymbolTableRecord
100
AcDbLayerTableRecord
  2
32
 70
     0
 62
     7
  6
CONTINUOUS
370
    -3
390
F
  0
LAYER
  5
4A
330
2
100
AcDbSymbolTableRecord
100
AcDbLayerTableRecord
  2
4
 70
     0
 62
     7
  6
CONTINUOUS
370
    -3
390
F
  0
LAYER
  5
4B
330
2
100
AcDbSymbolTableRecord
100
AcDbLayerTableRecord
  2
5
 70
     0
 62
     7
  6
CONTINUOUS
370
    -3
390
F
  0
LAYER
  5
4C
330
2
100
AcDbSymbolTableRecord
100
AcDbLayerTableRecord
  2
6
 70
     0
 62
     7
  6
CONTINUOUS
370
    -3
390
F
  0
LAYER
  5
4D
330
2
100
AcDbSymbolTableRecord
100
AcDbLayerTableRecord
  2
7
 70
     0
 62
     7
  6
CONTINUOUS
370
    -3
390
F
  0
LAYER
  5
4E
330
2
100
AcDbSymbolTableRecord
100
AcDbLayerTableRecord
  2
8
 70
     0
 62
     7
  6
CONTINUOUS
370
    -3
390
F
  0
LAYER
  5
4F
330
2
100
AcDbSymbolTableRecord
100
AcDbLayerTableRecord
  2
9
 70
     0
 62
     7
  6
CONTINUOUS
370
    -3
390
F
  0
LAYER
  5
50
330
2
100
AcDbSymbolTableRecord
100
AcDbLayerTableRecord
  2
AXE
 70
     0
 62
     7
  6
CONTINUOUS
370
    -3
390
F
  0
LAYER
  5
51
330
2
100
AcDbSymbolTableRecord
100
AcDbLayerTableRecord
  2
AXIS
 70
     0
 62
     7
  6
CONTINUOUS
370
    -3
390
F
  0
LAYER
  5
52
330
2
100
AcDbSymbolTableRecord
100
AcDbLayerTableRecord
  2
CHANFREIN
 70
     0
 62
     7
  6
CONTINUOUS
370
    -3
390
F
  0
LAYER
  5
53
330
2
100
AcDbSymbolTableRecord
100
AcDbLayerTableRecord
  2
CI
 70
     0
 62
     7
  6
CONTINUOUS
370
    -3
390
F
  0
LAYER
  5
54
330
2
100
AcDbSymbolTableRecord
100
AcDbLayerTableRecord
  2
COORD
 70
     0
 62
     7
  6
CONTINUOUS
370
    -3
390
F
  0
LAYER
  5
55
330
2
100
AcDbSymbolTableRecord
100
AcDbLayerTableRecord
  2
COUVERCLE
 70
     0
 62
     7
  6
CONTINUOUS
370
    -3
390
F
  0
LAYER
  5
56
330
2
100
AcDbSymbolTableRecord
100
AcDbLayerTableRecord
  2
CSYS
 70
     0
 62
     7
  6
CONTINUOUS
370
    -3
390
F
  0
LAYER
  5
57
330
2
100
AcDbSymbolTableRecord
100
AcDbLayerTableRecord
  2
CURVE
 70
     0
 62
     7
  6
CONTINUOUS
370
    -3
390
F
  0
LAYER
  5
58
330
2
100
AcDbSymbolTableRecord
100
AcDbLayerTableRecord
  2
CUT
 70
     0
 62
     7
  6
CONTINUOUS
370
    -3
390
F
  0
LAYER
  5
59
330
2
100
AcDbSymbolTableRecord
100
AcDbLayerTableRecord
  2
C_I
 70
     0
 62
     7
  6
CONTINUOUS
370
    -3
390
F
  0
LAYER
  5
5A
330
2
100
AcDbSymbolTableRecord
100
AcDbLayerTableRecord
  2
FOND
 70
     0
 62
     7
  6
CONTINUOUS
370
    -3
390
F
  0
LAYER
  5
5B
330
2
100
AcDbSymbolTableRecord
100
AcDbLayerTableRecord
  2
GTOL
 70
     0
 62
     7
  6
CONTINUOUS
370
    -3
390
F
  0
LAYER
  5
5C
330
2
100
AcDbSymbolTableRecord
100
AcDbLayerTableRecord
  2
HOLE
 70
     0
 62
     7
  6
CONTINUOUS
370
    -3
390
F
  0
LAYER
  5
5D
330
2
100
AcDbSymbolTableRecord
100
AcDbLayerTableRecord
  2
INSERTS
 70
     0
 62
     7
  6
CONTINUOUS
370
    -3
390
F
  0
LAYER
  5
5E
330
2
100
AcDbSymbolTableRecord
100
AcDbLayerTableRecord
  2
INTFCLR_1
 70
     0
 62
     7
  6
CONTINUOUS
370
    -3
390
F
  0
LAYER
  5
5F
330
2
100
AcDbSymbolTableRecord
100
AcDbLayerTableRecord
  2
INTFCLR_9431
 70
     0
 62
     7
  6
CONTINUOUS
370
    -3
390
F
  0
LAYER
  5
60
330
2
100
AcDbSymbolTableRecord
100
AcDbLayerTableRecord
  2
INTF_BLANK
 70
     0
 62
     7
  6
CONTINUOUS
370
    -3
390
F
  0
LAYER
  5
61
330
2
100
AcDbSymbolTableRecord
100
AcDbLayerTableRecord
  2
ISOLANT
 70
     0
 62
     7
  6
CONTINUOUS
370
    -3
390
F
  0
LAYER
  5
62
330
2
100
AcDbSymbolTableRecord
100
AcDbLayerTableRecord
  2
JOINT
 70
     0
 62
     7
  6
CONTINUOUS
370
    -3
390
F
  0
LAYER
  5
63
330
2
100
AcDbSymbolTableRecord
100
AcDbLayerTableRecord
  2
LAY0001
 70
     0
 62
     7
  6
CONTINUOUS
370
    -3
390
F
  0
LAYER
  5
64
330
2
100
AcDbSymbolTableRecord
100
AcDbLayerTableRecord
  2
NOTE
 70
     0
 62
     7
  6
CONTINUOUS
370
    -3
390
F
  0
LAYER
  5
65
330
2
100
AcDbSymbolTableRecord
100
AcDbLayerTableRecord
  2
PART
 70
     0
 62
     7
  6
CONTINUOUS
370
    -3
390
F
  0
LAYER
  5
66
330
2
100
AcDbSymbolTableRecord
100
AcDbLayerTableRecord
  2
PLANE
 70
     0
 62
     7
  6
CONTINUOUS
370
    -3
390
F
  0
LAYER
  5
67
330
2
100
AcDbSymbolTableRecord
100
AcDbLayerTableRecord
  2
PLANS
 70
     0
 62
     7
  6
CONTINUOUS
370
    -3
390
F
  0
LAYER
  5
68
330
2
100
AcDbSymbolTableRecord
100
AcDbLayerTableRecord
  2
PROTRUSION
 70
     0
 62
     7
  6
CONTINUOUS
370
    -3
390
F
  0
LAYER
  5
69
330
2
100
AcDbSymbolTableRecord
100
AcDbLayerTableRecord
  2
P_ETOUPE
 70
     0
 62
     7
  6
CONTINUOUS
370
    -3
390
F
  0
LAYER
  5
6A
330
2
100
AcDbSymbolTableRecord
100
AcDbLayerTableRecord
  2
ROUND
 70
     0
 62
     7
  6
CONTINUOUS
370
    -3
390
F
  0
LAYER
  5
6B
330
2
100
AcDbSymbolTableRecord
100
AcDbLayerTableRecord
  2
SURF
 70
     0
 62
     7
  6
CONTINUOUS
370
    -3
390
F
  0
LAYER
  5
6C
330
2
100
AcDbSymbolTableRecord
100
AcDbLayerTableRecord
  2
SURF_CONN
 70
     0
 62
     7
  6
CONTINUOUS
370
    -3
390
F
  0
LAYER
  5
6D
330
2
100
AcDbSymbolTableRecord
100
AcDbLayerTableRecord
  2
SYMBOL
 70
     0
 62
     7
  6
CONTINUOUS
370
    -3
390
F
  0
LAYER
  5
6E
330
2
100
AcDbSymbolTableRecord
100
AcDbLayerTableRecord
  2
THREAD
 70
     0
 62
     7
  6
CONTINUOUS
370
    -3
390
F
  0
LAYER
  5
6F
330
2
100
AcDbSymbolTableRecord
100
AcDbLayerTableRecord
  2
VISSERIE
 70
     0
 62
     7
  6
CONTINUOUS
370
    -3
390
F
  0
LAYER
  5
70
330
2
100
AcDbSymbolTableRecord
100
AcDbLayerTableRecord
  2
WHITE
 70
     0
 62
     7
  6
CONTINUOUS
370
    -3
390
F
  0
LAYER
  5
71
330
2
100
AcDbSymbolTableRecord
100
AcDbLayerTableRecord
  2
XSEC_DATUMS
 70
     0
 62
     7
  6
CONTINUOUS
370
    -3
390
F
  0
ENDTAB
  0
TABLE
  2
STYLE
  5
3
330
0
100
AcDbSymbolTable
 70
     1
  0
STYLE
  5
11
330
3
100
AcDbSymbolTableRecord
100
AcDbTextStyleTableRecord
  2
Standard
 70
     0
 40
0.0
 41
1.0
 50
0.0
 71
     0
 42
0.2
  3
txt
  4

  0
ENDTAB
  0
TABLE
  2
VIEW
  5
6
330
0
100
AcDbSymbolTable
 70
     0
  0
ENDTAB
  0
TABLE
  2
UCS
  5
7
330
0
100
AcDbSymbolTable
 70
     0
  0
ENDTAB
  0
TABLE
  2
APPID
  5
9
330
0
100
AcDbSymbolTable
 70
     1
  0
APPID
  5
12
330
9
100
AcDbSymbolTableRecord
100
AcDbRegAppTableRecord
  2
ACAD
 70
     0
  0
ENDTAB
  0
TABLE
  2
DIMSTYLE
  5
A
330
0
100
AcDbSymbolTable
 70
     1
100
AcDbDimStyleTable
 71
     0
  0
DIMSTYLE
105
3A3
330
A
100
AcDbSymbolTableRecord
100
AcDbDimStyleTableRecord
  2
Standard
 70
     0
340
11
  0
ENDTAB
  0
TABLE
  2
BLOCK_RECORD
  5
1
330
0
100
AcDbSymbolTable
 70
     3
  0
BLOCK_RECORD
  5
22
330
1
100
AcDbSymbolTableRecord
100
AcDbBlockTableRecord
  2
*Model_Space
340
25
  0
BLOCK_RECORD
  5
1E
330
1
100
AcDbSymbolTableRecord
100
AcDbBlockTableRecord
  2
*Paper_Space
340
21
  0
BLOCK_RECORD
  5
74
330
1
100
AcDbSymbolTableRecord
100
AcDbBlockTableRecord
  2
*D0
340
0
  0
BLOCK_RECORD
  5
7E
330
1
100
AcDbSymbolTableRecord
100
AcDbBlockTableRecord
  2
*D1
340
0
  0
BLOCK_RECORD
  5
8A
330
1
100
AcDbSymbolTableRecord
100
AcDbBlockTableRecord
  2
*D2
340
0
  0
ENDTAB
  0
ENDSEC
  0
SECTION
  2
BLOCKS
  0
BLOCK
  5
23
330
22
100
AcDbEntity
  8
0
100
AcDbBlockBegin
  2
*Model_Space
 70
     0
 10
0.0
 20
0.0
 30
0.0
  3
*Model_Space
  1

  0
ENDBLK
  5
24
330
22
100
AcDbEntity
  8
0
100
AcDbBlockEnd
  0
BLOCK
  5
1F
330
1E
100
AcDbEntity
 67
     1
  8
0
100
AcDbBlockBegin
  2
*Paper_Space
 70
     0
 10
0.0
 20
0.0
 30
0.0
  3
*Paper_Space
  1

  0
ENDBLK
  5
20
330
1E
100
AcDbEntity
 67
     1
  8
0
100
AcDbBlockEnd
  0
BLOCK
  5
75
330
74
100
AcDbEntity
  8
0
  6
Continuous
 62
     2
100
AcDbBlockBegin
  2
*D0
 70
     1
 10
0.0
 20
0.0
 30
0.0
  3
*D0
  1

  0
TEXT
  5
76
330
74
100
AcDbEntity
  8
0
  6
Continuous
 62
     2
100
AcDbText
 10
88.91277045349999
 20
189.4441040204
 30
0.0
 40
2.5
  1
129.86
 41
0.7714285714285717
 72
     5
 11
97.9127704535
 21
189.4441040204
 31
0.0
100
AcDbText
  0
LINE
  5
77
330
74
100
AcDbEntity
  8
0
  6
Continuous
 62
     2
100
AcDbLine
 10
27.3217543796
 20
182.8553005898
 30
0.0
 11
27.3217543796
 21
189.8191040204
 31
0.0
  0
LINE
  5
78
330
74
100
AcDbEntity
  8
0
  6
Continuous
 62
     2
100
AcDbLine
 10
157.1774043157
 20
182.8553005898
 30
0.0
 11
157.1774043157
 21
189.8191040204
 31
0.0
  0
LINE
  5
79
330
74
100
AcDbEntity
  8
0
  6
Continuous
 62
     2
100
AcDbLine
 10
27.3217543796
 20
188.8191040204
 30
0.0
 11
92.24957934770001
 21
188.8191040204
 31
0.0
  0
LINE
  5
7A
330
74
100
AcDbEntity
  8
0
  6
Continuous
 62
     2
100
AcDbLine
 10
157.1774043157
 20
188.8191040204
 30
0.0
 11
92.24957934770001
 21
188.8191040204
 31
0.0
  0
SOLID
  5
7B
330
74
100
AcDbEntity
  8
0
  6
Continuous
 62
     2
100
AcDbTrace
 10
30.3217543796
 20
189.8191040204
 30
0.0
 11
27.3217543796
 21
188.8191040204
 31
0.0
 12
30.3217543796
 22
187.8191040204
 32
0.0
 13
30.3217543796
 23
187.8191040204
 33
0.0
  0
SOLID
  5
7C
330
74
100
AcDbEntity
  8
0
  6
Continuous
 62
     2
100
AcDbTrace
 10
154.1774043157
 20
187.8191040204
 30
0.0
 11
157.1774043157
 21
188.8191040204
 31
0.0
 12
154.1774043157
 22
189.8191040204
 32
0.0
 13
154.1774043157
 23
189.8191040204
 33
0.0
  0
ENDBLK
  5
7D
330
74
100
AcDbEntity
  8
0
100
AcDbBlockEnd
  0
BLOCK
  5
7F
330
7E
100
AcDbEntity
  8
0
  6
Continuous
 62
     2
100
AcDbBlockBegin
  2
*D1
 70
     1
 10
0.0
 20
0.0
 30
0.0
  3
*D1
  1

  0
TEXT
  5
80
330
7E
100
AcDbEntity
  8
0
  6
Continuous
 62
     2
100
AcDbText
 10
158.5867419871
 20
189.4441040204
 30
0.0
 40
2.5
  1
9.07
 41
0.8470588235294115
 72
     5
 11
164.5867419871
 21
189.4441040204
 31
0.0
100
AcDbText
  0
LINE
  5
81
330
7E
100
AcDbEntity
  8
0
  6
Continuous
 62
     2
100
AcDbLine
 10
157.1774043157
 20
182.8553005898
 30
0.0
 11
157.1774043157
 21
189.8191040204
 31
0.0
  0
LINE
  5
82
330
7E
100
AcDbEntity
  8
0
  6
Continuous
 62
     2
100
AcDbLine
 10
166.2495793477
 20
153.8695461934
 30
0.0
 11
166.2495793477
 21
189.8191040204
 31
0.0
  0
LINE
  5
83
330
7E
100
AcDbEntity
  8
0
  6
Continuous
 62
     2
100
AcDbLine
 10
157.1774043157
 20
188.8191040204
 30
0.0
 11
155.1774043157
 21
188.8191040204
 31
0.0
  0
LINE
  5
84
330
7E
100
AcDbEntity
  8
0
  6
Continuous
 62
     2
100
AcDbLine
 10
155.1774043157
 20
188.8191040204
 30
0.0
 11
161.7134918317
 21
188.8191040204
 31
0.0
  0
LINE
  5
85
330
7E
100
AcDbEntity
  8
0
  6
Continuous
 62
     2
100
AcDbLine
 10
166.2495793477
 20
188.8191040204
 30
0.0
 11
168.2495793477
 21
188.8191040204
 31
0.0
  0
LINE
  5
86
330
7E
100
AcDbEntity
  8
0
  6
Continuous
 62
     2
100
AcDbLine
 10
168.2495793477
 20
188.8191040204
 30
0.0
 11
161.7134918317
 21
188.8191040204
 31
0.0
  0
SOLID
  5
87
330
7E
100
AcDbEntity
  8
0
  6
Continuous
 62
     2
100
AcDbTrace
 10
154.1774043157
 20
187.8191040204
 30
0.0
 11
157.1774043157
 21
188.8191040204
 31
0.0
 12
154.1774043157
 22
189.8191040204
 32
0.0
 13
154.1774043157
 23
189.8191040204
 33
0.0
  0
SOLID
  5
88
330
7E
100
AcDbEntity
  8
0
  6
Continuous
 62
     2
100
AcDbTrace
 10
169.2495793477
 20
189.8191040204
 30
0.0
 11
166.2495793477
 21
188.8191040204
 31
0.0
 12
169.2495793477
 22
187.8191040204
 32
0.0
 13
169.2495793477
 23
187.8191040204
 33
0.0
  0
ENDBLK
  5
89
330
7E
100
AcDbEntity
  8
0
100
AcDbBlockEnd
  0
BLOCK
  5
8B
330
8A
100
AcDbEntity
  8
0
  6
Continuous
 62
     2
100
AcDbBlockBegin
  2
*D2
 70
     1
 10
0.0
 20
0.0
 30
0.0
  3
*D2
  1

  0
TEXT
  5
8C
330
8A
100
AcDbEntity
  8
0
  6
Continuous
 62
     2
100
AcDbText
 10
170.6245793477
 20
155.675591288
 30
0.0
 40
2.5
  1
51.59
 50
90.0
 41
0.8181818181818183
 72
     5
 11
170.6245793477
 21
163.175591288
 31
0.0
100
AcDbText
  0
LINE
  5
8D
330
8A
100
AcDbEntity
  8
0
  6
Continuous
 62
     2
100
AcDbLine
 10
152.2495793477
 20
132.220395777
 30
0.0
 11
172.2495793477
 21
132.220395777
 31
0.0
  0
LINE
  5
8E
330
8A
100
AcDbEntity
  8
0
  6
Continuous
 62
     2
100
AcDbLine
 10
152.2495793477
 20
183.8129414153
 30
0.0
 11
172.2495793477
 21
183.8129414153
 31
0.0
  0
LINE
  5
8F
330
8A
100
AcDbEntity
  8
0
  6
Continuous
 62
     2
100
AcDbLine
 10
171.2495793477
 20
132.220395777
 30
0.0
 11
171.2495793477
 21
158.0166685961
 31
0.0
  0
LINE
  5
90
330
8A
100
AcDbEntity
  8
0
  6
Continuous
 62
     2
100
AcDbLine
 10
171.2495793477
 20
183.8129414153
 30
0.0
 11
171.2495793477
 21
158.0166685961
 31
0.0
  0
SOLID
  5
91
330
8A
100
AcDbEntity
  8
0
  6
Continuous
 62
     2
100
AcDbTrace
 10
170.2495793477
 20
135.220395777
 30
0.0
 11
171.2495793477
 21
132.220395777
 31
0.0
 12
172.2495793477
 22
135.220395777
 32
0.0
 13
172.2495793477
 23
135.220395777
 33
0.0
  0
SOLID
  5
92
330
8A
100
AcDbEntity
  8
0
  6
Continuous
 62
     2
100
AcDbTrace
 10
172.2495793477
 20
180.8129414152999
 30
0.0
 11
171.2495793477
 21
183.8129414153
 31
0.0
 12
170.2495793477
 22
180.8129414152999
 32
0.0
 13
170.2495793477
 23
180.8129414152999
 33
0.0
  0
ENDBLK
  5
93
330
8A
100
AcDbEntity
  8
0
100
AcDbBlockEnd
  0
ENDSEC
  0
SECTION
  2
ENTITIES
  0
DIMENSION
  5
94
330
22
100
AcDbEntity
  8
0
  6
Continuous
 62
     2
100
AcDbDimension
  2
*D0
 10
157.1774043157
 20
188.8191040204
 30
0.0
 11
93.4127704535
 21
190.6941040204
 31
0.0
 70
   128
 71
     5
 42
-1.0
100
AcDbAlignedDimension
 13
27.3217543796
 23
182.8553005898
 33
0.0
 14
157.1774043157
 24
182.8553005898
 34
0.0
100
AcDbRotatedDimension
  0
DIMENSION
  5
95
330
22
100
AcDbEntity
  8
0
  6
Continuous
 62
     2
100
AcDbDimension
  2
*D1
 10
166.2495793477
 20
188.8191040204
 30
0.0
 11
161.5867419871
 21
190.6941040204
 31
0.0
 70
   128
 71
     5
 42
-1.0
100
AcDbAlignedDimension
 13
157.1774043157
 23
182.8553005898
 33
0.0
 14
166.2495793477
 24
153.8695461934
 34
0.0
100
AcDbRotatedDimension
  0
DIMENSION
  5
96
330
22
100
AcDbEntity
  8
0
  6
Continuous
 62
     2
100
AcDbDimension
  2
*D2
 10
171.2495793477
 20
183.8129414153
 30
0.0
 11
169.3745793477
 21
159.425591288
 31
0.0
 70
   128
 71
     5
 42
-1.0
100
AcDbAlignedDimension
 13
152.2495793477
 23
132.220395777
 33
0.0
 14
152.2495793477
 24
183.8129414153
 34
0.0
 50
90.0
100
AcDbRotatedDimension
  0
TEXT
  5
97
330
22
100
AcDbEntity
  8
NOTE
  6
Continuous
 62
     2
100
AcDbText
 10
177.2878998609
 20
4.935326842799999
 30
0.0
 40
5.0
  1
FRONT VIEW
 41
0.6000000000000001
 72
     5
 11
207.2878998609
 21
4.935326842799999
 31
0.0
100
AcDbText
  0
LINE
  5
98
330
22
100
AcDbEntity
  8
0
  6
Continuous
 62
     7
100
AcDbLine
 10
0.0
 20
0.0
 30
0.0
 11
210.0
 21
0.0
 31
0.0
  0
LINE
  5
99
330
22
100
AcDbEntity
  8
0
  6
Continuous
 62
     7
100
AcDbLine
 10
0.0
 20
0.0
 30
0.0
 11
0.0
 21
297.0
 31
0.0
  0
LINE
  5
9A
330
22
100
AcDbEntity
  8
0
  6
Continuous
 62
     7
100
AcDbLine
 10
210.0
 20
0.0
 30
0.0
 11
210.0
 21
297.0
 31
0.0
  0
LINE
  5
9B
330
22
100
AcDbEntity
  8
0
  6
Continuous
 62
     7
100
AcDbLine
 10
0.0
 20
297.0
 30
0.0
 11
210.0
 21
297.0
 31
0.0
  0
LINE
  5
9C
330
22
100
AcDbEntity
  8
0
  6
Continuous
 62
     7
100
AcDbLine
 10
27.2495793477
 20
134.220395777
 30
0.0
 11
27.2495793477
 21
177.720395777
 31
0.0
  0
LINE
  5
9D
330
22
100
AcDbEntity
  8
0
  6
Continuous
 62
     7
100
AcDbLine
 10
27.2495793477
 20
177.720395777
 30
0.0
 11
27.3217543796
 21
181.8553005898
 31
0.0
  0
LINE
  5
9E
330
22
100
AcDbEntity
  8
0
  6
Continuous
 62
     7
100
AcDbLine
 10
29.0495793477
 20
132.2254083399
 30
0.0
 11
29.0495793477
 21
132.4165765847
 31
0.0
  0
LINE
  5
9F
330
22
100
AcDbEntity
  8
0
  6
Continuous
 62
     9
100
AcDbLine
 10
33.2486655186
 20
177.720395777
 30
0.0
 11
33.3208405506
 21
181.8553005898
 31
0.0
  0
LINE
  5
A0
330
22
100
AcDbEntity
  8
0
  6
Continuous
 62
     9
100
AcDbLine
 10
33.2495793211
 20
132.2720845794
 30
0.0
 11
33.2495793477
 21
177.720395777
 31
0.0
  0
LINE
  5
A1
330
22
100
AcDbEntity
  8
0
  6
Continuous
 62
     9
100
AcDbLine
 10
33.3208405506
 20
181.8553005898
 30
0.0
 11
33.3208405506
 21
183.8130505550999
 31
0.0
  0
LINE
  5
A2
330
22
100
AcDbEntity
  8
0
  6
Continuous
 62
     9
100
AcDbLine
 10
34.7495793477
 20
132.220395777
 30
0.0
 11
34.7495793477
 21
132.2720895443
 31
0.0
  0
LINE
  5
A3
330
22
100
AcDbEntity
  8
0
  6
Continuous
 62
     7
100
AcDbLine
 10
41.54957934769999
 20
132.220395777
 30
0.0
 11
41.54957934769999
 21
132.2720845794
 31
0.0
  0
LINE
  5
A4
330
22
100
AcDbEntity
  8
0
  6
Continuous
 62
     7
100
AcDbLine
 10
44.7495793477
 20
132.220395777
 30
0.0
 11
44.7495793477
 21
134.6537365473
 31
0.0
  0
LWPOLYLINE
  5
A5
330
22
100
AcDbEntity
  8
0
  6
Continuous
 62
     7
100
AcDbPolyline
 90
        8
 70
     0
 43
0.0
 10
29.0495793477
 20
132.4165765847
 10
29.1187879167
 20
132.543641209
 10
29.2781952445
 20
132.6323026017
 10
29.498600938
 20
132.6831758653
 10
29.7966215741
 20
132.6943054517
 10
30.1796939862
 20
132.6553933055
 10
30.6121165255
 20
132.5723531586
 10
31.0495793477
 20
132.469114464
  0
LINE
  5
AF
330
22
100
AcDbEntity
  8
0
  6
Continuous
 62
     9
100
AcDbLine
 10
55.7671233178
 20
154.970395777
 30
0.0
 11
55.7671233178
 21
154.870395777
 31
0.0
  0
LINE
  5
B0
330
22
100
AcDbEntity
  8
0
  6
Continuous
 62
     9
100
AcDbLine
 10
55.7671233178
 20
153.870395777
 30
0.0
 11
55.7671233178
 21
153.970395777
 31
0.0
  0
LINE
  5
B1
330
22
100
AcDbEntity
  8
0
  6
Continuous
 62
     9
100
AcDbLine
 10
57.7995793477
 20
154.970395777
 30
0.0
 11
57.7995793477
 21
154.870395777
 31
0.0
  0
LINE
  5
B2
330
22
100
AcDbEntity
  8
0
  6
Continuous
 62
     9
100
AcDbLine
 10
57.7995793477
 20
153.870395777
 30
0.0
 11
57.7995793477
 21
153.970395777
 31
0.0
  0
LWPOLYLINE
  5
B3
330
22
100
AcDbEntity
  8
0
  6
Continuous
 62
     7
100
AcDbPolyline
 90
        9
 70
     0
 43
0.0
 10
53.9697106375
 20
155.7715013997
 10
53.87293060880001
 20
155.0452138052
 10
53.8750094821
 20
154.315963153
 10
53.9751900722
 20
153.5971133153
 10
54.1718770713
 20
152.8991058992
 10
54.45975583590001
 20
152.2390659718
 10
54.8323456013
 20
151.6285231448
 10
55.28392514930001
 20
151.0757286905
 10
55.8035567249
 20
150.5931999258
  0
LINE
  5
BE
330
22
100
AcDbEntity
  8
0
  6
Continuous
 62
     7
100
AcDbLine
 10
53.9697106375
 20
155.7715013997
 30
0.0
 11
54.22061027359999
 21
156.5602878294
 31
0.0
  0
LINE
  5
BF
330
22
100
AcDbEntity
  8
0
  6
Continuous
 62
     7
100
AcDbLine
 10
54.8504183581
 20
148.0399661215
 30
0.0
 11
51.5243846842
 21
153.8008254324
 31
0.0
  0
LINE
  5
C0
330
22
100
AcDbEntity
  8
0
  6
Continuous
 62
     9
100
AcDbLine
 10
59.6195793477
 20
150.7389422597
 30
0.0
 11
59.6095793477
 21
150.8384410034
 31
0.0
  0
LINE
  5
C1
330
22
100
AcDbEntity
  8
0
  6
Continuous
 62
     9
100
AcDbLine
 10
58.6995793477
 20
150.9379397471
 30
0.0
 11
58.6995793477
 21
152.970395777
 31
0.0
  0
LINE
  5
C2
330
22
100
AcDbEntity
  8
0
  6
Continuous
 62
     9
100
AcDbLine
 10
58.6995793477
 20
155.870395777
 30
0.0
 11
58.6995793477
 21
157.9781338224
 31
0.0
  0
LINE
  5
C3
330
22
100
AcDbEntity
  8
0
  6
Continuous
 62
     7
100
AcDbLine
 10
58.79957934770001
 20
150.9379397471
 30
0.0
 11
58.79957934770001
 21
152.970395777
 31
0.0
  0
LINE
  5
C4
330
22
100
AcDbEntity
  8
0
  6
Continuous
 62
     7
100
AcDbLine
 10
58.79957934770001
 20
155.870395777
 30
0.0
 11
58.79957934770001
 21
157.9921600469
 31
0.0
  0
LINE
  5
C5
330
22
100
AcDbEntity
  8
0
  6
Continuous
 62
     7
100
AcDbLine
 10
59.6995793477
 20
157.9921600469
 30
0.0
 11
59.6995793477
 21
155.870395777
 31
0.0
  0
LINE
  5
C6
330
22
100
AcDbEntity
  8
0
  6
Continuous
 62
     7
100
AcDbLine
 10
59.6995793477
 20
152.970395777
 30
0.0
 11
59.6995793477
 21
150.9379397471
 31
0.0
  0
LINE
  5
C7
330
22
100
AcDbEntity
  8
0
  6
Continuous
 62
     9
100
AcDbLine
 10
59.7995793477
 20
157.9781338224
 30
0.0
 11
59.7995793477
 21
155.870395777
 31
0.0
  0
LINE
  5
C8
330
22
100
AcDbEntity
  8
0
  6
Continuous
 62
     9
100
AcDbLine
 10
59.7995793477
 20
152.970395777
 30
0.0
 11
59.7995793477
 21
150.9379397471
 31
0.0
  0
LINE
  5
C9
330
22
100
AcDbEntity
  8
0
  6
Continuous
 62
     9
100
AcDbLine
 10
60.6995793477
 20
154.970395777
 30
0.0
 11
60.6995793477
 21
154.870395777
 31
0.0
  0
LINE
  5
CA
330
22
100
AcDbEntity
  8
0
  6
Continuous
 62
     9
100
AcDbLine
 10
60.6995793477
 20
153.870395777
 30
0.0
 11
60.6995793477
 21
153.970395777
 31
0.0
  0
LINE
  5
CB
330
22
100
AcDbEntity
  8
0
  6
Continuous
 62
     9
100
AcDbLine
 10
62.73203537749999
 20
154.970395777
 30
0.0
 11
62.73203537749999
 21
154.870395777
 31
0.0
  0
LINE
  5
CC
330
22
100
AcDbEntity
  8
0
  6
Continuous
 62
     9
100
AcDbLine
 10
62.73203537749999
 20
153.870395777
 30
0.0
 11
62.73203537749999
 21
153.970395777
 31
0.0
  0
LINE
  5
CD
330
22
100
AcDbEntity
  8
0
  6
Continuous
 62
     9
100
AcDbLine
 10
58.8795793477
 20
150.7389422597
 30
0.0
 11
58.88320843489999
 21
150.7770288839
 31
0.0
  0
LWPOLYLINE
  5
CE
330
22
100
AcDbEntity
  8
0
  6
Continuous
 62
     9
100
AcDbPolyline
 90
        3
 70
     0
 43
0.0
 10
58.88320843489999
 20
150.7770288839
 10
58.88875153779999
 20
150.8308722098
 10
58.88957934770001
 20
150.8384410034
  0
LINE
  5
D3
330
22
100
AcDbEntity
  8
0
  6
Continuous
 62
     7
100
AcDbLine
 10
54.22061027359999
 20
156.5602878294
 30
0.0
 11
54.5886749446
 21
157.3036513303
 31
0.0
  0
LINE
  5
D4
330
22
100
AcDbEntity
  8
0
  6
Continuous
 62
     7
100
AcDbLine
 10
51.5243846842
 20
155.0399661215
 30
0.0
 11
54.8504183581
 21
160.8008254324
 31
0.0
  0
LWPOLYLINE
  5
D5
330
22
100
AcDbEntity
  8
0
  6
Continuous
 62
     7
100
AcDbPolyline
 90
        3
 70
     0
 43
0.0
 10
54.5886749446
 20
157.3036513303
 10
55.0658362675
 20
157.9842929091
 10
55.2118573124
 20
158.1370050764
  0
LWPOLYLINE
  5
DA
330
22
100
AcDbEntity
  8
0
  6
Continuous
 62
     7
100
AcDbPolyline
 90
        8
 70
     0
 43
0.0
 10
31.0495793477
 20
132.469114464
 10
31.3492689465
 20
132.405599872
 10
31.651608657
 20
132.3583789299
 10
31.9577683158
 20
132.3240426403
 10
32.2689826744
 20
132.2999644187
 10
32.5871784891
 20
132.2841154242
 10
32.9125293341
 20
132.2751045652
 10
33.2495793211
 20
132.2720906395
  0
LWPOLYLINE
  5
E4
330
22
100
AcDbEntity
  8
0
  6
Continuous
 62
     9
100
AcDbPolyline
 90
        8
 70
     0
 43
0.0
 10
157.2495793477
 20
134.220395777
 10
157.0990653413
 20
134.2055589153
 10
156.6552319701
 20
134.1914674043
 10
155.9401523106
 20
134.1788292908
 10
154.990370621
 20
134.1682786683
 10
153.8525964606
 20
134.1603368919
 10
152.5846510822
 20
134.1554081621
 10
151.2495793477
 20
134.1537365473
  0
LWPOLYLINE
  5
EE
330
22
100
AcDbEntity
  8
0
  6
Continuous
 62
     7
100
AcDbPolyline
 90
        9
 70
     0
 43
0.0
 10
55.8035567249
 20
150.5931999258
 10
56.3357694317
 20
150.1283626765
 10
56.9334919951
 20
149.7362239256
 10
57.5818237533
 20
149.4284258861
 10
58.26610647359999
 20
149.211803025
 10
58.9796910489
 20
149.0890932845
 10
59.7045886173
 20
149.0642533091
 10
60.4321464897
 20
149.1383682831
 10
61.145180035
 20
149.3106797345
  0
LINE
  5
F9
330
22
100
AcDbEntity
  8
0
  6
Continuous
 62
     7
100
AcDbLine
 10
155.2495793477
 20
132.220395777
 30
0.0
 11
139.7495793477
 21
132.220395777
 31
0.0
  0
LINE
  5
FA
330
22
100
AcDbEntity
  8
0
  6
Continuous
 62
     7
100
AcDbLine
 10
29.2495793477
 20
132.220395777
 30
0.0
 11
44.7495793477
 21
132.220395777
 31
0.0
  0
LINE
  5
FB
330
22
100
AcDbEntity
  8
0
  6
Continuous
 62
     7
100
AcDbLine
 10
41.54957934769999
 20
132.2720845794
 30
0.0
 11
33.2495793211
 21
132.2720906395
 31
0.0
  0
LINE
  5
FC
330
22
100
AcDbEntity
  8
0
  6
Continuous
 62
     7
100
AcDbLine
 10
139.7495793477
 20
132.720395777
 30
0.0
 11
44.7495793477
 21
132.720395777
 31
0.0
  0
LINE
  5
FD
330
22
100
AcDbEntity
  8
0
  6
Continuous
 62
     7
100
AcDbLine
 10
66.97477401109999
 20
155.0399661215
 30
0.0
 11
63.6487403372
 21
160.8008254324
 31
0.0
  0
LWPOLYLINE
  5
FE
330
22
100
AcDbEntity
  8
0
  6
Continuous
 62
     7
100
AcDbPolyline
 90
        9
 70
     0
 43
0.0
 10
75.9697106375
 20
155.7715013997
 10
75.8729306088
 20
155.0452138052
 10
75.87500948209999
 20
154.315963153
 10
75.9751900722
 20
153.5971133153
 10
76.1718770713
 20
152.8991058992
 10
76.4597558359
 20
152.2390659718
 10
76.8323456013
 20
151.6285231448
 10
77.2839251493
 20
151.0757286905
 10
77.80355672489999
 20
150.5931999258
  0
LINE
  5
109
330
22
100
AcDbEntity
  8
0
  6
Continuous
 62
     7
100
AcDbLine
 10
75.9697106375
 20
155.7715013997
 30
0.0
 11
76.2206102736
 21
156.5602878294
 31
0.0
  0
LINE
  5
10A
330
22
100
AcDbEntity
  8
0
  6
Continuous
 62
     7
100
AcDbLine
 10
63.6487403372
 20
148.0399661215
 30
0.0
 11
66.97477401109999
 21
153.8008254324
 31
0.0
  0
LINE
  5
10B
330
22
100
AcDbEntity
  8
0
  6
Continuous
 62
     9
100
AcDbLine
 10
151.2495793477
 20
134.1537365473
 30
0.0
 11
139.7495793477
 21
134.1537365473
 31
0.0
  0
LINE
  5
10C
330
22
100
AcDbEntity
  8
0
  6
Continuous
 62
     9
100
AcDbLine
 10
44.7495793477
 20
134.1537365473
 30
0.0
 11
33.2495793477
 21
134.1537365473
 31
0.0
  0
LINE
  5
10D
330
22
100
AcDbEntity
  8
0
  6
Continuous
 62
     9
100
AcDbLine
 10
139.7495793477
 20
134.6537365473
 30
0.0
 11
44.7495793477
 21
134.6537365473
 31
0.0
  0
LWPOLYLINE
  5
10E
330
22
100
AcDbEntity
  8
0
  6
Continuous
 62
     9
100
AcDbPolyline
 90
        8
 70
     0
 43
0.0
 10
33.2495793477
 20
134.1537365473
 10
31.9145076131
 20
134.1554081621
 10
30.6465622348
 20
134.1603368919
 10
29.5087880743
 20
134.1682786683
 10
28.5590063847
 20
134.1788292908
 10
27.8439267252
 20
134.1914674042
 10
27.400093354
 20
134.2055589154
 10
27.2495793477
 20
134.220395777
  0
LINE
  5
118
330
22
100
AcDbEntity
  8
0
  6
Continuous
 62
     7
100
AcDbLine
 10
76.8504183581
 20
148.0399661215
 30
0.0
 11
73.5243846842
 21
153.8008254324
 31
0.0
  0
LINE
  5
119
330
22
100
AcDbEntity
  8
0
  6
Continuous
 62
     9
100
AcDbLine
 10
81.61957934770001
 20
150.7389422597
 30
0.0
 11
81.60957934770001
 21
150.8384410034
 31
0.0
  0
LINE
  5
11A
330
22
100
AcDbEntity
  8
0
  6
Continuous
 62
     9
100
AcDbLine
 10
77.7671233178
 20
154.970395777
 30
0.0
 11
77.7671233178
 21
154.870395777
 31
0.0
  0
LINE
  5
11B
330
22
100
AcDbEntity
  8
0
  6
Continuous
 62
     9
100
AcDbLine
 10
77.7671233178
 20
153.870395777
 30
0.0
 11
77.7671233178
 21
153.970395777
 31
0.0
  0
LINE
  5
11C
330
22
100
AcDbEntity
  8
0
  6
Continuous
 62
     9
100
AcDbLine
 10
79.7995793477
 20
154.970395777
 30
0.0
 11
79.7995793477
 21
154.870395777
 31
0.0
  0
LINE
  5
11D
330
22
100
AcDbEntity
  8
0
  6
Continuous
 62
     9
100
AcDbLine
 10
79.7995793477
 20
153.870395777
 30
0.0
 11
79.7995793477
 21
153.970395777
 31
0.0
  0
LINE
  5
11E
330
22
100
AcDbEntity
  8
0
  6
Continuous
 62
     9
100
AcDbLine
 10
80.6995793477
 20
150.9379397471
 30
0.0
 11
80.6995793477
 21
152.970395777
 31
0.0
  0
LINE
  5
11F
330
22
100
AcDbEntity
  8
0
  6
Continuous
 62
     9
100
AcDbLine
 10
80.6995793477
 20
155.870395777
 30
0.0
 11
80.6995793477
 21
157.9781338224
 31
0.0
  0
LINE
  5
120
330
22
100
AcDbEntity
  8
0
  6
Continuous
 62
     7
100
AcDbLine
 10
80.7995793477
 20
150.9379397471
 30
0.0
 11
80.7995793477
 21
152.970395777
 31
0.0
  0
LINE
  5
121
330
22
100
AcDbEntity
  8
0
  6
Continuous
 62
     7
100
AcDbLine
 10
80.7995793477
 20
155.870395777
 30
0.0
 11
80.7995793477
 21
157.9921600469
 31
0.0
  0
LINE
  5
122
330
22
100
AcDbEntity
  8
0
  6
Continuous
 62
     7
100
AcDbLine
 10
81.69957934770001
 20
157.9921600469
 30
0.0
 11
81.69957934770001
 21
155.870395777
 31
0.0
  0
LINE
  5
123
330
22
100
AcDbEntity
  8
0
  6
Continuous
 62
     7
100
AcDbLine
 10
81.69957934770001
 20
152.970395777
 30
0.0
 11
81.69957934770001
 21
150.9379397471
 31
0.0
  0
LINE
  5
124
330
22
100
AcDbEntity
  8
0
  6
Continuous
 62
     9
100
AcDbLine
 10
81.79957934769999
 20
157.9781338224
 30
0.0
 11
81.79957934769999
 21
155.870395777
 31
0.0
  0
LINE
  5
125
330
22
100
AcDbEntity
  8
0
  6
Continuous
 62
     9
100
AcDbLine
 10
81.79957934769999
 20
152.970395777
 30
0.0
 11
81.79957934769999
 21
150.9379397471
 31
0.0
  0
LINE
  5
126
330
22
100
AcDbEntity
  8
0
  6
Continuous
 62
     9
100
AcDbLine
 10
80.87957934770001
 20
150.7389422597
 30
0.0
 11
80.8832084349
 21
150.7770288839
 31
0.0
  0
LWPOLYLINE
  5
127
330
22
100
AcDbEntity
  8
0
  6
Continuous
 62
     9
100
AcDbPolyline
 90
        3
 70
     0
 43
0.0
 10
80.8832084349
 20
150.7770288839
 10
80.8887515378
 20
150.8308722098
 10
80.8895793477
 20
150.8384410034
  0
LINE
  5
12C
330
22
100
AcDbEntity
  8
0
  6
Continuous
 62
     7
100
AcDbLine
 10
76.2206102736
 20
156.5602878294
 30
0.0
 11
76.5886749446
 21
157.3036513303
 31
0.0
  0
LINE
  5
12D
330
22
100
AcDbEntity
  8
0
  6
Continuous
 62
     7
100
AcDbLine
 10
73.5243846842
 20
155.0399661215
 30
0.0
 11
76.8504183581
 21
160.8008254324
 31
0.0
  0
LWPOLYLINE
  5
12E
330
22
100
AcDbEntity
  8
0
  6
Continuous
 62
     7
100
AcDbPolyline
 90
        3
 70
     0
 43
0.0
 10
76.5886749446
 20
157.3036513303
 10
77.0658362675
 20
157.9842929091
 10
77.2118573124
 20
158.1370050764
  0
LINE
  5
133
330
22
100
AcDbEntity
  8
0
  6
Continuous
 62
     7
100
AcDbLine
 10
159.6595793477
 20
141.970395777
 30
0.0
 11
157.2495793477
 21
141.970395777
 31
0.0
  0
LINE
  5
134
330
22
100
AcDbEntity
  8
0
  6
Continuous
 62
     7
100
AcDbLine
 10
165.1495793477
 20
142.970395777
 30
0.0
 11
159.8595793477
 21
142.970395777
 31
0.0
  0
LWPOLYLINE
  5
135
330
22
100
AcDbEntity
  8
0
  6
Continuous
 62
     7
100
AcDbPolyline
 90
        9
 70
     0
 43
0.0
 10
77.80355672489999
 20
150.5931999258
 10
78.3357694317
 20
150.1283626765
 10
78.9334919951
 20
149.7362239256
 10
79.5818237533
 20
149.4284258861
 10
80.2661064736
 20
149.211803025
 10
80.97969104890001
 20
149.0890932845
 10
81.70458861729999
 20
149.0642533091
 10
82.43214648970001
 20
149.1383682831
 10
83.14518003499999
 20
149.3106797345
  0
LINE
  5
140
330
22
100
AcDbEntity
  8
0
  6
Continuous
 62
     9
100
AcDbLine
 10
82.69957934770001
 20
154.970395777
 30
0.0
 11
82.69957934770001
 21
154.870395777
 31
0.0
  0
LINE
  5
141
330
22
100
AcDbEntity
  8
0
  6
Continuous
 62
     9
100
AcDbLine
 10
82.69957934770001
 20
153.870395777
 30
0.0
 11
82.69957934770001
 21
153.970395777
 31
0.0
  0
LINE
  5
142
330
22
100
AcDbEntity
  8
0
  6
Continuous
 62
     9
100
AcDbLine
 10
84.7320353775
 20
154.970395777
 30
0.0
 11
84.7320353775
 21
154.870395777
 31
0.0
  0
LINE
  5
143
330
22
100
AcDbEntity
  8
0
  6
Continuous
 62
     9
100
AcDbLine
 10
84.7320353775
 20
153.870395777
 30
0.0
 11
84.7320353775
 21
153.970395777
 31
0.0
  0
LINE
  5
144
330
22
100
AcDbEntity
  8
0
  6
Continuous
 62
     7
100
AcDbLine
 10
165.6495793477
 20
145.720395777
 30
0.0
 11
166.1495793477
 21
145.720395777
 31
0.0
  0
LINE
  5
145
330
22
100
AcDbEntity
  8
0
  6
Continuous
 62
     7
100
AcDbLine
 10
127.9421617512
 20
147.420395777
 30
0.0
 11
122.5569969441
 21
147.420395777
 31
0.0
  0
LINE
  5
146
330
22
100
AcDbEntity
  8
0
  6
Continuous
 62
     7
100
AcDbLine
 10
55.9235456737
 20
147.420395777
 30
0.0
 11
62.5756130216
 21
147.420395777
 31
0.0
  0
LINE
  5
147
330
22
100
AcDbEntity
  8
0
  6
Continuous
 62
     7
100
AcDbLine
 10
77.92354567370001
 20
147.420395777
 30
0.0
 11
84.5756130216
 21
147.420395777
 31
0.0
  0
LINE
  5
148
330
22
100
AcDbEntity
  8
0
  6
Continuous
 62
     7
100
AcDbLine
 10
99.9235456737
 20
147.420395777
 30
0.0
 11
106.5756130216
 21
147.420395777
 31
0.0
  0
LINE
  5
149
330
22
100
AcDbEntity
  8
0
  6
Continuous
 62
     9
100
AcDbLine
 10
166.1495793477
 20
148.6943045096
 30
0.0
 11
165.6495793477
 21
148.6943045096
 31
0.0
  0
LINE
  5
14A
330
22
100
AcDbEntity
  8
0
  6
Continuous
 62
     9
100
AcDbLine
 10
166.1495793477
 20
148.7541588056
 30
0.0
 11
165.6495793477
 21
148.7541588056
 31
0.0
  0
LINE
  5
14B
330
22
100
AcDbEntity
  8
0
  6
Continuous
 62
     7
100
AcDbLine
 10
85.6487403372
 20
148.0399661215
 30
0.0
 11
88.9747740111
 21
153.8008254324
 31
0.0
  0
LINE
  5
14C
330
22
100
AcDbEntity
  8
0
  6
Continuous
 62
     7
100
AcDbLine
 10
61.145180035
 20
149.3106797345
 30
0.0
 11
60.4703041641
 21
149.0589944695
 31
0.0
  0
LINE
  5
14D
330
22
100
AcDbEntity
  8
0
  6
Continuous
 62
     7
100
AcDbLine
 10
165.6495793477
 20
150.0503235223
 30
0.0
 11
166.1495793477
 21
150.0503235223
 31
0.0
  0
LINE
  5
14E
330
22
100
AcDbEntity
  8
0
  6
Continuous
 62
     9
100
AcDbLine
 10
166.1495793477
 20
150.2306383363
 30
0.0
 11
165.6495793477
 21
150.2306383363
 31
0.0
  0
LINE
  5
14F
330
22
100
AcDbEntity
  8
0
  6
Continuous
 62
     9
100
AcDbLine
 10
166.1495793477
 20
150.3401002092
 30
0.0
 11
165.6495793477
 21
150.3401002092
 31
0.0
  0
LINE
  5
150
330
22
100
AcDbEntity
  8
0
  6
Continuous
 62
     9
100
AcDbLine
 10
103.7995793477
 20
150.9379397471
 30
0.0
 11
103.6995793477
 21
150.9379397471
 31
0.0
  0
LINE
  5
151
330
22
100
AcDbEntity
  8
0
  6
Continuous
 62
     9
100
AcDbLine
 10
81.79957934769999
 20
150.9379397471
 30
0.0
 11
81.69957934770001
 21
150.9379397471
 31
0.0
  0
LINE
  5
152
330
22
100
AcDbEntity
  8
0
  6
Continuous
 62
     9
100
AcDbLine
 10
59.7995793477
 20
150.9379397471
 30
0.0
 11
59.6995793477
 21
150.9379397471
 31
0.0
  0
LINE
  5
153
330
22
100
AcDbEntity
  8
0
  6
Continuous
 62
     9
100
AcDbLine
 10
58.6995793477
 20
150.9379397471
 30
0.0
 11
58.79957934770001
 21
150.9379397471
 31
0.0
  0
LINE
  5
154
330
22
100
AcDbEntity
  8
0
  6
Continuous
 62
     9
100
AcDbLine
 10
80.6995793477
 20
150.9379397471
 30
0.0
 11
80.7995793477
 21
150.9379397471
 31
0.0
  0
LINE
  5
155
330
22
100
AcDbEntity
  8
0
  6
Continuous
 62
     9
100
AcDbLine
 10
102.6995793477
 20
150.9379397471
 30
0.0
 11
102.7995793477
 21
150.9379397471
 31
0.0
  0
LINE
  5
156
330
22
100
AcDbEntity
  8
0
  6
Continuous
 62
     9
100
AcDbLine
 10
166.1495793477
 20
151.7857811642
 30
0.0
 11
165.6495793477
 21
151.7857811642
 31
0.0
  0
LINE
  5
157
330
22
100
AcDbEntity
  8
0
  6
Continuous
 62
     7
100
AcDbLine
 10
166.1495793477
 20
151.8341465296
 30
0.0
 11
165.6495793477
 21
151.8341465296
 31
0.0
  0
LINE
  5
158
330
22
100
AcDbEntity
  8
0
  6
Continuous
 62
     9
100
AcDbLine
 10
166.1495793477
 20
152.9439656943
 30
0.0
 11
165.6495793477
 21
152.9439656943
 31
0.0
  0
LINE
  5
159
330
22
100
AcDbEntity
  8
0
  6
Continuous
 62
     9
100
AcDbLine
 10
103.7995793477
 20
152.970395777
 30
0.0
 11
103.6995793477
 21
152.970395777
 31
0.0
  0
LINE
  5
15A
330
22
100
AcDbEntity
  8
0
  6
Continuous
 62
     9
100
AcDbLine
 10
81.79957934769999
 20
152.970395777
 30
0.0
 11
81.69957934770001
 21
152.970395777
 31
0.0
  0
LINE
  5
15B
330
22
100
AcDbEntity
  8
0
  6
Continuous
 62
     9
100
AcDbLine
 10
59.7995793477
 20
152.970395777
 30
0.0
 11
59.6995793477
 21
152.970395777
 31
0.0
  0
LINE
  5
15C
330
22
100
AcDbEntity
  8
0
  6
Continuous
 62
     9
100
AcDbLine
 10
58.6995793477
 20
152.970395777
 30
0.0
 11
58.79957934770001
 21
152.970395777
 31
0.0
  0
LINE
  5
15D
330
22
100
AcDbEntity
  8
0
  6
Continuous
 62
     9
100
AcDbLine
 10
80.6995793477
 20
152.970395777
 30
0.0
 11
80.7995793477
 21
152.970395777
 31
0.0
  0
LINE
  5
15E
330
22
100
AcDbEntity
  8
0
  6
Continuous
 62
     9
100
AcDbLine
 10
102.6995793477
 20
152.970395777
 30
0.0
 11
102.7995793477
 21
152.970395777
 31
0.0
  0
LINE
  5
15F
330
22
100
AcDbEntity
  8
0
  6
Continuous
 62
     9
100
AcDbLine
 10
166.1495793477
 20
152.9915423441
 30
0.0
 11
165.6495793477
 21
152.9915423441
 31
0.0
  0
LINE
  5
160
330
22
100
AcDbEntity
  8
0
  6
Continuous
 62
     7
100
AcDbLine
 10
165.6495793477
 20
153.720395777
 30
0.0
 11
166.1495793477
 21
153.720395777
 31
0.0
  0
LINE
  5
161
330
22
100
AcDbEntity
  8
0
  6
Continuous
 62
     9
100
AcDbLine
 10
62.931032865
 20
154.050395777
 30
0.0
 11
62.8929466117
 21
154.0539810306
 31
0.0
  0
LINE
  5
162
330
22
100
AcDbEntity
  8
0
  6
Continuous
 62
     9
100
AcDbLine
 10
84.931032865
 20
154.050395777
 30
0.0
 11
84.89294661169999
 21
154.0539810306
 31
0.0
  0
LINE
  5
163
330
22
100
AcDbEntity
  8
0
  6
Continuous
 62
     9
100
AcDbLine
 10
55.5681258304
 20
154.790395777
 30
0.0
 11
55.6062124584
 21
154.7867689649
 31
0.0
  0
LINE
  5
164
330
22
100
AcDbEntity
  8
0
  6
Continuous
 62
     9
100
AcDbLine
 10
77.56812583039999
 20
154.790395777
 30
0.0
 11
77.60621245839999
 21
154.7867689649
 31
0.0
  0
LWPOLYLINE
  5
165
330
22
100
AcDbEntity
  8
0
  6
Continuous
 62
     9
100
AcDbPolyline
 90
        3
 70
     0
 43
0.0
 10
55.6062124584
 20
154.7867689649
 10
55.6600558206
 20
154.7812243514
 10
55.6676245741
 20
154.780395777
  0
LWPOLYLINE
  5
16A
330
22
100
AcDbEntity
  8
0
  6
Continuous
 62
     9
100
AcDbPolyline
 90
        3
 70
     0
 43
0.0
 10
77.60621245839999
 20
154.7867689649
 10
77.6600558206
 20
154.7812243514
 10
77.6676245741
 20
154.780395777
  0
LWPOLYLINE
  5
16F
330
22
100
AcDbEntity
  8
0
  6
Continuous
 62
     9
100
AcDbPolyline
 90
        3
 70
     0
 43
0.0
 10
62.8929466117
 20
154.0539810306
 10
62.8391022158
 20
154.0595532437
 10
62.8315341212
 20
154.060395777
  0
LWPOLYLINE
  5
174
330
22
100
AcDbEntity
  8
0
  6
Continuous
 62
     9
100
AcDbPolyline
 90
        3
 70
     0
 43
0.0
 10
84.89294661169999
 20
154.0539810306
 10
84.8391022158
 20
154.0595532437
 10
84.8315341212
 20
154.060395777
  0
LINE
  5
179
330
22
100
AcDbEntity
  8
0
  6
Continuous
 62
     7
100
AcDbLine
 10
88.9747740111
 20
155.0399661215
 30
0.0
 11
85.6487403372
 21
160.8008254324
 31
0.0
  0
LINE
  5
17A
330
22
100
AcDbEntity
  8
0
  6
Continuous
 62
     7
100
AcDbLine
 10
95.5243846842
 20
155.0399661215
 30
0.0
 11
98.8504183581
 21
160.8008254324
 31
0.0
  0
LINE
  5
17B
330
22
100
AcDbEntity
  8
0
  6
Continuous
 62
     9
100
AcDbLine
 10
106.931032865
 20
154.790395777
 30
0.0
 11
106.8315341212
 21
154.780395777
 31
0.0
  0
LINE
  5
17C
330
22
100
AcDbEntity
  8
0
  6
Continuous
 62
     9
100
AcDbLine
 10
99.56812583040001
 20
154.050395777
 30
0.0
 11
99.6676245741
 21
154.060395777
 31
0.0
  0
LINE
  5
17D
330
22
100
AcDbEntity
  8
0
  6
Continuous
 62
     9
100
AcDbLine
 10
84.931032865
 20
154.790395777
 30
0.0
 11
84.8315341212
 21
154.780395777
 31
0.0
  0
LINE
  5
17E
330
22
100
AcDbEntity
  8
0
  6
Continuous
 62
     9
100
AcDbLine
 10
77.56812583039999
 20
154.050395777
 30
0.0
 11
77.6676245741
 21
154.060395777
 31
0.0
  0
LINE
  5
17F
330
22
100
AcDbEntity
  8
0
  6
Continuous
 62
     9
100
AcDbLine
 10
62.931032865
 20
154.790395777
 30
0.0
 11
62.8315341212
 21
154.780395777
 31
0.0
  0
LINE
  5
180
330
22
100
AcDbEntity
  8
0
  6
Continuous
 62
     9
100
AcDbLine
 10
55.5681258304
 20
154.050395777
 30
0.0
 11
55.6676245741
 21
154.060395777
 31
0.0
  0
LINE
  5
181
330
22
100
AcDbEntity
  8
0
  6
Continuous
 62
     9
100
AcDbLine
 10
106.7320353775
 20
153.870395777
 30
0.0
 11
104.6995793477
 21
153.870395777
 31
0.0
  0
LINE
  5
182
330
22
100
AcDbEntity
  8
0
  6
Continuous
 62
     9
100
AcDbLine
 10
101.7995793477
 20
153.870395777
 30
0.0
 11
99.76712331780001
 21
153.870395777
 31
0.0
  0
LINE
  5
183
330
22
100
AcDbEntity
  8
0
  6
Continuous
 62
     9
100
AcDbLine
 10
84.7320353775
 20
153.870395777
 30
0.0
 11
82.69957934770001
 21
153.870395777
 31
0.0
  0
LINE
  5
184
330
22
100
AcDbEntity
  8
0
  6
Continuous
 62
     9
100
AcDbLine
 10
79.7995793477
 20
153.870395777
 30
0.0
 11
77.7671233178
 21
153.870395777
 31
0.0
  0
LINE
  5
185
330
22
100
AcDbEntity
  8
0
  6
Continuous
 62
     9
100
AcDbLine
 10
62.73203537749999
 20
153.870395777
 30
0.0
 11
60.6995793477
 21
153.870395777
 31
0.0
  0
LINE
  5
186
330
22
100
AcDbEntity
  8
0
  6
Continuous
 62
     9
100
AcDbLine
 10
57.7995793477
 20
153.870395777
 30
0.0
 11
55.7671233178
 21
153.870395777
 31
0.0
  0
LINE
  5
187
330
22
100
AcDbEntity
  8
0
  6
Continuous
 62
     7
100
AcDbLine
 10
106.7320353775
 20
153.970395777
 30
0.0
 11
104.6995793477
 21
153.970395777
 31
0.0
  0
LINE
  5
188
330
22
100
AcDbEntity
  8
0
  6
Continuous
 62
     7
100
AcDbLine
 10
101.7995793477
 20
153.970395777
 30
0.0
 11
99.76712331780001
 21
153.970395777
 31
0.0
  0
LINE
  5
189
330
22
100
AcDbEntity
  8
0
  6
Continuous
 62
     7
100
AcDbLine
 10
84.7320353775
 20
153.970395777
 30
0.0
 11
82.69957934770001
 21
153.970395777
 31
0.0
  0
LINE
  5
18A
330
22
100
AcDbEntity
  8
0
  6
Continuous
 62
     7
100
AcDbLine
 10
79.7995793477
 20
153.970395777
 30
0.0
 11
77.7671233178
 21
153.970395777
 31
0.0
  0
LINE
  5
18B
330
22
100
AcDbEntity
  8
0
  6
Continuous
 62
     7
100
AcDbLine
 10
62.73203537749999
 20
153.970395777
 30
0.0
 11
60.6995793477
 21
153.970395777
 31
0.0
  0
LINE
  5
18C
330
22
100
AcDbEntity
  8
0
  6
Continuous
 62
     7
100
AcDbLine
 10
57.7995793477
 20
153.970395777
 30
0.0
 11
55.7671233178
 21
153.970395777
 31
0.0
  0
LINE
  5
18D
330
22
100
AcDbEntity
  8
0
  6
Continuous
 62
     7
100
AcDbLine
 10
55.7671233178
 20
154.870395777
 30
0.0
 11
57.7995793477
 21
154.870395777
 31
0.0
  0
LINE
  5
18E
330
22
100
AcDbEntity
  8
0
  6
Continuous
 62
     7
100
AcDbLine
 10
60.6995793477
 20
154.870395777
 30
0.0
 11
62.73203537749999
 21
154.870395777
 31
0.0
  0
LINE
  5
18F
330
22
100
AcDbEntity
  8
0
  6
Continuous
 62
     7
100
AcDbLine
 10
77.7671233178
 20
154.870395777
 30
0.0
 11
79.7995793477
 21
154.870395777
 31
0.0
  0
LINE
  5
190
330
22
100
AcDbEntity
  8
0
  6
Continuous
 62
     7
100
AcDbLine
 10
82.69957934770001
 20
154.870395777
 30
0.0
 11
84.7320353775
 21
154.870395777
 31
0.0
  0
LINE
  5
191
330
22
100
AcDbEntity
  8
0
  6
Continuous
 62
     7
100
AcDbLine
 10
99.76712331780001
 20
154.870395777
 30
0.0
 11
101.7995793477
 21
154.870395777
 31
0.0
  0
LINE
  5
192
330
22
100
AcDbEntity
  8
0
  6
Continuous
 62
     7
100
AcDbLine
 10
104.6995793477
 20
154.870395777
 30
0.0
 11
106.7320353775
 21
154.870395777
 31
0.0
  0
LINE
  5
193
330
22
100
AcDbEntity
  8
0
  6
Continuous
 62
     9
100
AcDbLine
 10
55.7671233178
 20
154.970395777
 30
0.0
 11
57.7995793477
 21
154.970395777
 31
0.0
  0
LINE
  5
194
330
22
100
AcDbEntity
  8
0
  6
Continuous
 62
     9
100
AcDbLine
 10
60.6995793477
 20
154.970395777
 30
0.0
 11
62.73203537749999
 21
154.970395777
 31
0.0
  0
LINE
  5
195
330
22
100
AcDbEntity
  8
0
  6
Continuous
 62
     9
100
AcDbLine
 10
77.7671233178
 20
154.970395777
 30
0.0
 11
79.7995793477
 21
154.970395777
 31
0.0
  0
LINE
  5
196
330
22
100
AcDbEntity
  8
0
  6
Continuous
 62
     9
100
AcDbLine
 10
82.69957934770001
 20
154.970395777
 30
0.0
 11
84.7320353775
 21
154.970395777
 31
0.0
  0
LINE
  5
197
330
22
100
AcDbEntity
  8
0
  6
Continuous
 62
     9
100
AcDbLine
 10
99.76712331780001
 20
154.970395777
 30
0.0
 11
101.7995793477
 21
154.970395777
 31
0.0
  0
LINE
  5
198
330
22
100
AcDbEntity
  8
0
  6
Continuous
 62
     9
100
AcDbLine
 10
104.6995793477
 20
154.970395777
 30
0.0
 11
106.7320353775
 21
154.970395777
 31
0.0
  0
LINE
  5
199
330
22
100
AcDbEntity
  8
0
  6
Continuous
 62
     9
100
AcDbLine
 10
103.7995793477
 20
155.870395777
 30
0.0
 11
103.6995793477
 21
155.870395777
 31
0.0
  0
LINE
  5
19A
330
22
100
AcDbEntity
  8
0
  6
Continuous
 62
     9
100
AcDbLine
 10
81.79957934769999
 20
155.870395777
 30
0.0
 11
81.69957934770001
 21
155.870395777
 31
0.0
  0
LINE
  5
19B
330
22
100
AcDbEntity
  8
0
  6
Continuous
 62
     9
100
AcDbLine
 10
59.7995793477
 20
155.870395777
 30
0.0
 11
59.6995793477
 21
155.870395777
 31
0.0
  0
LINE
  5
19C
330
22
100
AcDbEntity
  8
0
  6
Continuous
 62
     9
100
AcDbLine
 10
58.6995793477
 20
155.870395777
 30
0.0
 11
58.79957934770001
 21
155.870395777
 31
0.0
  0
LINE
  5
19D
330
22
100
AcDbEntity
  8
0
  6
Continuous
 62
     9
100
AcDbLine
 10
80.6995793477
 20
155.870395777
 30
0.0
 11
80.7995793477
 21
155.870395777
 31
0.0
  0
LINE
  5
19E
330
22
100
AcDbEntity
  8
0
  6
Continuous
 62
     9
100
AcDbLine
 10
102.6995793477
 20
155.870395777
 30
0.0
 11
102.7995793477
 21
155.870395777
 31
0.0
  0
LINE
  5
19F
330
22
100
AcDbEntity
  8
0
  6
Continuous
 62
     7
100
AcDbLine
 10
165.1495793477
 20
156.470395777
 30
0.0
 11
159.8595793477
 21
156.470395777
 31
0.0
  0
LINE
  5
1A0
330
22
100
AcDbEntity
  8
0
  6
Continuous
 62
     7
100
AcDbLine
 10
159.6595793477
 20
157.470395777
 30
0.0
 11
157.2495793477
 21
157.470395777
 31
0.0
  0
LINE
  5
1A1
330
22
100
AcDbEntity
  8
0
  6
Continuous
 62
     9
100
AcDbLine
 10
125.6495793477
 20
157.970395777
 30
0.0
 11
125.8495793477
 21
157.970395777
 31
0.0
  0
LINE
  5
1A2
330
22
100
AcDbEntity
  8
0
  6
Continuous
 62
     9
100
AcDbLine
 10
124.8495793477
 20
157.970395777
 30
0.0
 11
124.6495793477
 21
157.9703957815
 31
0.0
  0
LINE
  5
1A3
330
22
100
AcDbEntity
  8
0
  6
Continuous
 62
     9
100
AcDbLine
 10
106.931032865
 20
154.050395777
 30
0.0
 11
106.8929466117
 21
154.0539810306
 31
0.0
  0
LINE
  5
1A4
330
22
100
AcDbEntity
  8
0
  6
Continuous
 62
     9
100
AcDbLine
 10
99.56812583040001
 20
154.790395777
 30
0.0
 11
99.6062124584
 21
154.7867689649
 31
0.0
  0
LWPOLYLINE
  5
1A5
330
22
100
AcDbEntity
  8
0
  6
Continuous
 62
     9
100
AcDbPolyline
 90
        3
 70
     0
 43
0.0
 10
99.6062124584
 20
154.7867689649
 10
99.66005582059999
 20
154.7812243514
 10
99.6676245741
 20
154.780395777
  0
LWPOLYLINE
  5
1AA
330
22
100
AcDbEntity
  8
0
  6
Continuous
 62
     9
100
AcDbPolyline
 90
        3
 70
     0
 43
0.0
 10
106.8929466117
 20
154.0539810306
 10
106.8391022158
 20
154.0595532437
 10
106.8315341212
 20
154.060395777
  0
LWPOLYLINE
  5
1AF
330
22
100
AcDbEntity
  8
0
  6
Continuous
 62
     7
100
AcDbPolyline
 90
        9
 70
     0
 43
0.0
 10
99.80355672489999
 20
150.5931999258
 10
100.3357694317
 20
150.1283626765
 10
100.9334919951
 20
149.7362239256
 10
101.5818237533
 20
149.4284258861
 10
102.2661064736
 20
149.211803025
 10
102.9796910489
 20
149.0890932845
 10
103.7045886173
 20
149.0642533091
 10
104.4321464897
 20
149.1383682831
 10
105.145180035
 20
149.3106797345
  0
LINE
  5
1BA
330
22
100
AcDbEntity
  8
0
  6
Continuous
 62
     7
100
AcDbLine
 10
98.8504183581
 20
148.0399661215
 30
0.0
 11
95.5243846842
 21
153.8008254324
 31
0.0
  0
LINE
  5
1BB
330
22
100
AcDbEntity
  8
0
  6
Continuous
 62
     9
100
AcDbLine
 10
99.76712331780001
 20
154.970395777
 30
0.0
 11
99.76712331780001
 21
154.870395777
 31
0.0
  0
LINE
  5
1BC
330
22
100
AcDbEntity
  8
0
  6
Continuous
 62
     9
100
AcDbLine
 10
99.76712331780001
 20
153.870395777
 30
0.0
 11
99.76712331780001
 21
153.970395777
 31
0.0
  0
LINE
  5
1BD
330
22
100
AcDbEntity
  8
0
  6
Continuous
 62
     9
100
AcDbLine
 10
101.7995793477
 20
154.970395777
 30
0.0
 11
101.7995793477
 21
154.870395777
 31
0.0
  0
LINE
  5
1BE
330
22
100
AcDbEntity
  8
0
  6
Continuous
 62
     9
100
AcDbLine
 10
101.7995793477
 20
153.870395777
 30
0.0
 11
101.7995793477
 21
153.970395777
 31
0.0
  0
LWPOLYLINE
  5
1BF
330
22
100
AcDbEntity
  8
0
  6
Continuous
 62
     7
100
AcDbPolyline
 90
        9
 70
     0
 43
0.0
 10
97.9697106375
 20
155.7715013997
 10
97.87293060879999
 20
155.0452138052
 10
97.8750094821
 20
154.315963153
 10
97.9751900722
 20
153.5971133153
 10
98.17187707129999
 20
152.8991058992
 10
98.4597558359
 20
152.2390659718
 10
98.83234560129999
 20
151.6285231448
 10
99.28392514930001
 20
151.0757286905
 10
99.80355672489999
 20
150.5931999258
  0
LINE
  5
1CA
330
22
100
AcDbEntity
  8
0
  6
Continuous
 62
     7
100
AcDbLine
 10
97.9697106375
 20
155.7715013997
 30
0.0
 11
98.2206102736
 21
156.5602878294
 31
0.0
  0
LINE
  5
1CB
330
22
100
AcDbEntity
  8
0
  6
Continuous
 62
     7
100
AcDbLine
 10
98.2206102736
 20
156.5602878294
 30
0.0
 11
98.5886749446
 21
157.3036513303
 31
0.0
  0
LWPOLYLINE
  5
1CC
330
22
100
AcDbEntity
  8
0
  6
Continuous
 62
     7
100
AcDbPolyline
 90
        3
 70
     0
 43
0.0
 10
98.5886749446
 20
157.3036513303
 10
99.0658362675
 20
157.9842929091
 10
99.21185731240001
 20
158.1370050764
  0
LINE
  5
1D1
330
22
100
AcDbEntity
  8
0
  6
Continuous
 62
     7
100
AcDbLine
 10
83.14518003499999
 20
149.3106797345
 30
0.0
 11
82.4703041641
 21
149.0589944695
 31
0.0
  0
LINE
  5
1D2
330
22
100
AcDbEntity
  8
0
  6
Continuous
 62
     7
100
AcDbLine
 10
55.9235456737
 20
161.420395777
 30
0.0
 11
62.5756130216
 21
161.420395777
 31
0.0
  0
LINE
  5
1D3
330
22
100
AcDbEntity
  8
0
  6
Continuous
 62
     7
100
AcDbLine
 10
77.92354567370001
 20
161.420395777
 30
0.0
 11
84.5756130216
 21
161.420395777
 31
0.0
  0
LINE
  5
1D4
330
22
100
AcDbEntity
  8
0
  6
Continuous
 62
     7
100
AcDbLine
 10
99.9235456737
 20
161.420395777
 30
0.0
 11
106.5756130216
 21
161.420395777
 31
0.0
  0
LINE
  5
1D5
330
22
100
AcDbEntity
  8
0
  6
Continuous
 62
     7
100
AcDbLine
 10
122.5569969441
 20
161.420395777
 30
0.0
 11
127.9421617512
 21
161.420395777
 31
0.0
  0
LWPOLYLINE
  5
1D6
330
22
100
AcDbEntity
  8
0
  6
Continuous
 62
     7
100
AcDbPolyline
 90
       12
 70
     0
 43
0.0
 10
123.0792305704
 20
149.4757434954
 10
122.353031129
 20
149.7979035194
 10
121.6788509093
 20
150.224299999
 10
121.0697370614
 20
150.7475058734
 10
120.5339818685
 20
151.3644381017
 10
120.0865872634
 20
152.0656422362
 10
119.7442454867
 20
152.8317451312999
 10
119.5183522475
 20
153.6365971691
 10
119.4110963929
 20
154.4653634491
 10
119.4238764864
 20
155.3052343664
 10
119.55766719
 20
156.1410457048
 10
119.8113070014
 20
156.9551923937
  0
LINE
  5
1E4
330
22
100
AcDbEntity
  8
0
  6
Continuous
 62
     9
100
AcDbLine
 10
103.6195793477
 20
150.7389422597
 30
0.0
 11
103.6095793477
 21
150.8384410034
 31
0.0
  0
LINE
  5
1E5
330
22
100
AcDbEntity
  8
0
  6
Continuous
 62
     9
100
AcDbLine
 10
102.6995793477
 20
150.9379397471
 30
0.0
 11
102.6995793477
 21
152.970395777
 31
0.0
  0
LINE
  5
1E6
330
22
100
AcDbEntity
  8
0
  6
Continuous
 62
     9
100
AcDbLine
 10
102.6995793477
 20
155.870395777
 30
0.0
 11
102.6995793477
 21
157.9781338224
 31
0.0
  0
LINE
  5
1E7
330
22
100
AcDbEntity
  8
0
  6
Continuous
 62
     7
100
AcDbLine
 10
102.7995793477
 20
150.9379397471
 30
0.0
 11
102.7995793477
 21
152.970395777
 31
0.0
  0
LINE
  5
1E8
330
22
100
AcDbEntity
  8
0
  6
Continuous
 62
     7
100
AcDbLine
 10
102.7995793477
 20
155.870395777
 30
0.0
 11
102.7995793477
 21
157.9921600469
 31
0.0
  0
LINE
  5
1E9
330
22
100
AcDbEntity
  8
0
  6
Continuous
 62
     7
100
AcDbLine
 10
103.6995793477
 20
157.9921600469
 30
0.0
 11
103.6995793477
 21
155.870395777
 31
0.0
  0
LINE
  5
1EA
330
22
100
AcDbEntity
  8
0
  6
Continuous
 62
     7
100
AcDbLine
 10
103.6995793477
 20
152.970395777
 30
0.0
 11
103.6995793477
 21
150.9379397471
 31
0.0
  0
LINE
  5
1EB
330
22
100
AcDbEntity
  8
0
  6
Continuous
 62
     9
100
AcDbLine
 10
103.7995793477
 20
157.9781338224
 30
0.0
 11
103.7995793477
 21
155.870395777
 31
0.0
  0
LINE
  5
1EC
330
22
100
AcDbEntity
  8
0
  6
Continuous
 62
     9
100
AcDbLine
 10
103.7995793477
 20
152.970395777
 30
0.0
 11
103.7995793477
 21
150.9379397471
 31
0.0
  0
LINE
  5
1ED
330
22
100
AcDbEntity
  8
0
  6
Continuous
 62
     9
100
AcDbLine
 10
104.6995793477
 20
154.970395777
 30
0.0
 11
104.6995793477
 21
154.870395777
 31
0.0
  0
LINE
  5
1EE
330
22
100
AcDbEntity
  8
0
  6
Continuous
 62
     9
100
AcDbLine
 10
104.6995793477
 20
153.870395777
 30
0.0
 11
104.6995793477
 21
153.970395777
 31
0.0
  0
LINE
  5
1EF
330
22
100
AcDbEntity
  8
0
  6
Continuous
 62
     9
100
AcDbLine
 10
106.7320353775
 20
154.970395777
 30
0.0
 11
106.7320353775
 21
154.870395777
 31
0.0
  0
LINE
  5
1F0
330
22
100
AcDbEntity
  8
0
  6
Continuous
 62
     9
100
AcDbLine
 10
106.7320353775
 20
153.870395777
 30
0.0
 11
106.7320353775
 21
153.970395777
 31
0.0
  0
LINE
  5
1F1
330
22
100
AcDbEntity
  8
0
  6
Continuous
 62
     9
100
AcDbLine
 10
102.8795793477
 20
150.7389422597
 30
0.0
 11
102.8832084349
 21
150.7770288839
 31
0.0
  0
LWPOLYLINE
  5
1F2
330
22
100
AcDbEntity
  8
0
  6
Continuous
 62
     9
100
AcDbPolyline
 90
        3
 70
     0
 43
0.0
 10
102.8832084349
 20
150.7770288839
 10
102.8887515378
 20
150.8308722098
 10
102.8895793477
 20
150.8384410034
  0
LWPOLYLINE
  5
1F7
330
22
100
AcDbEntity
  8
0
  6
Continuous
 62
     7
100
AcDbPolyline
 90
        5
 70
     0
 43
0.0
 10
166.1495793477
 20
151.8341465296
 10
166.1879853684
 20
151.8264773346
 10
166.2203204102
 20
151.8048268102
 10
166.2419379128
 20
151.7724857451
 10
166.2495793477
 20
151.7341465296
  0
LINE
  5
1FE
330
22
100
AcDbEntity
  8
0
  6
Continuous
 62
     7
100
AcDbLine
 10
107.6487403372
 20
148.0399661215
 30
0.0
 11
110.9747740111
 21
153.8008254324
 31
0.0
  0
LINE
  5
1FF
330
22
100
AcDbEntity
  8
0
  6
Continuous
 62
     7
100
AcDbLine
 10
105.145180035
 20
149.3106797345
 30
0.0
 11
104.4703041641
 21
149.0589944695
 31
0.0
  0
LINE
  5
200
330
22
100
AcDbEntity
  8
0
  6
Continuous
 62
     7
100
AcDbLine
 10
110.9747740111
 20
155.0399661215
 30
0.0
 11
107.6487403372
 21
160.8008254324
 31
0.0
  0
LINE
  5
201
330
22
100
AcDbEntity
  8
0
  6
Continuous
 62
     7
100
AcDbLine
 10
117.8411103194
 20
155.5885510137
 30
0.0
 11
120.533692723
 21
160.2522405402
 31
0.0
  0
LINE
  5
202
330
22
100
AcDbEntity
  8
0
  6
Continuous
 62
     7
100
AcDbLine
 10
27.2495793477
 20
177.720395777
 30
0.0
 11
157.2495793477
 21
177.720395777
 31
0.0
  0
LINE
  5
203
330
22
100
AcDbEntity
  8
0
  6
Continuous
 62
     7
100
AcDbLine
 10
120.533692723
 20
148.5885510137
 30
0.0
 11
117.8411103194
 21
153.2522405402
 31
0.0
  0
LWPOLYLINE
  5
204
330
22
100
AcDbEntity
  8
0
  6
Continuous
 62
     7
100
AcDbPolyline
 90
        3
 70
     0
 43
0.0
 10
119.613223309
 20
152.3909016384
 10
119.3913152913
 20
152.997162191
 10
119.2173067913
 20
153.786378383
  0
LWPOLYLINE
  5
209
330
22
100
AcDbEntity
  8
0
  6
Continuous
 62
     7
100
AcDbPolyline
 90
       18
 70
     0
 43
0.0
 10
119.2504756816
 20
154.3166884798
 10
119.3491120163
 20
153.4193174269
 10
119.5808784997
 20
152.5491311872
 10
119.9421272651
 20
151.7214403855
 10
120.4253106888
 20
150.9567065891
 10
121.0138896778
 20
150.2793320733
 10
121.7046743379
 20
149.6938498145
 10
122.4823531229
 20
149.218001414
 10
123.3200325365
 20
148.8691772294
 10
124.1870455585
 20
148.6558601304
 10
125.0705346299
 20
148.5767970376
 10
125.9637705565
 20
148.6334392045
 10
126.83850604
 20
148.8263514358
 10
127.6642715767
 20
149.1470315235
 10
128.433349049
 20
149.5909682501
 10
129.1315147519
 20
150.1531609406
 10
129.7329958349
 20
150.8152570412
 10
130.2184763289
 20
151.5516017672
  0
LINE
  5
21D
330
22
100
AcDbEntity
  8
0
  6
Continuous
 62
     7
100
AcDbLine
 10
120.4995793477
 20
153.4844734018
 30
0.0
 11
120.4995793477
 21
155.3563181521
 31
0.0
  0
LWPOLYLINE
  5
21E
330
22
100
AcDbEntity
  8
0
  6
Continuous
 62
     7
100
AcDbPolyline
 90
        3
 70
     0
 43
0.0
 10
119.2173067913
 20
153.786378383
 10
119.2264701305
 20
154.6335650427
 10
119.2757174588
 20
154.9570791951
  0
LINE
  5
223
330
22
100
AcDbEntity
  8
0
  6
Continuous
 62
     7
100
AcDbLine
 10
120.3130831207
 20
156.6345502753
 30
0.0
 11
120.1227397974
 21
156.1161304927
 31
0.0
  0
LINE
  5
224
330
22
100
AcDbEntity
  8
0
  6
Continuous
 62
     7
100
AcDbLine
 10
120.2036681361
 20
156.3080304412
 30
0.0
 11
120.1227397974
 21
156.1161304927
 31
0.0
  0
LINE
  5
225
330
22
100
AcDbEntity
  8
0
  6
Continuous
 62
     7
100
AcDbLine
 10
120.5552014192
 20
157.1306961376
 30
0.0
 11
120.3130831207
 21
156.6345502753
 31
0.0
  0
LINE
  5
226
330
22
100
AcDbEntity
  8
0
  6
Continuous
 62
     7
100
AcDbLine
 10
155.3495792883
 20
183.8129420745
 30
0.0
 11
155.2621179851
 21
183.8117897585
 31
0.0
  0
LINE
  5
227
330
22
100
AcDbEntity
  8
0
  6
Continuous
 62
     9
100
AcDbLine
 10
33.3208405506
 20
181.8553005898
 30
0.0
 11
151.1783181447
 21
181.8553005898
 31
0.0
  0
LWPOLYLINE
  5
228
330
22
100
AcDbEntity
  8
0
  6
Continuous
 62
     9
100
AcDbPolyline
 90
        8
 70
     0
 43
0.0
 10
33.3208405506
 20
181.8553005898
 10
31.9963636975
 20
181.8621421224
 10
30.7314695582
 20
181.8669417885
 10
29.58597311
 20
181.8694345354
 10
28.6264353887
 20
181.8694345354
 10
27.9095411105
 20
181.8669417885
 10
27.4699001414
 20
181.8621421224
 10
27.3217543796
 20
181.8553005898
  0
LINE
  5
232
330
22
100
AcDbEntity
  8
0
  6
Continuous
 62
     7
100
AcDbLine
 10
29.2370647714
 20
183.8117896233
 30
0.0
 11
29.1495794063
 21
183.8129420711999
 31
0.0
  0
LINE
  5
233
330
22
100
AcDbEntity
  8
0
  6
Continuous
 62
     7
100
AcDbLine
 10
124.6495793477
 20
158.5267932249
 30
0.0
 11
124.6495793477
 21
157.970395777
 31
0.0
  0
LINE
  5
234
330
22
100
AcDbEntity
  8
0
  6
Continuous
 62
     9
100
AcDbLine
 10
124.8495793477
 20
158.5510736874
 30
0.0
 11
124.8495793477
 21
157.970395777
 31
0.0
  0
LINE
  5
235
330
22
100
AcDbEntity
  8
0
  6
Continuous
 62
     9
100
AcDbLine
 10
125.6495793477
 20
157.970395777
 30
0.0
 11
125.6495793477
 21
158.5510736874
 31
0.0
  0
LINE
  5
236
330
22
100
AcDbEntity
  8
0
  6
Continuous
 62
     7
100
AcDbLine
 10
125.8495793477
 20
157.970395777
 30
0.0
 11
125.8495793477
 21
158.5267932249
 31
0.0
  0
LWPOLYLINE
  5
237
330
22
100
AcDbEntity
  8
0
  6
Continuous
 62
     7
100
AcDbPolyline
 90
        3
 70
     0
 43
0.0
 10
34.1495793477
 20
183.8191040204
 10
33.7416610984
 20
183.8153317741
 10
33.3208405506
 20
183.8130505550999
  0
LWPOLYLINE
  5
23C
330
22
100
AcDbEntity
  8
0
  6
Continuous
 62
     7
100
AcDbPolyline
 90
        6
 70
     0
 43
0.0
 10
155.2621179851
 20
183.8117897585
 10
154.9660379465
 20
183.8108305393999
 10
154.4780519886
 20
183.8103131273
 10
153.8399172147
 20
183.8102912198
 10
153.0577551994
 20
183.8107589055
 10
152.1714553859
 20
183.8116936431999
  0
LWPOLYLINE
  5
244
330
22
100
AcDbEntity
  8
0
  6
Continuous
 62
     7
100
AcDbPolyline
 90
        7
 70
     0
 43
0.0
 10
33.3208405506
 20
183.8130505550999
 10
32.3277823462
 20
183.8116937405
 10
31.4414762872
 20
183.8107589744
 10
30.6592777168
 20
183.8102912331
 10
30.0211378993
 20
183.8103131143999
 10
29.5331665516
 20
183.8108304496
 10
29.2370647714
 20
183.8117896233
  0
LINE
  5
24D
330
22
100
AcDbEntity
  8
0
  6
Continuous
 62
     2
100
AcDbLine
 10
139.0995793477
 20
183.670395777
 30
0.0
 11
137.0995793477
 21
183.670395777
 31
0.0
  0
LINE
  5
24E
330
22
100
AcDbEntity
  8
0
  6
Continuous
 62
     2
100
AcDbLine
 10
124.1995793477
 20
183.670395777
 30
0.0
 11
111.1995793477
 21
183.670395777
 31
0.0
  0
LINE
  5
24F
330
22
100
AcDbEntity
  8
0
  6
Continuous
 62
     7
100
AcDbLine
 10
34.1495793477
 20
183.8191040204
 30
0.0
 11
150.3495793477
 21
183.8191040204
 31
0.0
  0
LINE
  5
250
330
22
100
AcDbEntity
  8
0
  6
Continuous
 62
     7
100
AcDbLine
 10
152.1714553859
 20
183.8116936431999
 30
0.0
 11
151.1783181447
 21
183.8130505550999
 31
0.0
  0
LWPOLYLINE
  5
251
330
22
100
AcDbEntity
  8
0
  6
Continuous
 62
     7
100
AcDbPolyline
 90
        3
 70
     0
 43
0.0
 10
151.1783181447
 20
183.8130505550999
 10
150.7575206484
 20
183.8153315754
 10
150.3495793477
 20
183.8191040204
  0
LWPOLYLINE
  5
256
330
22
100
AcDbEntity
  8
0
  6
Continuous
 62
     9
100
AcDbPolyline
 90
        8
 70
     0
 43
0.0
 10
157.1774043157
 20
181.8553005898
 10
157.0292585539
 20
181.8621421224
 10
156.5896175848
 20
181.8669417885
 10
155.8727233066
 20
181.8694345354
 10
154.9131855853
 20
181.8694345354
 10
153.7676891370999
 20
181.8669417885
 10
152.5027949978
 20
181.8621421224
 10
151.1783181447
 20
181.8553005898
  0
LINE
  5
260
330
22
100
AcDbEntity
  8
0
  6
Continuous
 62
     7
100
AcDbLine
 10
129.9654659724
 20
160.2522405402
 30
0.0
 11
132.6580483759
 21
155.5885510137
 31
0.0
  0
LINE
  5
261
330
22
100
AcDbEntity
  8
0
  6
Continuous
 62
     7
100
AcDbLine
 10
129.9995793477
 20
155.3563181521
 30
0.0
 11
129.9995793477
 21
153.4844734018
 31
0.0
  0
LINE
  5
262
330
22
100
AcDbEntity
  8
0
  6
Continuous
 62
     7
100
AcDbLine
 10
130.0495793477
 20
155.0245898271
 30
0.0
 11
130.0495793477
 21
153.8162017268
 31
0.0
  0
LWPOLYLINE
  5
263
330
22
100
AcDbEntity
  8
0
  6
Continuous
 62
     7
100
AcDbPolyline
 90
       21
 70
     0
 43
0.0
 10
130.2184763289
 20
151.5516017672
 10
130.5885856939
 20
152.362510159
 10
130.8299541105
 20
153.2298227728
 10
130.9317985755
 20
154.1219480727
 10
130.893581752
 20
155.0061961935
 10
130.7192184808
 20
155.8705284831
 10
130.4103515104
 20
156.7022945641
 10
129.9779572694
 20
157.4708011481
 10
129.4386897458
 20
158.1537760839
 10
128.7958957862999
 20
158.7486201082
 10
128.0600324234
 20
159.2404034923
 10
127.2572992303
 20
159.6090149874
 10
126.4187014884
 20
159.8434936316
 10
125.5595891088
 20
159.9436230282
 10
124.6933640338
 20
159.9083525508
 10
123.8507837264
 20
159.7398759968
 10
123.0478639544
 20
159.443651423
 10
122.2969131139
 20
159.0235047608
 10
121.6143726465
 20
158.4844395586
 10
121.0271268619
 20
157.8448216269
 10
120.5552014192
 20
157.1306961376
  0
LINE
  5
27A
330
22
100
AcDbEntity
  8
0
  6
Continuous
 62
     7
100
AcDbLine
 10
132.6580483759
 20
153.2522405402
 30
0.0
 11
129.9654659724
 21
148.5885510137
 31
0.0
  0
LINE
  5
27B
330
22
100
AcDbEntity
  8
0
  6
Continuous
 62
     7
100
AcDbLine
 10
29.1495794063
 20
183.8129420711999
 30
0.0
 11
29.1501986821
 21
183.8130505550999
 31
0.0
  0
LINE
  5
27C
330
22
100
AcDbEntity
  8
0
  6
Continuous
 62
     7
100
AcDbLine
 10
155.3489600132
 20
183.8130505550999
 30
0.0
 11
155.3495792883
 21
183.8129420745
 31
0.0
  0
LWPOLYLINE
  5
27D
330
22
100
AcDbEntity
  8
0
  6
Continuous
 62
     9
100
AcDbPolyline
 90
        5
 70
     0
 43
0.0
 10
166.2495793477
 20
150.3246075984
 10
166.2419030305
 20
150.3305603457
 10
166.2200780963
 20
150.3355952638
 10
166.1874482227
 20
150.3389463828
 10
166.1495793477
 20
150.3401002092
  0
LINE
  5
284
330
22
100
AcDbEntity
  8
0
  6
Continuous
 62
     7
100
AcDbLine
 10
139.7495793477
 20
132.220395777
 30
0.0
 11
139.7495793477
 21
134.6537365473
 31
0.0
  0
LINE
  5
285
330
22
100
AcDbEntity
  8
0
  6
Continuous
 62
     7
100
AcDbLine
 10
165.6495793477
 20
155.970395777
 30
0.0
 11
165.1495793477
 21
156.470395777
 31
0.0
  0
LINE
  5
286
330
22
100
AcDbEntity
  8
0
  6
Continuous
 62
     9
100
AcDbLine
 10
151.2504931767
 20
177.720395777
 30
0.0
 11
151.1783181447
 21
181.8553005898
 31
0.0
  0
LINE
  5
287
330
22
100
AcDbEntity
  8
0
  6
Continuous
 62
     9
100
AcDbLine
 10
151.1783181447
 20
183.8130505550999
 30
0.0
 11
151.1783181447
 21
181.8553005898
 31
0.0
  0
LINE
  5
288
330
22
100
AcDbEntity
  8
0
  6
Continuous
 62
     9
100
AcDbLine
 10
151.2495793477
 20
132.220395777
 30
0.0
 11
151.2495793477
 21
177.720395777
 31
0.0
  0
LINE
  5
289
330
22
100
AcDbEntity
  8
0
  6
Continuous
 62
     7
100
AcDbLine
 10
165.6495793477
 20
143.470395777
 30
0.0
 11
165.1495793477
 21
142.970395777
 31
0.0
  0
LWPOLYLINE
  5
28A
330
22
100
AcDbEntity
  8
0
  6
Continuous
 62
     9
100
AcDbPolyline
 90
        5
 70
     0
 43
0.0
 10
166.2495793477
 20
148.7199567913
 10
166.2419619861
 20
148.7330497230999
 10
166.2202718854
 20
148.7441474703
 10
166.1878039762
 20
148.7515615212
 10
166.1495793477
 20
148.7541588056
  0
LWPOLYLINE
  5
291
330
22
100
AcDbEntity
  8
0
  6
Continuous
 62
     9
100
AcDbPolyline
 90
        5
 70
     0
 43
0.0
 10
166.2495793477
 20
152.90976368
 10
166.2419619861
 20
152.9228566118
 10
166.2202718854
 20
152.933954359
 10
166.1878039762
 20
152.9413684099
 10
166.1495793477
 20
152.9439656943
  0
LINE
  5
298
330
22
100
AcDbEntity
  8
0
  6
Continuous
 62
     7
100
AcDbLine
 10
157.2495793477
 20
177.720395777
 30
0.0
 11
157.1774043157
 21
181.8553005898
 31
0.0
  0
LINE
  5
299
330
22
100
AcDbEntity
  8
0
  6
Continuous
 62
     7
100
AcDbLine
 10
157.2495793477
 20
177.720395777
 30
0.0
 11
157.2495793477
 21
134.220395777
 31
0.0
  0
LINE
  5
29A
330
22
100
AcDbEntity
  8
0
  6
Continuous
 62
     7
100
AcDbLine
 10
159.6595793477
 20
141.970395777
 30
0.0
 11
159.6595793477
 21
157.470395777
 31
0.0
  0
LINE
  5
29B
330
22
100
AcDbEntity
  8
0
  6
Continuous
 62
     7
100
AcDbLine
 10
159.8595793477
 20
142.7168059385
 30
0.0
 11
159.8595793477
 21
156.7239856155
 31
0.0
  0
LWPOLYLINE
  5
29C
330
22
100
AcDbEntity
  8
0
  6
Continuous
 62
     9
100
AcDbPolyline
 90
        5
 70
     0
 43
0.0
 10
166.2495793477
 20
148.7199567913
 10
166.2419619861
 20
148.7101367972
 10
166.2202718854
 20
148.7018132367
 10
166.1878039762
 20
148.6962525314
 10
166.1495793477
 20
148.6943045096
  0
LWPOLYLINE
  5
2A3
330
22
100
AcDbEntity
  8
0
  6
Continuous
 62
     9
100
AcDbPolyline
 90
        5
 70
     0
 43
0.0
 10
166.2495793477
 20
151.7341465296
 10
166.2419030305
 20
151.7539861769
 10
166.2200780963
 20
151.7707668319
 10
166.1874482227
 20
151.7819356275
 10
166.1495793477
 20
151.7857811642
  0
LINE
  5
2AA
330
22
100
AcDbEntity
  8
0
  6
Continuous
 62
     7
100
AcDbLine
 10
159.8595793477
 20
156.7239856155
 30
0.0
 11
159.6595793477
 21
157.470395777
 31
0.0
  0
LINE
  5
2AB
330
22
100
AcDbEntity
  8
0
  6
Continuous
 62
     7
100
AcDbLine
 10
165.1495793477
 20
142.970395777
 30
0.0
 11
165.1495793477
 21
156.470395777
 31
0.0
  0
LINE
  5
2AC
330
22
100
AcDbEntity
  8
0
  6
Continuous
 62
     7
100
AcDbLine
 10
165.6495793477
 20
143.470395777
 30
0.0
 11
165.6495793477
 21
155.970395777
 31
0.0
  0
LINE
  5
2AD
330
22
100
AcDbEntity
  8
0
  6
Continuous
 62
     9
100
AcDbLine
 10
166.1495793477
 20
145.720395777
 30
0.0
 11
166.1495793477
 21
153.720395777
 31
0.0
  0
LINE
  5
2AE
330
22
100
AcDbEntity
  8
0
  6
Continuous
 62
     7
100
AcDbLine
 10
166.2495793477
 20
153.6203933952
 30
0.0
 11
166.2495793477
 21
145.8204172948
 31
0.0
  0
LWPOLYLINE
  5
2AF
330
22
100
AcDbEntity
  8
0
  6
Continuous
 62
     9
100
AcDbPolyline
 90
        5
 70
     0
 43
0.0
 10
166.2495793477
 20
150.3246075984
 10
166.2419030305
 20
150.2885016584
 10
166.2200780963
 20
150.2579627424
 10
166.1874482227
 20
150.2376367832
 10
166.1495793477
 20
150.2306383363
  0
LWPOLYLINE
  5
2B6
330
22
100
AcDbEntity
  8
0
  6
Continuous
 62
     7
100
AcDbPolyline
 90
        6
 70
     0
 43
0.0
 10
166.2495793477
 20
150.11009077
 10
166.2461029869
 20
150.0944688979
 10
166.2350291774
 20
150.0790444225
 10
166.2156850753
 20
150.0652452857
 10
166.1873525659
 20
150.0547513849
 10
166.1495793477
 20
150.0503235223
  0
LINE
  5
2BE
330
22
100
AcDbEntity
  8
0
  6
Continuous
 62
     7
100
AcDbLine
 10
159.8595793477
 20
142.7168059385
 30
0.0
 11
159.6595793477
 21
141.970395777
 31
0.0
  0
LWPOLYLINE
  5
2BF
330
22
100
AcDbEntity
  8
0
  6
Continuous
 62
     9
100
AcDbPolyline
 90
        5
 70
     0
 43
0.0
 10
166.2495793477
 20
152.90976368
 10
166.2419619861
 20
152.9410695109
 10
166.2202718854
 20
152.9676047591
 10
166.1878039762
 20
152.9853321119
 10
166.1495793477
 20
152.9915423441
  0
ARC
  5
2C6
330
22
100
AcDbEntity
  8
0
  6
Continuous
 62
     7
100
AcDbCircle
 10
125.2495793477
 20
154.420395777
 30
0.0
 40
7.5
100
AcDbArc
 50
231.0394697813
 51
248.9605302187
  0
ARC
  5
2C7
330
22
100
AcDbEntity
  8
0
  6
Continuous
 62
     7
100
AcDbCircle
 10
125.2495793477
 20
154.420395777
 30
0.0
 40
7.5
100
AcDbArc
 50
51.03946978129999
 51
68.9605302187
  0
ARC
  5
2C8
330
22
100
AcDbEntity
  8
0
  6
Continuous
 62
     7
100
AcDbCircle
 10
125.2495793477
 20
154.420395777
 30
0.0
 40
7.5
100
AcDbArc
 50
111.0394697812999
 51
128.9605302187
  0
ARC
  5
2C9
330
22
100
AcDbEntity
  8
0
  6
Continuous
 62
     7
100
AcDbCircle
 10
125.2495793477
 20
154.420395777
 30
0.0
 40
7.5
100
AcDbArc
 50
351.0394697813
 51
8.9605302187
  0
ARC
  5
2CA
330
22
100
AcDbEntity
  8
0
  6
Continuous
 62
     7
100
AcDbCircle
 10
125.2495793477
 20
154.420395777
 30
0.0
 40
7.5
100
AcDbArc
 50
171.0394697813
 51
188.9605302187
  0
ARC
  5
2CB
330
22
100
AcDbEntity
  8
0
  6
Continuous
 62
     7
100
AcDbCircle
 10
125.2495793477
 20
154.420395777
 30
0.0
 40
7.5
100
AcDbArc
 50
291.0394697813
 51
308.9605302187
  0
ARC
  5
2CC
330
22
100
AcDbEntity
  8
0
  6
Continuous
 62
     7
100
AcDbCircle
 10
125.2495793477
 20
154.420395777
 30
0.0
 40
7.087878387099999
100
AcDbArc
 50
279.0317160838
 51
320.9682839162
  0
ARC
  5
2CD
330
22
100
AcDbEntity
  8
0
  6
Continuous
 62
     7
100
AcDbCircle
 10
125.2495793477
 20
154.420395777
 30
0.0
 40
7.087878387099999
100
AcDbArc
 50
159.0317160838
 51
200.9682839162
  0
ARC
  5
2CE
330
22
100
AcDbEntity
  8
0
  6
Continuous
 62
     7
100
AcDbCircle
 10
125.2495793477
 20
154.420395777
 30
0.0
 40
7.087878387099999
100
AcDbArc
 50
39.0317160838
 51
80.96828391619999
  0
ARC
  5
2CF
330
22
100
AcDbEntity
  8
0
  6
Continuous
 62
     7
100
AcDbCircle
 10
125.2495793477
 20
154.420395777
 30
0.0
 40
7.087878387099999
100
AcDbArc
 50
339.0317160838
 51
20.9682839162
  0
ARC
  5
2D0
330
22
100
AcDbEntity
  8
0
  6
Continuous
 62
     7
100
AcDbCircle
 10
125.2495793477
 20
154.420395777
 30
0.0
 40
7.087878387099999
100
AcDbArc
 50
99.03171608379999
 51
140.9682839162
  0
ARC
  5
2D1
330
22
100
AcDbEntity
  8
0
  6
Continuous
 62
     7
100
AcDbCircle
 10
125.2495793477
 20
154.420395777
 30
0.0
 40
7.087878387099999
100
AcDbArc
 50
219.0317160838
 51
260.9682839162
  0
ARC
  5
2D2
330
22
100
AcDbEntity
  8
0
  6
Continuous
 62
     7
100
AcDbCircle
 10
59.2495793477
 20
154.420395777
 30
0.0
 40
7.75
100
AcDbArc
 50
295.4146209152
 51
304.5853790848
  0
ARC
  5
2D3
330
22
100
AcDbEntity
  8
0
  6
Continuous
 62
     7
100
AcDbCircle
 10
59.2495793477
 20
154.420395777
 30
0.0
 40
7.75
100
AcDbArc
 50
235.4146209152
 51
244.5853790848
  0
ARC
  5
2D4
330
22
100
AcDbEntity
  8
0
  6
Continuous
 62
     7
100
AcDbCircle
 10
59.2495793477
 20
154.420395777
 30
0.0
 40
7.75
100
AcDbArc
 50
175.4146209152
 51
184.5853790848
  0
CIRCLE
  5
2D5
330
22
100
AcDbEntity
  8
0
  6
Continuous
 62
     7
100
AcDbCircle
 10
59.2495793477
 20
154.420395777
 30
0.0
 40
5.5
  0
CIRCLE
  5
2D6
330
22
100
AcDbEntity
  8
0
  6
Continuous
 62
     7
100
AcDbCircle
 10
59.2495793477
 20
154.420395777
 30
0.0
 40
6.75
  0
ARC
  5
2D7
330
22
100
AcDbEntity
  8
0
  6
Continuous
 62
     7
100
AcDbCircle
 10
59.2495793477
 20
154.420395777
 30
0.0
 40
7.75
100
AcDbArc
 50
115.4146209152
 51
124.5853790848
  0
ARC
  5
2D8
330
22
100
AcDbEntity
  8
0
  6
Continuous
 62
     7
100
AcDbCircle
 10
59.2495793477
 20
154.420395777
 30
0.0
 40
7.75
100
AcDbArc
 50
355.4146209152
 51
4.5853790848
  0
ARC
  5
2D9
330
22
100
AcDbEntity
  8
0
  6
Continuous
 62
     7
100
AcDbCircle
 10
59.2495793477
 20
154.420395777
 30
0.0
 40
7.75
100
AcDbArc
 50
55.4146209152
 51
64.5853790848
  0
ARC
  5
2DA
330
22
100
AcDbEntity
  8
0
  6
Continuous
 62
     7
100
AcDbCircle
 10
59.2495793477
 20
154.420395777
 30
0.0
 40
7.003589838499999
100
AcDbArc
 50
211.8345657666
 51
268.1654342334
  0
ARC
  5
2DB
330
22
100
AcDbEntity
  8
0
  6
Continuous
 62
     7
100
AcDbCircle
 10
59.2495793477
 20
154.420395777
 30
0.0
 40
7.003589838499999
100
AcDbArc
 50
271.8345657666
 51
328.1654342334
  0
CIRCLE
  5
2DC
330
22
100
AcDbEntity
  8
0
  6
Continuous
 62
     7
100
AcDbCircle
 10
59.2495793477
 20
154.420395777
 30
0.0
 40
6.25
  0
ARC
  5
2DD
330
22
100
AcDbEntity
  8
0
  6
Continuous
 62
     7
100
AcDbCircle
 10
59.2495793477
 20
154.420395777
 30
0.0
 40
7.003589838499999
100
AcDbArc
 50
331.8345657666
 51
28.1654342334
  0
ARC
  5
2DE
330
22
100
AcDbEntity
  8
0
  6
Continuous
 62
     7
100
AcDbCircle
 10
59.2495793477
 20
154.420395777
 30
0.0
 40
7.003589838499999
100
AcDbArc
 50
31.8345657666
 51
88.1654342334
  0
ARC
  5
2DF
330
22
100
AcDbEntity
  8
0
  6
Continuous
 62
     7
100
AcDbCircle
 10
59.2495793477
 20
154.420395777
 30
0.0
 40
7.003589838499999
100
AcDbArc
 50
151.8345657666
 51
208.1654342334
  0
ARC
  5
2E0
330
22
100
AcDbEntity
  8
0
  6
Continuous
 62
     7
100
AcDbCircle
 10
59.2495793477
 20
154.420395777
 30
0.0
 40
7.003589838499999
100
AcDbArc
 50
91.83456576659999
 51
148.1654342334
  0
ARC
  5
2E1
330
22
100
AcDbEntity
  8
0
  6
Continuous
 62
     7
100
AcDbCircle
 10
81.2495793477
 20
154.420395777
 30
0.0
 40
7.75
100
AcDbArc
 50
295.4146209152
 51
304.5853790848
  0
ARC
  5
2E2
330
22
100
AcDbEntity
  8
0
  6
Continuous
 62
     7
100
AcDbCircle
 10
81.2495793477
 20
154.420395777
 30
0.0
 40
7.75
100
AcDbArc
 50
235.4146209152
 51
244.5853790848
  0
ARC
  5
2E3
330
22
100
AcDbEntity
  8
0
  6
Continuous
 62
     7
100
AcDbCircle
 10
81.2495793477
 20
154.420395777
 30
0.0
 40
7.75
100
AcDbArc
 50
175.4146209152
 51
184.5853790848
  0
CIRCLE
  5
2E4
330
22
100
AcDbEntity
  8
0
  6
Continuous
 62
     7
100
AcDbCircle
 10
81.2495793477
 20
154.420395777
 30
0.0
 40
5.5
  0
CIRCLE
  5
2E5
330
22
100
AcDbEntity
  8
0
  6
Continuous
 62
     7
100
AcDbCircle
 10
81.2495793477
 20
154.420395777
 30
0.0
 40
6.75
  0
ARC
  5
2E6
330
22
100
AcDbEntity
  8
0
  6
Continuous
 62
     7
100
AcDbCircle
 10
81.2495793477
 20
154.420395777
 30
0.0
 40
7.75
100
AcDbArc
 50
115.4146209152
 51
124.5853790848
  0
ARC
  5
2E7
330
22
100
AcDbEntity
  8
0
  6
Continuous
 62
     7
100
AcDbCircle
 10
81.2495793477
 20
154.420395777
 30
0.0
 40
7.75
100
AcDbArc
 50
355.4146209152
 51
4.5853790848
  0
ARC
  5
2E8
330
22
100
AcDbEntity
  8
0
  6
Continuous
 62
     7
100
AcDbCircle
 10
81.2495793477
 20
154.420395777
 30
0.0
 40
7.75
100
AcDbArc
 50
55.4146209152
 51
64.5853790848
  0
ARC
  5
2E9
330
22
100
AcDbEntity
  8
0
  6
Continuous
 62
     7
100
AcDbCircle
 10
81.2495793477
 20
154.420395777
 30
0.0
 40
7.003589838499999
100
AcDbArc
 50
211.8345657666
 51
268.1654342334
  0
ARC
  5
2EA
330
22
100
AcDbEntity
  8
0
  6
Continuous
 62
     7
100
AcDbCircle
 10
81.2495793477
 20
154.420395777
 30
0.0
 40
7.003589838499999
100
AcDbArc
 50
271.8345657666
 51
328.1654342334
  0
CIRCLE
  5
2EB
330
22
100
AcDbEntity
  8
0
  6
Continuous
 62
     7
100
AcDbCircle
 10
81.2495793477
 20
154.420395777
 30
0.0
 40
6.25
  0
ARC
  5
2EC
330
22
100
AcDbEntity
  8
0
  6
Continuous
 62
     7
100
AcDbCircle
 10
81.2495793477
 20
154.420395777
 30
0.0
 40
7.003589838499999
100
AcDbArc
 50
331.8345657666
 51
28.1654342334
  0
ARC
  5
2ED
330
22
100
AcDbEntity
  8
0
  6
Continuous
 62
     7
100
AcDbCircle
 10
81.2495793477
 20
154.420395777
 30
0.0
 40
7.003589838499999
100
AcDbArc
 50
31.8345657666
 51
88.1654342334
  0
ARC
  5
2EE
330
22
100
AcDbEntity
  8
0
  6
Continuous
 62
     7
100
AcDbCircle
 10
81.2495793477
 20
154.420395777
 30
0.0
 40
7.003589838499999
100
AcDbArc
 50
151.8345657666
 51
208.1654342334
  0
ARC
  5
2EF
330
22
100
AcDbEntity
  8
0
  6
Continuous
 62
     7
100
AcDbCircle
 10
81.2495793477
 20
154.420395777
 30
0.0
 40
7.003589838499999
100
AcDbArc
 50
91.83456576659999
 51
148.1654342334
  0
ARC
  5
2F0
330
22
100
AcDbEntity
  8
0
  6
Continuous
 62
     7
100
AcDbCircle
 10
103.2495793477
 20
154.420395777
 30
0.0
 40
7.75
100
AcDbArc
 50
295.4146209152
 51
304.5853790848
  0
ARC
  5
2F1
330
22
100
AcDbEntity
  8
0
  6
Continuous
 62
     7
100
AcDbCircle
 10
103.2495793477
 20
154.420395777
 30
0.0
 40
7.75
100
AcDbArc
 50
235.4146209152
 51
244.5853790848
  0
ARC
  5
2F2
330
22
100
AcDbEntity
  8
0
  6
Continuous
 62
     7
100
AcDbCircle
 10
103.2495793477
 20
154.420395777
 30
0.0
 40
7.75
100
AcDbArc
 50
175.4146209152
 51
184.5853790848
  0
CIRCLE
  5
2F3
330
22
100
AcDbEntity
  8
0
  6
Continuous
 62
     7
100
AcDbCircle
 10
103.2495793477
 20
154.420395777
 30
0.0
 40
5.5
  0
CIRCLE
  5
2F4
330
22
100
AcDbEntity
  8
0
  6
Continuous
 62
     7
100
AcDbCircle
 10
103.2495793477
 20
154.420395777
 30
0.0
 40
6.75
  0
ARC
  5
2F5
330
22
100
AcDbEntity
  8
0
  6
Continuous
 62
     7
100
AcDbCircle
 10
103.2495793477
 20
154.420395777
 30
0.0
 40
7.75
100
AcDbArc
 50
115.4146209152
 51
124.5853790848
  0
ARC
  5
2F6
330
22
100
AcDbEntity
  8
0
  6
Continuous
 62
     7
100
AcDbCircle
 10
103.2495793477
 20
154.420395777
 30
0.0
 40
7.75
100
AcDbArc
 50
355.4146209152
 51
4.5853790848
  0
ARC
  5
2F7
330
22
100
AcDbEntity
  8
0
  6
Continuous
 62
     7
100
AcDbCircle
 10
103.2495793477
 20
154.420395777
 30
0.0
 40
7.75
100
AcDbArc
 50
55.4146209152
 51
64.5853790848
  0
ARC
  5
2F8
330
22
100
AcDbEntity
  8
0
  6
Continuous
 62
     7
100
AcDbCircle
 10
103.2495793477
 20
154.420395777
 30
0.0
 40
7.003589838499999
100
AcDbArc
 50
211.8345657666
 51
268.1654342334
  0
ARC
  5
2F9
330
22
100
AcDbEntity
  8
0
  6
Continuous
 62
     7
100
AcDbCircle
 10
103.2495793477
 20
154.420395777
 30
0.0
 40
7.003589838499999
100
AcDbArc
 50
271.8345657666
 51
328.1654342334
  0
CIRCLE
  5
2FA
330
22
100
AcDbEntity
  8
0
  6
Continuous
 62
     7
100
AcDbCircle
 10
103.2495793477
 20
154.420395777
 30
0.0
 40
6.25
  0
ARC
  5
2FB
330
22
100
AcDbEntity
  8
0
  6
Continuous
 62
     7
100
AcDbCircle
 10
103.2495793477
 20
154.420395777
 30
0.0
 40
7.003589838499999
100
AcDbArc
 50
331.8345657666
 51
28.1654342334
  0
ARC
  5
2FC
330
22
100
AcDbEntity
  8
0
  6
Continuous
 62
     7
100
AcDbCircle
 10
103.2495793477
 20
154.420395777
 30
0.0
 40
7.003589838499999
100
AcDbArc
 50
31.8345657666
 51
88.1654342334
  0
ARC
  5
2FD
330
22
100
AcDbEntity
  8
0
  6
Continuous
 62
     7
100
AcDbCircle
 10
103.2495793477
 20
154.420395777
 30
0.0
 40
7.003589838499999
100
AcDbArc
 50
151.8345657666
 51
208.1654342334
  0
ARC
  5
2FE
330
22
100
AcDbEntity
  8
0
  6
Continuous
 62
     7
100
AcDbCircle
 10
103.2495793477
 20
154.420395777
 30
0.0
 40
7.003589838499999
100
AcDbArc
 50
91.83456576659999
 51
148.1654342334
  0
CIRCLE
  5
2FF
330
22
100
AcDbEntity
  8
0
  6
Continuous
 62
     7
100
AcDbCircle
 10
103.2495793477
 20
154.420395777
 30
0.0
 40
4.049999999999999
  0
CIRCLE
  5
300
330
22
100
AcDbEntity
  8
0
  6
Continuous
 62
     7
100
AcDbCircle
 10
103.2495793477
 20
154.420395777
 30
0.0
 40
5.0
  0
ARC
  5
301
330
22
100
AcDbEntity
  8
0
  6
Continuous
 62
     7
100
AcDbCircle
 10
103.2495793477
 20
154.420395777
 30
0.0
 40
5.45
100
AcDbArc
 50
290.3538290724
 51
165.6461709274
  0
CIRCLE
  5
302
330
22
100
AcDbEntity
  8
0
  6
Continuous
 62
     7
100
AcDbCircle
 10
59.2495793477
 20
154.420395777
 30
0.0
 40
4.049999999999999
  0
CIRCLE
  5
303
330
22
100
AcDbEntity
  8
0
  6
Continuous
 62
     7
100
AcDbCircle
 10
59.2495793477
 20
154.420395777
 30
0.0
 40
5.0
  0
ARC
  5
304
330
22
100
AcDbEntity
  8
0
  6
Continuous
 62
     7
100
AcDbCircle
 10
59.2495793477
 20
154.420395777
 30
0.0
 40
5.45
100
AcDbArc
 50
290.3538290724
 51
165.6461709274
  0
CIRCLE
  5
305
330
22
100
AcDbEntity
  8
0
  6
Continuous
 62
     7
100
AcDbCircle
 10
81.2495793477
 20
154.420395777
 30
0.0
 40
4.049999999999999
  0
CIRCLE
  5
306
330
22
100
AcDbEntity
  8
0
  6
Continuous
 62
     7
100
AcDbCircle
 10
81.2495793477
 20
154.420395777
 30
0.0
 40
5.0
  0
ARC
  5
307
330
22
100
AcDbEntity
  8
0
  6
Continuous
 62
     7
100
AcDbCircle
 10
81.2495793477
 20
154.420395777
 30
0.0
 40
5.45
100
AcDbArc
 50
290.3538290724
 51
165.6461709274
  0
CIRCLE
  5
308
330
22
100
AcDbEntity
  8
0
  6
Continuous
 62
     7
100
AcDbCircle
 10
125.2495793477
 20
154.420395777
 30
0.0
 40
4.849999999999999
  0
ARC
  5
309
330
22
100
AcDbEntity
  8
0
  6
Continuous
 62
     7
100
AcDbCircle
 10
125.2495793477
 20
154.420395777
 30
0.0
 40
5.4
100
AcDbArc
 50
161.6980392035
 51
246.3019608006
  0
ARC
  5
30A
330
22
100
AcDbEntity
  8
0
  6
Continuous
 62
     7
100
AcDbCircle
 10
125.2495793477
 20
154.420395777
 30
0.0
 40
6.0
100
AcDbArc
 50
182.4368003656
 51
180.9903810567
  0
CIRCLE
  5
30B
330
22
100
AcDbEntity
  8
0
  6
Continuous
 62
     7
100
AcDbCircle
 10
125.2495793477
 20
154.420395777
 30
0.0
 40
5.25
  0
ARC
  5
30C
330
22
100
AcDbEntity
  8
0
  6
Continuous
 62
     7
100
AcDbCircle
 10
166.1495793477
 20
153.620395777
 30
0.0
 40
0.1
100
AcDbArc
 50
0.0
 51
90.0
  0
ARC
  5
30D
330
22
100
AcDbEntity
  8
0
  6
Continuous
 62
     7
100
AcDbCircle
 10
166.1495793477
 20
145.820395777
 30
0.0
 40
0.1
100
AcDbArc
 50
270.0
 51
0.0
  0
CIRCLE
  5
30E
330
22
100
AcDbEntity
  8
0
  6
Continuous
 62
     7
100
AcDbCircle
 10
125.2495793477
 20
154.420395777
 30
0.0
 40
4.15
  0
CIRCLE
  5
30F
330
22
100
AcDbEntity
  8
0
  6
Continuous
 62
     7
100
AcDbCircle
 10
125.2495793477
 20
154.420395777
 30
0.0
 40
4.75
  0
CIRCLE
  5
310
330
22
100
AcDbEntity
  8
0
  6
Continuous
 62
     7
100
AcDbCircle
 10
123.4895793477
 20
152.660395777
 30
0.0
 40
0.5
  0
CIRCLE
  5
311
330
22
100
AcDbEntity
  8
0
  6
Continuous
 62
     7
100
AcDbCircle
 10
127.0095793477
 20
152.660395777
 30
0.0
 40
0.5
  0
CIRCLE
  5
312
330
22
100
AcDbEntity
  8
0
  6
Continuous
 62
     7
100
AcDbCircle
 10
127.0095793477
 20
156.180395777
 30
0.0
 40
0.5
  0
CIRCLE
  5
313
330
22
100
AcDbEntity
  8
0
  6
Continuous
 62
     7
100
AcDbCircle
 10
123.4895793477
 20
156.180395777
 30
0.0
 40
0.5
  0
ARC
  5
314
330
22
100
AcDbEntity
  8
0
  6
Continuous
 62
     7
100
AcDbCircle
 10
125.2495793477
 20
157.970395777
 30
0.0
 40
0.6
100
AcDbArc
 50
180.0
 51
0.0
  0
CIRCLE
  5
315
330
22
100
AcDbEntity
  8
0
  6
Continuous
 62
     9
100
AcDbCircle
 10
125.2495793477
 20
154.420395777
 30
0.0
 40
4.3499999472
  0
ARC
  5
316
330
22
100
AcDbEntity
  8
0
  6
Continuous
 62
     9
100
AcDbCircle
 10
125.2495793477
 20
157.970395777
 30
0.0
 40
0.3999980385
100
AcDbArc
 50
180.0
 51
0.0
  0
ARC
  5
317
330
22
100
AcDbEntity
  8
0
  6
Continuous
 62
     7
100
AcDbCircle
 10
103.2495793477
 20
154.420395777
 30
0.0
 40
3.6
100
AcDbArc
 50
264.2608295227
 51
275.7391704773
  0
ARC
  5
318
330
22
100
AcDbEntity
  8
0
  6
Continuous
 62
     7
100
AcDbCircle
 10
103.2495793477
 20
154.420395777
 30
0.0
 40
3.6
100
AcDbArc
 50
81.21206267739999
 51
83.8806470459
  0
ARC
  5
319
330
22
100
AcDbEntity
  8
0
  6
Continuous
 62
     7
100
AcDbCircle
 10
103.2495793477
 20
154.420395777
 30
0.0
 40
3.6
100
AcDbArc
 50
96.11935295410001
 51
98.7879373226
  0
ARC
  5
31A
330
22
100
AcDbEntity
  8
0
  6
Continuous
 62
     7
100
AcDbCircle
 10
103.2495793477
 20
154.420395777
 30
0.0
 40
3.6
100
AcDbArc
 50
174.2608295227
 51
185.7391704773
  0
ARC
  5
31B
330
22
100
AcDbEntity
  8
0
  6
Continuous
 62
     7
100
AcDbCircle
 10
99.76712331780001
 20
154.770395777
 30
0.0
 40
0.1
100
AcDbArc
 50
90.0
 51
174.2608295227
  0
ARC
  5
31C
330
22
100
AcDbEntity
  8
0
  6
Continuous
 62
     7
100
AcDbCircle
 10
99.76712331780001
 20
154.070395777
 30
0.0
 40
0.1
100
AcDbArc
 50
185.7391704773
 51
270.0
  0
ARC
  5
31D
330
22
100
AcDbEntity
  8
0
  6
Continuous
 62
     7
100
AcDbCircle
 10
102.8995793477
 20
150.9379397471
 30
0.0
 40
0.1
100
AcDbArc
 50
180.0
 51
264.2608295227
  0
ARC
  5
31E
330
22
100
AcDbEntity
  8
0
  6
Continuous
 62
     7
100
AcDbCircle
 10
103.5995793477
 20
150.9379397471
 30
0.0
 40
0.1
100
AcDbArc
 50
275.7391704773
 51
0.0
  0
ARC
  5
31F
330
22
100
AcDbEntity
  8
0
  6
Continuous
 62
     7
100
AcDbCircle
 10
103.2495793477
 20
154.420395777
 30
0.0
 40
3.6
100
AcDbArc
 50
354.2608295227
 51
5.7391704773
  0
ARC
  5
320
330
22
100
AcDbEntity
  8
0
  6
Continuous
 62
     7
100
AcDbCircle
 10
106.7320353775
 20
154.070395777
 30
0.0
 40
0.1
100
AcDbArc
 50
270.0
 51
354.2608295227
  0
ARC
  5
321
330
22
100
AcDbEntity
  8
0
  6
Continuous
 62
     7
100
AcDbCircle
 10
106.7320353775
 20
154.770395777
 30
0.0
 40
0.1
100
AcDbArc
 50
5.7391704773
 51
90.0
  0
ARC
  5
322
330
22
100
AcDbEntity
  8
0
  6
Continuous
 62
     7
100
AcDbCircle
 10
104.6995793477
 20
155.870395777
 30
0.0
 40
1.0
100
AcDbArc
 50
180.0
 51
270.0
  0
ARC
  5
323
330
22
100
AcDbEntity
  8
0
  6
Continuous
 62
     7
100
AcDbCircle
 10
104.6995793477
 20
152.970395777
 30
0.0
 40
1.0
100
AcDbArc
 50
90.0
 51
180.0
  0
ARC
  5
324
330
22
100
AcDbEntity
  8
0
  6
Continuous
 62
     7
100
AcDbCircle
 10
101.7995793477
 20
155.870395777
 30
0.0
 40
1.0
100
AcDbArc
 50
270.0
 51
0.0
  0
ARC
  5
325
330
22
100
AcDbEntity
  8
0
  6
Continuous
 62
     7
100
AcDbCircle
 10
101.7995793477
 20
152.970395777
 30
0.0
 40
1.0
100
AcDbArc
 50
0.0
 51
90.0
  0
ARC
  5
326
330
22
100
AcDbEntity
  8
0
  6
Continuous
 62
     7
100
AcDbCircle
 10
102.6673318375
 20
158.1755239821
 30
0.0
 40
0.1
100
AcDbArc
 50
13.9723129655
 51
98.81375227959999
  0
ARC
  5
327
330
22
100
AcDbEntity
  8
0
  6
Continuous
 62
     7
100
AcDbCircle
 10
103.8318268578
 20
158.1755239821
 30
0.0
 40
0.1
100
AcDbArc
 50
81.18624772030001
 51
166.0276870345
  0
ARC
  5
328
330
22
100
AcDbEntity
  8
0
  6
Continuous
 62
     7
100
AcDbCircle
 10
103.2495793477
 20
158.320395777
 30
0.0
 40
0.5
100
AcDbArc
 50
193.9723129655
 51
346.0276870345
  0
CIRCLE
  5
329
330
22
100
AcDbEntity
  8
0
  6
Continuous
 62
     7
100
AcDbCircle
 10
103.2495793477
 20
154.420395777
 30
0.0
 40
0.55
  0
CIRCLE
  5
32A
330
22
100
AcDbEntity
  8
0
  6
Continuous
 62
     7
100
AcDbCircle
 10
105.3001890131
 20
156.4710054424
 30
0.0
 40
0.55
  0
CIRCLE
  5
32B
330
22
100
AcDbEntity
  8
0
  6
Continuous
 62
     7
100
AcDbCircle
 10
101.1989696822
 20
156.4710054424
 30
0.0
 40
0.55
  0
CIRCLE
  5
32C
330
22
100
AcDbEntity
  8
0
  6
Continuous
 62
     7
100
AcDbCircle
 10
105.3001890131
 20
152.3697861115
 30
0.0
 40
0.55
  0
CIRCLE
  5
32D
330
22
100
AcDbEntity
  8
0
  6
Continuous
 62
     7
100
AcDbCircle
 10
101.1989696822
 20
152.3697861115
 30
0.0
 40
0.55
  0
ARC
  5
32E
330
22
100
AcDbEntity
  8
0
  6
Continuous
 62
     7
100
AcDbCircle
 10
103.2495793477
 20
154.420395777
 30
0.0
 40
3.9
100
AcDbArc
 50
98.8137522797
 51
81.18624772030001
  0
ARC
  5
32F
330
22
100
AcDbEntity
  8
0
  6
Continuous
 62
     9
100
AcDbCircle
 10
103.2495793477
 20
154.420395777
 30
0.0
 40
3.7
100
AcDbArc
 50
174.2497896165
 51
185.740377509
  0
ARC
  5
330
330
22
100
AcDbEntity
  8
0
  6
Continuous
 62
     9
100
AcDbCircle
 10
99.76712331780001
 20
154.070395777
 30
0.0
 40
0.2
100
AcDbArc
 50
185.7615012581999
 51
270.0
  0
ARC
  5
331
330
22
100
AcDbEntity
  8
0
  6
Continuous
 62
     9
100
AcDbCircle
 10
101.7995793477
 20
152.970395777
 30
0.0
 40
0.8999998095
100
AcDbArc
 50
0.0
 51
90.0
  0
ARC
  5
332
330
22
100
AcDbEntity
  8
0
  6
Continuous
 62
     9
100
AcDbCircle
 10
102.8995793477
 20
150.9379397471
 30
0.0
 40
0.2
100
AcDbArc
 50
180.0
 51
264.0565316854
  0
ARC
  5
333
330
22
100
AcDbEntity
  8
0
  6
Continuous
 62
     9
100
AcDbCircle
 10
103.2495793477
 20
154.420395777
 30
0.0
 40
3.7
100
AcDbArc
 50
264.2497896165
 51
275.7403775090001
  0
ARC
  5
334
330
22
100
AcDbEntity
  8
0
  6
Continuous
 62
     9
100
AcDbCircle
 10
103.5995793477
 20
150.9379397471
 30
0.0
 40
0.2
100
AcDbArc
 50
275.7615012582
 51
0.0
  0
ARC
  5
335
330
22
100
AcDbEntity
  8
0
  6
Continuous
 62
     9
100
AcDbCircle
 10
104.6995793477
 20
152.970395777
 30
0.0
 40
0.8999998431999999
100
AcDbArc
 50
90.0
 51
180.0
  0
ARC
  5
336
330
22
100
AcDbEntity
  8
0
  6
Continuous
 62
     9
100
AcDbCircle
 10
103.2495793477
 20
158.320395777
 30
0.0
 40
0.6
100
AcDbArc
 50
221.4097133327
 51
318.5906225159
  0
ARC
  5
337
330
22
100
AcDbEntity
  8
0
  6
Continuous
 62
     9
100
AcDbCircle
 10
106.7320353775
 20
154.070395777
 30
0.0
 40
0.2
100
AcDbArc
 50
270.0
 51
354.2387918401
  0
CIRCLE
  5
338
330
22
100
AcDbEntity
  8
0
  6
Continuous
 62
     9
100
AcDbCircle
 10
103.2495793477
 20
154.420395777
 30
0.0
 40
0.6499966187
  0
ARC
  5
339
330
22
100
AcDbEntity
  8
0
  6
Continuous
 62
     9
100
AcDbCircle
 10
103.2495793477
 20
154.420395777
 30
0.0
 40
3.7
100
AcDbArc
 50
354.2596383346
 51
5.750613969399999
  0
ARC
  5
33A
330
22
100
AcDbEntity
  8
0
  6
Continuous
 62
     9
100
AcDbCircle
 10
106.7320353775
 20
154.770395777
 30
0.0
 40
0.2
100
AcDbArc
 50
5.950936656699999
 51
90.0
  0
ARC
  5
33B
330
22
100
AcDbEntity
  8
0
  6
Continuous
 62
     9
100
AcDbCircle
 10
104.6995793477
 20
155.870395777
 30
0.0
 40
0.8999998095
100
AcDbArc
 50
180.0
 51
270.0
  0
ARC
  5
33C
330
22
100
AcDbEntity
  8
0
  6
Continuous
 62
     9
100
AcDbCircle
 10
101.7995793477
 20
155.870395777
 30
0.0
 40
0.8999998431999999
100
AcDbArc
 50
270.0
 51
0.0
  0
CIRCLE
  5
33D
330
22
100
AcDbEntity
  8
0
  6
Continuous
 62
     9
100
AcDbCircle
 10
105.3001890131
 20
156.4710054424
 30
0.0
 40
0.6499966187
  0
CIRCLE
  5
33E
330
22
100
AcDbEntity
  8
0
  6
Continuous
 62
     9
100
AcDbCircle
 10
105.3001890131
 20
152.3697861115
 30
0.0
 40
0.6499966187
  0
CIRCLE
  5
33F
330
22
100
AcDbEntity
  8
0
  6
Continuous
 62
     9
100
AcDbCircle
 10
101.1989696822
 20
156.4710054424
 30
0.0
 40
0.6499966187
  0
CIRCLE
  5
340
330
22
100
AcDbEntity
  8
0
  6
Continuous
 62
     9
100
AcDbCircle
 10
101.1989696822
 20
152.3697861115
 30
0.0
 40
0.6499966187
  0
ARC
  5
341
330
22
100
AcDbEntity
  8
0
  6
Continuous
 62
     9
100
AcDbCircle
 10
99.76712331780001
 20
154.770395777
 30
0.0
 40
0.2
100
AcDbArc
 50
90.0
 51
174.0565316854
  0
ARC
  5
342
330
22
100
AcDbEntity
  8
0
  6
Continuous
 62
     9
100
AcDbCircle
 10
103.2495793477
 20
154.420395777
 30
0.0
 40
3.799999999999999
100
AcDbArc
 50
97.2959883494
 51
82.7040280381
  0
ARC
  5
343
330
22
100
AcDbEntity
  8
0
  6
Continuous
 62
     7
100
AcDbCircle
 10
59.2495793477
 20
154.420395777
 30
0.0
 40
3.6
100
AcDbArc
 50
264.2608295227
 51
275.7391704773
  0
ARC
  5
344
330
22
100
AcDbEntity
  8
0
  6
Continuous
 62
     7
100
AcDbCircle
 10
59.2495793477
 20
154.420395777
 30
0.0
 40
3.6
100
AcDbArc
 50
81.21206267739999
 51
83.8806470459
  0
ARC
  5
345
330
22
100
AcDbEntity
  8
0
  6
Continuous
 62
     7
100
AcDbCircle
 10
59.2495793477
 20
154.420395777
 30
0.0
 40
3.6
100
AcDbArc
 50
96.11935295410001
 51
98.7879373226
  0
ARC
  5
346
330
22
100
AcDbEntity
  8
0
  6
Continuous
 62
     7
100
AcDbCircle
 10
59.2495793477
 20
154.420395777
 30
0.0
 40
3.6
100
AcDbArc
 50
174.2608295227
 51
185.7391704773
  0
ARC
  5
347
330
22
100
AcDbEntity
  8
0
  6
Continuous
 62
     7
100
AcDbCircle
 10
55.7671233178
 20
154.770395777
 30
0.0
 40
0.1
100
AcDbArc
 50
90.0
 51
174.2608295227
  0
ARC
  5
348
330
22
100
AcDbEntity
  8
0
  6
Continuous
 62
     7
100
AcDbCircle
 10
55.7671233178
 20
154.070395777
 30
0.0
 40
0.1
100
AcDbArc
 50
185.7391704773
 51
270.0
  0
ARC
  5
349
330
22
100
AcDbEntity
  8
0
  6
Continuous
 62
     7
100
AcDbCircle
 10
58.8995793477
 20
150.9379397471
 30
0.0
 40
0.1
100
AcDbArc
 50
180.0
 51
264.2608295227
  0
ARC
  5
34A
330
22
100
AcDbEntity
  8
0
  6
Continuous
 62
     7
100
AcDbCircle
 10
59.59957934770001
 20
150.9379397471
 30
0.0
 40
0.1
100
AcDbArc
 50
275.7391704773
 51
0.0
  0
ARC
  5
34B
330
22
100
AcDbEntity
  8
0
  6
Continuous
 62
     7
100
AcDbCircle
 10
59.2495793477
 20
154.420395777
 30
0.0
 40
3.6
100
AcDbArc
 50
354.2608295227
 51
5.7391704773
  0
ARC
  5
34C
330
22
100
AcDbEntity
  8
0
  6
Continuous
 62
     7
100
AcDbCircle
 10
62.73203537749999
 20
154.070395777
 30
0.0
 40
0.1
100
AcDbArc
 50
270.0
 51
354.2608295227
  0
ARC
  5
34D
330
22
100
AcDbEntity
  8
0
  6
Continuous
 62
     7
100
AcDbCircle
 10
62.73203537749999
 20
154.770395777
 30
0.0
 40
0.1
100
AcDbArc
 50
5.7391704773
 51
90.0
  0
ARC
  5
34E
330
22
100
AcDbEntity
  8
0
  6
Continuous
 62
     7
100
AcDbCircle
 10
60.6995793477
 20
155.870395777
 30
0.0
 40
1.0
100
AcDbArc
 50
180.0
 51
270.0
  0
ARC
  5
34F
330
22
100
AcDbEntity
  8
0
  6
Continuous
 62
     7
100
AcDbCircle
 10
60.6995793477
 20
152.970395777
 30
0.0
 40
1.0
100
AcDbArc
 50
90.0
 51
180.0
  0
ARC
  5
350
330
22
100
AcDbEntity
  8
0
  6
Continuous
 62
     7
100
AcDbCircle
 10
57.7995793477
 20
155.870395777
 30
0.0
 40
1.0
100
AcDbArc
 50
270.0
 51
0.0
  0
ARC
  5
351
330
22
100
AcDbEntity
  8
0
  6
Continuous
 62
     7
100
AcDbCircle
 10
57.7995793477
 20
152.970395777
 30
0.0
 40
1.0
100
AcDbArc
 50
0.0
 51
90.0
  0
ARC
  5
352
330
22
100
AcDbEntity
  8
0
  6
Continuous
 62
     7
100
AcDbCircle
 10
58.6673318375
 20
158.1755239821
 30
0.0
 40
0.1
100
AcDbArc
 50
13.9723129655
 51
98.81375227959999
  0
ARC
  5
353
330
22
100
AcDbEntity
  8
0
  6
Continuous
 62
     7
100
AcDbCircle
 10
59.8318268578
 20
158.1755239821
 30
0.0
 40
0.1
100
AcDbArc
 50
81.18624772030001
 51
166.0276870345
  0
ARC
  5
354
330
22
100
AcDbEntity
  8
0
  6
Continuous
 62
     7
100
AcDbCircle
 10
59.2495793477
 20
158.320395777
 30
0.0
 40
0.5
100
AcDbArc
 50
193.9723129655
 51
346.0276870345
  0
CIRCLE
  5
355
330
22
100
AcDbEntity
  8
0
  6
Continuous
 62
     7
100
AcDbCircle
 10
59.2495793477
 20
154.420395777
 30
0.0
 40
0.55
  0
CIRCLE
  5
356
330
22
100
AcDbEntity
  8
0
  6
Continuous
 62
     7
100
AcDbCircle
 10
61.3001890131
 20
156.4710054424
 30
0.0
 40
0.55
  0
CIRCLE
  5
357
330
22
100
AcDbEntity
  8
0
  6
Continuous
 62
     7
100
AcDbCircle
 10
57.1989696822
 20
156.4710054424
 30
0.0
 40
0.55
  0
CIRCLE
  5
358
330
22
100
AcDbEntity
  8
0
  6
Continuous
 62
     7
100
AcDbCircle
 10
61.3001890131
 20
152.3697861115
 30
0.0
 40
0.55
  0
CIRCLE
  5
359
330
22
100
AcDbEntity
  8
0
  6
Continuous
 62
     7
100
AcDbCircle
 10
57.1989696822
 20
152.3697861115
 30
0.0
 40
0.55
  0
ARC
  5
35A
330
22
100
AcDbEntity
  8
0
  6
Continuous
 62
     7
100
AcDbCircle
 10
59.2495793477
 20
154.420395777
 30
0.0
 40
3.9
100
AcDbArc
 50
98.8137522797
 51
81.18624772030001
  0
ARC
  5
35B
330
22
100
AcDbEntity
  8
0
  6
Continuous
 62
     9
100
AcDbCircle
 10
59.2495793477
 20
154.420395777
 30
0.0
 40
3.7
100
AcDbArc
 50
174.2497896165
 51
185.740377509
  0
ARC
  5
35C
330
22
100
AcDbEntity
  8
0
  6
Continuous
 62
     9
100
AcDbCircle
 10
55.7671233178
 20
154.070395777
 30
0.0
 40
0.2
100
AcDbArc
 50
185.7615012581999
 51
270.0
  0
ARC
  5
35D
330
22
100
AcDbEntity
  8
0
  6
Continuous
 62
     9
100
AcDbCircle
 10
57.7995793477
 20
152.970395777
 30
0.0
 40
0.8999998095
100
AcDbArc
 50
0.0
 51
90.0
  0
ARC
  5
35E
330
22
100
AcDbEntity
  8
0
  6
Continuous
 62
     9
100
AcDbCircle
 10
58.8995793477
 20
150.9379397471
 30
0.0
 40
0.2
100
AcDbArc
 50
180.0
 51
264.0565316854
  0
ARC
  5
35F
330
22
100
AcDbEntity
  8
0
  6
Continuous
 62
     9
100
AcDbCircle
 10
59.2495793477
 20
154.420395777
 30
0.0
 40
3.7
100
AcDbArc
 50
264.2497896165
 51
275.7403775090001
  0
ARC
  5
360
330
22
100
AcDbEntity
  8
0
  6
Continuous
 62
     9
100
AcDbCircle
 10
59.59957934770001
 20
150.9379397471
 30
0.0
 40
0.2
100
AcDbArc
 50
275.7615012582
 51
0.0
  0
ARC
  5
361
330
22
100
AcDbEntity
  8
0
  6
Continuous
 62
     9
100
AcDbCircle
 10
60.6995793477
 20
152.970395777
 30
0.0
 40
0.8999998431999999
100
AcDbArc
 50
90.0
 51
180.0
  0
ARC
  5
362
330
22
100
AcDbEntity
  8
0
  6
Continuous
 62
     9
100
AcDbCircle
 10
59.2495793477
 20
158.320395777
 30
0.0
 40
0.6
100
AcDbArc
 50
221.4097133327
 51
318.5906225159
  0
ARC
  5
363
330
22
100
AcDbEntity
  8
0
  6
Continuous
 62
     9
100
AcDbCircle
 10
62.73203537749999
 20
154.070395777
 30
0.0
 40
0.2
100
AcDbArc
 50
270.0
 51
354.2387918401
  0
CIRCLE
  5
364
330
22
100
AcDbEntity
  8
0
  6
Continuous
 62
     9
100
AcDbCircle
 10
59.2495793477
 20
154.420395777
 30
0.0
 40
0.6499966187
  0
ARC
  5
365
330
22
100
AcDbEntity
  8
0
  6
Continuous
 62
     9
100
AcDbCircle
 10
59.2495793477
 20
154.420395777
 30
0.0
 40
3.7
100
AcDbArc
 50
354.2596383346
 51
5.750613969399999
  0
ARC
  5
366
330
22
100
AcDbEntity
  8
0
  6
Continuous
 62
     9
100
AcDbCircle
 10
62.73203537749999
 20
154.770395777
 30
0.0
 40
0.2
100
AcDbArc
 50
5.950936656699999
 51
90.0
  0
ARC
  5
367
330
22
100
AcDbEntity
  8
0
  6
Continuous
 62
     9
100
AcDbCircle
 10
60.6995793477
 20
155.870395777
 30
0.0
 40
0.8999998095
100
AcDbArc
 50
180.0
 51
270.0
  0
ARC
  5
368
330
22
100
AcDbEntity
  8
0
  6
Continuous
 62
     9
100
AcDbCircle
 10
57.7995793477
 20
155.870395777
 30
0.0
 40
0.8999998431999999
100
AcDbArc
 50
270.0
 51
0.0
  0
CIRCLE
  5
369
330
22
100
AcDbEntity
  8
0
  6
Continuous
 62
     9
100
AcDbCircle
 10
61.3001890131
 20
156.4710054424
 30
0.0
 40
0.6499966187
  0
CIRCLE
  5
36A
330
22
100
AcDbEntity
  8
0
  6
Continuous
 62
     9
100
AcDbCircle
 10
61.3001890131
 20
152.3697861115
 30
0.0
 40
0.6499966187
  0
CIRCLE
  5
36B
330
22
100
AcDbEntity
  8
0
  6
Continuous
 62
     9
100
AcDbCircle
 10
57.1989696822
 20
156.4710054424
 30
0.0
 40
0.6499966187
  0
CIRCLE
  5
36C
330
22
100
AcDbEntity
  8
0
  6
Continuous
 62
     9
100
AcDbCircle
 10
57.1989696822
 20
152.3697861115
 30
0.0
 40
0.6499966187
  0
ARC
  5
36D
330
22
100
AcDbEntity
  8
0
  6
Continuous
 62
     9
100
AcDbCircle
 10
55.7671233178
 20
154.770395777
 30
0.0
 40
0.2
100
AcDbArc
 50
90.0
 51
174.0565316854
  0
ARC
  5
36E
330
22
100
AcDbEntity
  8
0
  6
Continuous
 62
     9
100
AcDbCircle
 10
59.2495793477
 20
154.420395777
 30
0.0
 40
3.799999999999999
100
AcDbArc
 50
97.2959883494
 51
82.7040280381
  0
ARC
  5
36F
330
22
100
AcDbEntity
  8
0
  6
Continuous
 62
     7
100
AcDbCircle
 10
81.2495793477
 20
154.420395777
 30
0.0
 40
3.6
100
AcDbArc
 50
264.2608295227
 51
275.7391704773
  0
ARC
  5
370
330
22
100
AcDbEntity
  8
0
  6
Continuous
 62
     7
100
AcDbCircle
 10
81.2495793477
 20
154.420395777
 30
0.0
 40
3.6
100
AcDbArc
 50
81.21206267739999
 51
83.8806470459
  0
ARC
  5
371
330
22
100
AcDbEntity
  8
0
  6
Continuous
 62
     7
100
AcDbCircle
 10
81.2495793477
 20
154.420395777
 30
0.0
 40
3.6
100
AcDbArc
 50
96.11935295410001
 51
98.7879373226
  0
ARC
  5
372
330
22
100
AcDbEntity
  8
0
  6
Continuous
 62
     7
100
AcDbCircle
 10
81.2495793477
 20
154.420395777
 30
0.0
 40
3.6
100
AcDbArc
 50
174.2608295227
 51
185.7391704773
  0
ARC
  5
373
330
22
100
AcDbEntity
  8
0
  6
Continuous
 62
     7
100
AcDbCircle
 10
77.7671233178
 20
154.770395777
 30
0.0
 40
0.1
100
AcDbArc
 50
90.0
 51
174.2608295227
  0
ARC
  5
374
330
22
100
AcDbEntity
  8
0
  6
Continuous
 62
     7
100
AcDbCircle
 10
77.7671233178
 20
154.070395777
 30
0.0
 40
0.1
100
AcDbArc
 50
185.7391704773
 51
270.0
  0
ARC
  5
375
330
22
100
AcDbEntity
  8
0
  6
Continuous
 62
     7
100
AcDbCircle
 10
80.8995793477
 20
150.9379397471
 30
0.0
 40
0.1
100
AcDbArc
 50
180.0
 51
264.2608295227
  0
ARC
  5
376
330
22
100
AcDbEntity
  8
0
  6
Continuous
 62
     7
100
AcDbCircle
 10
81.5995793477
 20
150.9379397471
 30
0.0
 40
0.1
100
AcDbArc
 50
275.7391704773
 51
0.0
  0
ARC
  5
377
330
22
100
AcDbEntity
  8
0
  6
Continuous
 62
     7
100
AcDbCircle
 10
81.2495793477
 20
154.420395777
 30
0.0
 40
3.6
100
AcDbArc
 50
354.2608295227
 51
5.7391704773
  0
ARC
  5
378
330
22
100
AcDbEntity
  8
0
  6
Continuous
 62
     7
100
AcDbCircle
 10
84.7320353775
 20
154.070395777
 30
0.0
 40
0.1
100
AcDbArc
 50
270.0
 51
354.2608295227
  0
ARC
  5
379
330
22
100
AcDbEntity
  8
0
  6
Continuous
 62
     7
100
AcDbCircle
 10
84.7320353775
 20
154.770395777
 30
0.0
 40
0.1
100
AcDbArc
 50
5.7391704773
 51
90.0
  0
ARC
  5
37A
330
22
100
AcDbEntity
  8
0
  6
Continuous
 62
     7
100
AcDbCircle
 10
82.69957934770001
 20
155.870395777
 30
0.0
 40
1.0
100
AcDbArc
 50
180.0
 51
270.0
  0
ARC
  5
37B
330
22
100
AcDbEntity
  8
0
  6
Continuous
 62
     7
100
AcDbCircle
 10
82.69957934770001
 20
152.970395777
 30
0.0
 40
1.0
100
AcDbArc
 50
90.0
 51
180.0
  0
ARC
  5
37C
330
22
100
AcDbEntity
  8
0
  6
Continuous
 62
     7
100
AcDbCircle
 10
79.7995793477
 20
155.870395777
 30
0.0
 40
1.0
100
AcDbArc
 50
270.0
 51
0.0
  0
ARC
  5
37D
330
22
100
AcDbEntity
  8
0
  6
Continuous
 62
     7
100
AcDbCircle
 10
79.7995793477
 20
152.970395777
 30
0.0
 40
1.0
100
AcDbArc
 50
0.0
 51
90.0
  0
ARC
  5
37E
330
22
100
AcDbEntity
  8
0
  6
Continuous
 62
     7
100
AcDbCircle
 10
80.66733183750001
 20
158.1755239821
 30
0.0
 40
0.1
100
AcDbArc
 50
13.9723129655
 51
98.81375227959999
  0
ARC
  5
37F
330
22
100
AcDbEntity
  8
0
  6
Continuous
 62
     7
100
AcDbCircle
 10
81.8318268578
 20
158.1755239821
 30
0.0
 40
0.1
100
AcDbArc
 50
81.18624772030001
 51
166.0276870345
  0
ARC
  5
380
330
22
100
AcDbEntity
  8
0
  6
Continuous
 62
     7
100
AcDbCircle
 10
81.2495793477
 20
158.320395777
 30
0.0
 40
0.5
100
AcDbArc
 50
193.9723129655
 51
346.0276870345
  0
CIRCLE
  5
381
330
22
100
AcDbEntity
  8
0
  6
Continuous
 62
     7
100
AcDbCircle
 10
81.2495793477
 20
154.420395777
 30
0.0
 40
0.55
  0
CIRCLE
  5
382
330
22
100
AcDbEntity
  8
0
  6
Continuous
 62
     7
100
AcDbCircle
 10
83.30018901310001
 20
156.4710054424
 30
0.0
 40
0.55
  0
CIRCLE
  5
383
330
22
100
AcDbEntity
  8
0
  6
Continuous
 62
     7
100
AcDbCircle
 10
79.1989696822
 20
156.4710054424
 30
0.0
 40
0.55
  0
CIRCLE
  5
384
330
22
100
AcDbEntity
  8
0
  6
Continuous
 62
     7
100
AcDbCircle
 10
83.30018901310001
 20
152.3697861115
 30
0.0
 40
0.55
  0
CIRCLE
  5
385
330
22
100
AcDbEntity
  8
0
  6
Continuous
 62
     7
100
AcDbCircle
 10
79.1989696822
 20
152.3697861115
 30
0.0
 40
0.55
  0
ARC
  5
386
330
22
100
AcDbEntity
  8
0
  6
Continuous
 62
     7
100
AcDbCircle
 10
81.2495793477
 20
154.420395777
 30
0.0
 40
3.9
100
AcDbArc
 50
98.8137522797
 51
81.18624772030001
  0
ARC
  5
387
330
22
100
AcDbEntity
  8
0
  6
Continuous
 62
     9
100
AcDbCircle
 10
81.2495793477
 20
154.420395777
 30
0.0
 40
3.7
100
AcDbArc
 50
174.2497896165
 51
185.740377509
  0
ARC
  5
388
330
22
100
AcDbEntity
  8
0
  6
Continuous
 62
     9
100
AcDbCircle
 10
77.7671233178
 20
154.070395777
 30
0.0
 40
0.2
100
AcDbArc
 50
185.7615012581999
 51
270.0
  0
ARC
  5
389
330
22
100
AcDbEntity
  8
0
  6
Continuous
 62
     9
100
AcDbCircle
 10
79.7995793477
 20
152.970395777
 30
0.0
 40
0.8999998095
100
AcDbArc
 50
0.0
 51
90.0
  0
ARC
  5
38A
330
22
100
AcDbEntity
  8
0
  6
Continuous
 62
     9
100
AcDbCircle
 10
80.8995793477
 20
150.9379397471
 30
0.0
 40
0.2
100
AcDbArc
 50
180.0
 51
264.0565316854
  0
ARC
  5
38B
330
22
100
AcDbEntity
  8
0
  6
Continuous
 62
     9
100
AcDbCircle
 10
81.2495793477
 20
154.420395777
 30
0.0
 40
3.7
100
AcDbArc
 50
264.2497896165
 51
275.7403775090001
  0
ARC
  5
38C
330
22
100
AcDbEntity
  8
0
  6
Continuous
 62
     9
100
AcDbCircle
 10
81.5995793477
 20
150.9379397471
 30
0.0
 40
0.2
100
AcDbArc
 50
275.7615012582
 51
0.0
  0
ARC
  5
38D
330
22
100
AcDbEntity
  8
0
  6
Continuous
 62
     9
100
AcDbCircle
 10
82.69957934770001
 20
152.970395777
 30
0.0
 40
0.8999998431999999
100
AcDbArc
 50
90.0
 51
180.0
  0
ARC
  5
38E
330
22
100
AcDbEntity
  8
0
  6
Continuous
 62
     9
100
AcDbCircle
 10
81.2495793477
 20
158.320395777
 30
0.0
 40
0.6
100
AcDbArc
 50
221.4097133327
 51
318.5906225159
  0
ARC
  5
38F
330
22
100
AcDbEntity
  8
0
  6
Continuous
 62
     9
100
AcDbCircle
 10
84.7320353775
 20
154.070395777
 30
0.0
 40
0.2
100
AcDbArc
 50
270.0
 51
354.2387918401
  0
CIRCLE
  5
390
330
22
100
AcDbEntity
  8
0
  6
Continuous
 62
     9
100
AcDbCircle
 10
81.2495793477
 20
154.420395777
 30
0.0
 40
0.6499966187
  0
ARC
  5
391
330
22
100
AcDbEntity
  8
0
  6
Continuous
 62
     9
100
AcDbCircle
 10
81.2495793477
 20
154.420395777
 30
0.0
 40
3.7
100
AcDbArc
 50
354.2596383346
 51
5.750613969399999
  0
ARC
  5
392
330
22
100
AcDbEntity
  8
0
  6
Continuous
 62
     9
100
AcDbCircle
 10
84.7320353775
 20
154.770395777
 30
0.0
 40
0.2
100
AcDbArc
 50
5.950936656699999
 51
90.0
  0
ARC
  5
393
330
22
100
AcDbEntity
  8
0
  6
Continuous
 62
     9
100
AcDbCircle
 10
82.69957934770001
 20
155.870395777
 30
0.0
 40
0.8999998095
100
AcDbArc
 50
180.0
 51
270.0
  0
ARC
  5
394
330
22
100
AcDbEntity
  8
0
  6
Continuous
 62
     9
100
AcDbCircle
 10
79.7995793477
 20
155.870395777
 30
0.0
 40
0.8999998431999999
100
AcDbArc
 50
270.0
 51
0.0
  0
CIRCLE
  5
395
330
22
100
AcDbEntity
  8
0
  6
Continuous
 62
     9
100
AcDbCircle
 10
83.30018901310001
 20
156.4710054424
 30
0.0
 40
0.6499966187
  0
CIRCLE
  5
396
330
22
100
AcDbEntity
  8
0
  6
Continuous
 62
     9
100
AcDbCircle
 10
83.30018901310001
 20
152.3697861115
 30
0.0
 40
0.6499966187
  0
CIRCLE
  5
397
330
22
100
AcDbEntity
  8
0
  6
Continuous
 62
     9
100
AcDbCircle
 10
79.1989696822
 20
156.4710054424
 30
0.0
 40
0.6499966187
  0
CIRCLE
  5
398
330
22
100
AcDbEntity
  8
0
  6
Continuous
 62
     9
100
AcDbCircle
 10
79.1989696822
 20
152.3697861115
 30
0.0
 40
0.6499966187
  0
ARC
  5
399
330
22
100
AcDbEntity
  8
0
  6
Continuous
 62
     9
100
AcDbCircle
 10
77.7671233178
 20
154.770395777
 30
0.0
 40
0.2
100
AcDbArc
 50
90.0
 51
174.0565316854
  0
ARC
  5
39A
330
22
100
AcDbEntity
  8
0
  6
Continuous
 62
     9
100
AcDbCircle
 10
81.2495793477
 20
154.420395777
 30
0.0
 40
3.799999999999999
100
AcDbArc
 50
97.2959883494
 51
82.7040280381
  0
ARC
  5
39B
330
22
100
AcDbEntity
  8
0
  6
Continuous
 62
     7
100
AcDbCircle
 10
29.32144977
 20
181.820395777
 30
0.0
 40
2.0
100
AcDbArc
 50
94.91199704299997
 51
179.0
  0
ARC
  5
39C
330
22
100
AcDbEntity
  8
0
  6
Continuous
 62
     7
100
AcDbCircle
 10
155.1777089254
 20
181.820395777
 30
0.0
 40
2.0
100
AcDbArc
 50
1.0
 51
85.088002957
  0
ARC
  5
39D
330
22
100
AcDbEntity
  8
0
  6
Continuous
 62
     7
100
AcDbCircle
 10
155.2495475289999
 20
134.220395777
 30
0.0
 40
2.0
100
AcDbArc
 50
270.0009115382
 51
0.0
  0
ARC
  5
39E
330
22
100
AcDbEntity
  8
0
  6
Continuous
 62
     7
100
AcDbCircle
 10
29.2495793477
 20
134.220395777
 30
0.0
 40
2.0
100
AcDbArc
 50
180.0
 51
270.0
  0
CIRCLE
  5
39F
330
22
100
AcDbEntity
  8
0
  6
Continuous
 62
     7
100
AcDbCircle
 10
59.2495793477
 20
154.420395777
 30
0.0
 40
8.5
  0
CIRCLE
  5
3A0
330
22
100
AcDbEntity
  8
0
  6
Continuous
 62
     7
100
AcDbCircle
 10
81.2495793477
 20
154.420395777
 30
0.0
 40
8.5
  0
CIRCLE
  5
3A1
330
22
100
AcDbEntity
  8
0
  6
Continuous
 62
     7
100
AcDbCircle
 10
103.2495793477
 20
154.420395777
 30
0.0
 40
8.5
  0
CIRCLE
  5
3A2
330
22
100
AcDbEntity
  8
0
  6
Continuous
 62
     7
100
AcDbCircle
 10
125.2495793477
 20
154.420395777
 30
0.0
 40
8.5
  0
ENDSEC
  0
SECTION
  2
OBJECTS
  0
DICTIONARY
  5
C
330
0
100
AcDbDictionary
281
     1
  3
ACAD_COLOR
350
1B
  3
ACAD_GROUP
350
D
  3
ACAD_LAYOUT
350
19
  3
ACAD_MATERIAL
350
1A
  3
ACAD_MLINESTYLE
350
16
  3
ACAD_PLOTSETTINGS
350
18
  3
ACAD_PLOTSTYLENAME
350
E
  3
ACAD_TABLESTYLE
350
1C
  3
AcDbVariableDictionary
350
3A6
  0
DICTIONARY
  5
1B
102
{ACAD_REACTORS
330
C
102
}
330
C
100
AcDbDictionary
281
     1
  0
DICTIONARY
  5
D
102
{ACAD_REACTORS
330
C
102
}
330
C
100
AcDbDictionary
281
     1
  0
DICTIONARY
  5
19
102
{ACAD_REACTORS
330
C
102
}
330
C
100
AcDbDictionary
281
     1
  3
Model
350
25
  3
Présentation1
350
21
  0
DICTIONARY
  5
1A
102
{ACAD_REACTORS
330
C
102
}
330
C
100
AcDbDictionary
281
     1
  0
DICTIONARY
  5
16
102
{ACAD_REACTORS
330
C
102
}
330
C
100
AcDbDictionary
281
     1
  3
Standard
350
17
  0
DICTIONARY
  5
18
102
{ACAD_REACTORS
330
C
102
}
330
C
100
AcDbDictionary
281
     1
  0
ACDBDICTIONARYWDFLT
  5
E
102
{ACAD_REACTORS
330
C
102
}
330
C
100
AcDbDictionary
281
     1
  3
Normal
350
F
100
AcDbDictionaryWithDefault
340
F
  0
DICTIONARY
  5
1C
102
{ACAD_REACTORS
330
C
102
}
330
C
100
AcDbDictionary
281
     1
  3
Standard
350
1D
  0
DICTIONARY
  5
3A6
102
{ACAD_REACTORS
330
C
102
}
330
C
100
AcDbDictionary
281
     1
  3
CTABLESTYLE
350
3A7
  0
LAYOUT
  5
25
102
{ACAD_REACTORS
330
19
102
}
330
19
100
AcDbPlotSettings
  1

  2
Lexmark W820 Multi-Fonctions
  4

  6

 40
0.0
 41
0.0
 42
0.0
 43
0.0
 44
0.0
 45
0.0
 46
0.0
 47
0.0
 48
0.0
 49
0.0
140
0.0
141
0.0
142
1.0
143
1.0
 70
  1712
 72
     0
 73
     0
 74
     0
  7

 75
     0
147
1.0
 76
     0
 77
     2
 78
   300
148
0.0
149
0.0
100
AcDbLayout
  1
Model
 70
     1
 71
     0
 10
0.0
 20
0.0
 11
12.0
 21
9.0
 12
0.0
 22
0.0
 32
0.0
 14
0.0
 24
0.0
 34
0.0
 15
0.0
 25
0.0
 35
0.0
146
0.0
 13
0.0
 23
0.0
 33
0.0
 16
1.0
 26
0.0
 36
0.0
 17
0.0
 27
1.0
 37
0.0
 76
     0
330
22
  0
LAYOUT
  5
21
102
{ACAD_REACTORS
330
19
102
}
330
19
100
AcDbPlotSettings
  1

  2
Lexmark W820 Multi-Fonctions
  4

  6

 40
0.0
 41
0.0
 42
0.0
 43
0.0
 44
0.0
 45
0.0
 46
0.0
 47
0.0
 48
0.0
 49
0.0
140
0.0
141
0.0
142
1.0
143
1.0
 70
   688
 72
     0
 73
     0
 74
     5
  7

 75
    16
147
1.0
 76
     0
 77
     2
 78
   300
148
0.0
149
0.0
100
AcDbLayout
  1
Présentation1
 70
     1
 71
     1
 10
0.0
 20
0.0
 11
12.0
 21
9.0
 12
0.0
 22
0.0
 32
0.0
 14
1.000000000000000E+20
 24
1.000000000000000E+20
 34
1.000000000000000E+20
 15
-1.000000000000000E+20
 25
-1.000000000000000E+20
 35
-1.000000000000000E+20
146
0.0
 13
0.0
 23
0.0
 33
0.0
 16
1.0
 26
0.0
 36
0.0
 17
0.0
 27
1.0
 37
0.0
 76
     0
330
1E
  0
MLINESTYLE
  5
17
102
{ACAD_REACTORS
330
16
102
}
330
16
100
AcDbMlineStyle
  2
STANDARD
 70
     0
  3

 62
   256
 51
90.0
 52
90.0
 71
     2
 49
0.5
 62
   256
  6
BYLAYER
 49
-0.5
 62
   256
  6
BYLAYER
  0
ACDBPLACEHOLDER
  5
F
102
{ACAD_REACTORS
330
E
102
}
330
E
  0
TABLESTYLE
  5
1D
102
{ACAD_REACTORS
330
1C
102
}
330
1C
100
AcDbTableStyle
  3
Standard
 70
     0
 71
     0
 40
0.06
 41
0.06
280
     0
281
     0
  7
Standard
140
0.18
170
     2
 62
     0
 63
     7
283
     0
274
    -2
284
     1
 64
     0
275
    -2
285
     1
 65
     0
276
    -2
286
     1
 66
     0
277
    -2
287
     1
 67
     0
278
    -2
288
     1
 68
     0
279
    -2
289
     1
 69
     0
  7
Standard
140
0.25
170
     5
 62
     0
 63
     7
283
     0
274
    -2
284
     1
 64
     0
275
    -2
285
     1
 65
     0
276
    -2
286
     1
 66
     0
277
    -2
287
     1
 67
     0
278
    -2
288
     1
 68
     0
279
    -2
289
     1
 69
     0
  7
Standard
140
0.18
170
     5
 62
     0
 63
     7
283
     0
274
    -2
284
     1
 64
     0
275
    -2
285
     1
 65
     0
276
    -2
286
     1
 66
     0
277
    -2
287
     1
 67
     0
278
    -2
288
     1
 68
     0
279
    -2
289
     1
 69
     0
  0
DICTIONARYVAR
  5
3A7
102
{ACAD_REACTORS
330
3A6
102
}
330
3A6
100
DictionaryVariables
280
     0
  1
STANDARD
  0
ENDSEC
  0
EOF
